osu file format v14

[General]
AudioFilename: audio.mp3
AudioLeadIn: 0
PreviewTime: 65863
Countdown: 0
SampleSet: Normal
StackLeniency: 0.7
Mode: 0
LetterboxInBreaks: 0
WidescreenStoryboard: 0

[Editor]
Bookmarks: 40422,66304,99245,118069,143951,167480,191010,209833,233363
DistanceSpacing: 0.2
BeatDivisor: 8
GridSize: 4
TimelineZoom: 2.6

[Metadata]
Title:Kamisama no Syndrome
TitleUnicode:神様のシンドローム
Artist:Ayane
ArtistUnicode:彩音
Creator:Kalibe
Version:Kalistar's Truth
Source:ひぐらしのなく頃に 業
Tags:rock full version irohas mugiwarasekai gillstar collaboration higurashi no naku koro ni gou 2020 when the cicadas cry anime ending ed 07th expansion japanese god god's
BeatmapID:2686261
BeatmapSetID:1294539

[Difficulty]
HPDrainRate:6
CircleSize:4
OverallDifficulty:8
ApproachRate:9
SliderMultiplier:3.1
SliderTickRate:1

[Events]
//Background and Video events
0,0,"rikaaa.jpg",0,0
//Break Periods
//Storyboard Layer 0 (Background)
//Storyboard Layer 1 (Fail)
//Storyboard Layer 2 (Pass)
//Storyboard Layer 3 (Foreground)
//Storyboard Layer 4 (Overlay)
//Storyboard Sound Samples

[TimingPoints]
422,588.235294117647,4,2,4,30,1,0
8951,-250,4,2,4,30,0,0
11010,-333.333333333333,4,1,4,40,0,0
12186,-125,4,1,1,50,0,0
19980,-100,4,1,1,50,0,0
20274,-250,4,1,1,50,0,0
20716,-400,4,1,4,50,0,0
21598,-250,4,1,1,50,0,0
30421,-400,4,1,1,50,0,0
30863,-100,4,1,1,50,0,0
31010,-200,4,1,1,50,0,0
40127,-125,4,1,1,50,0,0
40274,-125,4,1,4,20,0,0
40421,-125,4,1,1,55,0,0
59245,-125,4,1,1,60,0,0
61598,-125,4,1,1,65,0,0
64833,-166.666666666667,4,1,1,60,0,0
65716,-100,4,1,1,60,0,0
66304,-90.9090909090909,4,1,3,75,0,0
66341,-90.9090909090909,4,1,1,75,0,0
74833,-90.9090909090909,4,1,4,75,0,0
75127,-90.9090909090909,4,1,1,75,0,0
75421,-153.846153846153,4,1,1,75,0,0
75716,-90.9090909090909,4,1,1,75,0,0
88804,-181.818181818181,4,1,1,55,0,0
98363,-250,4,1,1,60,0,0
98399,-250,4,1,2,25,0,0
98657,-250,4,1,2,50,0,0
99098,-250,4,2,1,60,0,0
99245,-200,4,2,1,45,0,0
108510,-100,4,2,1,65,0,0
108657,-200,4,2,1,55,0,0
117774,-333.333333333334,4,2,1,40,0,0
117995,-333.333333333334,4,2,1,5,0,0
118069,-125,4,2,1,60,0,0
119833,-100,4,2,1,60,0,0
119980,-125,4,2,1,60,0,0
142774,-86.9565217391304,4,2,1,80,0,0
143951,-90.9090909090909,4,1,3,75,0,0
143988,-90.9090909090909,4,1,1,75,0,0
152480,-90.9090909090909,4,1,4,75,0,0
152774,-90.9090909090909,4,1,1,75,0,0
167921,-100,4,1,1,70,0,0
176892,-100,4,1,3,75,0,0
176929,-100,4,1,1,75,0,0
180274,-153.846153846153,4,1,1,75,0,0
180569,-76.9230769230769,4,1,1,75,0,0
180863,-125,4,1,1,75,0,0
181304,-83.3333333333333,4,1,1,75,0,0
181598,-100,4,1,1,75,0,0
183363,-80,4,1,1,75,0,0
183657,-133.333333333333,4,1,1,75,0,0
183951,-100,4,1,1,75,0,0
189539,-100,4,1,1,65,0,0
189833,-100,4,1,1,60,0,0
190863,-100,4,1,1,40,0,0
191010,-100,4,1,3,40,0,0
191046,-100,4,2,1,40,0,0
193363,-100,4,2,4,50,0,0
208730,-100,4,2,4,80,0,0
209245,-100,4,2,1,45,0,0
209539,-100,4,2,1,55,0,0
209686,-100,4,2,1,65,0,0
209833,-90.9090909090909,4,1,3,75,0,0
209870,-90.9090909090909,4,1,1,75,0,0
232039,-90.9090909090909,4,1,1,63,0,0
232076,-90.9090909090909,4,1,1,50,0,0
232480,-181.818181818181,4,1,1,50,0,0
233363,-125,4,1,1,50,0,0
250863,-100,4,2,4,45,0,0
250899,-100,4,2,4,30,0,0
251157,-100,4,2,4,15,0,0
251304,-200,4,2,4,30,0,0
251341,-200,4,2,1,10,0,0
251598,-200,4,2,4,30,0,0
251635,-200,4,2,1,10,0,0
251892,-200,4,2,4,30,0,0

[Colours]
Combo1 : 95,193,89
Combo2 : 184,148,205
Combo3 : 206,239,143
Combo4 : 237,194,163

[HitObjects]
256,192,422,12,2,2774,1:2:0:0:
105,37,3069,5,0,2:0:0:0:
105,37,3216,1,0,2:0:0:0:
108,100,3510,1,0,2:0:0:0:
113,169,3804,1,0,2:0:0:0:
251,357,4245,5,0,2:2:0:0:
249,325,4539,1,0,2:2:0:0:
258,372,4833,1,2,0:2:0:0:
467,223,5127,5,2,0:2:0:0:
405,210,5421,1,0,2:0:0:0:
400,228,5569,1,0,2:0:0:0:
334,247,5863,1,0,2:0:0:0:
259,265,6157,1,0,2:0:0:0:
100,319,6598,5,0,0:0:0:0:
56,309,6745,1,0,0:0:0:0:
19,300,6892,1,2,2:3:0:0:
163,369,7186,5,2,0:2:0:0:
352,296,7480,5,2,0:2:0:0:
369,224,7774,1,0,2:0:0:0:
336,214,7921,1,0,2:0:0:0:
320,144,8216,1,0,2:0:0:0:
391,124,8510,1,0,2:0:0:0:
407,94,8951,5,0,2:2:0:0:
314,68,9245,1,0,2:0:0:0:
190,14,9539,5,2,0:2:0:0:
190,14,9637,1,2,0:2:0:0:
190,14,9735,1,2,0:2:0:0:
190,14,9833,2,0,L|124:30,1,62,6|0,1:2|2:0,0:0:0:0:
87,71,10274,2,0,L|23:52,1,62
27,53,10863,1,0,2:0:0:0:
53,138,11010,6,0,L|56:191,1,46.4999985809327,2|0,0:2|2:0,0:0:0:0:
257,361,11598,5,2,2:0:0:0:
238,309,11696,5,2,2:0:0:0:
246,264,11794,5,2,2:0:0:0:
266,240,11892,5,2,2:0:0:0:
274,211,11990,5,2,2:0:0:0:
264,194,12088,5,2,2:0:0:0:
219,183,12186,6,0,P|259:187|342:207,1,124,6|0,1:0|0:0,0:0:0:0:
400,157,12627,2,0,B|424:238|436:190|462:276,1,124
512,320,13069,1,0,0:0:0:0:
338,372,13216,6,0,P|354:333|362:243,1,124,2|0,3:0|0:0,0:0:0:0:
292,229,13657,2,0,P|275:256|241:287,1,62,2|0,0:2|3:0,0:0:0:0:
181,294,13951,1,0,0:0:0:0:
232,348,14098,1,0,3:0:0:0:
123,325,14245,1,2,3:0:0:0:
19,362,14392,1,0,0:0:0:0:
44,256,14539,6,0,P|52:232|-18:168,1,124,2|0,0:2|0:0,0:0:0:0:
121,47,14980,2,0,P|114:60|106:120,1,62,0|8,0:0|0:3,0:0:0:0:
164,157,15274,2,0,P|178:130|202:103,1,62,2|0,0:2|2:0,0:0:0:0:
49,251,15569,2,0,P|77:250|188:304,1,124,2|8,0:3|3:0,0:0:0:0:
258,360,16010,1,2,2:0:0:0:
299,343,16304,5,0,0:0:0:0:
259,285,16451,1,0,2:0:0:0:
203,330,16598,1,8,3:0:0:0:
249,383,16745,1,0,3:1:0:0:
332,269,16892,2,0,P|341:244|327:136,1,124,4|0,0:0|0:0,0:0:0:0:
420,187,17333,6,0,P|439:203|462:241,1,62,0|8,0:0|0:3,0:0:0:0:
377,84,17627,2,0,P|351:66|317:56,1,62,2|0,2:0|2:0,0:0:0:0:
224,103,17921,2,0,B|150:97|180:123|102:111,1,124,2|0,0:0|0:0,0:0:0:0:
122,193,18363,1,2,0:0:0:0:
33,228,18510,1,8,3:0:0:0:
235,178,18657,5,8,3:0:0:0:
311,384,18951,1,8,3:0:0:0:
481,245,19245,6,0,L|357:275,1,124,2|0,0:2|0:0,0:0:0:0:
440,280,19686,2,0,L|525:298,1,62,0|8,2:2|0:3,0:0:0:0:
304,189,19980,6,0,P|307:149|317:94,1,77.5,2|0,0:2|0:0,0:0:0:0:
100,257,20274,6,0,P|60:274|0:296,1,93,2|0,0:0|2:0,0:0:0:0:
23,345,21010,6,0,P|35:329|45:313,1,38.75,0|0,2:0|2:0,2:0:0:0:
184,25,21598,5,4,3:2:0:0:
214,56,21892,5,0,2:0:0:0:
285,35,22039,1,0,0:0:0:0:
356,72,22186,2,0,P|352:91|339:140,1,62,8|0,0:0|0:0,0:0:0:0:
409,197,22627,2,0,P|422:169|434:140,1,62,0|0,2:0|2:0,0:0:0:0:
499,103,23069,1,0,2:0:0:0:
499,103,23216,1,0,3:0:0:0:
406,54,23363,1,8,1:3:0:0:
381,62,23657,1,2,2:0:0:0:
267,121,23804,5,0,0:0:0:0:
267,121,23951,2,0,P|236:125|206:133,1,62,0|0,0:0|2:0,0:0:0:0:
135,139,24392,1,0,0:0:0:0:
206,167,24539,1,0,0:0:0:0:
253,210,24686,1,0,0:0:0:0:
324,243,24833,1,8,0:0:0:0:
344,236,24980,5,2,3:2:0:0:
244,319,25421,1,0,2:0:0:0:
109,228,25716,1,12,3:3:0:0:
193,372,26010,1,0,0:0:0:0:
193,372,26157,1,0,0:0:0:0:
115,348,26304,6,0,L|47:359,1,62,0|0,3:0|2:0,0:0:0:0:
208,290,26745,1,0,0:0:0:0:
296,318,26892,1,8,0:0:0:0:
364,296,27039,1,0,0:0:0:0:
405,307,27186,1,0,3:0:0:0:
429,296,27333,2,0,P|430:282|419:181,1,93,0|0,2:0|2:0,0:0:0:0:
444,203,27921,1,0,0:0:0:0:
476,185,28069,1,8,0:3:0:0:
495,68,28363,5,2,2:0:0:0:
495,68,28510,2,0,L|487:10,1,31,0|0,2:0|0:0,0:0:0:0:
416,47,28951,1,0,2:0:0:0:
361,59,29098,1,0,0:0:0:0:
290,55,29245,1,8,0:0:0:0:
219,34,29392,1,0,0:0:0:0:
147,56,29539,2,0,P|138:97|128:144,1,62,0|2,0:0|0:2,0:0:0:0:
95,151,30127,5,0,0:0:0:0:
179,243,30274,1,0,0:0:0:0:
26,303,30421,2,0,L|36:260,1,38.75,8|0,0:3|2:0,0:0:0:0:
111,225,30863,6,2,L|149:214,2,38.75,2|2|6,2:0|2:0|2:0,2:0:0:0:
58,293,31304,5,0,2:0:0:0:
138,341,31451,1,0,0:0:0:0:
221,302,31598,2,0,P|253:305|307:318,1,77.5,8|0,0:0|0:0,0:0:0:0:
326,247,32039,2,0,P|353:240|414:233,1,77.5,0|0,2:0|2:0,0:0:0:0:
378,165,32480,2,0,P|386:144|402:119,1,38.75,0|0,2:0|0:0,0:0:0:0:
481,64,32774,1,8,0:3:0:0:
464,152,33069,5,0,0:0:0:0:
381,100,33216,1,0,0:0:0:0:
381,100,33363,2,0,L|398:10,1,77.5,2|0,0:2|2:0,0:0:0:0:
332,2,33804,1,0,0:0:0:0:
248,46,33951,2,0,L|259:88,1,38.75,8|0,0:0|0:0,0:0:0:0:
204,115,34245,1,0,3:0:0:0:
121,93,34392,2,0,P|84:99|43:111,1,77.5,4|0,0:3|0:0,0:0:0:0:
16,146,34833,2,0,P|22:163|36:232,2,77.5,0|8|0,2:0|0:3|2:0,0:0:0:0:
103,357,35716,1,0,3:0:0:0:
141,334,36010,5,0,2:0:0:0:
74,285,36157,1,0,0:0:0:0:
157,241,36304,2,0,L|199:231,1,38.75,8|0,0:0|2:0,0:0:0:0:
289,199,36598,5,0,0:0:0:0:
274,179,36745,2,0,P|293:187|348:221,1,77.5,0|0,2:0|2:0,0:0:0:0:
415,202,37186,2,0,P|424:219|429:237,1,38.75
500,323,37480,1,8,0:3:0:0:
417,244,37774,5,2,0:2:0:0:
399,172,37921,2,0,P|404:152|418:132,1,38.75,0|2,2:0|1:2,0:0:0:0:
509,165,38363,6,0,B|419:189|284:134|365:120|210:68|133:98,1,387.5,0|0,2:0|2:0,0:0:0:0:
106,136,40127,6,0,P|134:125|162:109,1,62,0|0,0:0|2:0,0:0:0:0:
228,10,40421,6,0,B|342:7|285:55|424:50,1,186,6|0,0:0|3:0,0:0:0:0:
241,87,41010,2,0,P|253:133|278:178,1,62,8|0,0:0|2:0,0:0:0:0:
400,217,41304,2,0,P|474:202|478:143,1,124,4|0,0:3|2:0,0:0:0:0:
424,107,41745,5,0,0:0:0:0:
352,149,41892,1,0,3:0:0:0:
382,224,42039,1,0,0:0:0:0:
500,273,42186,6,0,L|430:291,1,62,8|0,0:0|2:0,0:0:0:0:
321,366,42480,2,0,B|303:373|303:373|253:360,1,62,0|0,0:0|2:0,0:0:0:0:
146,279,42774,2,0,B|91:208|-31:250|-6:300|54:293,1,186,0|0,3:0|3:0,0:0:0:0:
50,356,43363,6,0,P|39:306|20:270,1,62,8|0,0:0|2:0,0:0:0:0:
129,372,43657,2,0,P|219:352|253:351,1,124,4|0,0:3|2:0,0:0:0:0:
148,285,44098,5,8,0:0:0:0:
93,212,44245,1,0,3:0:0:0:
68,196,44392,1,0,3:0:0:0:
12,118,44539,6,0,P|4:51|63:40,1,124,8|0,0:0|0:0,0:0:0:0:
5,135,44980,1,8,0:3:0:0:
142,26,45127,2,0,P|150:93|91:104,1,124,2|0,0:2|2:0,0:0:0:0:
0,221,45569,5,0,3:0:0:0:
93,181,45716,1,8,0:0:0:0:
22,144,45863,1,0,2:0:0:0:
88,258,46010,5,0,3:0:0:0:
187,214,46157,1,2,0:2:0:0:
246,124,46304,6,0,P|282:134|325:145,1,62,0|0,2:0|0:0,0:0:0:0:
455,62,46598,2,0,P|425:70|395:78,1,62,4|0,3:0|0:0,0:0:0:0:
301,255,46892,6,0,P|303:192|386:185,1,124,8|0,0:0|2:0,0:0:0:0:
436,194,47333,1,0,2:2:0:0:
414,377,47480,6,0,P|394:318|382:257,1,124,2|0,0:2|2:2,0:0:0:0:
443,300,47921,1,0,3:0:0:0:
323,364,48069,1,8,0:0:0:0:
0,241,48363,6,0,B|111:216|64:274|200:242,1,186,6|8,0:3|0:0,0:0:0:0:
73,321,48951,1,0,3:0:0:0:
180,370,49098,2,0,L|219:382,2,31,0|0|8,3:0|3:3|0:0,0:0:0:0:
57,321,49392,5,8,1:3:0:0:
156,286,49539,1,0,3:3:0:0:
302,369,49686,1,0,3:3:0:0:
344,231,49833,6,0,P|283:241|271:304,1,124,6|0,0:0|2:0,0:0:0:0:
440,358,50274,2,0,P|474:367|511:378,1,62,0|8,3:0|0:0,0:0:0:0:
424,357,50569,1,0,2:0:0:0:
512,266,50716,6,0,P|428:306|338:328,1,186,6|0,0:3|0:0,0:0:0:0:
328,330,51304,1,0,3:0:0:0:
272,255,51451,1,2,0:2:0:0:
148,294,51598,1,8,0:0:0:0:
332,165,51892,6,0,P|368:178|398:185,1,62,4|0,0:3|2:0,0:0:0:0:
474,175,52186,2,0,P|495:126|391:98,1,186,4|0,0:2|0:0,0:0:0:0:
241,40,52774,2,0,P|205:53|175:60,1,62,8|0,0:0|2:0,0:0:0:0:
1,191,53069,2,0,B|35:208|35:208|131:181,1,124,4|0,0:3|2:0,0:0:0:0:
137,178,53510,6,0,L|207:196,1,62,8|0,0:0|3:0,0:0:0:0:
357,366,53951,1,8,0:0:0:0:
314,291,54098,1,8,0:3:0:0:
209,263,54245,1,6,0:3:0:0:
110,291,54392,1,8,0:0:0:0:
12,374,54539,5,6,3:1:0:0:
86,199,54980,1,8,3:0:0:0:
26,21,55421,1,8,3:0:0:0:
97,65,55716,5,6,3:1:0:0:
0,264,56157,1,8,3:0:0:0:
252,325,56598,1,8,3:0:0:0:
202,253,56892,6,0,P|144:255|119:319,1,124,6|0,0:2|2:0,0:0:0:0:
177,370,57333,1,0,3:0:0:0:
269,315,57480,2,0,P|307:323|339:335,1,62,8|0,0:0|2:0,0:0:0:0:
408,366,57774,6,0,P|475:355|437:247,1,186,2|0,0:3|2:0,0:0:0:0:
470,247,58363,6,0,P|458:266|447:308,1,62,0|0,0:0|2:0,0:0:0:0:
354,240,58657,2,0,B|430:231|401:259|485:235,1,124,8|6,0:0|2:2,0:0:0:0:
373,154,59098,1,8,0:0:0:0:
492,77,59245,6,0,L|426:97,1,62,4|0,1:0|2:0,0:0:0:0:
365,145,59539,1,0,3:0:0:0:
462,166,59686,2,0,L|440:97,1,62,2|8,0:0|0:0,0:0:0:0:
315,14,59980,2,0,L|190:41,1,124,2|0,0:2|0:3,0:0:0:0:
3,170,60421,6,0,P|5:128|89:113,1,124,2|8,0:2|0:3,0:0:0:0:
89,111,60863,2,0,P|95:141|106:170,1,62,0|8,2:0|0:0,0:0:0:0:
168,233,61157,2,0,P|178:203|185:173,1,62,0|8,2:0|0:3,0:0:0:0:
154,32,61451,1,2,2:0:0:0:
283,29,61598,6,0,L|416:55,1,124,4|8,0:2|0:3,0:0:0:0:
298,111,62039,1,0,0:0:0:0:
403,185,62186,1,8,0:0:0:0:
386,106,62333,1,2,2:0:0:0:
285,193,62480,2,0,P|277:226|258:265,1,62,0|8,3:0|0:3,0:0:0:0:
189,369,62774,6,0,P|166:336|274:285,1,186,4|0,0:2|3:0,0:0:0:0:
344,349,63363,2,0,L|417:327,1,62,8|0,0:0|0:0,0:0:0:0:
466,241,63657,6,0,L|480:210,1,31,2|0,0:3|2:0,0:0:0:0:
454,189,63804,2,0,L|477:232,1,31,2|0,0:3|2:0,0:0:0:0:
505,206,63951,5,6,0:2:0:0:
263,273,64392,1,2,2:0:0:0:
339,11,64833,6,0,P|345:33|353:55,1,46.4999985809327,0|0,2:0|0:0,0:0:0:0:
398,116,65127,1,6,0:2:0:0:
323,88,65274,1,2,2:0:0:0:
252,26,65421,5,4,0:3:0:0:
104,86,65569,1,4,0:3:0:0:
133,244,65716,6,0,P|195:210|153:118,1,155,8|0,0:0|2:0,0:0:0:0:
115,258,66157,1,4,0:2:0:0:
112,70,66304,6,0,P|44:50|9:147,1,170.500005203247,6|0,0:1|2:0,0:0:0:0:
11,194,66745,1,0,0:0:0:0:
146,147,66892,2,0,B|186:154|186:154|239:173,1,85.2500026016236,8|0,0:0|2:0,0:0:0:0:
392,299,67186,1,0,1:3:0:0:
392,299,67333,2,0,P|401:274|382:124,1,170.500005203247,8|8,0:3|0:0,0:0:0:0:
266,179,67774,6,0,P|239:190|160:212,1,85.2500026016236,2|0,1:2|2:0,0:0:0:0:
304,312,68069,2,0,P|314:279|340:218,1,85.2500026016236,8|0,0:0|2:0,0:0:0:0:
170,292,68363,2,0,P|190:310|232:365,1,85.2500026016236,2|0,0:2|3:0,0:0:0:0:
232,224,68657,6,0,P|203:193|269:90,1,170.500005203247,4|2,3:2|0:2,0:0:0:0:
164,32,69098,1,0,0:0:0:0:
19,143,69245,2,0,P|10:116|2:33,1,85.2500026016236,8|0,0:0|2:0,0:0:0:0:
265,44,69539,5,2,0:3:0:0:
172,113,69686,2,0,P|152:114|96:80,1,85.2500026016236,8|0,0:0|2:0,0:0:0:0:
170,250,69980,1,8,0:0:0:0:
258,141,70127,2,0,B|235:250|207:185|180:327,2,170.500005203247,2|10|0,0:2|0:0|2:0,0:0:0:0:
393,210,70863,1,8,0:0:0:0:
262,241,71010,6,0,B|317:231|317:231|362:245|362:245|440:232,1,170.500005203247,4|8,0:0|0:3,0:0:0:0:
512,291,71451,1,0,3:0:0:0:
363,331,71598,2,0,L|262:312,1,85.2500026016236,8|0,0:0|0:0,0:0:0:0:
60,224,71892,5,2,0:2:0:0:
42,153,72039,2,0,P|62:145|171:237,1,170.500005203247,8|8,0:0|0:0,0:0:0:0:
125,281,72480,2,0,P|134:249|135:112,1,170.500005203247,0|8,3:0|0:0,0:0:0:0:
7,41,72921,1,0,0:0:0:0:
85,52,73069,1,2,0:3:0:0:
157,32,73216,1,2,0:2:0:0:
282,129,73363,5,4,0:2:0:0:
314,69,73510,2,0,L|406:88,1,85.2500026016236,8|8,0:0|0:3,0:0:0:0:
475,258,73804,5,0,0:0:0:0:
371,168,73951,1,8,0:0:0:0:
414,307,74098,1,0,3:0:0:0:
445,181,74245,5,6,0:2:0:0:
347,239,74392,2,0,B|247:199|253:272|151:245,1,170.500005203247,8|8,0:0|0:0,0:0:0:0:
79,211,74833,1,2,2:0:0:0:
67,218,74907,1,2,2:0:0:0:
53,213,74980,1,2,2:0:0:0:
42,221,75054,1,2,2:0:0:0:
42,221,75127,5,8,1:0:0:0:
173,161,75274,1,8,0:0:0:0:
256,269,75421,2,0,L|266:329,1,50.3749976940156,0|0,3:0|3:0,0:0:0:0:
430,367,75716,6,0,P|396:363|354:323,1,85.2500026016236,6|0,0:0|2:0,0:0:0:0:
178,252,76010,2,0,P|210:247|292:191,1,127.875003902435,2|0,0:2|2:0,0:0:0:0:
288,195,76304,2,0,P|292:173|311:99,1,85.2500026016236,8|0,0:0|0:0,0:0:0:0:
198,168,76598,6,0,B|89:188|138:152|23:170,1,170.500005203247,4|0,0:2|0:0,0:0:0:0:
215,264,77039,1,8,0:0:0:0:
43,366,77186,2,0,B|57:324|57:324|48:276,1,85.2500026016236,0|0,3:0|2:0,0:0:0:0:
207,368,77480,2,0,P|165:372|111:385,1,85.2500026016236,8|0,0:0|2:0,0:0:0:0:
321,320,77774,6,0,P|361:331|415:340,1,85.2500026016236,2|0,0:2|0:0,0:0:0:0:
512,264,78069,2,0,P|484:270|404:172,1,170.500005203247,4|0,0:2|0:0,0:0:0:0:
246,95,78510,1,0,3:0:0:0:
306,18,78657,2,0,P|326:56|317:131,1,85.2500026016236,8|0,0:0|0:0,0:0:0:0:
198,259,78951,1,2,3:0:0:0:
128,182,79098,2,0,P|125:154|164:-3,1,170.500005203247,8|8,0:0|0:0,0:0:0:0:
224,55,79539,2,0,P|144:130|93:105,2,170.500005203247,0|8|2,3:0|0:0|2:0,0:0:0:0:
364,190,80274,1,0,0:0:0:0:
346,36,80421,6,0,P|342:71|328:139,1,85.2500026016236,6|0,0:2|0:0,0:0:0:0:
210,273,80716,2,0,B|199:209|247:233|214:143,1,127.875003902435,2|0,0:2|2:0,0:0:0:0:
216,149,81010,2,0,L|125:172,1,85.2500026016236,8|0,0:0|0:0,0:0:0:0:
294,230,81304,5,2,3:0:0:0:
366,378,81451,2,0,P|413:329|355:256,1,170.500005203247,8|8,0:0|0:0,0:0:0:0:
307,310,81892,2,0,P|279:360|174:343,1,170.500005203247,0|8,3:0|0:0,0:0:0:0:
19,282,82333,1,0,0:0:0:0:
85,233,82480,1,2,0:2:0:0:
164,251,82627,1,2,0:3:0:0:
87,318,82774,6,0,P|72:295|75:156,1,170.500005203247,6|8,0:2|0:3,0:0:0:0:
234,85,83216,1,0,3:0:0:0:
145,22,83363,2,0,P|120:5|21:1,1,127.875003902435,8|0,0:0|2:0,0:0:0:0:
25,0,83657,6,0,P|33:41|37:91,1,85.2500026016236,2|0,0:2|2:0,0:0:0:0:
195,210,83951,2,0,P|155:191|105:182,1,85.2500026016236,2|8,0:2|0:0,0:0:0:0:
326,44,84245,2,0,P|313:66|289:187,1,127.875003902435,0|0,3:0|2:0,0:0:0:0:
308,208,84539,5,8,0:0:0:0:
238,343,84686,1,8,0:0:0:0:
204,208,84833,5,2,3:2:0:0:
311,298,84980,1,0,3:0:0:0:
432,216,85127,2,0,P|460:184|436:60,1,170.500005203247,6|0,0:0|2:0,0:0:0:0:
306,178,85569,1,4,0:2:0:0:
384,278,85716,2,0,P|433:309|481:317,1,85.2500026016236,8|0,0:0|2:0,0:0:0:0:
252,229,86010,1,2,0:0:0:0:
185,263,86157,2,0,P|156:279|-3:297,1,170.500005203247,8|0,0:0|3:0,0:0:0:0:
109,196,86598,6,0,P|97:173|99:87,1,85.2500026016236,2|0,3:0|2:0,0:0:0:0:
248,315,86892,2,0,P|238:347|195:390,1,85.2500026016236,8|0,0:0|0:0,0:0:0:0:
400,206,87186,2,0,P|450:176|501:198,1,85.2500026016236,2|0,0:2|2:0,0:0:0:0:
329,350,87480,5,4,0:0:0:0:
257,207,87627,2,0,P|252:168|285:37,1,170.500005203247,8|4,0:0|3:0,0:0:0:0:
378,9,88069,5,8,0:0:0:0:
448,34,88216,5,8,3:0:0:0:
315,18,88363,5,0,0:0:0:0:
150,68,88510,5,6,0:0:0:0:
189,96,89245,2,0,P|163:93|52:93,1,127.875003902435,0|2,0:0|2:0,0:0:0:0:
28,81,89760,6,0,L|-7:88,1,21.3125006504059,2|2,2:0|0:2,0:0:0:0:
157,169,90127,5,0,0:0:0:0:
189,201,90274,2,0,L|195:251,1,42.6250013008118,0|8,0:0|0:3,0:0:0:0:
121,276,90569,2,0,L|92:359,2,85.2500026016236,0|0|8,0:0|2:0|0:3,0:0:0:0:
98,235,91304,1,2,0:2:0:0:
259,197,91598,1,8,0:3:0:0:
417,244,91892,1,0,0:0:0:0:
478,205,92039,5,2,2:0:0:0:
478,205,92113,1,2,2:0:0:0:
478,205,92186,2,0,L|467:106,1,85.2500026016236,2|0,0:2|0:0,0:0:0:0:
436,80,92627,2,0,L|447:23,1,42.6250013008118,0|8,0:0|0:3,0:0:0:0:
375,5,92921,2,0,P|340:11|273:18,2,85.2500026016236,0|0|0,2:0|0:0|2:0,0:0:0:0:
412,35,93657,1,2,0:2:0:0:
256,102,93951,1,8,0:3:0:0:
104,66,94245,1,0,0:0:0:0:
81,73,94319,1,2,2:0:0:0:
43,63,94392,1,2,2:0:0:0:
12,76,94466,1,2,2:0:0:0:
12,76,94539,6,0,P|15:95|21:174,1,85.2500026016236,4|0,0:2|0:0,0:0:0:0:
75,209,94980,1,2,0:2:0:0:
158,183,95127,2,0,P|169:188|234:236,1,85.2500026016236,8|0,0:3|2:0,0:0:0:0:
286,283,95569,2,0,P|340:264|386:261,1,85.2500026016236,8|0,0:3|2:0,0:0:0:0:
425,300,96010,1,2,0:2:0:0:
249,369,96304,1,8,0:3:0:0:
89,273,96598,1,0,0:0:0:0:
89,273,96745,1,0,2:0:0:0:
128,207,96892,6,0,P|137:184|148:117,1,85.2500026016236,2|0,0:2|0:0,0:0:0:0:
105,98,97333,2,0,P|97:77|82:48,1,42.6250013008118,0|8,2:0|0:3,0:0:0:0:
168,56,97627,2,0,P|180:39|188:17,1,42.6250013008118,2|0,0:2|2:0,0:0:0:0:
162,5,97921,1,2,2:0:0:0:
262,36,98363,6,2,B|192:9|192:9|204:8|204:8|274:25,1,155,0|0,1:0|2:0,0:1:0:0:
341,51,99245,5,0,1:0:0:0:
300,120,99539,2,0,P|330:146|363:154,1,38.75
395,178,99833,2,0,P|357:188|322:205,1,77.5,0|0,1:0|0:0,0:0:0:0:
290,276,100274,2,0,P|255:259|217:248,1,77.5,0|0,0:0|3:0,0:0:0:0:
145,203,100716,5,0,0:0:0:0:
99,204,100863,1,0,0:0:0:0:
38,236,101010,1,0,1:0:0:0:
0,314,101304,1,0,3:0:0:0:
3,328,101598,5,2,1:2:0:0:
67,373,101892,2,0,P|92:358|116:349,1,38.75,0|0,0:0|3:0,0:0:0:0:
150,297,102186,2,0,P|193:313|245:331,1,77.5,0|0,1:0|0:0,0:0:0:0:
272,380,102627,2,0,P|309:364|344:353,1,77.5,0|0,0:0|3:0,0:0:0:0:
373,363,103069,5,0,0:0:0:0:
512,267,103289,1,0,0:0:0:0:
512,267,103363,2,0,P|482:242|441:243,1,77.5,2|0,1:2|0:0,0:0:0:0:
383,283,103951,1,0,1:0:0:0:
365,276,104245,5,0,0:0:0:0:
308,216,104392,1,0,0:0:0:0:
394,153,104539,2,0,P|403:117|415:76,1,77.5,0|0,1:0|0:0,0:0:0:0:
430,49,104980,2,0,P|387:58|324:73,1,77.5,0|0,0:0|3:0,0:0:0:0:
286,109,105421,1,0,0:0:0:0:
227,125,105569,1,0,0:0:0:0:
178,73,105716,1,2,1:2:0:0:
167,58,106010,5,0,3:0:0:0:
101,19,106157,1,0,0:0:0:0:
35,66,106304,2,0,P|-11:85|14:157,1,116.25,2|0,1:2|0:0,0:0:0:0:
48,201,106892,2,0,L|133:180,1,77.5,2|0,1:2|0:0,0:0:0:0:
139,187,107480,5,0,1:0:0:0:
180,197,107627,1,0,3:0:0:0:
237,242,107774,1,0,3:0:0:0:
280,317,107921,1,0,3:0:0:0:
280,317,107995,1,0,3:0:0:0:
280,317,108069,1,2,1:3:0:0:
240,384,108216,5,2,0:0:0:0:
178,312,108363,1,2,0:0:0:0:
246,233,108510,2,0,L|290:213,2,38.75,2|2|4,0:0|0:3|1:2,0:0:0:0:
52,373,108951,6,0,P|38:356|21:342,1,38.75
3,326,109245,2,0,P|45:312|96:292,1,77.5,0|0,1:0|0:0,0:0:0:0:
144,381,109686,2,0,P|163:341|185:291,1,77.5,0|0,0:0|3:0,0:0:0:0:
171,237,110127,5,0,3:0:0:0:
138,204,110274,1,0,3:0:0:0:
68,169,110421,1,0,1:0:0:0:
12,95,110716,1,0,3:0:0:0:
68,26,111010,5,2,1:2:0:0:
68,26,111157,2,0,L|146:49,1,77.5
171,70,111598,1,0,1:0:0:0:
312,172,111892,5,0,0:0:0:0:
288,243,112039,2,0,P|230:237|230:170,1,116.25,2|0,0:0|0:0,0:0:0:0:
246,105,112627,5,0,0:0:0:0:
246,105,112774,2,0,P|272:95|305:86,1,38.75,0|0,1:0|0:0,0:0:0:0:
353,97,113069,1,0,3:0:0:0:
412,124,113216,1,0,3:0:0:0:
432,151,113363,1,0,1:0:0:0:
492,377,113657,6,0,P|474:363|457:356,1,38.75
448,281,113951,2,0,P|403:289|363:307,1,77.5,0|0,1:0|1:0,0:0:0:0:
330,235,114392,2,0,P|289:256|257:285,1,77.5,0|0,0:0|3:0,0:0:0:0:
256,288,114833,1,0,0:0:0:0:
242,359,115127,1,0,1:0:0:0:
256,369,115421,5,0,3:0:0:0:
170,313,115569,1,0,3:0:0:0:
89,306,115716,1,2,1:2:0:0:
52,323,116157,5,0,3:0:0:0:
52,323,116304,1,2,1:2:0:0:
15,222,116598,2,0,P|7:204|0:186,1,38.75,0|0,1:0|3:0,0:0:0:0:
109,252,116892,2,0,P|149:262|234:275,1,116.25,2|0,1:2|0:0,0:0:0:0:
223,273,117407,1,0,3:0:0:0:
223,273,117480,1,4,3:0:0:0:
433,143,117774,6,0,L|475:134,1,34.8749989356995,2|0,0:2|0:0,0:0:0:0:
512,204,118069,6,0,B|411:197|426:161|310:155,1,186,6|0,1:0|1:0,0:0:0:0:
240,65,118657,2,0,L|230:-13,1,62,8|0,1:0|0:0,0:0:0:0:
40,105,118951,2,0,B|118:122|94:95|182:114,1,124,2|0,1:2|0:0,0:0:0:0:
224,143,119392,1,0,1:0:0:0:
328,178,119539,1,2,3:0:0:0:
414,145,119686,1,2,0:0:0:0:
232,221,119833,6,0,P|209:237|148:254,1,77.5,8|0,1:0|0:0,0:0:0:0:
440,269,120127,6,0,P|459:284|506:308,1,62,2|0,0:0|0:0,0:0:0:0:
512,380,120421,2,0,P|479:330|346:353,1,186,0|0,1:0|3:0,0:0:0:0:
276,384,121010,2,0,L|291:301,1,62,8|0,1:0|0:0,0:0:0:0:
154,96,121304,6,0,P|229:184|201:239,1,186,2|0,1:2|1:0,0:0:0:0:
273,321,121892,2,0,L|285:389,1,62,0|0,3:0|0:0,0:0:0:0:
161,333,122186,5,8,1:0:0:0:
91,297,122333,1,0,1:0:0:0:
12,306,122480,1,0,3:0:0:0:
108,383,122627,1,8,1:0:0:0:
222,262,122774,2,0,P|222:234|194:128,1,124,4|0,1:2|0:0,0:0:0:0:
95,16,123216,5,0,1:0:0:0:
213,64,123363,1,8,1:0:0:0:
213,64,123657,1,0,1:0:0:0:
298,31,123804,1,2,0:0:0:0:
394,67,123951,2,0,B|471:78|438:96|523:101,2,124,0|0|8,0:0|3:0|1:0,0:0:0:0:
134,178,124833,2,0,P|111:184|64:192,1,62,2|0,0:0|0:0,0:0:0:0:
0,189,125127,6,0,P|36:200|129:239,1,124,2|0,1:2|0:0,0:0:0:0:
178,274,125569,1,0,0:0:0:0:
57,338,125716,1,8,1:0:0:0:
260,183,126010,1,2,1:2:0:0:
421,361,126304,1,0,0:0:0:0:
321,293,126451,5,8,1:0:0:0:
408,258,126598,1,0,3:0:0:0:
247,334,126745,5,0,3:0:0:0:
124,278,126892,1,8,1:0:0:0:
146,258,127039,1,0,1:0:0:0:
125,264,127186,1,0,1:0:0:0:
246,381,127333,5,6,1:2:0:0:
426,261,127480,6,0,P|428:230|403:72,1,186,6|0,1:0|3:0,0:0:0:0:
301,13,128069,2,0,P|272:23|214:33,1,62,8|0,1:0|0:0,0:0:0:0:
83,202,128363,2,0,P|84:175|121:70,1,124,2|0,1:2|0:0,0:0:0:0:
177,16,128804,1,0,1:0:0:0:
177,16,128951,2,0,P|201:26|248:39,1,62,2|0,1:3|0:0,0:0:0:0:
360,202,129245,2,0,P|357:172|360:132,1,62,8|0,1:0|0:0,0:0:0:0:
466,48,129539,6,0,P|436:57|398:84,1,62,2|0,1:2|0:0,0:0:0:0:
501,164,129833,2,0,B|436:140|432:185|372:171,1,124,4|0,1:2|0:0,0:0:0:0:
297,236,130274,1,0,1:0:0:0:
419,344,130421,2,0,P|446:349|490:366,1,62,8|0,1:0|0:0,0:0:0:0:
379,259,130716,2,0,B|266:276|305:246|190:265,1,186,2|0,1:2|1:0,0:0:0:0:
67,342,131304,1,0,3:0:0:0:
211,169,131598,1,8,1:0:0:0:
40,23,131892,1,4,0:3:0:0:
119,0,132039,5,0,1:0:0:0:
119,0,132113,1,0,1:0:0:0:
119,0,132186,2,0,P|124:25|128:131,1,124,4|0,1:0|0:0,0:0:0:0:
97,285,132627,1,8,3:0:0:0:
78,201,132774,2,0,P|75:174|95:61,1,124,2|0,1:2|3:0,0:0:0:0:
170,23,133216,1,0,0:0:0:0:
170,23,133363,1,6,1:0:0:0:
186,327,133804,5,0,3:0:0:0:
218,314,133951,1,0,1:0:0:0:
109,239,134245,1,0,1:0:0:0:
244,170,134539,6,0,L|313:184,1,62,4|0,1:0|0:0,0:0:0:0:
370,228,134833,2,0,L|454:212,1,62,0|0,0:0|3:0,0:0:0:0:
512,113,135127,2,0,P|444:21|391:50,1,186,8|2,1:0|0:0,0:0:0:0:
305,90,135716,5,4,0:3:0:0:
217,76,136010,1,0,1:0:0:0:
118,98,136304,1,8,1:0:0:0:
0,72,136598,1,4,0:3:0:0:
11,146,136745,5,0,1:3:0:0:
166,28,136892,2,0,L|245:46,1,62,4|0,1:0|0:0,0:0:0:0:
88,43,137186,5,4,0:3:0:0:
251,119,137333,2,0,L|192:173,1,62,0|8,1:0|1:0,0:0:0:0:
130,144,137627,2,0,L|102:78,1,62,2|4,0:2|0:3,0:0:0:0:
252,221,137921,5,2,1:3:0:0:
166,274,138069,2,0,B|108:259|85:287|30:264,1,124,0|4,0:3|1:3,0:0:0:0:
188,363,138510,1,0,0:0:0:0:
328,240,138657,2,0,L|316:175,1,62,8|0,1:0|0:0,0:0:0:0:
247,271,138951,1,4,0:3:0:0:
368,331,139098,1,0,1:0:0:0:
477,208,139245,6,0,P|480:185|505:80,1,124,6|4,1:2|0:3,0:0:0:0:
430,58,139686,1,0,1:0:0:0:
305,132,139833,1,8,1:0:0:0:
397,170,139980,1,0,0:0:0:0:
297,52,140127,2,0,L|221:71,1,62,4|0,1:3|0:0,0:0:0:0:
113,122,140421,5,2,1:2:0:0:
41,144,140569,1,0,3:0:0:0:
104,103,140716,1,4,1:3:0:0:
210,96,140863,5,4,1:2:0:0:
327,152,141010,5,0,1:0:0:0:
463,138,141157,5,2,3:2:0:0:
501,68,141304,6,0,L|514:-3,1,62,4|0,0:3|3:0,0:0:0:0:
512,7,141524,1,8,1:0:0:0:
512,7,141598,1,8,1:3:0:0:
306,153,142039,1,2,0:0:0:0:
66,60,142480,2,0,P|35:69|-9:75,1,62,2|0,0:0|0:0,0:0:0:0:
263,15,142774,6,2,B|291:83|234:98|251:197,1,178.250003399849,14|0,1:0|0:0,1:0:0:0:
294,328,143216,1,0,3:3:0:0:
298,333,143289,1,0,3:3:0:0:
302,338,143363,1,6,1:2:0:0:
315,268,143510,5,2,1:2:0:0:
263,199,143657,5,12,1:3:0:0:
216,86,143804,5,14,1:3:0:0:
388,10,143951,6,0,P|427:1|510:104,1,170.500005203247,6|2,0:1|0:3,0:0:0:0:
478,158,144392,1,0,0:0:0:0:
353,100,144539,2,0,B|313:107|313:107|260:126,1,85.2500026016236,8|0,0:0|2:0,0:0:0:0:
9,217,144833,6,0,B|124:200|67:253|186:234,1,170.500005203247,4|0,0:2|2:0,0:0:0:0:
61,138,145274,1,8,0:0:0:0:
191,58,145421,2,0,B|151:51|151:51|108:35,1,85.2500026016236,2|0,0:2|2:0,0:0:0:0:
293,219,145716,6,0,P|282:174|273:118,1,85.2500026016236,8|0,0:0|0:0,0:0:0:0:
176,262,146010,1,2,0:3:0:0:
297,337,146157,1,0,1:0:0:0:
401,228,146304,2,0,P|413:159|360:60,1,170.500005203247,4|2,0:2|0:3,0:0:0:0:
273,25,146745,5,0,3:0:0:0:
273,25,146892,1,8,0:0:0:0:
169,94,147039,1,8,0:3:0:0:
49,26,147186,1,0,3:0:0:0:
189,76,147333,1,8,0:0:0:0:
0,292,147627,5,8,0:0:0:0:
32,228,147774,2,0,L|124:246,1,85.2500026016236,2|0,3:2|2:0,0:0:0:0:
251,366,148069,2,0,B|304:350|304:350|350:360|350:360|427:340,1,170.500005203247,8|2,0:0|0:3,0:0:0:0:
319,255,148510,1,8,0:3:0:0:
420,173,148657,6,0,P|418:228|406:265,1,85.2500026016236,4|0,0:2|2:0,0:0:0:0:
205,140,148951,2,0,P|235:185|247:222,1,85.2500026016236,2|0,0:3|3:0,0:0:0:0:
116,374,149245,2,0,P|131:334|156:300,1,85.2500026016236,8|0,0:0|2:0,0:0:0:0:
396,266,149539,6,0,P|350:339|269:324,1,170.500005203247,2|0,0:3|2:0,0:0:0:0:
263,167,149980,1,8,0:0:0:0:
295,251,150127,1,0,3:0:0:0:
192,201,150274,1,0,2:0:0:0:
350,152,150421,6,0,B|329:113|329:113|341:67,1,85.2500026016236,8|0,0:0|0:0,0:0:0:0:
184,16,150716,2,0,B|92:15|142:44|34:40,1,127.875003902435,2|0,1:2|2:0,0:0:0:0:
60,40,151010,2,0,P|74:84|94:130,1,85.2500026016236,4|0,1:2|3:0,0:0:0:0:
241,202,151304,2,0,P|195:192|146:186,1,85.2500026016236,2|0,0:3|3:0,0:0:0:0:
14,290,151598,2,0,P|45:255|74:215,1,85.2500026016236,8|8,0:0|0:3,0:0:0:0:
192,81,151892,6,0,P|254:103|246:200,1,170.500005203247,2|2,1:2|2:0,0:0:0:0:
151,351,152333,1,8,0:0:0:0:
307,300,152480,1,2,2:0:0:0:
327,296,152554,1,2,2:0:0:0:
336,286,152627,1,2,2:0:0:0:
354,286,152701,1,2,2:0:0:0:
367,283,152774,5,8,0:0:0:0:
204,253,152921,1,8,0:3:0:0:
341,192,153069,5,4,3:0:0:0:
238,362,153216,1,4,3:0:0:0:
12,274,153363,2,0,P|44:226|120:233,1,127.875003902435,6|0,0:0|2:0,0:0:0:0:
115,236,153657,2,0,P|125:277|137:318,1,85.2500026016236,2|0,0:3|2:0,0:0:0:0:
298,161,153951,2,0,L|191:136,1,85.2500026016236,8|2,0:0|0:0,0:0:0:0:
245,9,154245,6,0,B|190:19|190:19|153:48|153:48|75:64,1,170.500005203247,2|2,1:2|0:3,0:0:0:0:
8,126,154686,1,8,0:0:0:0:
214,143,154833,2,0,L|297:125,1,85.2500026016236,2|0,3:2|2:0,0:0:0:0:
417,37,155127,5,8,0:0:0:0:
508,127,155274,1,0,0:0:0:0:
499,51,155421,1,2,0:3:0:0:
401,115,155569,1,0,0:0:0:0:
496,276,155716,6,0,P|486:234|472:193,1,85.2500026016236,4|0,1:2|2:0,0:0:0:0:
310,294,156010,1,2,0:3:0:0:
420,367,156157,1,0,3:0:0:0:
293,196,156304,6,0,P|273:248|278:390,1,170.500005203247,8|2,0:0|3:0,0:0:0:0:
293,374,156745,2,0,P|274:315|249:278,1,85.2500026016236,8|0,0:0|2:0,0:0:0:0:
35,278,157039,1,8,0:0:0:0:
74,350,157186,2,0,L|173:324,1,85.2500026016236,2|0,3:2|0:0,0:0:0:0:
291,209,157480,6,0,B|196:184|222:220|106:193,2,170.500005203247,10|2|4,0:0|0:3|1:2,0:0:0:0:
167,105,158216,1,2,0:2:0:0:
318,19,158363,2,0,L|228:41,1,85.2500026016236,2|0,0:3|3:0,0:0:0:0:
44,173,158657,2,0,P|24:122|81:80,1,127.875003902435,8|0,0:0|2:0,0:0:0:0:
73,79,158951,2,0,L|176:103,1,85.2500026016236,0|8,3:0|0:0,0:0:0:0:
256,214,159245,5,2,0:2:0:0:
405,118,159392,1,8,0:0:0:0:
496,252,159539,2,0,P|471:245|414:209,1,85.2500026016236,2|0,0:3|2:0,0:0:0:0:
273,0,159833,6,0,P|288:21|309:85,1,85.2500026016236,8|2,0:0|0:2,0:0:0:0:
343,258,160127,1,2,0:3:0:0:
238,128,160274,1,0,0:0:0:0:
494,122,160421,6,0,B|395:119|429:148|310:148,1,170.500005203247,2|2,0:2|0:3,0:0:0:0:
258,246,160863,1,0,3:0:0:0:
353,356,161010,2,0,P|359:305|351:267,1,85.2500026016236,8|0,0:0|0:0,0:0:0:0:
221,144,161304,2,0,P|182:212|201:351,1,170.500005203247,4|0,0:2|2:0,0:0:0:0:
215,369,161745,1,8,0:0:0:0:
86,254,161892,2,0,P|59:235|10:220,1,85.2500026016236,0|0,3:0|0:0,0:0:0:0:
259,210,162186,5,8,0:0:0:0:
172,308,162333,1,8,0:0:0:0:
155,185,162480,5,4,3:0:0:0:
298,299,162627,1,8,3:0:0:0:
401,189,162774,2,0,P|406:100|336:15,1,170.500005203247,6|0,0:0|2:0,0:0:0:0:
242,210,163216,1,2,0:2:0:0:
114,80,163363,2,0,P|121:37|142:-4,1,85.2500026016236,10|0,0:0|2:0,0:0:0:0:
258,94,163657,1,2,3:0:0:0:
168,171,163804,2,0,B|72:146|99:182|0:158,1,170.500005203247,0|0,1:0|2:0,0:0:0:0:
82,281,164245,6,0,L|163:255,1,85.2500026016236,2|0,0:2|2:0,0:0:0:0:
425,363,164539,2,0,P|384:347|345:330,1,85.2500026016236,8|2,0:0|2:0,0:0:0:0:
324,118,164833,2,0,P|307:151|289:213,1,85.2500026016236,2|0,0:3|0:0,0:0:0:0:
233,326,165127,5,4,1:0:0:0:
388,187,165274,2,0,P|500:221|512:271,1,170.500005203247,8|0,0:3|3:0,0:0:0:0:
418,310,165716,5,8,0:0:0:0:
324,274,165863,1,8,0:0:0:0:
222,233,166010,5,0,3:0:0:0:
87,271,166157,1,4,1:1:0:0:
113,288,166451,5,8,0:0:0:0:
190,304,166598,1,8,3:0:0:0:
268,335,166745,1,8,3:0:0:0:
407,317,166892,5,8,0:0:0:0:
369,258,167039,1,0,0:0:0:0:
479,312,167186,1,8,0:0:0:0:
378,383,167333,1,8,0:0:0:0:
279,278,167480,2,0,B|270:231|270:231|305:170|305:170|291:104,1,170.500005203247,6|4,0:0|0:3,0:0:0:0:
130,19,167921,6,0,B|91:15|91:15|45:-1,1,77.5,2|8,0:0|0:0,0:0:0:0:
138,154,168216,1,2,0:3:0:0:
138,154,168363,2,0,B|156:121|156:121|181:88,1,77.5,4|8,0:3|0:0,0:0:0:0:
157,17,168657,1,0,0:0:0:0:
9,82,168804,2,0,B|33:113|33:113|51:157,2,77.5,8|4|0,0:0|0:3|0:0,0:0:0:0:
168,129,169245,5,8,0:0:0:0:
243,251,169392,1,2,0:2:0:0:
316,128,169539,1,4,0:3:0:0:
235,176,169686,1,2,0:3:0:0:
322,219,169833,6,0,P|359:233|415:263,1,77.5,4|2,0:2|0:0,0:0:0:0:
239,100,170127,2,0,P|233:63|227:-13,1,77.5,6|2,0:3|0:0,0:0:0:0:
142,220,170421,2,0,P|110:242|46:275,1,77.5,8|0,0:0|0:0,0:0:0:0:
214,372,170716,5,6,0:3:0:0:
185,305,170863,1,8,0:0:0:0:
256,272,171010,1,2,0:0:0:0:
376,215,171157,5,8,0:0:0:0:
386,220,171230,1,8,0:3:0:0:
394,225,171304,1,4,0:3:0:0:
438,150,171451,1,2,0:2:0:0:
354,112,171598,2,0,P|251:162|255:214,1,155,10|4,0:0|0:3,0:0:0:0:
367,294,172039,1,2,0:3:0:0:
208,358,172186,6,0,P|171:374|127:382,1,77.5,6|0,0:2|2:0,0:0:0:0:
0,281,172480,1,6,0:3:0:0:
20,205,172627,2,0,B|98:181|106:249|186:234,1,155,2|2,0:0|0:3,0:0:0:0:
260,174,173069,1,6,0:3:0:0:
392,280,173216,1,8,0:0:0:0:
391,148,173363,5,4,0:2:0:0:
277,274,173510,1,8,0:0:0:0:
191,123,173657,1,6,0:3:0:0:
286,189,173804,1,2,0:0:0:0:
125,230,173951,6,0,P|96:245|27:261,1,77.5,8|2,0:0|0:2,0:0:0:0:
208,372,174245,2,0,P|203:335|211:285,1,77.5,4|2,0:3|0:3,0:0:0:0:
24,350,174539,2,0,P|61:363|94:385,1,77.5,6|0,0:2|0:0,0:0:0:0:
319,280,174833,5,4,0:3:0:0:
282,172,174980,2,0,P|290:147|306:81,1,77.5,2|8,0:0|0:0,0:0:0:0:
473,93,175274,5,2,0:0:0:0:
406,191,175421,2,0,P|408:229|416:267,1,77.5,6|8,0:3|0:0,0:0:0:0:
366,380,175716,2,0,P|391:345|328:260,1,155,2|6,0:2|0:3,0:0:0:0:
228,158,176157,1,2,0:0:0:0:
390,185,176304,5,8,0:0:0:0:
263,260,176451,1,8,0:0:0:0:
93,277,176598,5,0,3:0:0:0:
177,314,176745,1,0,3:0:0:0:
296,189,176892,6,2,B|152:163|206:211|61:182,1,232.5,6|0,3:1|3:0,1:0:0:0:
0,166,177480,2,0,L|86:154,1,77.5,10|0,0:0|0:0,0:0:0:0:
301,96,177774,6,0,P|332:181|391:180,1,155,2|0,0:0|0:0,0:0:0:0:
239,370,178216,2,0,P|270:285|329:286,1,155,10|0,0:0|0:0,0:0:0:0:
167,123,178657,2,0,P|197:131|273:146,1,77.5,10|0,0:0|0:0,0:0:0:0:
86,309,178951,2,0,P|77:347|66:386,1,77.5,2|2,0:0|0:3,0:0:0:0:
1,178,179245,6,2,B|126:175|116:219|239:211,1,232.5,6|0,0:0|3:0,1:0:0:0:
402,125,179833,2,0,L|486:107,1,77.5,10|0,0:0|0:0,0:0:0:0:
242,39,180127,5,0,3:0:0:0:
242,39,180274,2,0,L|249:89,1,50.3749976940156,8|0,0:0|2:0,0:0:0:0:
119,241,180569,6,0,L|1:269,1,100.749995388031,10|0,0:0|3:0,0:0:0:0:
20,264,180863,1,0,2:2:0:0:
131,126,181010,6,0,P|141:87|140:44,1,62,10|0,0:0|2:0,0:0:0:0:
142,66,181304,2,0,P|158:103|163:163,1,92.9999971618653,2|2,0:0|0:3,0:0:0:0:
291,381,181598,6,2,B|371:368|371:368|407:307|407:307|495:292,1,232.5,6|0,0:0|3:0,1:0:0:0:
370,201,182186,2,0,L|383:277,1,77.5,10|0,0:0|2:3,0:0:0:0:
430,356,182480,6,2,B|377:341|377:341|348:305|348:305|288:289,1,155,2|0,0:0|0:0,1:0:0:0:
129,194,182921,1,10,0:0:0:0:
230,139,183069,2,0,L|331:99,1,77.5,2|0,0:2|2:0,0:0:0:0:
144,290,183363,6,0,L|120:397,1,96.875,8|0,0:0|0:0,0:0:0:0:
52,144,183657,6,0,L|-12:114,1,58.1250022172929,2|2,0:0|0:3,0:0:0:0:
152,50,183951,6,0,B|145:134|182:120|180:209,1,155,6|0,0:0|2:0,1:0:0:0:
28,348,184392,1,2,0:0:0:0:
91,250,184539,2,0,P|96:222|99:162,1,77.5,8|0,0:0|2:0,0:0:0:0:
29,139,184833,2,0,P|50:53|109:46,1,155,2|0,0:0|2:0,1:0:0:0:
313,112,185274,1,8,0:0:0:0:
216,188,185421,2,0,B|179:194|179:194|140:214|140:214|91:224,1,116.25,2|0,0:2|2:0,0:0:0:0:
105,220,185716,2,0,L|127:313,1,77.5,8|2,0:0|2:0,0:0:0:0:
120,130,186010,5,0,3:0:0:0:
120,130,186157,1,0,3:0:0:0:
204,213,186304,2,0,P|304:254|309:301,1,155,6|0,0:0|2:0,0:0:0:0:
362,347,186745,1,2,0:0:0:0:
512,258,186892,2,0,P|476:244|427:245,1,77.5,8|0,0:0|0:0,0:0:0:0:
322,82,187186,6,0,P|335:117|343:161,1,77.5,2|0,0:2|0:0,0:0:0:0:
221,365,187480,1,2,0:0:0:0:
316,288,187627,1,8,0:0:0:0:
166,210,187774,2,0,P|122:306|132:366,1,155,2|8,0:3|0:0,0:0:0:0:
260,215,188216,1,8,0:0:0:0:
185,67,188363,2,0,P|147:55|100:36,1,77.5,2|2,0:0|0:3,0:0:0:0:
5,189,188657,6,2,B|72:180|84:141|165:138,1,155,6|0,0:0|0:0,1:0:0:0:
491,151,189098,2,2,B|424:142|412:103|331:100,1,155,6|0,0:2|0:0,1:0:0:0:
270,224,189539,2,2,P|264:199|257:126,1,77.5,6|0,0:2|0:0,1:0:0:0:
240,68,189833,6,2,P|243:113|225:245,1,155,2|0,0:2|0:0,1:0:0:0:
178,190,190274,5,0,2:0:0:0:
232,258,190421,5,2,2:0:0:0:
289,264,190569,5,2,2:0:0:0:
205,312,190716,5,0,2:0:0:0:
231,379,190863,5,8,2:2:0:0:
238,381,190936,1,8,3:2:0:0:
244,384,191010,1,4,0:1:0:0:
256,192,191083,12,2,193363,2:0:0:0:
359,346,194245,5,0,0:0:0:0:
359,346,194392,1,0,0:0:0:0:
359,346,194539,1,2,0:0:0:0:
263,327,195127,1,2,0:0:0:0:
205,374,195421,5,0,0:0:0:0:
243,331,195716,1,0,0:0:0:0:
305,292,196010,1,0,0:0:0:0:
355,218,196304,1,0,0:0:0:0:
316,122,196598,1,0,0:0:0:0:
309,111,197186,5,2,0:0:0:0:
303,99,197774,1,0,0:0:0:0:
273,54,198069,5,2,0:0:0:0:
219,74,198363,1,0,0:0:0:0:
148,40,198657,5,0,0:0:0:0:
50,12,198951,1,2,0:0:0:0:
88,40,199245,5,0,0:0:0:0:
103,84,199539,1,0,0:0:0:0:
80,151,199833,1,2,0:0:0:0:
11,202,200127,1,2,0:0:0:0:
11,202,200421,5,0,0:0:0:0:
66,250,200716,1,0,0:0:0:0:
140,225,201010,1,0,0:0:0:0:
205,156,201304,1,2,0:0:0:0:
215,150,201892,5,0,0:0:0:0:
228,147,202480,1,0,0:0:0:0:
295,186,202774,5,2,0:0:0:0:
284,256,203069,1,0,0:0:0:0:
234,303,203363,1,0,0:0:0:0:
217,374,203657,1,0,0:0:0:0:
217,374,203804,1,0,0:0:0:0:
217,374,203951,1,2,0:0:0:0:
314,310,204245,5,0,0:0:0:0:
314,310,204392,1,2,0:0:0:0:
394,316,204686,5,2,0:0:0:0:
394,316,204833,1,0,0:0:0:0:
473,369,205127,5,0,0:0:0:0:
491,339,205421,1,0,0:0:0:0:
487,256,205716,1,0,0:0:0:0:
426,189,206010,1,2,0:0:0:0:
412,181,206598,5,0,0:0:0:0:
400,177,207186,1,0,0:0:0:0:
53,384,208731,5,0,0:0:0:0:
78,356,208804,1,2,0:0:0:0:
89,324,208878,1,2,0:0:0:0:
85,289,208951,1,2,0:0:0:0:
66,262,209024,1,2,0:0:0:0:
34,239,209098,1,2,0:0:0:0:
19,196,209171,1,2,0:0:0:0:
48,155,209245,2,0,L|136:176,1,77.5,2|0,0:0|0:0,0:0:0:0:
217,266,209539,1,2,1:3:0:0:
335,159,209686,1,2,1:3:0:0:
239,15,209833,6,0,P|213:95|213:180,1,170.500005203247,6|4,3:1|0:3,0:0:0:0:
350,343,210274,1,0,0:0:0:0:
495,263,210421,2,0,P|475:242|415:226,1,85.2500026016236,8|0,0:0|0:0,0:0:0:0:
347,254,210716,1,12,1:3:0:0:
442,379,210863,2,0,P|485:367|517:331,1,85.2500026016236,8|0,0:0|2:0,0:0:0:0:
424,127,211157,5,10,0:0:0:0:
424,127,211304,2,0,P|410:58|410:28,1,85.2500026016236,4|0,0:3|2:0,0:0:0:0:
281,145,211598,2,0,P|346:166|362:175,1,85.2500026016236,8|0,0:0|0:0,0:0:0:0:
332,12,211892,2,0,P|285:56|256:73,1,85.2500026016236,4|0,0:3|0:0,0:0:0:0:
19,119,212186,6,0,B|118:137|90:94|197:115,1,170.500005203247,4|6,0:2|0:3,0:0:0:0:
318,242,212627,1,0,3:0:0:0:
171,202,212774,2,0,P|140:205|81:226,1,85.2500026016236,8|0,0:0|0:0,0:0:0:0:
278,334,213069,5,4,3:0:0:0:
406,232,213216,2,0,P|450:226|502:333,1,170.500005203247,8|8,0:0|0:0,0:0:0:0:
462,383,213657,2,0,L|358:368,1,85.2500026016236,4|0,3:0|2:0,0:0:0:0:
142,290,213951,2,0,B|144:332|144:332|125:383,1,85.2500026016236,8|0,0:0|2:0,0:0:0:0:
314,262,214245,2,0,B|307:207|323:239|306:162,1,85.2500026016236,4|2,0:3|2:0,0:0:0:0:
494,0,214539,6,0,P|443:58|386:46,1,127.875003902435,6|0,0:2|2:0,0:0:0:0:
398,53,214833,2,0,P|431:59|483:106,1,85.2500026016236,4|2,0:3|0:3,0:0:0:0:
277,211,215127,2,0,P|275:168|295:128,1,85.2500026016236,8|0,0:0|0:0,0:0:0:0:
160,44,215421,2,0,P|206:41|238:156,1,170.500005203247,4|0,1:3|2:0,0:0:0:0:
436,243,215863,1,8,0:0:0:0:
377,291,216010,2,0,P|336:268|258:359,1,170.500005203247,6|8,1:3|0:0,0:0:0:0:
278,379,216451,5,0,0:0:0:0:
190,211,216598,1,4,0:3:0:0:
46,333,216745,1,0,0:0:0:0:
142,307,216892,5,4,0:2:0:0:
148,306,217039,2,0,P|186:297|231:291,1,85.2500026016236,8|4,0:3|0:3,0:0:0:0:
491,104,217333,5,4,0:2:0:0:
486,107,217480,2,0,P|445:118|381:128,1,85.2500026016236,8|0,0:0|2:0,0:0:0:0:
217,207,217774,5,6,0:3:0:0:
353,41,217921,2,0,B|332:143|396:102|379:213,1,170.500005203247,2|8,0:2|0:0,0:0:0:0:
482,256,218363,1,4,0:3:0:0:
286,270,218510,5,0,3:0:0:0:
286,270,218583,1,0,3:0:0:0:
286,270,218657,1,8,1:0:0:0:
428,179,218804,1,8,1:0:0:0:
245,182,218951,5,6,3:0:0:0:
369,276,219098,1,6,3:0:0:0:
165,230,219245,6,0,P|129:243|9:258,1,127.875003902435,6|0,0:0|2:0,0:0:0:0:
41,258,219539,2,0,P|68:262|142:293,1,85.2500026016236,2|0,0:2|3:0,0:0:0:0:
343,382,219833,1,8,0:0:0:0:
227,288,219980,1,0,0:0:0:0:
491,291,220127,6,0,P|412:294|343:227,1,170.500005203247,6|0,0:3|2:0,0:0:0:0:
170,384,220569,1,8,0:0:0:0:
290,346,220716,2,0,P|331:355|377:371,1,85.2500026016236,6|0,0:3|0:0,0:0:0:0:
172,150,221010,2,0,P|171:188|161:252,1,85.2500026016236,8|0,0:0|0:0,0:0:0:0:
261,180,221304,1,4,0:3:0:0:
103,320,221451,1,2,1:3:0:0:
362,214,221598,6,0,P|362:175|373:121,1,85.2500026016236,4|0,0:2|0:3,0:0:0:0:
512,336,221892,2,0,P|472:310|426:289,1,85.2500026016236,6|0,0:3|3:0,0:0:0:0:
325,45,222186,6,0,P|332:86|334:137,1,85.2500026016236,8|0,0:0|0:0,0:0:0:0:
169,324,222480,1,6,0:3:0:0:
169,324,222627,2,0,P|210:304|272:287,1,85.2500026016236,8|0,0:3|0:0,0:0:0:0:
346,231,222921,5,8,0:0:0:0:
129,36,223069,2,0,B|197:53|167:82|244:97,1,127.875003902435,4|0,0:3|2:0,0:0:0:0:
239,96,223363,2,0,P|227:122|210:201,1,85.2500026016236,10|0,0:0|2:0,0:0:0:0:
218,331,223657,5,12,0:3:0:0:
139,131,223804,1,8,0:0:0:0:
21,293,223951,6,0,P|58:271|93:226,1,85.2500026016236,6|0,0:2|2:0,0:0:0:0:
314,81,224245,2,0,P|270:76|192:35,1,127.875003902435,6|0,0:3|2:0,0:0:0:0:
196,38,224539,2,0,P|169:49|87:60,1,85.2500026016236,8|0,0:0|0:0,0:0:0:0:
308,0,224833,2,0,B|314:95|353:67|359:169,1,170.500005203247,6|0,0:3|2:0,0:0:0:0:
480,287,225274,1,8,0:0:0:0:
284,384,225421,2,0,P|315:301|286:262,1,127.875003902435,4|0,0:3|2:0,0:0:0:0:
298,272,225716,2,0,P|288:238|289:172,1,85.2500026016236,8|0,0:0|3:3,0:0:0:0:
154,45,226010,2,0,P|112:37|56:14,1,85.2500026016236,6|0,0:3|2:0,0:0:0:0:
308,102,226304,6,0,P|356:112|423:23,1,170.500005203247,6|4,0:2|0:3,0:0:0:0:
306,237,226745,1,0,3:0:0:0:
220,107,226892,2,0,P|231:78|243:-12,1,85.2500026016236,8|0,0:0|0:0,0:0:0:0:
394,197,227186,2,0,P|432:204|477:221,1,85.2500026016236,6|0,0:3|2:0,0:0:0:0:
499,89,227480,6,0,P|466:104|414:116,1,85.2500026016236,0|8,0:0|0:0,0:0:0:0:
178,304,227774,2,0,P|201:271|232:183,1,127.875003902435,4|0,0:3|2:0,0:0:0:0:
240,200,228069,5,8,0:0:0:0:
359,381,228216,1,8,0:0:0:0:
348,252,228363,5,4,3:0:0:0:
243,351,228510,1,2,3:0:0:0:
312,171,228657,6,0,B|326:111|326:111|355:76|355:76|369:5,1,170.500005203247,6|4,0:0|0:3,0:0:0:0:
206,129,229098,1,4,0:2:0:0:
368,230,229245,2,0,P|410:221|465:205,1,85.2500026016236,10|0,0:0|2:0,0:0:0:0:
510,260,229539,1,6,0:3:0:0:
338,309,229686,2,0,P|297:301|136:301,1,170.500005203247,8|0,0:3|3:3,0:0:0:0:
14,235,230127,5,6,0:3:0:0:
89,263,230274,1,0,3:0:0:0:
211,169,230421,1,8,0:0:0:0:
160,231,230569,1,0,3:0:0:0:
190,372,230716,1,6,0:3:0:0:
153,301,230863,1,8,0:3:0:0:
302,180,231010,6,0,P|337:51|320:3,1,170.500005203247,6|4,0:2|0:3,0:0:0:0:
250,0,231451,1,0,0:0:0:0:
141,99,231598,5,8,1:0:0:0:
231,70,231745,5,8,1:0:0:0:
404,203,231892,5,0,0:0:0:0:
256,159,232039,5,4,0:1:0:0:
263,168,232480,5,0,2:0:0:0:
263,168,232774,2,0,L|257:234,1,63.9375019512177,8|0,0:3|2:0,0:0:0:0:
253,266,233069,1,0,0:0:0:0:
248,339,233216,1,0,0:0:0:0:
247,367,233363,5,4,3:0:0:0:
212,302,233657,1,0,2:0:0:0:
212,302,233804,1,2,0:2:0:0:
138,281,234098,1,0,0:0:0:0:
77,328,234392,2,0,P|16:328|16:253,1,124,2|8,0:2|0:3,0:0:0:0:
15,251,234833,5,0,2:0:0:0:
116,173,235127,1,2,0:2:0:0:
241,204,235421,1,0,2:0:0:0:
253,16,235716,6,0,B|229:97|217:49|191:135,1,124,2|0,0:3|2:0,0:0:0:0:
116,173,236157,2,0,P|174:153|236:154,1,124
301,195,236598,1,0,2:0:0:0:
386,133,236745,6,0,P|412:193|410:277,1,124,8|0,0:3|2:0,0:0:0:0:
378,316,237186,1,2,0:2:0:0:
324,367,237333,1,0,2:0:0:0:
393,333,237480,1,8,0:3:0:0:
470,357,237627,1,0,2:0:0:0:
348,277,237774,6,0,P|355:245|375:202,1,62,2|0,0:3|2:0,0:0:0:0:
512,151,238069,2,0,B|441:134|453:161|365:129,1,124,4|0,3:0|3:0,0:0:0:0:
277,128,238510,1,0,2:2:0:0:
330,53,238657,1,8,0:3:0:0:
242,1,238804,2,0,P|229:38|225:79,1,62,2|0,0:2|0:0,0:0:0:0:
294,177,239098,6,0,P|250:141|170:140,1,124,0|8,0:0|0:3,0:0:0:0:
119,171,239539,1,2,0:2:0:0:
64,180,239686,1,0,3:0:0:0:
33,176,239833,5,8,3:0:0:0:
79,201,239980,1,0,2:0:0:0:
130,225,240127,1,2,0:2:0:0:
201,236,240274,1,0,2:0:0:0:
201,236,240421,6,0,P|246:249|302:302,1,124,2|0,0:3|3:0,0:0:0:0:
313,373,240863,2,0,L|390:348,1,62,2|8,0:2|0:3,0:0:0:0:
512,317,241157,2,0,P|472:306|420:257,1,93,2|0,0:2|2:0,0:0:0:0:
432,274,241451,6,0,P|417:220|404:151,1,124,8|0,0:3|2:0,0:0:0:0:
409,124,241892,1,2,0:2:0:0:
336,30,242186,1,8,0:3:0:0:
189,13,242480,2,0,P|151:26|117:38,1,62,0|2,2:0|2:0,0:0:0:0:
74,95,242774,5,4,3:0:0:0:
74,95,242921,1,0,2:0:0:0:
136,146,243069,1,0,0:0:0:0:
136,146,243216,2,0,P|184:173|168:269,2,124,2|0|2,0:2|2:0|0:2,0:0:0:0:
79,327,244098,5,8,0:3:0:0:
171,380,244245,2,0,P|163:340|156:311,1,62,0|0,2:0|3:0,0:0:0:0:
23,253,244539,2,0,P|4:317|18:395,1,124,8|0,0:3|2:0,0:0:0:0:
106,251,244980,5,2,0:2:0:0:
46,170,245127,2,0,L|-21:151,2,62,0|0|0,3:0|2:0|0:0,0:0:0:0:
119,109,245569,5,2,0:2:0:0:
274,191,245863,1,0,2:0:0:0:
388,59,246157,1,2,0:2:0:0:
388,59,246451,5,0,2:0:0:0:
388,59,246598,1,0,0:0:0:0:
274,191,246892,1,8,0:3:0:0:
117,113,247186,1,2,2:0:0:0:
202,0,247480,6,0,P|228:62|227:140,1,124,4|0,3:0|0:0,0:0:0:0:
178,195,247921,2,0,B|101:201|137:229|28:239,2,124,2|0|2,0:2|2:0|0:2,0:0:0:0:
256,236,248804,5,8,0:3:0:0:
256,236,248951,1,2,2:0:0:0:
295,299,249245,1,8,0:3:0:0:
254,367,249539,1,0,2:0:0:0:
205,303,249833,5,4,2:0:0:0:
292,209,250127,1,0,3:0:0:0:
292,209,250274,1,2,0:2:0:0:
205,119,250569,2,0,P|199:82|192:51,1,62,2|0,0:2|2:0,0:0:0:0:
196,18,250863,2,0,P|182:91|164:170,1,155,2|0,2:0|2:0,0:0:0:0:
84,160,251304,6,0,P|93:194|103:247,2,77.5,2|2|2,0:0|0:0|0:0,1:0:0:0:
