osu file format v14

[General]
AudioFilename: audio.mp3
AudioLeadIn: 0
PreviewTime: 65863
Countdown: 0
SampleSet: Soft
StackLeniency: 0.7
Mode: 0
LetterboxInBreaks: 0
WidescreenStoryboard: 1

[Editor]
Bookmarks: 40422,66304,99245,118069,143951,167480,191010,209833,233363
DistanceSpacing: 1.4
BeatDivisor: 4
GridSize: 4
TimelineZoom: 1.300001

[Metadata]
Title:Kamisama no Syndrome
TitleUnicode:神様のシンドローム
Artist:Ayane
ArtistUnicode:彩音
Creator:Kalibe
Version:Kalihas' Hard
Source:ひぐらしのなく頃に 業
Tags:rock full version irohas mugiwarasekai gillstar collaboration higurashi no naku koro ni gou 2020 when the cicadas cry anime ending ed 07th expansion japanese god god's
BeatmapID:2686260
BeatmapSetID:1294539

[Difficulty]
HPDrainRate:5
CircleSize:4
OverallDifficulty:6
ApproachRate:8
SliderMultiplier:2.7
SliderTickRate:2

[Events]
//Background and Video events
0,0,"rikaaa.jpg",0,0
//Break Periods
2,2974,10185
2,193563,207186
//Storyboard Layer 0 (Background)
//Storyboard Layer 1 (Fail)
//Storyboard Layer 2 (Pass)
//Storyboard Layer 3 (Foreground)
//Storyboard Layer 4 (Overlay)
//Storyboard Sound Samples

[TimingPoints]
422,588.235294117647,4,2,4,30,1,0
2774,-153.846153846153,4,2,4,30,0,0
8951,-250,4,1,1,30,0,0
11010,-133.333333333333,4,1,4,40,0,0
12186,-111.111111111111,4,1,1,50,0,0
19980,-100,4,1,1,50,0,0
20274,-133.333333333333,4,1,1,50,0,0
20716,-400,4,1,4,50,0,0
21598,-142.857142857143,4,1,1,50,0,0
30863,-100,4,1,1,50,0,0
31010,-133.333333333333,4,1,1,50,0,0
40127,-125,4,1,1,50,0,0
40421,-111.111111111111,4,1,1,55,0,0
58363,-83.3333333333333,4,1,1,55,0,0
58951,-111.111111111111,4,1,1,55,0,0
59245,-125,4,1,1,60,0,0
61598,-125,4,1,1,65,0,0
63363,-100,4,1,1,65,0,0
63951,-125,4,1,1,65,0,0
64833,-166.666666666667,4,1,1,60,0,0
65127,-111.111111111111,4,1,1,60,0,0
66010,-100,4,1,1,40,0,0
66304,-90.9090909090909,4,1,3,75,0,0
66341,-90.9090909090909,4,1,1,75,0,0
74833,-90.9090909090909,4,1,4,75,0,0
75127,-90.9090909090909,4,1,1,75,0,0
75421,-153.846153846153,4,1,1,75,0,0
75716,-90.9090909090909,4,1,1,75,0,0
88804,-133.333333333333,4,1,1,75,0,0
89245,-133.333333333333,4,1,1,55,0,0
89833,-133.333333333333,4,1,1,55,0,0
93068,-133.333333333333,4,1,1,55,0,0
93216,-133.333333333333,4,1,1,55,0,0
95274,-133.333333333333,4,1,1,75,0,0
95569,-133.333333333333,4,1,1,55,0,0
98363,-250,4,1,1,40,0,0
98657,-250,4,1,1,50,0,0
99245,-142.857142857143,4,2,1,45,0,0
100421,-142.857142857143,4,2,1,75,0,0
100569,-142.857142857143,4,2,1,45,0,0
101451,-142.857142857143,4,2,1,75,0,0
101598,-142.857142857143,4,2,1,45,0,0
102774,-142.857142857143,4,2,1,75,0,0
102921,-142.857142857143,4,2,1,45,0,0
103069,-100,4,2,1,45,0,0
103951,-142.857142857143,4,2,1,45,0,0
105127,-142.857142857143,4,2,1,75,0,0
105274,-142.857142857143,4,2,1,45,0,0
106598,-142.857142857143,4,2,1,75,0,0
106745,-142.857142857143,4,2,1,45,0,0
107333,-142.857142857143,4,2,1,75,0,0
107480,-111.111111111111,4,2,1,45,0,0
108510,-71.4285714285714,4,2,1,65,0,0
108657,-133.333333333333,4,2,1,55,0,0
109088,-133.333333333333,4,2,1,75,0,0
109245,-133.333333333333,4,2,1,55,0,0
111304,-133.333333333333,4,2,1,75,0,0
111451,-133.333333333333,4,2,1,55,0,0
112333,-133.333333333333,4,2,1,75,0,0
112480,-133.333333333333,4,2,1,55,0,0
114539,-133.333333333333,4,2,1,75,0,0
114686,-133.333333333333,4,2,1,55,0,0
116010,-133.333333333333,4,2,1,75,0,0
116157,-133.333333333333,4,2,1,55,0,0
117186,-133.333333333333,4,2,1,75,0,0
117333,-133.333333333333,4,2,1,55,0,0
117480,-111.111111111111,4,2,1,55,0,0
117627,-111.111111111111,4,2,1,75,0,0
117774,-200,4,2,1,40,0,0
118069,-111.111111111111,4,2,1,60,0,0
119833,-100,4,2,1,60,0,0
119980,-111.111111111111,4,2,1,75,0,0
120127,-111.111111111111,4,2,1,60,0,0
120715,-111.111111111111,4,2,1,75,0,0
120863,-111.111111111111,4,2,1,60,0,0
121598,-111.111111111111,4,2,1,75,0,0
121745,-111.111111111111,4,2,1,60,0,0
124686,-111.111111111111,4,2,1,75,0,0
124833,-111.111111111111,4,2,1,60,0,0
126157,-111.111111111111,4,2,1,75,0,0
126451,-111.111111111111,4,2,1,60,0,0
126818,-111.111111111111,4,2,1,75,0,0
126892,-111.111111111111,4,2,1,60,0,0
131451,-111.111111111111,4,2,1,75,0,0
131598,-111.111111111111,4,2,1,60,0,0
134392,-111.111111111111,4,2,1,75,0,0
134539,-111.111111111111,4,2,1,60,0,0
135421,-111.111111111111,4,2,1,75,0,0
135716,-111.111111111111,4,2,1,60,0,0
139392,-111.111111111111,4,2,1,75,0,0
139539,-111.111111111111,4,2,1,60,0,0
142774,-86.9565217391304,4,2,1,80,0,0
143951,-90.9090909090909,4,1,3,75,0,0
143988,-90.9090909090909,4,1,1,75,0,0
152480,-90.9090909090909,4,1,4,75,0,0
152774,-142.857142857143,4,1,1,75,0,0
153363,-90.909090909091,4,1,1,75,0,0
162774,-111.111111111111,4,1,1,75,0,0
167480,-83.3333333333333,4,1,1,75,0,0
167921,-100,4,1,1,70,0,0
175863,-100,4,1,1,75,0,0
176157,-100,4,1,1,70,0,0
176892,-100,4,1,3,75,0,0
176929,-100,4,1,1,75,0,0
180274,-100,4,1,1,75,0,0
180569,-100,4,1,1,75,0,0
180863,-100,4,1,1,75,0,0
181304,-100,4,1,1,75,0,0
181598,-100,4,1,1,75,0,0
183363,-100,4,1,1,75,0,0
183657,-100,4,1,1,75,0,0
183951,-100,4,1,1,75,0,0
189539,-100,4,1,1,65,0,0
189833,-100,4,1,1,60,0,0
190863,-100,4,1,1,40,0,0
191010,-100,4,1,3,40,0,0
191083,-100,4,2,1,40,0,0
193363,-100,4,2,4,50,0,0
208730,-100,4,2,4,80,0,0
209245,-250,4,2,1,45,0,0
209686,-250,4,2,1,65,0,0
209833,-90.9090909090909,4,1,3,75,0,0
209870,-90.9090909090909,4,1,1,75,0,0
212113,-90.9090909090909,4,1,1,5,0,0
212186,-90.9090909090909,4,1,1,75,0,0
228657,-111.111111111111,4,1,1,75,0,0
232039,-111.111111111111,4,1,1,63,0,0
232480,-181.818181818181,4,1,1,50,0,0
233363,-125,4,1,1,50,0,0
234980,-125,4,1,1,75,0,0
235127,-125,4,1,1,50,0,0
235274,-125,4,1,1,75,0,0
235421,-125,4,1,1,50,0,0
235568,-125,4,1,1,75,0,0
235716,-125,4,1,1,50,0,0
236304,-125,4,1,1,75,0,0
236451,-125,4,1,1,50,0,0
237847,-125,4,1,1,75,0,0
237921,-125,4,1,1,50,0,0
241304,-125,4,1,1,75,0,0
241451,-125,4,1,1,50,0,0
243363,-125,4,1,1,75,0,0
243510,-125,4,1,1,50,0,0
245716,-125,4,1,1,75,0,0
246157,-125,4,1,1,50,0,0
246745,-125,4,1,1,75,0,0
246892,-125,4,1,1,50,0,0
247039,-125,4,1,1,75,0,0
247186,-125,4,1,1,50,0,0
247259,-125,4,1,1,75,0,0
247480,-125,4,1,1,50,0,0
248069,-125,4,1,1,75,0,0
248510,-125,4,1,1,50,0,0
249686,-125,4,1,1,75,0,0
249833,-125,4,1,1,50,0,0
250421,-125,4,1,1,75,0,0
250569,-125,4,1,1,50,0,0
250863,-100,4,2,4,50,0,0

[Colours]
Combo1 : 95,193,89
Combo2 : 184,148,205
Combo3 : 206,239,143
Combo4 : 237,194,163

[HitObjects]
256,192,422,12,2,2774,1:2:0:0:
264,7,11010,5,2,0:2:0:0:
253,77,11304,1,0,2:0:0:0:
264,146,11598,1,2,2:0:0:0:
254,216,11892,1,2,2:0:0:0:
229,310,12186,6,0,B|151:301|179:325|103:313,1,121.499996292114,6|0,1:0|0:0,0:0:0:0:
33,246,12627,2,0,L|60:113,2,121.499996292114,0|0|2,0:0|0:0|3:0,0:0:0:0:
155,127,13510,1,0,0:0:0:0:
155,127,13657,2,0,P|145:98|151:50,1,60.7499981460572,2|0,0:2|3:0,0:0:0:0:
220,71,13951,2,0,P|228:43|248:20,1,60.7499981460572,0|0,0:0|3:0,0:0:0:0:
306,65,14245,2,0,P|334:49|383:44,1,60.7499981460572,2|0,3:0|0:0,0:0:0:0:
483,117,14539,6,0,P|436:111|353:135,1,121.499996292114,2|0,0:2|0:0,0:0:0:0:
292,196,14980,2,0,B|315:274|272:250|301:338,2,121.499996292114,0|2|2,0:0|0:2|0:3,0:0:0:0:
396,330,15863,1,8,3:0:0:0:
401,335,16010,1,2,2:0:0:0:
237,384,16304,1,0,0:0:0:0:
77,326,16598,2,0,P|49:340|5:351,1,60.7499981460572,0|0,3:0|3:1,0:0:0:0:
92,253,16892,6,0,P|74:217|121:138,1,121.499996292114,4|0,0:0|0:0,0:0:0:0:
180,120,17333,1,0,0:0:0:0:
332,194,17627,1,2,2:0:0:0:
489,129,17921,2,0,B|421:111|443:97|375:80,1,121.499996292114,2|0,0:0|0:0,0:0:0:0:
293,105,18363,5,2,0:0:0:0:
223,57,18510,1,8,3:0:0:0:
223,57,18657,2,0,P|194:47|145:42,1,60.7499981460572,8|0,3:0|0:0,0:0:0:0:
118,26,18951,2,0,P|88:33|53:54,1,60.7499981460572,8|0,3:0|0:0,0:0:0:0:
0,127,19245,6,0,P|2:150|1:250,1,121.499996292114,2|0,0:2|0:0,0:0:0:0:
35,322,19686,1,0,2:2:0:0:
165,276,19980,1,2,0:2:0:0:
302,339,20274,2,0,B|358:330|358:330|393:340|393:340|460:326,1,151.875005793572,2|0,0:0|2:0,0:0:0:0:
450,327,21010,1,0,2:0:0:0:
450,327,21304,1,0,2:0:0:0:
453,206,21598,6,0,B|465:136|465:136|386:162,1,141.749995674133,4|0,3:2|0:0,0:0:0:0:
319,149,22186,2,0,L|337:254,1,94.4999971160889,8|0,0:0|0:0,0:0:0:0:
276,280,22627,1,0,2:0:0:0:
154,227,22921,2,0,L|162:175,2,47.2499985580445,0|0|0,2:0|2:0|3:0,0:0:0:0:
116,251,23363,2,0,P|77:252|43:194,1,94.4999971160889,8|2,1:3|2:0,0:0:0:0:
5,85,23951,6,0,B|82:101|61:60|158:83,1,141.749995674133
229,30,24539,2,0,L|237:92,1,47.2499985580445
308,92,24833,1,8,0:0:0:0:
308,92,24980,2,0,P|403:79|465:80,1,141.749995674133,2|0,3:2|2:0,0:0:0:0:
343,159,25716,1,12,3:3:0:0:
217,116,26010,1,0,0:0:0:0:
107,189,26304,6,0,P|78:200|-2:216,1,94.4999971160889,0|0,3:0|2:0,0:0:0:0:
55,293,26745,1,0,0:0:0:0:
55,293,26892,2,0,P|42:322|-6:379,1,94.4999971160889,8|0,0:0|3:0,0:0:0:0:
3,370,27333,2,0,P|103:337|146:356,1,141.749995674133,0|0,2:0|2:0,0:0:0:0:
260,382,28069,1,8,0:3:0:0:
372,309,28363,1,2,2:0:0:0:
372,309,28510,1,0,2:0:0:0:
372,309,28657,6,0,L|358:198,1,94.4999971160889,0|0,0:0|2:0,0:0:0:0:
384,145,29098,2,0,L|449:134,1,47.2499985580445,0|8,0:0|0:0,0:0:0:0:
448,105,29392,1,0,0:0:0:0:
379,68,29539,2,0,B|266:44|293:96|174:68,1,188.999994232178
86,151,30421,2,0,P|67:123|74:47,1,94.4999971160889,8|0,0:3|2:0,0:0:0:0:
134,9,30863,6,2,L|189:-7,2,33.75,2|2|6,2:0|2:0|2:0,2:0:0:0:
252,87,31304,6,0,L|324:102,1,50.6250019311906,0|0,2:0|0:0,0:0:0:0:
358,54,31598,2,0,P|353:71|341:164,1,101.250003862381,8|0,0:0|0:0,0:0:0:0:
388,205,32039,1,0,2:0:0:0:
279,296,32333,2,0,L|208:283,2,50.6250019311906,0|0|0,2:0|2:0|0:0,0:0:0:0:
317,364,32774,2,0,B|267:370|267:370|263:374|263:374|202:380,1,101.250003862381,8|0,0:3|0:0,0:0:0:0:
159,329,33216,1,0,0:0:0:0:
88,320,33363,6,0,P|38:308|39:209,1,151.875005793572,2|0,0:2|0:0,0:0:0:0:
96,180,33951,2,0,L|111:244,1,50.6250019311906,8|0,0:0|0:0,0:0:0:0:
172,255,34245,1,0,3:0:0:0:
173,181,34392,2,0,P|175:117|185:14,1,151.875005793572,4|0,0:3|2:0,0:0:0:0:
317,73,35127,1,8,0:3:0:0:
447,18,35421,1,0,2:0:0:0:
496,151,35716,6,0,P|443:122|391:124,1,101.250003862381,0|0,3:0|2:0,0:0:0:0:
332,99,36157,1,0,0:0:0:0:
332,99,36304,2,0,P|286:121|251:181,1,101.250003862381,8|0,0:0|0:0,0:0:0:0:
320,197,36745,2,0,P|403:218|415:283,1,151.875005793572,0|0,2:0|0:0,0:0:0:0:
298,351,37480,2,0,L|195:371,1,101.250003862381,8|2,0:3|0:2,0:0:0:0:
198,370,37921,1,0,2:0:0:0:
198,370,38069,1,2,1:2:0:0:
256,192,38142,12,0,39833,2:0:0:0:
494,372,40421,6,0,B|388:355|429:314|323:311,1,182.249994438172,6|0,0:0|3:0,0:0:0:0:
234,233,41010,2,0,L|294:220,1,60.7499981460572,8|0,0:0|2:0,0:0:0:0:
221,330,41304,2,0,P|159:340|111:309,1,121.499996292114,4|0,0:3|2:0,0:0:0:0:
112,310,41745,1,0,0:0:0:0:
112,310,41892,1,0,3:0:0:0:
38,95,42186,1,8,0:0:0:0:
0,214,42480,5,0,0:0:0:0:
0,214,42627,1,2,2:0:0:0:
0,214,42774,2,0,L|130:188,1,121.499996292114,0|0,3:0|0:0,0:0:0:0:
197,150,43216,1,0,3:0:0:0:
197,150,43363,2,0,P|252:170|313:156,1,121.499996292114,8|4,0:0|0:3,0:0:0:0:
469,59,43951,2,0,P|461:26|463:-16,1,60.7499981460572,0|8,2:0|0:0,0:0:0:0:
377,90,44245,5,0,3:0:0:0:
394,203,44539,1,8,0:0:0:0:
412,312,44833,1,0,0:0:0:0:
412,312,44980,1,8,0:3:0:0:
412,312,45127,6,0,P|356:286|292:296,1,121.499996292114,2|0,0:2|2:0,0:0:0:0:
235,234,45569,1,0,3:0:0:0:
235,234,45716,2,0,L|254:105,1,121.499996292114,8|0,0:0|3:0,0:0:0:0:
167,37,46157,1,2,0:2:0:0:
167,37,46304,2,0,L|179:103,1,60.7499981460572,0|0,2:0|0:0,0:0:0:0:
260,27,46598,5,4,3:0:0:0:
67,165,46892,1,8,0:0:0:0:
275,272,47186,1,0,2:0:0:0:
275,272,47333,1,0,2:2:0:0:
275,272,47480,6,0,L|407:250,1,121.499996292114,2|0,0:2|2:2,0:0:0:0:
472,210,47921,1,0,3:0:0:0:
472,210,48069,2,0,P|508:255|494:313,1,121.499996292114,8|6,0:0|0:3,0:0:0:0:
320,0,48657,6,0,L|307:59,1,60.7499981460572,2|8,0:0|0:0,0:0:0:0:
361,130,48951,1,0,3:0:0:0:
361,130,49098,2,0,L|401:123,2,30.3749990730286,0|0|8,3:0|3:3|0:0,0:0:0:0:
292,181,49392,1,8,1:3:0:0:
292,181,49539,1,0,3:3:0:0:
292,181,49686,1,0,3:3:0:0:
203,145,49833,6,0,P|138:163|80:170,2,121.499996292114,6|0|8,0:0|2:0|0:0,0:0:0:0:
472,384,50716,2,0,P|497:341|482:273,1,121.499996292114,6|0,0:3|0:0,0:0:0:0:
407,232,51157,1,0,0:0:0:0:
407,232,51304,2,0,L|344:245,1,60.7499981460572,0|2,3:0|0:2,0:0:0:0:
287,299,51598,1,8,0:0:0:0:
196,213,51892,2,0,B|175:158|222:148|195:78,1,121.499996292114,4|4,0:3|0:2,0:0:0:0:
200,94,52480,6,0,L|131:110,1,60.7499981460572,2|0,0:0|0:0,0:0:0:0:
32,8,52774,2,0,P|77:-11|137:29,1,121.499996292114,8|4,0:0|0:3,0:0:0:0:
279,177,53363,1,0,2:0:0:0:
279,177,53510,2,0,L|405:156,1,121.499996292114,8|0,0:0|0:0,0:0:0:0:
458,220,53951,2,0,L|445:279,1,60.7499981460572,8|8,0:0|0:3,0:0:0:0:
478,383,54245,1,6,0:3:0:0:
478,383,54392,1,8,0:0:0:0:
478,383,54539,6,0,P|431:349|363:356,1,121.499996292114,6|0,3:1|0:0,0:0:0:0:
285,318,54980,2,0,B|216:333|216:333|204:365|204:365|123:386,1,182.249994438172,8|8,3:0|3:0,0:0:0:0:
32,264,55716,6,0,P|66:250|135:294,1,121.499996292114,6|0,3:1|0:0,0:0:0:0:
214,215,56157,2,0,B|250:135|182:120|223:30,1,182.249994438172,8|8,3:0|3:0,0:0:0:0:
219,37,56892,6,0,L|344:14,1,121.499996292114,6|0,0:2|2:0,0:0:0:0:
406,67,57333,2,8,L|397:107,2,30.3749990730286,0|0|8,3:0|0:0|0:0,0:0:0:0:
483,181,57774,6,0,L|524:172,4,30.3749990730286,2|0|0|0|2,0:3|2:0|2:0|2:0|2:0,0:0:0:0:
500,192,58363,6,0,B|416:166|416:166|371:175|377:227,1,161.999995056153,0|8,0:0|0:0,0:0:0:0:
477,382,58951,2,0,P|482:351|494:318,1,60.7499981460572,6|8,2:2|0:0,0:0:0:0:
390,323,59245,6,0,L|277:344,1,108,4|0,1:0|3:0,0:0:0:0:
218,281,59686,2,0,L|240:168,2,108,2|2|0,0:0|0:2|0:3,0:0:0:0:
153,331,60421,5,2,0:2:0:0:
7,219,60716,1,8,0:3:0:0:
7,219,60863,2,0,P|55:229|109:193,1,108,0|0,2:0|2:0,0:0:0:0:
152,126,61304,2,0,L|139:70,1,54,8|2,0:3|2:0,0:0:0:0:
243,150,61598,6,0,L|354:130,1,108,4|8,0:2|0:3,0:0:0:0:
349,130,62039,1,0,0:0:0:0:
349,130,62186,1,8,0:0:0:0:
454,238,62480,2,0,L|442:301,1,54,0|8,3:0|0:3,0:0:0:0:
508,384,62774,5,4,0:2:0:0:
331,309,63069,1,0,0:0:0:0:
331,309,63216,1,0,3:0:0:0:
331,309,63363,2,0,P|293:322|262:323,1,67.5,8|0,0:0|0:0,0:0:0:0:
195,353,63657,2,0,P|160:340|130:339,1,67.5,2|2,0:3|0:3,0:0:0:0:
10,294,63951,6,0,B|106:287|63:251|169:253,2,162,6|2|0,0:2|2:0|2:0,0:0:0:0:
125,175,65127,2,0,P|116:146|116:109,1,60.7499981460572,6|2,0:2|2:0,0:0:0:0:
64,49,65421,2,0,P|35:40|5:38,1,60.7499981460572,4|4,0:3|0:3,0:0:0:0:
196,101,65716,2,0,P|226:97|254:87,1,60.7499981460572,8|0,0:0|0:0,0:0:0:0:
355,50,66010,6,0,L|362:13,3,33.75,0|6|6|0,2:0|0:3|0:3|0:0,0:0:0:0:
341,37,66304,6,0,P|311:50|195:3,1,148.50000453186,6|0,0:1|2:0,0:0:0:0:
135,37,66745,1,0,0:0:0:0:
203,108,66892,2,0,P|207:127|210:200,1,74.2500022659302,8|0,0:0|2:0,0:0:0:0:
131,134,67186,2,0,P|129:152|91:291,1,148.50000453186,0|0,1:3|0:0,0:0:0:0:
145,382,67627,1,8,0:0:0:0:
183,313,67774,2,0,L|260:290,1,74.2500022659302,2|0,1:2|2:0,0:0:0:0:
319,343,68069,2,0,B|407:359|407:359|323:385,1,148.50000453186,8|2,0:0|0:2,0:0:0:0:
432,280,68510,1,0,3:0:0:0:
497,346,68657,6,0,B|464:320|465:288|465:288|503:197,1,148.50000453186,4|2,3:2|0:2,0:0:0:0:
422,137,69098,1,0,0:0:0:0:
512,134,69245,2,0,B|453:120|453:120|436:94|436:94|375:78,1,148.50000453186,8|2,0:0|0:3,0:0:0:0:
312,22,69686,1,8,0:0:0:0:
113,85,69980,1,8,0:0:0:0:
51,39,70127,2,0,P|81:39|198:21,2,148.50000453186,2|10|0,0:2|0:0|2:0,0:0:0:0:
0,113,70863,1,8,0:0:0:0:
35,200,71010,6,0,P|54:178|84:112,1,74.2500022659302,4|0,0:0|0:0,0:0:0:0:
141,110,71304,2,0,P|163:123|230:143,1,74.2500022659302,8|0,0:3|3:0,0:0:0:0:
123,215,71598,2,0,P|158:207|185:311,1,148.50000453186,8|2,0:0|0:2,0:0:0:0:
281,302,72039,2,0,P|249:294|183:380,1,148.50000453186,8|8,0:0|0:0,0:0:0:0:
105,309,72480,1,0,3:0:0:0:
284,206,72774,1,8,0:0:0:0:
288,211,72921,1,0,0:0:0:0:
363,269,73069,2,0,P|383:278|433:293,1,74.2500022659302,2|2,0:3|0:2,0:0:0:0:
373,189,73363,6,0,P|343:148|369:51,1,148.50000453186,4|8,0:2|0:3,0:0:0:0:
441,3,73804,1,0,0:0:0:0:
341,20,73951,6,0,L|261:6,1,74.2500022659302,8|0,0:0|3:0,0:0:0:0:
195,82,74245,1,6,0:2:0:0:
161,150,74392,2,0,B|176:82|176:82|86:110,1,148.50000453186,8|8,0:0|0:0,0:0:0:0:
18,18,74833,2,0,L|65:32,2,37.1250011329651,2|2|2,2:0|2:0|2:0,0:0:0:0:
26,122,75127,6,0,L|-8:220,1,74.2500022659302,8|8,1:0|0:0,0:0:0:0:
124,228,75421,6,0,L|134:278,1,43.874997991562,0|0,3:0|3:0,0:0:0:0:
0,342,75716,6,0,P|34:335|95:328,1,74.2500022659302,6|0,0:0|2:0,0:0:0:0:
205,297,76010,2,0,P|236:304|293:322,1,74.2500022659302,2|0,0:2|0:0,0:0:0:0:
341,384,76304,2,0,B|331:342|309:315|309:315|346:320|396:294,1,148.50000453186,8|4,0:0|0:2,0:0:0:0:
284,226,76745,2,0,B|199:217|234:185|130:173,1,148.50000453186,2|8,0:0|0:0,0:0:0:0:
61,219,77186,1,0,3:0:0:0:
224,90,77480,2,0,P|242:64|258:14,1,74.2500022659302,8|0,0:0|2:0,0:0:0:0:
188,0,77774,1,2,0:2:0:0:
188,0,77921,1,0,0:0:0:0:
235,92,78069,6,0,P|311:89|365:27,1,148.50000453186,4|0,0:2|0:0,0:0:0:0:
451,5,78510,1,0,3:0:0:0:
386,60,78657,2,0,P|387:77|417:156,1,74.2500022659302,8|0,0:0|0:0,0:0:0:0:
336,157,78951,1,2,3:0:0:0:
419,211,79098,2,0,B|522:196|522:196|480:260,1,148.50000453186,8|8,0:0|0:0,0:0:0:0:
425,316,79539,2,0,L|261:302,1,148.50000453186,0|8,3:0|0:0,0:0:0:0:
91,220,80127,1,2,2:0:0:0:
91,220,80274,1,0,0:0:0:0:
0,303,80421,6,0,P|35:294|97:291,1,74.2500022659302,6|0,0:2|0:0,0:0:0:0:
205,145,80716,2,0,P|169:153|110:159,1,74.2500022659302,2|0,0:2|0:0,0:0:0:0:
91,220,81010,2,0,P|116:182|71:91,1,148.50000453186,8|2,0:0|3:0,0:0:0:0:
9,25,81451,1,8,0:0:0:0:
203,98,81745,1,8,0:0:0:0:
216,22,81892,2,0,L|118:0,1,74.2500022659302,0|0,3:0|0:0,0:0:0:0:
203,98,82186,2,0,B|254:92|254:92|299:106|299:106|356:97,1,148.50000453186,8|0,0:0|0:0,0:0:0:0:
433,61,82627,1,0,0:0:0:0:
441,58,82774,5,6,0:2:0:0:
290,202,83069,2,0,P|301:227|307:290,1,74.2500022659302,8|0,0:3|3:0,0:0:0:0:
357,360,83363,2,0,P|275:299|222:327,1,148.50000453186,8|2,0:0|0:2,0:0:0:0:
80,305,83804,2,0,P|162:244|215:272,1,148.50000453186,0|8,2:0|0:0,0:0:0:0:
256,329,84245,1,0,3:0:0:0:
196,377,84392,1,0,0:0:0:0:
196,377,84466,1,0,3:0:0:0:
196,377,84539,2,0,L|108:361,1,74.2500022659302,8|8,0:0|0:0,0:0:0:0:
72,271,84833,2,0,L|-1:287,1,74.2500022659302,2|0,3:2|3:0,0:0:0:0:
0,192,85127,6,0,P|-4:161|5:34,1,148.50000453186,6|0,0:0|2:0,0:0:0:0:
62,0,85569,1,4,0:2:0:0:
114,87,85716,2,0,P|181:147|239:117,1,148.50000453186,8|2,0:0|0:0,0:0:0:0:
302,52,86157,2,0,P|318:20|414:32,1,148.50000453186,8|0,0:0|3:0,0:0:0:0:
478,106,86598,5,2,3:0:0:0:
288,192,86892,1,8,0:0:0:0:
458,310,87186,1,2,0:2:0:0:
369,121,87480,6,0,P|369:149|351:281,1,148.50000453186,4|0,0:0|0:0,0:0:0:0:
326,333,87921,1,4,3:0:0:0:
232,277,88069,2,0,P|224:248|216:192,1,74.2500022659302,8|8,0:0|3:0,0:0:0:0:
145,241,88363,1,0,0:0:0:0:
112,330,88510,1,6,0:0:0:0:
74,356,89245,6,0,P|65:222|121:188,1,202.500007724762,0|2,0:0|0:2,0:0:0:0:
0,136,90127,5,0,0:0:0:0:
0,136,90274,2,0,P|28:131|91:179,1,101.250003862381
183,271,90863,2,0,P|219:266|306:265,1,101.250003862381,0|8,2:0|0:3,0:0:0:0:
357,319,91304,2,0,P|303:309|256:307,2,101.250003862381,2|8|0,0:2|0:3|0:0,0:0:0:0:
461,223,92186,6,0,P|450:195|442:114,1,101.250003862381,2|0,0:2|0:0,0:0:0:0:
491,75,92627,1,0,0:0:0:0:
435,30,92774,2,0,P|399:25|334:3,1,101.250003862381,8|0,0:3|0:0,2:0:0:0:
337,4,93216,1,0,0:0:0:0:
192,118,93657,5,2,0:2:0:0:
75,159,93951,1,8,0:3:0:0:
12,54,94245,2,0,L|1:17,2,25.3125009655953,0|0|0,0:0|2:0|2:0,0:0:0:0:
99,34,94539,6,0,L|78:139,1,101.250003862381,4|0,0:2|0:0,0:0:0:0:
130,179,94980,2,0,L|115:238,1,50.6250019311906,2|8,0:2|0:3,0:0:0:0:
69,280,95274,1,0,0:0:0:0:
182,378,95569,2,0,P|171:344|179:268,1,101.250003862381,8|0,0:3|2:0,0:0:0:0:
235,244,96010,2,0,P|244:217|256:130,2,101.250003862381,2|8|0,0:2|0:3|0:0,0:0:0:0:
348,332,96892,6,0,P|375:330|459:350,1,101.250003862381,2|0,0:2|0:0,0:0:0:0:
497,285,97333,1,0,2:0:0:0:
501,281,97480,2,0,P|485:253|481:166,1,101.250003862381,8|0,0:3|2:0,0:0:0:0:
390,152,97921,6,0,B|324:100|370:83|300:27,1,151.875005793572,2|0,2:0|2:0,0:0:0:0:
304,30,98657,1,0,2:0:0:0:
304,30,98951,1,0,2:0:0:0:
232,70,99245,6,0,P|160:77|99:27,1,141.749995674133,0|0,1:0|0:0,0:0:0:0:
22,79,99833,2,0,P|15:88|1:175,1,94.4999971160889,0|0,1:0|0:0,0:0:0:0:
43,245,100274,2,0,L|34:297,1,47.2499985580445,0|0,0:0|1:0,0:0:0:0:
105,352,100569,2,0,L|157:343,2,47.2499985580445,8|0|0,3:0|0:0|0:0,0:0:0:0:
34,291,101010,5,0,1:0:0:0:
252,362,101304,1,0,3:0:0:0:
252,362,101451,1,2,0:0:0:0:
252,362,101598,6,0,B|332:347|296:318|393:313,1,141.749995674133,2|0,1:2|3:0,0:0:0:0:
464,371,102186,2,0,P|480:339|476:281,1,94.4999971160889,0|0,1:0|0:0,0:0:0:0:
428,214,102627,2,0,L|441:162,1,47.2499985580445,0|0,0:0|1:0,0:0:0:0:
415,18,102921,1,8,3:0:0:0:
478,78,103069,6,0,P|443:69|359:120,2,135,0|2|0,0:0|1:2|0:0,0:0:0:0:
298,202,103951,6,0,P|228:211|163:168,1,141.749995674133,0|0,1:0|1:0,0:0:0:0:
126,110,104539,1,0,3:0:0:0:
25,259,104833,2,0,L|35:311,1,47.2499985580445
110,384,105127,2,0,L|118:337,1,47.2499985580445,0|8,1:0|3:0,0:0:0:0:
187,281,105421,6,0,P|233:278|276:308,1,94.4999971160889,0|2,0:0|1:2,0:0:0:0:
461,182,106010,1,0,3:0:0:0:
461,182,106157,2,0,P|391:219|323:203,1,141.749995674133
270,141,106745,6,0,L|326:128,1,47.2499985580445,0|2,0:0|1:2,0:0:0:0:
187,281,107186,2,0,L|140:270,1,47.2499985580445
65,326,107480,6,0,P|58:291|43:251,1,60.7499981460572,0|0,1:0|3:0,0:0:0:0:
0,184,107774,2,0,L|13:110,1,60.7499981460572,0|0,3:0|3:0,0:0:0:0:
65,44,108069,6,0,P|100:37|185:141,1,182.249994438172,2|2,1:3|0:0,0:0:0:0:
188,150,108583,1,2,0:0:0:0:
180,163,108657,1,6,3:0:0:0:
277,50,108951,6,0,L|294:-6,1,50.6250019311906
363,14,109245,2,0,L|348:125,1,101.250003862381,0|0,1:0|0:0,0:0:0:0:
294,180,109686,2,0,L|311:295,1,101.250003862381,0|0,0:0|3:0,0:0:0:0:
378,334,110127,2,0,L|431:323,2,50.6250019311906,0|0|0,3:0|3:0|1:0,0:0:0:0:
245,384,110716,2,0,P|196:356|149:357,1,101.250003862381,0|2,3:0|1:2,0:0:0:0:
152,356,111304,6,0,L|101:367,1,50.6250019311906
30,318,111598,2,0,P|22:285|52:217,1,101.250003862381,0|0,1:0|0:0,0:0:0:0:
106,159,112039,2,0,P|110:104|86:54,1,101.250003862381,2|0,0:0|0:0,0:0:0:0:
32,2,112480,1,0,0:0:0:0:
225,31,112774,1,0,1:0:0:0:
192,235,113069,1,0,3:0:0:0:
0,200,113363,1,0,1:0:0:0:
0,200,113657,6,0,L|52:190,1,50.6250019311906
119,142,113951,2,0,L|227:158,1,101.250003862381,0|0,1:0|1:0,0:0:0:0:
296,122,114392,1,0,0:0:0:0:
296,122,114539,2,0,L|306:180,2,50.6250019311906,0|0|0,0:0|3:0|0:0,0:0:0:0:
229,22,115127,5,0,1:0:0:0:
390,213,115421,1,0,3:0:0:0:
390,213,115569,1,0,3:0:0:0:
390,213,115716,2,0,L|370:327,1,101.250003862381,2|0,1:2|0:0,0:0:0:0:
314,369,116157,1,0,3:0:0:0:
241,338,116304,6,0,P|141:337|76:260,1,202.500007724762,2|2,1:2|1:2,0:0:0:0:
77,264,117186,2,0,L|23:277,1,50.6250019311906
142,208,117480,6,0,P|151:171|151:138,1,60.7499981460572,4|0,3:0|0:0,0:0:0:0:
81,67,117774,1,2,0:2:0:0:
81,67,118069,6,0,P|117:69|283:96,1,182.249994438172,6|0,1:0|1:0,0:0:0:0:
399,16,118657,2,0,P|369:21|340:30,1,60.7499981460572,8|0,1:0|0:0,0:0:0:0:
387,99,118951,2,0,P|379:124|372:226,1,121.499996292114,2|0,1:2|0:0,0:0:0:0:
448,271,119392,1,0,1:0:0:0:
448,271,119539,1,2,3:0:0:0:
286,368,119833,1,8,1:0:0:0:
136,287,120127,1,2,0:0:0:0:
293,222,120421,6,0,B|365:247|330:264|406:287,1,121.499996292114,0|0,1:0|0:0,0:0:0:0:
321,338,120863,1,0,3:0:0:0:
321,338,121010,2,0,P|301:339|194:379,2,121.499996292114,8|2|0,1:0|1:2|0:0,0:0:0:0:
396,288,121745,2,0,P|425:294|452:307,1,60.7499981460572,0|0,1:0|3:0,0:0:0:0:
355,168,122186,2,0,P|365:140|360:35,1,121.499996292114,8|0,1:0|3:0,0:0:0:0:
273,1,122627,1,8,1:0:0:0:
205,37,122774,6,0,B|113:1|87:67|10:37,1,182.249994438172,4|0,1:2|1:0,0:0:0:0:
55,114,123363,2,0,L|63:239,1,121.499996292114,8|0,1:0|1:0,0:0:0:0:
0,304,123804,1,2,0:0:0:0:
0,304,123951,1,0,0:0:0:0:
156,237,124245,1,0,3:0:0:0:
289,342,124539,2,0,L|304:273,1,60.7499981460572,8|0,1:0|0:0,0:0:0:0:
336,211,124833,2,0,L|272:191,1,60.7499981460572,2|0,0:0|0:0,0:0:0:0:
317,297,125127,6,0,B|361:289|361:289|389:298|389:298|448:290,1,121.499996292114,2|0,1:2|0:0,0:0:0:0:
497,230,125569,1,0,0:0:0:0:
509,222,125716,2,0,P|486:188|496:87,1,121.499996292114,8|2,1:0|1:2,0:0:0:0:
435,173,126157,2,0,P|396:135|391:54,1,121.499996292114,0|8,0:0|1:0,0:0:0:0:
314,100,126598,2,0,P|280:97|220:41,1,91.1249972190858,0|0,3:0|0:0,0:0:0:0:
233,65,126892,2,0,P|205:75|160:83,1,60.7499981460572,8|0,1:0|1:0,0:0:0:0:
106,119,127186,1,0,1:0:0:0:
3,93,127333,5,6,1:2:0:0:
3,93,127480,2,0,B|29:130|81:131|81:131|25:170|17:215,1,182.249994438172,6|0,1:0|3:0,0:0:0:0:
129,252,128069,2,0,B|84:260|84:260|63:277|63:277|6:288,2,121.499996292114,8|2|0,1:0|1:2|0:0,0:0:0:0:
184,193,128804,1,0,1:0:0:0:
196,200,128951,1,2,1:3:0:0:
339,286,129245,1,8,1:0:0:0:
466,173,129539,2,0,P|457:153|452:93,1,60.7499981460572,2|0,1:2|0:0,0:0:0:0:
512,62,129833,6,0,B|419:84|442:53|317:76,1,182.249994438172,4|0,1:2|1:0,0:0:0:0:
252,119,130421,1,8,1:0:0:0:
128,0,130716,6,0,P|162:7|331:32,1,182.249994438172,2|0,1:2|1:0,0:0:0:0:
408,84,131304,2,0,P|441:72|479:55,1,60.7499981460572,0|0,3:0|0:0,0:0:0:0:
360,167,131598,2,0,P|362:185|348:300,1,121.499996292114,8|4,1:0|0:3,0:0:0:0:
424,355,132039,6,0,L|434:405,2,30.3749990730286,0|0|4,1:0|1:0|1:0,0:0:0:0:
268,267,132480,1,0,0:0:0:0:
189,313,132627,1,8,3:0:0:0:
189,313,132774,2,0,B|116:327|154:348|75:364,1,121.499996292114,2|0,1:2|3:0,0:0:0:0:
178,223,133363,2,0,P|191:118|262:116,1,182.249994438172,6|8,1:0|3:0,0:0:0:0:
305,163,133951,1,0,1:0:0:0:
326,195,134245,6,0,P|298:187|247:182,1,60.7499981460572,0|0,1:0|0:0,0:0:0:0:
154,136,134539,2,0,P|123:140|81:151,1,60.7499981460572,4|0,1:0|0:0,0:0:0:0:
25,174,134833,2,0,P|22:145|63:49,2,121.499996292114,0|8|0,0:0|1:0|0:0,0:0:0:0:
88,329,135716,5,4,0:3:0:0:
202,303,136010,1,0,1:0:0:0:
312,350,136304,1,8,1:0:0:0:
433,307,136598,1,4,0:3:0:0:
486,245,136745,5,0,1:3:0:0:
491,240,136892,2,0,P|485:207|487:104,1,121.499996292114,4|4,1:0|0:3,0:0:0:0:
389,161,137333,2,0,P|393:142|413:99,1,60.7499981460572,0|8,1:0|1:0,0:0:0:0:
459,45,137627,2,0,P|429:53|403:67,1,60.7499981460572,2|4,0:2|0:3,0:0:0:0:
315,132,137921,5,2,1:3:0:0:
210,76,138069,2,0,P|241:49|332:76,1,121.499996292114,0|4,0:3|1:3,0:0:0:0:
221,155,138510,2,0,B|136:139|176:163|95:145,2,121.499996292114,0|2|0,0:0|0:0|1:0,0:0:0:0:
328,215,139245,6,0,L|391:236,1,60.7499981460572,6|0,1:2|0:0,0:0:0:0:
265,272,139539,1,4,0:3:0:0:
369,314,139686,2,0,P|404:308|509:296,1,121.499996292114,0|0,1:0|0:0,0:0:0:0:
431,384,140127,2,0,P|436:361|443:310,1,60.7499981460572,4|0,1:3|0:0,0:0:0:0:
353,231,140421,6,0,B|282:213|320:201|235:179,1,121.499996292114,2|4,1:2|1:3,0:0:0:0:
41,277,140863,2,0,B|112:259|74:247|159:225,1,121.499996292114,4|2,1:2|3:2,0:0:0:0:
241,330,141304,2,0,L|229:257,1,60.7499981460572,4|0,0:3|3:0,0:0:0:0:
231,270,141524,1,8,1:0:0:0:
231,270,141598,5,8,1:3:0:0:
57,174,142039,5,2,0:0:0:0:
296,98,142480,5,2,0:0:0:0:
109,57,142774,6,2,B|214:43|214:43|178:91,1,155.250002961159,14|0,1:0|0:0,1:0:0:0:
268,165,143216,1,0,3:3:0:0:
274,169,143289,1,0,3:3:0:0:
280,173,143363,2,0,B|301:179|301:179|376:162,1,77.6250014805794,6|2,1:2|1:2,0:0:0:0:
227,279,143657,2,0,B|208:332|231:304|209:361,1,77.6250014805794,12|14,1:3|1:3,0:0:0:0:
134,204,143951,6,0,B|106:174|106:174|135:58,1,148.50000453186,6|2,0:1|0:3,0:0:0:0:
172,0,144392,1,0,0:0:0:0:
242,39,144539,2,0,P|282:41|328:131,1,148.50000453186,8|4,0:0|0:2,0:0:0:0:
389,184,144980,2,0,P|417:192|508:125,1,148.50000453186,2|8,0:0|0:0,0:0:0:0:
506,129,145421,5,2,0:2:0:0:
313,286,145716,2,0,B|226:275|268:241|166:237,2,148.50000453186,8|2|4,0:0|0:3|0:2,0:0:0:0:
388,183,146451,1,0,0:0:0:0:
388,183,146598,2,0,P|354:190|307:199,1,74.2500022659302,2|0,0:3|3:0,0:0:0:0:
457,248,146892,6,0,P|470:189|492:92,1,148.50000453186,8|0,0:0|3:0,0:0:0:0:
509,0,147333,2,8,P|470:-6|394:67,1,148.50000453186
315,114,147774,2,0,L|237:100,1,74.2500022659302,2|0,3:2|2:0,0:0:0:0:
177,38,148069,5,8,0:0:0:0:
64,207,148363,1,2,0:3:0:0:
64,207,148510,1,8,0:3:0:0:
64,207,148657,6,0,P|77:237|83:288,1,74.2500022659302,4|0,0:2|2:0,0:0:0:0:
80,367,148951,2,0,B|161:362|128:326|227:326,1,148.50000453186,2|8,0:3|0:0,0:0:0:0:
341,194,149539,1,2,0:3:0:0:
413,247,149686,2,8,P|345:280|275:259,1,148.50000453186,8|8,3:0|0:0,0:0:0:0:
226,176,150127,2,0,L|241:95,1,74.2500022659302,0|0,3:0|2:0,0:0:0:0:
142,2,150421,5,8,0:0:0:0:
144,14,150569,1,0,0:0:0:0:
147,25,150716,1,2,1:2:0:0:
150,38,150863,1,2,0:0:0:0:
153,51,151010,2,0,P|115:74|108:172,2,148.50000453186,4|2|8,1:2|0:3|0:0,0:0:0:0:
420,19,151892,6,0,P|381:13|347:-2,1,74.2500022659302,2|0,1:2|0:0,0:0:0:0:
449,135,152186,2,0,P|434:168|426:205,1,74.2500022659302,2|8,2:0|0:0,0:0:0:0:
343,111,152480,2,0,P|272:124|197:138,1,148.50000453186,2|8,2:0|0:0,0:0:0:0:
126,79,152921,6,8,L|136:25,2,47.2499985580445,8|4|4,0:3|3:0|3:0,0:3:0:0:
51,119,153363,6,0,L|131:101,1,74.2500022659302,6|0,0:0|0:0,0:0:0:0:
131,216,153657,2,0,P|84:234|-1:195,1,148.50000453186,2|8,0:3|0:0,0:0:0:0:
151,309,154245,1,2,1:2:0:0:
151,309,154392,2,0,B|235:315|210:270|304:284,1,148.50000453186,0|8,0:0|0:0,0:0:0:0:
332,200,154833,2,0,L|314:287,1,74.2500022659302,2|0,3:2|2:0,0:0:0:0:
406,353,155127,2,0,L|424:266,1,74.2500022659302,8|0,0:0|0:0,0:0:0:0:
494,216,155421,1,2,0:3:0:0:
494,216,155716,6,0,P|452:214|420:199,1,74.2500022659302,4|0,1:2|2:0,0:0:0:0:
340,142,156010,2,0,P|293:151|254:159,1,74.2500022659302,2|0,0:3|3:0,0:0:0:0:
155,94,156304,2,0,P|208:75|286:128,1,148.50000453186,8|2,0:0|3:0,0:0:0:0:
205,195,156745,6,0,B|149:206|149:206|131:228|131:228|59:244,1,148.50000453186,8|8,0:0|0:0,0:0:0:0:
0,182,157186,2,0,L|80:200,1,74.2500022659302,2|0,3:2|0:0,0:0:0:0:
173,292,157480,2,0,L|245:277,1,74.2500022659302,10|0,0:0|0:0,0:0:0:0:
341,209,157774,1,2,0:3:0:0:
341,209,158069,6,0,P|302:205|265:191,1,74.2500022659302,4|0,1:2|2:0,0:0:0:0:
398,327,158363,2,0,P|350:318|283:383,1,148.50000453186,2|8,0:3|0:0,0:0:0:0:
455,265,158951,1,0,3:0:0:0:
455,265,159098,2,0,L|481:105,1,148.50000453186,8|8,0:0|0:0,0:0:0:0:
484,38,159539,1,2,0:3:0:0:
354,120,159833,1,8,0:0:0:0:
223,36,160127,2,0,P|266:36|295:47,1,74.2500022659302,2|0,0:3|0:0,0:0:0:0:
354,120,160421,6,0,B|268:113|302:154|196:155,1,148.50000453186,2|2,0:2|0:3,0:0:0:0:
68,50,161010,2,0,B|19:76|19:76|52:180,1,148.50000453186,8|4,0:0|0:2,0:0:0:0:
124,235,161451,2,0,P|155:185|109:97,1,148.50000453186,2|8,0:0|0:0,0:0:0:0:
47,164,161892,1,0,3:0:0:0:
194,326,162186,6,0,L|271:311,1,74.2500022659302,8|8,0:0|0:0,0:0:0:0:
371,251,162480,2,0,L|448:266,1,74.2500022659302,4|8,3:0|3:0,0:0:0:0:
495,193,162774,6,0,P|456:149|338:154,1,182.249994438172,6|2,0:0|0:2,0:0:0:0:
261,127,163363,2,0,P|219:136|136:153,1,121.499996292114,10|2,0:0|3:0,0:0:0:0:
77,205,163804,1,0,1:0:0:0:
10,112,164098,5,2,2:0:0:0:
10,112,164245,2,0,P|-18:152|-12:222,1,121.499996292114,2|8,0:2|0:0,0:0:0:0:
151,287,164833,2,0,P|177:238|164:168,1,121.499996292114,2|4,0:3|1:0,0:0:0:0:
160,168,165421,6,0,L|219:155,1,60.7499981460572,0|0,0:0|3:0,0:0:0:0:
297,107,165716,2,0,L|425:130,1,121.499996292114,8|0,0:0|3:0,0:0:0:0:
493,57,166157,2,0,P|454:46|402:107,1,121.499996292114,4|8,1:1|0:0,0:0:0:0:
483,228,166598,6,0,P|497:184|505:158,1,60.7499981460572,8|8,3:0|3:0,0:0:0:0:
443,304,166892,6,0,P|478:315|515:326,1,60.7499981460572,8|0,0:0|0:0,0:0:0:0:
400,233,167186,6,8,L|336:250,1,60.7499981460572
279,313,167480,6,0,B|210:283|210:283|230:377,1,161.999995056153,6|4,0:0|0:3,0:0:0:0:
141,234,167921,6,0,B|153:194|153:194|136:147|136:147|157:85,1,135,2|2,0:0|0:3,0:0:0:0:
77,33,168363,2,0,L|4:13,1,67.5,4|8,0:3|0:0,0:0:0:0:
46,127,168657,5,0,0:0:0:0:
62,134,168804,1,8,0:0:0:0:
140,100,168951,1,4,0:3:0:0:
219,142,169098,2,0,B|264:151|264:151|297:176|297:176|350:187,1,135,0|2,0:0|0:2,0:0:0:0:
459,128,169539,6,0,L|431:54,1,67.5,4|2,0:3|0:3,0:0:0:0:
368,43,169833,2,0,L|347:115,1,67.5,4|2,0:2|0:0,0:0:0:0:
452,219,170127,1,6,0:3:0:0:
367,202,170274,2,0,L|220:219,1,135,2|0,0:0|0:0,0:0:0:0:
232,217,170716,1,6,0:3:0:0:
103,256,170863,6,0,L|177:272,1,67.5,8|2,0:0|0:0,0:0:0:0:
260,329,171157,2,0,L|274:383,2,33.75,8|8|4,0:0|0:3|0:3,0:0:0:0:
162,372,171451,1,2,0:2:0:0:
66,318,171598,2,0,P|74:275|74:177,1,135,10|4,0:0|0:3,0:0:0:0:
7,163,172039,1,2,0:3:0:0:
69,78,172186,6,0,P|111:155|157:149,1,135,6|6,0:2|0:3,0:0:0:0:
291,92,172627,2,0,P|249:15|203:21,1,135,2|2,0:0|0:3,0:0:0:0:
146,72,173069,2,0,L|220:94,1,67.5,6|8,0:3|0:0,0:0:0:0:
284,177,173363,5,4,0:2:0:0:
325,162,173510,1,8,0:0:0:0:
399,183,173657,1,6,0:3:0:0:
478,150,173804,2,0,P|477:127|461:-5,1,135,2|2,0:0|0:2,0:0:0:0:
395,20,174245,2,0,P|374:24|312:32,1,67.5,4|2,0:3|0:3,0:0:0:0:
225,69,174539,6,0,B|137:52|177:80|81:61,1,135,6|4,0:2|0:3,0:0:0:0:
0,115,174980,1,2,0:0:0:0:
64,136,175127,2,0,P|69:159|74:217,1,67.5,8|2,0:0|0:0,0:0:0:0:
139,235,175421,1,6,0:3:0:0:
142,240,175569,2,0,P|135:262|110:315,1,67.5,8|2,0:0|0:2,0:0:0:0:
215,381,175863,6,0,P|205:344|238:236,1,135,10|2,0:0|0:0,0:0:0:0:
286,175,176304,5,8,0:0:0:0:
365,212,176451,1,8,0:0:0:0:
436,207,176598,1,0,3:0:0:0:
487,224,176745,1,0,3:0:0:0:
509,332,176892,6,2,P|461:337|404:199,1,202.5,6|0,3:1|3:0,1:0:0:0:
340,142,177480,2,0,L|420:121,1,67.5,10|0,0:0|0:0,0:0:0:0:
486,99,177774,6,0,B|404:82|445:67|354:38,1,135,2|0,0:0|0:0,0:0:0:0:
271,59,178216,2,0,B|353:42|312:27|403:-2,1,135,10|0,0:0|0:0,0:0:0:0:
327,122,178657,2,0,B|307:124|307:124|283:132|283:132|261:136,1,67.5,10|0,0:0|0:0,0:0:0:0:
412,200,178951,2,0,B|433:206|433:206|462:205|462:205|484:214,1,67.5,2|2,0:0|0:3,0:0:0:0:
440,339,179245,6,2,P|444:286|322:214,1,202.5,6|0,0:0|3:0,1:0:0:0:
237,270,179833,2,0,L|218:338,1,67.5,10|0,0:0|0:0,0:0:0:0:
123,226,180127,5,0,3:0:0:0:
123,226,180274,2,0,L|200:200,1,67.5,8|0,0:0|2:0,0:0:0:0:
137,339,180569,5,10,0:0:0:0:
137,339,180716,2,0,L|74:290,1,67.5,0|0,3:0|2:2,0:0:0:0:
157,233,181010,2,0,B|151:203|151:203|168:139|168:139|157:86,1,135,10|2,0:0|0:0,0:0:0:0:
94,51,181451,1,2,0:3:0:0:
224,20,181598,6,2,B|336:-6|321:97|423:71,1,202.5,6|0,0:0|3:0,1:0:0:0:
474,167,182186,2,0,P|477:200|487:232,1,67.5,10|0,0:0|2:3,0:0:0:0:
480,314,182480,6,2,P|473:275|390:227,1,135,2|0,0:0|0:0,1:0:0:0:
291,287,182921,2,0,P|298:326|381:374,1,135,10|0,0:0|2:0,0:0:0:0:
376,297,183363,2,0,B|370:271|370:271|369:250|369:250|363:226,1,67.5,8|0,0:0|0:0,0:0:0:0:
243,172,183657,2,0,B|219:177|219:177|198:185|198:185|165:188,1,67.5,2|2,0:0|0:3,0:0:0:0:
212,284,183951,6,0,B|91:307|138:254|-3:279,1,202.5,6|2,0:0|0:0,1:0:0:0:
93,359,184539,1,8,0:0:0:0:
274,206,184833,5,2,0:0:0:0:
274,206,184980,2,0,L|262:126,1,67.5,8|0,0:0|2:0,0:0:0:0:
383,87,185274,5,8,0:0:0:0:
440,111,185421,2,0,L|429:193,1,67.5,2|0,0:2|0:0,0:0:0:0:
503,208,185716,2,0,P|425:228|409:288,1,135,8|0,0:0|3:0,0:0:0:0:
413,278,186157,1,0,3:0:0:0:
343,383,186304,6,0,B|359:314|311:329|328:237,1,135,6|0,0:0|2:0,0:0:0:0:
255,161,186745,2,0,L|102:140,1,135,2|0,0:0|0:0,0:0:0:0:
32,202,187186,1,2,0:2:0:0:
0,128,187333,6,0,B|52:122|52:122|79:104|79:104|137:98,1,135,0|8,0:0|0:0,0:0:0:0:
197,9,187774,2,0,L|209:82,1,67.5,2|0,0:3|0:0,0:0:0:0:
335,131,188069,1,8,0:0:0:0:
335,131,188216,1,8,0:0:0:0:
384,72,188363,2,0,L|455:59,1,67.5,2|2,0:0|0:3,0:0:0:0:
512,172,188657,6,2,B|409:153|409:153|455:181,1,135,6|0,0:0|0:0,1:0:0:0:
328,231,189098,2,2,B|225:250|225:250|271:222,1,135,6|0,0:2|0:0,1:0:0:0:
156,167,189539,2,2,L|69:150,1,67.5,6|0,0:2|0:0,1:0:0:0:
0,195,189833,6,2,L|151:180,1,135,2|0,0:2|0:0,1:0:0:0:
141,187,190274,1,0,2:0:0:0:
218,116,190421,2,0,P|238:122|277:152,1,67.5,2|2,2:0|2:0,0:0:0:0:
378,183,190716,2,0,P|398:176|437:147,1,67.5,0|8,2:0|2:2,0:0:0:0:
456,128,190936,1,8,3:2:0:0:
462,116,191010,5,4,0:1:0:0:
256,192,191083,12,2,193363,2:0:0:0:
390,61,208730,6,0,L|381:21,5,33.75
374,56,209245,6,0,L|365:138,1,81,2|2,0:0|1:3,0:0:0:0:
414,216,209833,6,0,P|360:178|281:185,1,148.50000453186,6|4,3:1|0:3,0:0:0:0:
203,237,210274,1,0,0:0:0:0:
203,237,210421,2,0,P|163:230|117:222,1,74.2500022659302,8|0,0:0|0:0,0:0:0:0:
52,75,210716,1,12,1:3:0:0:
9,166,210863,2,0,P|57:155|155:133,1,148.50000453186,8|10,0:0|0:0,0:0:0:0:
263,41,211304,6,0,P|210:61|126:18,1,148.50000453186,4|8,0:3|0:0,0:0:0:0:
359,116,211892,2,0,L|486:96,1,111.375003398895,4|0,0:3|2:0,0:0:0:0:
475,111,212186,6,0,L|397:124,1,74.2500022659302,4|0,0:2|0:0,0:0:0:0:
306,227,212480,2,0,P|342:228|381:240,1,74.2500022659302,6|0,0:3|3:0,0:0:0:0:
476,253,212774,6,0,B|420:264|420:264|402:286|402:286|330:302,1,148.50000453186,8|4,0:0|3:0,0:0:0:0:
277,357,213216,2,0,P|235:344|199:344,1,74.2500022659302,8|0,0:0|0:0,0:0:0:0:
130,185,213510,1,8,0:0:0:0:
82,264,213657,6,0,P|132:275|214:232,1,148.50000453186,4|8,3:0|0:0,0:0:0:0:
407,89,214245,1,4,0:3:0:0:
324,56,214392,1,10,2:3:0:0:
350,140,214539,6,0,P|361:93|369:56,1,74.2500022659302,6|0,0:2|0:0,0:0:0:0:
491,231,214833,2,0,P|480:184|472:147,1,74.2500022659302,4|2,0:3|0:3,0:0:0:0:
389,235,215127,2,0,P|339:247|236:271,1,148.50000453186,8|4,0:0|1:3,0:0:0:0:
162,347,215569,2,0,P|229:379|305:351,1,148.50000453186,0|8,0:0|0:0,0:0:0:0:
296,358,216010,5,6,1:3:0:0:
146,263,216304,1,8,0:0:0:0:
146,263,216451,2,0,P|100:275|66:285,1,74.2500022659302,0|4,0:0|0:3,0:0:0:0:
222,196,216745,2,0,L|240:120,1,74.2500022659302,0|4,0:0|0:2,0:0:0:0:
255,284,217039,1,8,0:3:0:0:
255,284,217186,2,0,B|311:295|311:295|327:318|327:318|401:333,1,148.50000453186,4|8,0:3|0:0,0:0:0:0:
389,330,217774,5,6,0:3:0:0:
485,286,217921,2,0,L|468:210,1,74.2500022659302,2|0,0:2|0:0,0:0:0:0:
406,132,218216,2,0,L|423:56,1,74.2500022659302,8|4,0:0|0:3,0:0:0:0:
422,59,218510,1,0,3:0:0:0:
344,1,218657,5,8,1:0:0:0:
256,30,218804,1,8,1:0:0:0:
224,128,218951,6,0,B|216:138|216:138|150:128,1,74.2500022659302,6|6,3:0|3:0,0:0:0:0:
77,39,219245,1,6,0:0:0:0:
99,47,219539,6,0,L|124:196,1,148.50000453186,2|8,0:2|0:0,0:0:0:0:
191,242,219980,1,0,0:0:0:0:
131,314,220127,2,0,B|249:276|249:276|314:290|290:361,1,222.750006797791,6|8,0:3|0:0,0:0:0:0:
293,348,220716,6,0,P|246:362|214:372,1,74.2500022659302,6|0,0:3|0:0,0:0:0:0:
390,300,221010,2,0,P|404:334|420:367,1,74.2500022659302,8|0,0:0|0:0,0:0:0:0:
312,250,221304,2,0,L|328:169,1,74.2500022659302,4|2,0:3|1:3,0:0:0:0:
391,125,221598,5,4,0:2:0:0:
249,31,221892,1,6,0:3:0:0:
249,31,222039,1,0,3:0:0:0:
249,31,222186,2,0,L|328:15,1,74.2500022659302,8|0,0:0|0:0,0:0:0:0:
283,114,222480,5,6,0:3:0:0:
283,114,222627,2,0,P|227:81|143:95,1,148.50000453186,8|8,0:3|0:0,0:0:0:0:
44,28,223069,2,0,P|78:25|124:12,1,74.2500022659302,4|0,0:3|0:0,0:0:0:0:
151,122,223363,2,0,B|80:103|76:153|-2:137,1,148.50000453186,10|12,0:0|0:3,0:0:0:0:
6,138,223804,1,8,0:0:0:0:
6,138,223951,6,0,L|24:218,1,74.2500022659302,6|0,0:2|2:0,0:0:0:0:
96,267,224245,2,0,L|81:348,1,74.2500022659302,6|0,0:3|0:0,0:0:0:0:
0,384,224539,5,8,0:0:0:0:
200,319,224833,1,6,0:3:0:0:
200,319,224980,2,8,P|248:343|348:316,1,148.50000453186,0|8,0:0|0:0,0:0:0:0:
419,248,225421,2,0,P|371:238|334:231,1,74.2500022659302,4|0,0:3|0:0,0:0:0:0:
263,171,225716,2,0,P|215:181|178:188,1,74.2500022659302,8|0,0:0|3:3,0:0:0:0:
98,244,226010,1,6,0:3:0:0:
98,244,226157,1,2,2:0:0:0:
98,244,226304,2,0,P|85:202|91:164,1,74.2500022659302,6|2,0:2|0:0,0:0:0:0:
0,123,226598,6,0,P|41:135|125:77,1,148.50000453186,4|8,0:3|0:0,0:0:0:0:
173,14,227039,1,0,0:0:0:0:
245,50,227186,2,0,P|320:35|394:20,1,148.50000453186,6|0,0:3|0:0,0:0:0:0:
476,67,227627,1,8,0:0:0:0:
377,112,227774,2,0,P|386:64|392:30,1,74.2500022659302,4|0,0:3|0:0,0:0:0:0:
461,141,228069,5,8,0:0:0:0:
369,193,228216,1,8,0:0:0:0:
439,259,228363,2,0,P|473:253|513:278,1,74.2500022659302,8|0,3:0|3:0,0:0:0:0:
511,380,228657,5,6,0:0:0:0:
511,380,228951,2,0,P|482:365|450:359,1,60.7499981460572,4|4,0:3|0:2,0:0:0:0:
373,322,229245,2,0,P|337:336|249:350,1,121.499996292114,10|6,0:0|0:3,0:0:0:0:
175,384,229686,1,8,0:3:0:0:
50,294,229980,1,0,3:3:0:0:
50,294,230127,2,0,P|33:251|58:172,2,121.499996292114,6|8|6,0:3|0:0|0:3,0:0:0:0:
130,243,230863,1,8,0:3:0:0:
137,248,231010,6,0,L|199:237,1,60.7499981460572,6|0,0:2|0:0,0:0:0:0:
267,189,231304,2,0,L|329:200,1,60.7499981460572,4|0,0:3|0:0,0:0:0:0:
399,249,231598,2,0,P|439:227|516:237,1,121.499996292114,8|0,1:0|1:0,0:0:0:0:
370,336,232039,1,4,0:1:0:0:
370,336,232480,6,0,L|386:254,2,74.2500022659302,0|0|0,2:0|3:0|0:0,0:0:0:0:
292,373,233216,1,0,0:0:0:0:
284,369,233363,1,4,3:0:0:0:
191,207,233657,5,0,2:0:0:0:
135,248,233804,2,0,L|8:262,2,108,2|0|2,0:2|0:0|0:2,0:0:0:0:
337,146,234833,2,0,P|362:151|422:174,1,54,0|0,2:0|0:0,0:0:0:0:
441,109,235127,2,0,P|425:86|407:46,1,54,2|0,0:2|0:0,0:0:0:0:
344,38,235421,2,0,P|327:61|291:95,1,54,0|0,2:0|0:0,0:0:0:0:
230,136,235716,6,0,B|175:117|170:148|81:125,1,108,2|0,0:3|2:0,0:0:0:0:
56,153,236157,1,0,0:0:0:0:
80,234,236304,1,0,0:0:0:0:
64,244,236451,2,0,P|57:270|20:359,2,108,0|8|0,0:0|0:3|2:0,0:0:0:0:
141,284,237186,6,0,P|160:297|184:328,1,54,2|0,0:2|2:0,0:0:0:0:
220,235,237480,2,0,P|232:258|246:327,1,54,8|0,0:3|2:0,0:0:0:0:
318,301,237774,2,0,P|315:320|301:343,2,27,2|2|0,0:3|2:0|2:0,0:0:0:0:
394,378,238069,6,0,P|386:341|484:301,1,162,4|0,3:0|2:2,0:0:0:0:
409,215,238657,1,8,0:3:0:0:
403,216,238804,2,0,P|376:210|285:170,1,108,2|0,0:2|0:0,0:0:0:0:
181,74,239392,1,8,0:3:0:0:
181,74,239539,2,0,P|169:82|132:102,1,54,2|0,0:2|3:0,0:0:0:0:
73,56,239833,2,0,P|67:72|-9:158,1,108,8|2,3:0|0:2,0:0:0:0:
136,230,240421,6,0,B|203:247|183:222|264:241,1,108,2|0,0:3|3:0,0:0:0:0:
325,292,240863,2,0,P|332:304|349:365,1,54,2|8,0:2|0:3,0:0:0:0:
439,228,241304,1,0,0:0:0:0:
445,228,241451,2,0,P|460:202|463:91,1,108,8|0,0:3|2:0,0:0:0:0:
512,57,241892,2,0,P|485:49|398:-1,2,108,2|8|0,0:2|0:3|2:0,0:0:0:0:
437,188,242774,6,0,P|387:103|328:113,1,162,4|2,3:0|0:2,0:0:0:0:
260,144,243363,1,0,0:0:0:0:
318,180,243510,2,0,L|348:305,2,108,0|2|8,2:0|0:2|0:3,0:0:0:0:
252,217,244245,1,0,2:0:0:0:
121,293,244539,1,8,0:3:0:0:
18,182,244833,1,0,2:0:0:0:
134,85,245127,6,0,P|157:83|219:164,1,108,0|0,3:0|0:0,0:0:0:0:
137,189,245569,1,2,0:2:0:0:
207,216,245716,2,0,P|268:205|338:199,1,108
334,134,246157,2,0,P|362:140|469:174,1,108,2|0,0:2|2:0,0:0:0:0:
499,294,246598,6,0,P|488:271|480:231,1,54
411,345,246892,2,0,P|437:351|461:362,1,54,8|0,0:3|0:0,0:0:0:0:
402,245,247186,2,0,P|394:260|378:278,2,27,2|2|0,2:0|2:0|0:0,0:0:0:0:
301,325,247480,6,0,B|207:310|251:373|137:347,1,162,4|2,3:0|0:2,0:0:0:0:
62,311,248069,1,0,0:0:0:0:
112,168,248363,1,0,0:0:0:0:
107,93,248510,2,0,P|83:103|-6:120,1,108,2|8,0:2|0:3,0:0:0:0:
2,119,248951,2,0,B|32:194|3:165|27:243,2,108,2|8|0,2:0|0:3|2:0,0:0:0:0:
80,121,249686,1,0,0:0:0:0:
180,80,249833,6,0,P|204:90|302:110,1,108,4|0,2:0|3:0,0:0:0:0:
315,178,250274,2,0,P|332:169|370:133,1,54,2|0,0:2|0:0,0:0:0:0:
474,66,250569,2,0,P|468:92|459:117,1,54,2|0,0:2|2:0,0:0:0:0:
424,181,250863,5,2,2:0:0:0:
405,200,251304,5,2,0:0:0:0:
365,297,251598,5,2,0:0:0:0:
394,384,251892,5,2,0:0:0:0:
