osu file format v14

[General]
AudioFilename: audio.mp3
AudioLeadIn: 0
PreviewTime: 81491
Countdown: 0
SampleSet: Normal
StackLeniency: 0.6
Mode: 0
LetterboxInBreaks: 0
WidescreenStoryboard: 1

[Editor]
Bookmarks: 25634,48875,60578,77720,80852,102775,126512,139368,149588,156181,177115,206291,216841,237940,256236,258915,260192,281456,292006,312940,315742,321017
DistanceSpacing: 1.1
BeatDivisor: 4
GridSize: 32
TimelineZoom: 1.9

[Metadata]
Title:Kakusei -Fractional Vision-
TitleUnicode:覚醒-Fractional Vision-
Artist:Ayane
ArtistUnicode:彩音
Creator:Lasse
Version:Normal
Source:SINCLIENT
Tags:tatsh japanese rock visual novel eroge hishiro chizuru amb1d3x some hero heroine
BeatmapID:3702212
BeatmapSetID:1802588

[Difficulty]
HPDrainRate:3
CircleSize:3.4
OverallDifficulty:5
ApproachRate:6
SliderMultiplier:0.999999999999999
SliderTickRate:1

[Events]
//Background and Video events
0,0,"imustdecrease.jpg",0,0
//Break Periods
2,12896,14142
2,25834,26726
2,31108,32001
2,139239,148538
2,217041,236890
//Storyboard Layer 0 (Background)
//Storyboard Layer 1 (Fail)
//Storyboard Layer 2 (Pass)
//Storyboard Layer 3 (Foreground)
//Storyboard Layer 4 (Overlay)
//Storyboard Sound Samples

[TimingPoints]
5208,624.02496099844,4,2,51,40,1,0
5208,-133.333333333333,4,2,51,40,0,0
21432,613.496932515337,4,2,51,40,1,0
21432,-133.333333333333,4,2,51,40,0,0
22658,634.920634920635,4,2,51,40,1,0
25197,437.956204379562,4,2,51,5,1,0
25634,329.67032967033,4,1,51,60,1,0
25634,-100,4,1,51,60,0,0
36183,-100,4,1,51,70,0,0
46073,329.67032967033,4,1,51,70,1,0
48710,329.67032967033,4,1,51,70,1,0
73764,-111.111111111111,4,2,51,60,0,0
76237,-100,4,1,51,70,0,0
78874,-100,4,1,51,70,0,0
79039,-100,4,2,51,5,0,0
80193,-100,4,2,51,30,0,0
81512,-90.9090909090909,4,1,51,75,0,1
102775,-100,4,1,51,70,0,0
103270,-100,4,1,51,70,0,0
108050,-100,4,1,51,70,0,0
108545,-100,4,1,51,70,0,0
113325,-100,4,1,51,70,0,0
113819,-100,4,1,51,70,0,0
123710,-100,4,1,51,70,0,0
123874,-100,4,2,51,5,0,0
125028,-100,4,2,51,50,0,0
125193,-100,4,1,51,60,0,0
126512,-100,4,1,51,70,0,0
136402,329.67032967033,4,1,51,70,1,0
139039,329.67032967033,4,1,51,60,1,0
139368,-111.111111111111,4,1,51,55,0,0
149588,-111.111111111111,4,1,51,60,0,0
153214,-111.111111111111,4,1,51,50,0,0
153379,-100,4,1,51,60,0,0
156181,-100,4,1,51,70,0,0
169368,-111.111111111111,4,2,51,60,0,0
171841,-100,4,1,51,70,0,0
174478,-181.818181818182,4,1,51,70,0,0
174643,-181.818181818182,4,2,51,5,0,0
175797,-181.818181818182,4,2,51,30,0,0
177115,-90.9090909090909,4,1,51,75,0,1
195577,-100,4,1,51,70,0,0
206291,-90.9090909090909,4,1,51,70,0,0
207610,-111.111111111111,4,1,51,60,0,0
208929,-90.9090909090909,4,1,51,70,0,0
210247,-111.111111111111,4,1,51,60,0,0
211566,-90.9090909090909,4,1,51,70,0,0
212885,-111.111111111111,4,1,51,60,0,0
214203,-100,4,1,51,70,0,0
215522,-100,4,1,51,60,0,0
216181,-100,4,1,51,65,0,0
216841,-100,4,1,51,60,0,0
237940,-90.9090909090909,4,1,51,75,0,0
248489,-90.9090909090909,4,1,51,75,0,0
251126,-111.111111111111,4,2,51,60,0,0
253599,-100,4,1,51,70,0,0
255082,-100,4,1,51,75,0,0
256236,-100,4,1,51,70,0,0
256401,-100,4,2,51,5,0,0
258915,-100,4,2,51,40,0,0
260192,-90.9090909090909,4,1,51,75,0,1
281456,-100,4,1,51,70,0,0
281539,-100,4,2,51,30,0,0
282775,-100,4,2,51,60,0,0
282857,-100,4,2,51,30,0,0
283929,-100,4,2,51,60,0,0
284011,-100,4,2,51,30,0,0
285247,-100,4,1,51,65,0,0
286731,-100,4,2,51,60,0,0
286813,-100,4,2,51,30,0,0
288049,-100,4,2,51,60,0,0
288131,-100,4,2,51,30,0,0
289368,-100,4,1,51,65,0,0
292006,-100,4,1,51,70,0,0
292500,-100,4,1,51,70,0,0
297280,-100,4,1,51,70,0,0
297775,-100,4,1,51,70,0,0
302555,-100,4,1,51,70,0,0
303049,-100,4,1,51,70,0,0
312940,-100,4,1,51,70,0,0
313104,-100,4,2,51,5,0,0
314258,-100,4,2,51,50,0,0
314423,-100,4,1,51,60,0,0
315742,329.67032967033,3,1,51,75,1,0
315742,-90.9090909090909,3,1,51,75,0,0
316731,-90.9090909090909,3,1,51,75,0,0
317720,-90.9090909090909,3,1,51,75,0,0
318709,329.67032967033,7,1,51,75,1,0
318709,-90.9090909090909,7,1,51,75,0,0
321016,329.67032967033,4,1,51,60,1,0
321017,-90.9090909090909,4,1,51,60,0,0
321098,-90.9090909090909,4,1,51,40,0,0
322334,-90.9090909090909,4,1,51,30,0,0
323653,-90.9090909090909,4,1,51,20,0,0
324972,-90.9090909090909,4,1,51,10,0,0
328268,-90.9090909090909,4,2,99,20,0,0

[Colours]
Combo1 : 240,140,140
Combo2 : 200,180,220
Combo3 : 240,200,155
Combo4 : 150,185,220

[HitObjects]
120,54,5208,6,0,P|55:128|83:320,3,300.000011444092,2|2|2|2,0:0|0:0|0:0|0:0,0:0:0:0:
432,67,15192,6,0,P|471:208|392:330,2,300.000011444092,2|2|2,0:0|0:0|0:0,0:0:0:0:
286,27,21432,6,0,P|182:60|142:51,1,150.000005722046,2|2,0:0|0:0,0:0:0:0:
256,192,25634,5,6,0:0:0:0:
49,307,27776,6,0,L|44:377,2,50,2|0|0,0:2|0:0|0:0,0:0:0:0:
15,269,28271,1,4,0:1:0:0:
206,45,30084,5,6,0:2:0:0:
306,45,30414,1,6,0:2:0:0:
253,129,30743,1,6,0:2:0:0:
253,129,30908,1,6,0:1:0:0:
463,307,33051,6,0,L|468:377,2,50,2|2|2,0:2|0:2|0:2,0:0:0:0:
497,269,33546,1,6,0:0:0:0:
369,105,34699,6,0,P|320:112|264:84,1,99.9999999999999,2|2,0:2|0:2,0:0:0:0:
225,103,35194,2,0,P|179:84|130:91,1,99.9999999999999,2|8,0:2|3:0,0:0:0:0:
92,66,35688,1,8,3:0:0:0:
92,66,35853,1,4,3:0:0:0:
22,138,36183,6,0,L|26:248,1,99.9999999999999,4|8,0:0|0:0,0:0:0:0:
54,278,36677,2,0,P|99:283|151:260,1,99.9999999999999,2|0,0:2|0:0,0:0:0:0:
184,227,37172,1,8,0:0:0:0:
265,285,37502,2,0,P|319:315|411:297,2,150,2|2|8,0:2|0:2|0:0,0:0:0:0:
228,251,38655,1,0,0:0:0:0:
228,251,38820,2,0,L|249:143,1,99.9999999999999,4|0,0:2|0:0,0:0:0:0:
283,117,39315,2,0,P|341:114|388:139,1,99.9999999999999,2|0,0:2|0:0,0:0:0:0:
426,116,39809,1,8,0:0:0:0:
489,193,40139,6,0,L|468:301,1,99.9999999999999,4|8,0:2|0:0,0:0:0:0:
434,327,40634,2,0,P|376:330|329:305,1,99.9999999999999,2|0,0:2|0:0,0:0:0:0:
298,342,41128,1,8,0:0:0:0:
246,256,41458,2,0,L|278:89,2,150,2|2|8,0:2|0:2|0:0,0:0:0:0:
165,315,42776,2,0,P|107:318|60:293,1,99.9999999999999,4|8,0:2|0:0,0:0:0:0:
38,268,43271,1,2,0:2:0:0:
38,268,43436,2,0,L|57:169,1,99.9999999999999,0|8,0:0|0:0,0:0:0:0:
9,81,44095,5,0,0:0:0:0:
98,36,44425,1,8,0:0:0:0:
145,124,44754,1,0,0:0:0:0:
234,79,45084,1,0,1:2:0:0:
281,167,45414,1,8,3:3:0:0:
370,122,45743,1,0,1:0:0:0:
417,210,46073,1,6,0:0:0:0:
440,201,47226,5,6,0:2:0:0:
417,298,47556,1,6,0:2:0:0:
318,278,47886,1,6,0:2:0:0:
341,181,48215,2,0,P|342:128|317:80,1,99.9999999999999,6|4,1:2|1:3,0:0:0:0:
285,52,48710,6,0,L|178:39,1,99.9999999999999,4|8,0:1|0:2,0:0:0:0:
94,12,49369,1,2,0:2:0:0:
94,12,49534,1,0,0:2:0:0:
61,106,49863,1,2,0:2:0:0:
152,133,50193,1,0,0:2:0:0:
243,160,50523,1,2,0:2:0:0:
210,254,50852,1,0,0:0:0:0:
210,254,51017,2,0,L|222:366,1,99.9999999999999,8|0,0:0|0:0,0:0:0:0:
318,376,51677,5,8,0:1:0:0:
353,285,52006,1,2,0:2:0:0:
353,285,52171,1,0,0:0:0:0:
444,324,52501,1,2,0:2:0:0:
490,235,52830,1,0,0:0:0:0:
400,190,53160,1,2,0:2:0:0:
440,95,53490,1,0,0:0:0:0:
440,95,53655,2,0,P|400:70|342:65,1,99.9999999999999,8|4,0:0|0:1,0:0:0:0:
260,15,54314,5,8,0:0:0:0:
244,113,54644,1,0,0:2:0:0:
244,113,54808,1,2,0:2:0:0:
165,51,55138,1,0,0:0:0:0:
69,82,55468,1,2,0:2:0:0:
45,179,55797,1,0,0:0:0:0:
106,257,56127,2,0,P|149:260|211:229,1,99.9999999999999,2|0,0:2|0:0,0:0:0:0:
237,203,56622,6,0,L|250:98,1,99.9999999999999,6|8,0:2|0:0,0:0:0:0:
291,75,57116,1,6,0:2:0:0:
373,132,57446,1,6,0:2:0:0:
472,127,57775,2,0,L|459:226,1,99.9999999999999,6|2,0:2|0:2,0:0:0:0:
476,273,58270,1,0,0:0:0:0:
418,355,58600,1,0,0:0:0:0:
334,300,58929,1,0,0:0:0:0:
250,355,59259,6,0,B|196:360|196:360|157:336,1,99.9999999999999
116,306,59753,1,2,0:1:0:0:
52,228,60083,2,0,L|1:231,2,50,4|4|4,0:2|0:2|0:2,0:0:0:0:
91,196,60578,6,0,L|104:89,1,99.9999999999999,4|8,0:0|0:0,0:0:0:0:
130,54,61072,2,0,P|177:50|243:73,1,99.9999999999999,2|0,0:2|0:0,0:0:0:0:
273,44,61567,1,8,0:0:0:0:
353,103,61896,1,4,0:2:0:0:
329,203,62226,1,8,0:0:0:0:
329,203,62391,1,2,0:2:0:0:
229,202,62720,1,2,0:2:0:0:
128,205,63050,6,0,P|110:251|116:306,1,99.9999999999999,2|0,0:2|0:0,0:0:0:0:
133,346,63545,1,8,0:0:0:0:
231,382,63874,1,0,0:0:0:0:
231,382,64039,1,2,0:2:0:0:
319,336,64369,2,0,P|336:289|331:235,1,99.9999999999999,4|0,0:2|0:0,0:0:0:0:
304,198,64863,1,8,0:0:0:0:
212,157,65193,1,8,3:3:0:0:
124,204,65523,1,12,3:0:0:0:
37,153,65852,6,0,P|32:103|50:57,1,99.9999999999999,4|8,0:0|0:0,0:0:0:0:
92,29,66347,2,0,L|208:51,1,99.9999999999999,2|0,0:2|0:0,0:0:0:0:
237,30,66841,1,8,0:0:0:0:
307,100,67171,2,0,L|423:122,1,99.9999999999999,4|8,0:2|0:0,0:0:0:0:
483,181,67830,1,2,0:2:0:0:
469,280,68160,1,8,0:2:0:0:
382,330,68490,6,0,L|283:311,1,99.9999999999999,4|8,0:2|0:0,0:0:0:0:
240,336,68984,2,0,L|141:317,1,99.9999999999999,6|0,0:2|0:0,0:0:0:0:
94,335,69479,1,8,0:0:0:0:
9,281,69808,2,0,P|6:231|27:187,1,99.9999999999999,4|8,0:2|0:0,0:0:0:0:
71,162,70303,1,6,0:2:0:0:
146,95,70633,2,0,L|144:28,2,50,8|0|0,0:0|0:0|0:0,0:0:0:0:
181,130,71127,6,0,P|230:134|275:115,1,99.9999999999999,4|8,0:0|0:0,0:0:0:0:
326,114,71622,2,0,P|371:94|420:99,1,99.9999999999999,2|0,0:2|0:0,0:0:0:0:
454,136,72116,1,8,0:0:0:0:
437,234,72446,2,0,P|391:253|342:248,1,99.9999999999999,2|8,0:2|0:0,0:0:0:0:
307,284,72940,2,0,P|261:303|212:298,1,99.9999999999999,2|0,0:2|0:0,0:0:0:0:
166,277,73435,1,8,0:0:0:0:
190,190,73764,6,0,L|177:94,1,89.999997253418,4|0,1:2|0:0,0:0:0:0:
152,70,74259,1,0,1:0:0:0:
152,70,74424,2,0,P|108:64|63:85,1,89.999997253418,8|0,0:0|0:0,0:0:0:0:
22,159,75083,2,0,L|35:255,1,89.999997253418,6|0,1:2|0:0,0:0:0:0:
44,292,75578,1,0,1:0:0:0:
91,368,75907,1,0,0:0:0:0:
186,337,76237,6,0,B|242:332|229:345|297:341,1,99.9999999999999,4|8,0:2|3:0,0:0:0:0:
327,314,76731,1,4,3:0:0:0:
404,376,77061,1,8,3:0:0:0:
482,314,77391,1,0,1:0:0:0:
441,222,77720,6,0,L|453:157,2,50,6|0|0,0:2|0:2|0:2,0:0:0:0:
393,239,78215,1,6,0:2:0:0:
295,218,78545,1,6,0:2:0:0:
197,197,78874,1,6,0:1:0:0:
256,192,79039,12,2,80852,0:0:0:0:
358,330,81512,6,0,P|426:337|486:313,1,110.000003356934,6|0,0:0|0:0,0:1:0:0:
507,289,82006,1,8,0:1:0:0:
488,185,82336,1,2,0:2:0:0:
488,185,82501,1,0,0:0:0:0:
458,79,82830,2,0,P|390:72|330:96,1,110.000003356934,6|0,0:2|0:0,0:1:0:0:
308,119,83325,1,8,0:1:0:0:
214,71,83655,1,2,0:2:0:0:
214,71,83819,1,0,0:0:0:0:
177,174,84149,6,0,L|186:286,1,110.000003356934,6|0,0:0|0:0,0:0:0:0:
106,359,84808,1,0,0:0:0:0:
106,359,84973,2,0,P|55:355|20:295,1,110.000003356934,2|8,0:2|0:0,0:0:0:0:
11,256,85468,2,0,L|19:146,1,110.000003356934,6|0,0:2|0:0,0:0:0:0:
67,121,85962,1,8,0:0:0:0:
154,187,86292,2,0,L|150:241,2,55.0000016784668,2|0|8,0:2|0:0|0:0,0:0:0:0:
197,152,86786,6,0,B|274:146|238:175|303:170,1,110.000003356934,6|0,0:0|0:0,0:0:0:0:
352,194,87281,1,8,0:0:0:0:
415,105,87611,1,2,0:2:0:0:
415,105,87775,1,0,0:0:0:0:
341,23,88105,2,0,B|264:17|300:46|234:41,1,110.000003356934,6|0,0:2|0:0,0:0:0:0:
181,27,88600,1,8,0:0:0:0:
79,69,88929,1,2,0:2:0:0:
79,69,89094,2,0,P|63:106|68:182,1,110.000003356934
34,220,89589,6,0,P|28:274|47:325,1,110.000003356934,6|8,0:0|0:0,0:0:0:0:
91,366,90083,1,0,0:0:0:0:
91,366,90248,2,0,L|219:351,1,110.000003356934,2|8,0:2|0:0,0:0:0:0:
237,312,90742,2,0,P|243:258|224:207,1,110.000003356934,6|0,0:2|1:0,0:0:0:0:
186,166,91237,1,8,1:1:0:0:
98,99,91567,2,0,L|36:104,2,55.0000016784668,4|0|8,3:3|1:1|1:1,0:0:0:0:
143,68,92061,6,0,B|197:77|197:77|248:49,1,110.000003356934,6|0,0:0|0:0,0:0:0:0:
290,17,92556,1,8,0:1:0:0:
402,8,92885,1,2,0:2:0:0:
402,8,93050,1,0,0:0:0:0:
493,69,93380,2,0,P|495:123|473:179,1,110.000003356934,6|0,0:2|0:0,0:1:0:0:
434,211,93874,1,8,0:0:0:0:
327,217,94204,1,2,0:2:0:0:
327,217,94369,1,0,0:0:0:0:
246,141,94699,6,0,P|199:117|118:124,1,110.000003356934,6|0,0:0|0:0,0:0:0:0:
52,176,95358,1,0,0:2:0:0:
52,176,95523,2,0,L|25:286,1,110.000003356934,2|8,0:2|0:0,0:0:0:0:
43,334,96017,2,0,P|90:358|171:351,1,110.000003356934,6|0,0:2|0:0,0:0:0:0:
197,340,96512,1,8,0:0:0:0:
304,382,96841,1,10,0:0:0:0:
304,382,97006,1,8,0:0:0:0:
408,348,97336,6,0,P|423:294|417:225,1,110.000003356934,6|0,0:1|0:0,0:0:0:0:
396,191,97830,1,8,0:0:0:0:
294,162,98160,1,2,0:2:0:0:
294,162,98325,1,0,0:0:0:0:
195,210,98655,2,0,B|139:219|139:219|86:195,1,110.000003356934,6|0,0:2|0:0,0:0:0:0:
37,214,99149,1,8,0:0:0:0:
10,107,99479,1,2,0:2:0:0:
104,48,99808,5,8,0:0:0:0:
104,48,99973,2,0,B|160:39|160:39|208:60,1,110.000003356934,6|0,0:2|0:3,0:0:0:0:
254,90,100468,1,8,0:2:0:0:
359,61,100797,1,0,1:0:0:0:
453,114,101127,1,0,1:0:0:0:
482,219,101457,1,12,0:2:0:0:
429,313,101786,1,8,0:2:0:0:
324,342,102116,1,10,0:2:0:0:
230,289,102446,1,8,0:2:0:0:
201,185,102775,6,0,L|218:97,2,74.9999999999999,6|0|0,0:0|0:1|0:1,0:0:0:0:
168,223,103435,2,0,P|114:230|58:194,1,99.9999999999999,2|8,0:2|0:0,0:0:0:0:
10,134,104094,1,4,0:2:0:0:
52,43,104424,1,8,0:0:0:0:
155,44,104753,1,2,0:2:0:0:
155,44,104918,1,0,0:0:0:0:
216,123,105248,6,0,P|270:130|326:94,1,99.9999999999999,6|0,0:2|0:0,0:0:0:0:
350,82,105742,1,8,0:0:0:0:
447,49,106072,1,2,0:2:0:0:
447,49,106237,1,0,0:0:0:0:
499,134,106567,2,0,L|484:242,1,99.9999999999999,6|0,0:2|0:0,0:0:0:0:
472,281,107061,1,10,0:0:0:0:
416,364,107391,1,2,0:2:0:0:
316,367,107720,1,0,0:0:0:0:
246,294,108050,6,0,L|258:207,2,74.9999999999999,6|0|0,0:0|0:0|0:0,0:0:0:0:
207,326,108710,2,0,P|148:330|93:304,1,99.9999999999999,2|8,0:2|0:0,0:0:0:0:
36,248,109369,1,4,0:2:0:0:
55,149,109699,1,8,0:0:0:0:
148,112,110028,1,2,0:2:0:0:
243,142,110358,1,8,0:0:0:0:
284,232,110688,6,0,B|324:258|324:258|379:244,1,99.9999999999999,6|8,0:2|0:0,0:0:0:0:
433,163,111347,2,0,B|435:115|435:115|395:74,1,99.9999999999999,2|8,0:2|0:2,0:0:0:0:
299,69,112006,2,0,B|256:90|256:90|241:145,1,99.9999999999999,6|8,0:2|0:0,0:0:0:0:
256,188,112501,2,0,B|241:238|241:238|199:259,1,99.9999999999999,6|0,0:2|0:2,0:0:0:0:
152,239,112995,1,8,3:3:0:0:
56,268,113325,6,0,L|48:352,2,74.9999999999999,6|0|0,0:0|0:0|0:0,0:0:0:0:
14,240,113984,2,0,B|8:190|8:190|39:133,1,99.9999999999999,2|8,0:2|0:0,0:0:0:0:
106,80,114644,1,4,0:2:0:0:
185,141,114973,1,8,0:0:0:0:
272,90,115303,1,2,0:2:0:0:
272,90,115468,1,0,0:0:0:0:
344,159,115797,6,0,L|332:274,1,99.9999999999999,6|0,0:2|0:0,0:0:0:0:
329,308,116292,1,8,0:0:0:0:
405,373,116622,1,0,0:0:0:0:
405,373,116786,1,8,0:0:0:0:
494,327,117116,2,0,L|504:227,1,99.9999999999999,6|0,0:2|0:0,0:0:0:0:
503,177,117611,1,8,0:0:0:0:
420,120,117940,1,2,0:2:0:0:
331,180,118270,5,0,0:0:0:0:
331,180,118435,2,0,B|279:189|279:189|223:156,1,99.9999999999999,6|0,0:0|0:0,0:0:0:0:
181,88,119094,1,0,0:0:0:0:
181,88,119259,2,0,B|140:64|140:64|88:73,1,99.9999999999999,2|8,0:2|0:0,0:0:0:0:
46,101,119753,2,0,L|23:207,1,99.9999999999999,6|0,0:2|0:0,0:0:0:0:
10,247,120248,1,8,0:0:0:0:
65,330,120578,1,2,0:2:0:0:
164,302,120907,5,8,0:0:0:0:
164,302,121072,2,0,P|218:296|270:313,1,99.9999999999999,6|0,0:0|0:0,0:0:0:0:
303,336,121567,1,8,0:0:0:0:
399,310,121896,2,0,L|414:203,1,99.9999999999999,2|8,0:2|0:0,0:0:0:0:
459,191,122391,2,0,L|474:84,1,99.9999999999999,6|0,0:2|0:0,0:0:0:0:
444,50,122885,1,8,0:0:0:0:
363,108,123215,2,0,P|314:108|267:87,1,99.9999999999999,10|8,0:2|0:0,0:0:0:0:
222,65,123710,5,6,0:0:0:0:
0,321,125193,1,10,0:2:0:0:
85,373,125523,1,8,0:0:0:0:
141,290,125852,1,8,0:0:0:0:
56,238,126182,1,8,0:0:0:0:
18,144,126512,6,0,P|34:85|82:53,1,99.9999999999999,4|8,0:0|0:0,0:0:0:0:
103,32,127006,2,0,P|145:56|212:49,1,99.9999999999999,2|0,0:2|0:0,0:0:0:0:
242,38,127501,1,8,0:0:0:0:
331,82,127830,2,0,L|488:74,2,150,2|2|8,0:2|0:2|0:0,0:0:0:0:
295,117,128984,1,0,0:0:0:0:
295,117,129149,2,0,P|283:170|306:228,1,99.9999999999999,6|8,0:2|0:0,0:0:0:0:
339,237,129644,2,0,L|446:249,1,99.9999999999999,2|0,0:2|0:0,0:0:0:0:
468,287,130138,1,8,0:0:0:0:
393,354,130468,6,0,L|293:342,1,99.9999999999999,4|8,0:2|0:0,0:0:0:0:
248,363,130962,2,0,B|230:316|230:316|250:253,1,99.9999999999999,2|0,0:2|0:0,0:0:0:0:
209,232,131457,1,8,0:0:0:0:
282,163,131786,2,0,L|438:156,2,150,2|2|8,0:2|0:2|0:0,0:0:0:0:
202,102,133105,2,0,P|150:88|93:100,1,99.9999999999999,4|8,0:2|0:0,0:0:0:0:
66,127,133600,1,2,0:2:0:0:
66,127,133764,2,0,B|58:169|58:169|65:189|65:189|57:230,1,99.9999999999999,0|8,0:0|0:0,0:0:0:0:
10,312,134424,5,0,0:0:0:0:
99,357,134753,1,8,0:0:0:0:
146,269,135083,1,0,0:0:0:0:
235,314,135413,1,0,1:0:0:0:
282,226,135742,1,8,3:3:0:0:
371,271,136072,1,0,1:0:0:0:
418,183,136402,1,6,1:0:0:0:
418,183,137555,5,6,0:2:0:0:
505,135,137885,1,6,0:2:0:0:
460,45,138215,1,6,0:2:0:0:
373,92,138544,2,0,P|318:95|278:72,1,99.9999999999999,0|4,0:0|0:3,0:0:0:0:
251,40,139039,5,4,0:0:0:0:
195,55,149588,6,0,L|102:50,1,89.999997253418,4|0,0:2|0:0,0:0:0:0:
27,95,150247,2,0,P|16:157|33:200,1,89.999997253418
94,237,150907,2,0,L|187:242,1,89.999997253418
262,286,151566,2,0,L|269:343,1,44.999998626709,0|8,1:0|2:0,0:0:0:0:
299,362,151896,2,0,P|330:359|360:335,1,67.4999979400635,8|8,3:3|3:2,0:0:0:0:
507,200,153379,6,0,L|497:81,1,99.9999999999999,4|0,0:0|0:0,0:0:0:0:
475,55,153874,1,0,0:0:0:0:
379,25,154203,1,8,0:0:0:0:
334,114,154533,1,8,3:3:0:0:
399,189,154863,2,0,L|409:308,1,99.9999999999999,8|4,0:0|3:0,0:0:0:0:
385,333,155357,1,8,0:0:0:0:
292,371,155687,1,6,0:2:0:0:
292,371,155852,1,6,0:2:0:0:
219,302,156181,6,0,L|229:183,1,99.9999999999999,4|8,0:0|0:0,0:0:0:0:
265,169,156676,2,0,L|275:50,1,99.9999999999999,2|0,0:2|0:0,0:0:0:0:
249,25,157170,1,8,0:0:0:0:
151,48,157500,1,4,0:2:0:0:
57,75,157830,1,8,0:0:0:0:
57,75,157995,1,2,0:2:0:0:
7,161,158324,1,2,0:2:0:0:
81,242,158654,6,0,P|136:239|180:207,1,99.9999999999999,2|0,0:2|0:0,0:0:0:0:
214,187,159148,1,8,0:0:0:0:
215,91,159478,1,2,0:2:0:0:
215,91,159643,1,0,0:0:0:0:
293,29,159973,2,0,P|348:32|392:64,1,99.9999999999999,4|0,0:2|0:0,0:0:0:0:
433,46,160467,1,12,0:2:0:0:
503,117,160797,1,8,3:3:0:0:
480,214,161126,1,12,3:0:0:0:
388,255,161456,6,0,P|338:258|295:235,1,99.9999999999999,4|8,0:0|0:0,0:0:0:0:
261,198,161951,2,0,L|254:92,1,99.9999999999999,2|0,0:2|0:0,0:0:0:0:
214,68,162445,1,8,0:0:0:0:
146,142,162775,2,0,L|153:248,1,99.9999999999999,4|8,0:2|0:0,0:0:0:0:
122,336,163434,1,2,0:2:0:0:
26,307,163764,1,8,0:2:0:0:
56,212,164093,6,0,L|49:106,1,99.9999999999999,4|8,0:2|0:0,0:0:0:0:
68,65,164588,2,0,P|122:46|169:54,1,99.9999999999999,6|0,0:2|0:0,0:0:0:0:
209,33,165082,1,8,0:0:0:0:
275,108,165412,2,0,L|281:207,1,99.9999999999999,4|8,0:2|0:0,0:0:0:0:
313,252,165907,1,2,0:2:0:0:
313,252,166071,2,0,P|362:257|408:238,1,99.9999999999999,8|8,0:0|0:0,0:0:0:0:
478,166,166731,6,0,L|472:67,1,99.9999999999999,4|8,0:0|0:0,0:0:0:0:
431,36,167225,2,0,P|381:31|336:49,1,99.9999999999999,2|0,0:2|0:0,0:0:0:0:
286,37,167720,1,8,0:0:0:0:
244,128,168049,2,0,P|197:146|148:141,1,99.9999999999999,2|8,0:2|0:0,0:0:0:0:
127,187,168544,2,0,P|77:182|32:200,1,99.9999999999999,0|0,0:2|0:0,0:0:0:0:
10,245,169039,1,8,0:0:0:0:
58,320,169368,6,0,B|102:325|102:325|145:304,1,89.999997253418,4|0,1:2|0:0,0:0:0:0:
185,332,169863,1,0,1:0:0:0:
185,332,170028,2,0,B|229:337|229:337|272:316,1,89.999997253418,8|0,0:2|2:0,0:0:0:0:
350,358,170687,2,0,B|394:363|394:363|437:342,1,89.999997253418,6|0,1:2|0:0,0:0:0:0:
472,317,171181,1,0,1:0:0:0:
509,235,171511,1,0,0:0:0:0:
436,182,171841,6,0,B|400:176|400:176|385:184|385:184|332:177,1,99.9999999999999,4|8,0:2|3:0,0:0:0:0:
297,149,172335,1,4,3:0:0:0:
222,214,172665,1,8,3:0:0:0:
139,156,172995,1,0,1:0:0:0:
52,205,173324,6,0,L|44:269,2,50,6|0|0,0:2|0:2|0:2,0:0:0:0:
14,171,173819,1,6,0:2:0:0:
23,71,174148,1,6,0:2:0:0:
116,35,174478,1,6,0:1:0:0:
256,192,174643,12,2,176456,0:0:0:0:
191,42,177115,6,0,B|137:27|137:27|73:46,1,110.000003356934,6|0,0:0|0:0,0:1:0:0:
41,76,177610,1,8,0:1:0:0:
15,186,177940,1,2,0:2:0:0:
15,186,178104,1,0,0:0:0:0:
86,269,178434,2,0,B|140:284|140:284|204:265,1,110.000003356934,6|0,0:2|0:0,0:1:0:0:
243,248,178929,1,8,0:1:0:0:
330,322,179258,1,2,0:2:0:0:
330,322,179423,1,0,0:0:0:0:
416,253,179753,6,0,P|427:201|407:141,1,110.000003356934,6|0,0:1|0:0,0:1:0:0:
330,72,180412,1,0,0:0:0:0:
330,72,180577,2,0,L|212:65,1,110.000003356934,2|8,0:2|0:0,0:0:0:0:
172,92,181071,2,0,L|54:85,1,110.000003356934,6|0,0:2|0:0,0:0:0:0:
18,118,181566,1,8,0:0:0:0:
37,226,181896,2,0,L|20:286,2,55.0000016784668,2|0|8,0:2|0:0|0:0,0:0:0:0:
86,200,182390,6,0,P|149:195|195:216,1,110.000003356934,6|0,0:0|0:0,0:0:0:0:
218,261,182885,1,8,0:0:0:0:
329,242,183214,1,2,0:2:0:0:
329,242,183379,1,0,0:0:0:0:
268,149,183709,2,0,P|270:91|307:41,1,110.000003356934,6|0,0:2|0:0,0:0:0:0:
350,32,184203,1,8,0:0:0:0:
441,103,184533,1,2,0:2:0:0:
441,103,184698,2,0,P|439:161|402:211,1,110.000003356934
363,231,185192,6,0,P|334:277|333:331,1,110.000003356934,6|8,0:0|0:0,0:0:0:0:
287,360,185687,1,0,0:0:0:0:
287,360,185852,2,0,L|156:343,1,110.000003356934,2|8,0:2|0:0,0:0:0:0:
136,381,186346,2,0,L|5:364,1,110.000003356934,6|0,0:2|1:0,0:0:0:0:
7,315,186841,1,8,1:1:0:0:
87,239,187170,2,0,L|145:246,2,55.0000016784668,4|0|8,3:3|1:1|1:1,0:0:0:0:
46,201,187665,6,0,P|48:141|81:93,1,110.000003356934,6|0,0:0|0:0,0:0:0:0:
115,64,188159,1,8,0:1:0:0:
228,59,188489,1,2,0:2:0:0:
228,59,188654,1,0,0:0:0:0:
282,154,188984,2,0,B|334:171|334:171|395:144,1,110.000003356934,6|0,0:2|0:0,0:1:0:0:
434,125,189478,1,8,0:0:0:0:
496,222,189808,1,2,0:2:0:0:
496,222,189973,1,0,0:0:0:0:
428,308,190302,6,0,B|377:330|377:330|325:313,1,110.000003356934,6|0,0:0|0:0,0:0:0:0:
241,241,190962,1,0,0:2:0:0:
241,241,191126,2,0,L|262:129,1,110.000003356934,2|8,0:2|0:0,0:0:0:0:
234,84,191621,2,0,B|182:67|182:67|131:89,1,110.000003356934,6|0,0:2|0:0,0:0:0:0:
80,68,192115,1,8,0:0:0:0:
21,162,192445,1,0,0:0:0:0:
21,162,192610,1,0,0:0:0:0:
66,262,192940,6,0,L|181:253,1,110.000003356934,6|0,0:1|0:0,0:0:0:0:
216,216,193434,1,8,0:0:0:0:
282,310,193764,1,2,0:2:0:0:
282,310,193929,1,0,0:0:0:0:
361,233,194258,2,0,L|476:224,1,110.000003356934,6|0,0:2|0:0,0:0:0:0:
508,184,194753,1,8,0:0:0:0:
466,82,195082,1,2,0:2:0:0:
372,137,195412,5,8,0:0:0:0:
372,137,195577,2,0,L|272:144,1,99.9999999999999,6|0,0:1|0:0,0:0:0:0:
226,124,196071,1,8,1:2:0:0:
167,205,196401,2,0,L|185:309,1,99.9999999999999,2|8,0:2|2:2,0:0:0:0:
149,339,196896,2,0,B|104:358|104:358|53:339,1,99.9999999999999,4|0,1:2|1:0,0:0:0:0:
6,349,197390,1,8,2:2:0:0:
5,248,197720,2,0,L|22:149,1,99.9999999999999,8|8,3:3|2:0,0:0:0:0:
53,110,198214,6,0,P|107:106|161:132,1,99.9999999999999,6|0,0:2|0:0,0:0:0:0:
212,200,198874,1,2,0:2:0:0:
161,286,199203,1,2,0:2:0:0:
218,368,199533,1,6,0:2:0:0:
314,341,199863,1,2,0:2:0:0:
324,241,200192,1,0,0:0:0:0:
324,241,200357,2,0,B|315:207|315:207|318:186|318:186|304:131,1,99.9999999999999,8|0,0:0|0:0,0:0:0:0:
316,94,200852,6,0,B|357:64|357:64|423:71,1,99.9999999999999,6|0,1:0|0:0,0:0:0:0:
490,122,201511,1,2,0:2:0:0:
512,219,201841,1,2,0:2:0:0:
458,303,202170,1,6,0:2:0:0:
361,325,202500,1,2,0:2:0:0:
277,271,202830,1,2,0:2:0:0:
255,174,203159,1,8,0:0:0:0:
309,90,203489,6,0,B|314:42|314:42|261:10,1,99.9999999999999,6|8,0:1|0:0,0:0:0:0:
191,77,204148,1,0,0:0:0:0:
191,77,204313,2,0,B|186:125|186:125|239:157,1,99.9999999999999
266,194,204808,1,6,0:1:0:0:
266,194,204973,2,0,L|371:171,1,99.9999999999999,6|0,0:2|0:0,0:0:0:0:
460,197,205632,1,4,3:3:0:0:
481,294,205962,1,0,0:0:0:0:
391,357,206291,6,0,P|347:356|288:316,1,110.000003356934,6|10,0:0|0:0,0:0:0:0:
248,220,206951,2,0,P|279:174|274:103,1,110.000003356934,2|10,0:0|0:0,0:0:0:0:
246,37,207610,1,6,0:2:0:0:
156,27,207940,1,10,0:2:0:0:
71,58,208269,1,2,0:2:0:0:
19,131,208599,1,10,0:2:0:0:
56,219,208929,6,0,L|177:208,1,110.000003356934,6|10,0:0|0:0,0:0:0:0:
250,279,209588,2,0,L|371:268,1,110.000003356934,2|10,0:0|0:0,0:0:0:0:
440,308,210247,1,6,0:2:0:0:
483,229,210577,1,10,0:2:0:0:
486,138,210907,1,2,0:2:0:0:
455,53,211236,1,10,0:2:0:0:
356,32,211566,6,0,L|235:21,1,110.000003356934,6|10,0:0|0:0,0:0:0:0:
144,64,212225,2,0,P|129:99|137:176,1,110.000003356934,2|10,0:0|0:0,0:0:0:0:
164,215,212720,1,6,0:2:0:0:
164,215,212885,2,0,L|253:204,1,89.999997253418,6|2,0:2|0:2,0:0:0:0:
337,234,213544,1,2,0:2:0:0:
401,170,213874,1,8,0:0:0:0:
477,234,214203,6,0,B|496:284|496:284|470:342,1,99.9999999999999,6|8,0:2|0:0,0:0:0:0:
434,353,214698,2,0,L|330:338,1,99.9999999999999
290,360,215192,1,8,0:0:0:0:
212,296,215522,2,2,L|232:188,1,99.9999999999999,4|0,0:1|1:0,0:1:0:0:
315,145,216181,1,0,0:0:0:0:
259,61,216511,1,0,0:0:0:0:
174,113,216841,1,6,0:0:0:0:
171,330,237940,6,2,B|119:349|119:349|66:335,1,110.000003356934,6|8,0:0|0:0,0:1:0:0:
18,309,238434,2,2,L|28:191,1,110.000003356934,2|0,0:0|0:0,0:1:0:0:
0,150,238929,1,8,0:0:0:0:
79,74,239258,1,6,0:0:0:0:
164,152,239588,1,8,0:0:0:0:
164,152,239753,2,0,B|216:165|216:165|268:146,1,110.000003356934,2|2,0:2|0:1,0:0:0:0:
343,64,240412,6,0,B|395:44|395:44|447:57,1,110.000003356934,4|0,0:2|0:0,0:0:0:0:
505,151,241071,1,2,0:2:0:0:
505,261,241401,1,0,0:0:0:0:
447,354,241731,2,0,B|395:367|395:367|342:347,1,110.000003356934,6|0,0:1|0:0,0:0:0:0:
301,310,242225,1,8,0:0:0:0:
200,355,242555,1,6,0:2:0:0:
160,252,242885,1,8,0:0:0:0:
261,207,243214,6,0,L|384:225,2,110.000003356934,6|8|0,0:0|0:0|0:0,0:1:0:0:
222,175,244039,1,2,0:0:0:0:
222,175,244203,1,8,0:0:0:0:
161,83,244533,2,2,P|114:61|48:69,1,110.000003356934,6|8,0:0|0:0,0:1:0:0:
14,100,245028,2,2,L|27:212,1,110.000003356934,6|0,0:2|0:0,0:1:0:0:
13,262,245522,1,8,0:0:0:0:
84,345,245852,6,0,P|138:349|187:327,1,110.000003356934,6|8,0:0|0:0,0:0:0:0:
235,353,246346,2,2,P|284:330|338:335,1,110.000003356934,6|0,0:2|0:0,0:1:0:0:
385,363,246841,1,8,0:0:0:0:
468,291,247170,2,2,P|474:236|455:185,1,110.000003356934,6|0,0:1|0:0,0:1:0:0:
404,163,247665,2,2,L|291:190,1,110.000003356934,6|0,0:2|0:0,0:1:0:0:
266,234,248159,1,0,0:0:0:0:
167,185,248489,6,0,B|145:139|145:139|165:72,1,110.000003356934,6|8,0:0|0:0,0:0:0:0:
201,44,248984,1,0,0:2:0:0:
305,10,249313,1,2,0:0:0:0:
404,57,249643,2,2,B|426:103|426:103|409:159,1,110.000003356934,2|0,0:0|0:0,0:1:0:0:
371,199,250137,2,0,L|254:184,1,110.000003356934,8|0,0:0|0:0,0:0:0:0:
214,210,250632,1,2,0:2:0:0:
214,210,250797,1,8,0:0:0:0:
145,151,251126,6,0,L|142:50,1,89.999997253418,6|2,1:1|0:0,0:0:0:0:
57,29,251786,2,0,L|60:130,1,89.999997253418,8|2,0:0|0:2,0:0:0:0:
6,191,252445,1,4,1:2:0:0:
76,247,252775,1,2,0:0:0:0:
129,174,253104,2,0,P|179:158|229:171,1,89.999997253418,8|2,0:0|0:0,0:0:0:0:
258,190,253599,6,0,L|267:300,1,99.9999999999999,4|8,0:2|3:0,0:0:0:0:
250,337,254093,1,4,3:0:0:0:
345,367,254423,1,8,3:0:0:0:
375,271,254753,1,0,1:0:0:0:
474,272,255082,6,0,L|486:342,2,50,6|0|0,0:2|0:2|0:2,0:0:0:0:
494,226,255577,1,6,0:2:0:0:
426,151,255907,1,6,0:2:0:0:
461,57,256236,1,6,1:0:0:0:
256,192,256401,12,2,258915,0:0:0:0:
150,345,260192,6,0,P|82:352|38:321,1,110.000003356934,6|0,0:0|0:0,0:1:0:0:
13,289,260687,1,8,0:1:0:0:
40,185,261017,1,2,0:2:0:0:
40,185,261181,1,0,0:0:0:0:
144,218,261511,2,0,L|272:206,1,110.000003356934,6|0,0:2|0:0,0:1:0:0:
288,164,262006,1,8,0:1:0:0:
377,236,262335,1,2,0:2:0:0:
377,236,262500,1,0,0:0:0:0:
468,175,262830,6,0,P|479:127|455:64,1,110.000003356934,6|0,0:0|0:0,0:0:0:0:
361,22,263489,1,0,0:0:0:0:
361,22,263654,2,0,L|246:31,1,110.000003356934,2|8,0:2|0:0,0:0:0:0:
211,68,264148,2,0,L|96:77,1,110.000003356934,6|0,0:2|0:0,0:0:0:0:
56,108,264643,1,8,0:0:0:0:
100,208,264973,2,0,L|94:274,2,55.0000016784668,2|0|8,0:2|0:0|0:0,0:0:0:0:
142,172,265467,6,0,L|251:163,1,110.000003356934,6|0,0:0|0:0,0:0:0:0:
298,192,265962,1,8,0:0:0:0:
384,123,266291,1,2,0:2:0:0:
384,123,266456,1,0,0:0:0:0:
470,190,266786,2,0,P|487:239|465:299,1,110.000003356934,6|0,0:2|0:0,0:0:0:0:
431,332,267280,1,8,0:0:0:0:
326,352,267610,1,2,0:2:0:0:
326,352,267775,2,0,L|196:339,1,110.000003356934
165,361,268269,6,0,L|35:348,1,110.000003356934,6|8,0:0|0:0,0:0:0:0:
17,317,268764,1,0,0:0:0:0:
17,317,268929,2,0,B|10:262|10:262|43:206,1,110.000003356934,2|8,0:2|0:0,0:0:0:0:
83,183,269423,2,0,L|192:193,1,110.000003356934,6|0,0:2|1:0,0:0:0:0:
246,181,269918,1,8,1:1:0:0:
330,251,270247,2,0,L|324:318,2,55.0000016784668,4|0|8,3:3|1:1|1:1,0:0:0:0:
374,217,270742,6,0,B|381:162|381:162|348:106,1,110.000003356934,6|0,0:0|0:0,0:0:0:0:
315,74,271236,1,8,0:1:0:0:
217,37,271566,1,2,0:2:0:0:
217,37,271731,1,0,0:0:0:0:
175,138,272060,2,0,P|133:142|62:117,1,110.000003356934,6|0,0:2|0:0,0:1:0:0:
22,151,272555,1,8,0:0:0:0:
4,262,272885,1,2,0:2:0:0:
4,262,273049,1,0,0:0:0:0:
87,333,273379,6,0,P|129:337|200:312,1,110.000003356934,6|0,0:1|0:0,0:1:0:0:
263,231,274039,1,0,0:2:0:0:
263,231,274203,2,0,L|238:122,1,110.000003356934,2|8,0:2|0:0,0:0:0:0:
259,72,274698,2,0,P|310:53|364:55,1,110.000003356934,6|0,0:2|0:0,0:0:0:0:
418,41,275192,1,8,0:0:0:0:
489,124,275522,1,10,0:0:0:0:
489,124,275687,1,8,0:0:0:0:
455,228,276017,6,0,P|404:247|350:245,1,110.000003356934,6|0,0:1|0:0,0:0:0:0:
298,265,276511,1,8,0:0:0:0:
303,158,276841,1,2,0:2:0:0:
303,158,277006,1,0,0:0:0:0:
209,99,277335,2,0,P|154:96|103:115,1,110.000003356934,6|0,0:2|0:0,0:0:0:0:
57,146,277830,1,8,0:0:0:0:
32,258,278159,1,2,0:2:0:0:
103,342,278489,5,8,0:0:0:0:
103,343,278654,2,0,P|157:347|206:325,1,110.000003356934,6|0,0:2|0:0,0:0:0:0:
253,295,279148,1,8,0:2:0:0:
358,324,279478,1,0,1:0:0:0:
452,271,279808,1,0,1:0:0:0:
481,166,280137,1,12,0:2:0:0:
428,72,280467,1,8,0:2:0:0:
323,43,280797,1,10,0:2:0:0:
229,96,281126,1,8,0:2:0:0:
200,200,281456,5,6,0:0:0:0:
478,233,282775,1,6,1:2:0:0:
273,367,283929,1,6,1:2:0:0:
16,253,285247,5,4,0:0:0:0:
16,253,285412,2,0,L|31:145,1,99.9999999999999,8|0,0:0|0:0,0:0:0:0:
114,100,286071,1,10,0:0:0:0:
193,160,286401,1,0,0:0:0:0:
285,122,286731,5,6,1:0:0:0:
412,371,288049,1,6,1:2:0:0:
474,98,289368,5,0,0:0:0:0:
374,108,289697,1,8,3:0:0:0:
284,63,290028,1,4,3:3:0:0:
184,73,290357,1,0,0:0:0:0:
183,299,292006,6,0,L|192:392,2,74.9999999999999,6|0|0,0:0|0:1|0:1,0:0:0:0:
141,269,292666,2,0,P|87:276|31:247,1,99.9999999999999,2|8,0:2|0:0,0:0:0:0:
3,168,293325,1,4,0:2:0:0:
53,81,293655,1,8,0:0:0:0:
152,75,293984,1,2,0:2:0:0:
152,75,294149,1,0,0:0:0:0:
234,130,294478,6,0,B|285:139|285:139|344:108,1,99.9999999999999,6|0,0:2|0:0,0:0:0:0:
362,80,294973,1,8,0:0:0:0:
456,126,295303,1,2,0:2:0:0:
456,126,295468,1,0,0:0:0:0:
410,214,295797,2,0,B|367:236|367:236|316:227,1,99.9999999999999,6|0,0:2|0:0,0:0:0:0:
283,265,296292,1,10,0:0:0:0:
197,213,296622,1,2,0:2:0:0:
248,127,296951,1,0,0:0:0:0:
175,58,297281,6,0,L|96:52,2,74.9999999999999,6|0|0,0:0|0:0|0:0,0:0:0:0:
219,35,297940,2,0,P|265:29|314:59,1,99.9999999999999,2|8,0:2|0:0,0:0:0:0:
363,139,298600,1,4,0:2:0:0:
292,205,298930,1,8,0:0:0:0:
351,284,299259,1,2,0:2:0:0:
293,365,299589,1,8,0:0:0:0:
234,286,299918,6,0,B|200:279|200:279|177:291|177:291|126:283,1,99.9999999999999,4|8,0:2|0:0,0:0:0:0:
46,244,300578,2,0,B|41:196|41:196|69:147,1,99.9999999999999,2|8,0:2|0:2,0:0:0:0:
152,100,301236,2,0,L|145:10,2,74.9999999999999,6|8|8,0:2|0:2|0:2,0:0:0:0:
195,124,301896,2,0,L|202:214,2,74.9999999999999,8|8|4,3:3|3:3|3:3,0:0:0:0:
233,91,302556,6,0,P|269:81|317:90,2,74.9999999999999,6|0|0,0:0|0:0|0:0,0:0:0:0:
190,65,303214,2,0,P|142:76|84:53,1,99.9999999999999,2|8,0:2|0:0,0:0:0:0:
10,115,303875,1,4,0:2:0:0:
26,213,304204,1,8,0:0:0:0:
50,314,304534,1,2,0:2:0:0:
50,314,304699,1,0,0:0:0:0:
140,356,305028,6,0,B|188:363|188:363|243:333,1,99.9999999999999,6|0,0:2|0:0,0:0:0:0:
276,313,305523,1,8,0:0:0:0:
364,370,305853,1,0,0:0:0:0:
364,370,306017,1,8,0:0:0:0:
449,317,306347,2,0,P|465:271|449:212,1,99.9999999999999,6|0,0:2|0:0,0:0:0:0:
421,184,306842,1,8,0:0:0:0:
342,245,307171,1,2,0:2:0:0:
254,208,307501,5,0,0:0:0:0:
254,208,307666,2,0,B|212:201|212:201|196:207|196:207|143:197,1,99.9999999999999,6|0,0:0|0:0,0:0:0:0:
78,145,308324,1,0,0:0:0:0:
78,145,308489,2,0,P|75:97|114:52,1,99.9999999999999,2|8,0:2|0:0,0:0:0:0:
151,38,308984,2,0,L|256:57,1,99.9999999999999,6|0,0:2|0:0,0:0:0:0:
284,91,309478,1,8,0:0:0:0:
380,63,309808,1,2,0:2:0:0:
454,129,310137,5,8,0:0:0:0:
454,129,310302,2,0,P|461:170|432:225,1,99.9999999999999,6|0,0:0|0:0,0:0:0:0:
397,253,310797,1,8,0:0:0:0:
311,201,311126,2,0,B|269:177|269:177|210:181,1,99.9999999999999,4|8,0:2|0:0,0:0:0:0:
181,216,311621,2,0,B|129:219|129:219|87:195,1,99.9999999999999,6|0,0:1|0:0,0:0:0:0:
44,221,312115,1,8,0:0:0:0:
52,320,312445,2,0,B|94:344|94:344|146:341,1,99.9999999999999,2|0,0:2|0:0,0:0:0:0:
187,368,312940,5,6,0:0:0:0:
452,182,314423,1,10,0:2:0:0:
512,102,314753,1,8,0:0:0:0:
435,37,315082,1,8,0:0:0:0:
375,116,315412,1,8,0:0:0:0:
289,46,315742,6,0,B|243:22|243:22|172:32,1,110.000003356934,6|0,0:0|0:0,0:0:0:0:
138,59,316236,2,0,L|146:183,1,110.000003356934,4|4,0:2|3:0,0:0:0:0:
106,208,316731,2,0,L|114:332,1,110.000003356934,6|0,0:1|0:0,0:0:0:0:
154,353,317225,2,0,B|211:361|211:361|257:337,1,110.000003356934,2|4,0:2|3:3,0:0:0:0:
302,368,317720,1,6,0:2:0:0:
393,307,318049,2,0,L|367:187,1,110.000003356934,6|8,0:2|0:0,0:0:0:0:
434,110,318709,5,6,0:1:0:0:
334,62,319038,1,8,0:3:0:0:
269,151,319368,1,0,1:0:0:0:
369,199,319698,1,4,3:0:0:0:
304,288,320027,1,0,1:3:0:0:
204,240,320357,1,4,3:3:0:0:
269,151,320687,1,0,1:0:0:0:
169,103,321016,1,6,1:1:0:0:
256,192,321180,12,0,328268,0:0:0:0:
