osu file format v14

[General]
AudioFilename: audio.mp3
AudioLeadIn: 0
PreviewTime: 81491
Countdown: 0
SampleSet: Normal
StackLeniency: 0.6
Mode: 0
LetterboxInBreaks: 0
WidescreenStoryboard: 1

[Editor]
Bookmarks: 25634,48875,60578,77720,102775,126512,139368,149588,156181,177115,206291,216841,237940,256236,258915,260192,281456,292006,312940,315742,321017
DistanceSpacing: 2
BeatDivisor: 4
GridSize: 32
TimelineZoom: 1.9

[Metadata]
Title:Kakusei -Fractional Vision-
TitleUnicode:覚醒-Fractional Vision-
Artist:Ayane
ArtistUnicode:彩音
Creator:Lasse
Version:Insane
Source:SINCLIENT
Tags:tatsh japanese rock visual novel eroge hishiro chizuru amb1d3x some hero heroine
BeatmapID:3696280
BeatmapSetID:1802588

[Difficulty]
HPDrainRate:6
CircleSize:4
OverallDifficulty:8
ApproachRate:8
SliderMultiplier:1.8
SliderTickRate:0.5

[Events]
//Background and Video events
0,0,"imustdecrease.jpg",0,0
//Break Periods
2,217041,237190
//Storyboard Layer 0 (Background)
//Storyboard Layer 1 (Fail)
//Storyboard Layer 2 (Pass)
//Storyboard Layer 3 (Foreground)
//Storyboard Layer 4 (Overlay)
//Storyboard Sound Samples

[TimingPoints]
5208,624.02496099844,4,2,51,40,1,0
5208,-200,4,2,51,40,0,0
21432,613.496932515337,4,2,51,40,1,0
21432,-200,4,2,51,40,0,0
22658,634.920634920635,4,2,51,40,1,0
25197,437.956204379562,4,2,51,5,1,0
25634,329.67032967033,4,1,51,60,1,0
25634,-100,4,1,51,60,0,0
36183,-100,4,1,51,70,0,0
46073,329.67032967033,4,1,51,70,1,0
48710,329.67032967033,4,1,51,70,1,0
73764,-133.333333333333,4,2,51,60,0,0
76237,-100,4,1,51,70,0,0
78874,-178.571428571429,4,1,51,70,0,0
79039,-181.818181818182,4,2,51,5,0,0
80193,-181.818181818182,4,2,51,30,0,0
81512,-90.9090909090909,4,1,51,75,0,1
102775,-80,4,1,51,70,0,0
103270,-100,4,1,51,70,0,0
108050,-80,4,1,51,70,0,0
108545,-100,4,1,51,70,0,0
113325,-80,4,1,51,70,0,0
113819,-100,4,1,51,70,0,0
123710,-200,4,1,51,70,0,0
123874,-200,4,2,51,5,0,0
125028,-200,4,2,51,50,0,0
125193,-100,4,1,51,60,0,0
126512,-100,4,1,51,70,0,0
136402,329.67032967033,4,1,51,70,1,0
139039,329.67032967033,4,1,51,60,1,0
139368,-133.333333333333,4,1,51,55,0,0
149588,-133.333333333333,4,1,51,60,0,0
153214,-133.333333333333,4,1,51,50,0,0
153379,-100,4,1,51,60,0,0
156181,-100,4,1,51,70,0,0
169368,-133.333333333333,4,2,51,60,0,0
171841,-100,4,1,51,70,0,0
174478,-181.818181818182,4,1,51,70,0,0
174643,-181.818181818182,4,2,51,5,0,0
175797,-181.818181818182,4,2,51,30,0,0
177115,-90.9090909090909,4,1,51,75,0,1
195577,-100,4,1,51,70,0,0
206291,-90.9090909090909,4,1,51,70,0,0
207610,-133.333333333333,4,1,51,60,0,0
208929,-90.9090909090909,4,1,51,70,0,0
210247,-133.333333333333,4,1,51,60,0,0
211566,-90.9090909090909,4,1,51,70,0,0
212885,-133.333333333333,4,1,51,60,0,0
214203,-100,4,1,51,70,0,0
215522,-200,4,1,51,60,0,0
215604,-200,4,2,51,40,0,0
216181,-100,4,1,51,65,0,0
216841,-100,4,1,51,60,0,0
237940,-90.9090909090909,4,1,51,75,0,0
248489,-90.9090909090909,4,1,51,75,0,0
251126,-133.333333333333,4,2,51,60,0,0
253599,-100,4,1,51,70,0,0
255082,-90.9090909090909,4,1,51,75,0,0
256236,-181.818181818182,4,1,51,70,0,0
256401,-181.818181818182,4,2,51,5,0,0
258915,-181.818181818182,4,2,51,40,0,0
260192,-90.9090909090909,4,1,51,75,0,1
281456,-133.333333333333,4,1,51,70,0,0
281539,-133.333333333333,4,2,51,30,0,0
282775,-133.333333333333,4,2,51,60,0,0
282857,-133.333333333333,4,2,51,30,0,0
283929,-133.333333333333,4,2,51,60,0,0
284011,-133.333333333333,4,2,51,30,0,0
285247,-133.333333333333,4,1,51,65,0,0
286731,-133.333333333333,4,2,51,60,0,0
286813,-133.333333333333,4,2,51,30,0,0
288049,-133.333333333333,4,2,51,60,0,0
288131,-133.333333333333,4,2,51,30,0,0
289368,-133.333333333333,4,1,51,65,0,0
292006,-80,4,1,51,70,0,0
292500,-100,4,1,51,70,0,0
297280,-80,4,1,51,70,0,0
297775,-100,4,1,51,70,0,0
302555,-80,4,1,51,70,0,0
303049,-100,4,1,51,70,0,0
312940,-200,4,1,51,70,0,0
313104,-200,4,2,51,5,0,0
314258,-200,4,2,51,50,0,0
314423,-100,4,1,51,60,0,0
315742,329.67032967033,3,1,51,75,1,0
315742,-90.9090909090909,3,1,51,75,0,0
316731,-83.3333333333333,3,1,51,75,0,0
317720,-76.9230769230769,3,1,51,75,0,0
318709,329.67032967033,7,1,51,75,1,0
318709,-90.9090909090909,7,1,51,75,0,0
321016,329.67032967033,4,1,51,60,1,0
321017,-90.9090909090909,4,1,51,60,0,0
321098,-90.9090909090909,4,1,51,40,0,0
322334,-90.9090909090909,4,1,51,30,0,0
323653,-90.9090909090909,4,1,51,20,0,0
324972,-90.9090909090909,4,1,51,10,0,0
328268,-100,4,2,99,20,0,0

[Colours]
Combo1 : 240,140,140
Combo2 : 200,180,220
Combo3 : 240,200,155
Combo4 : 150,185,220

[HitObjects]
96,91,5208,6,0,B|318:43|210:211|444:150,3,360,2|2|2|2,0:0|0:0|0:0|0:0,0:0:0:0:
58,72,15192,6,0,B|-37:201|92:334|221:279,2,360,2|2|2,0:0|0:0|0:0,0:0:0:0:
201,19,21432,2,0,B|212:68|274:118|356:77,1,180,2|2,0:0|0:0,0:0:0:0:
256,192,22737,12,0,25197,0:0:0:0:
256,192,25634,5,6,0:0:0:0:
160,288,27776,5,2,0:2:0:0:
256,320,27941,1,0,0:0:0:0:
352,288,28106,1,0,0:0:0:0:
256,96,28271,1,4,0:1:0:0:
160,288,30084,5,6,0:2:0:0:
352,288,30414,1,6,0:2:0:0:
256,96,30743,5,6,0:2:0:0:
256,320,30908,1,6,0:1:0:0:
160,96,33051,5,2,0:2:0:0:
256,192,33216,1,2,0:2:0:0:
352,96,33381,1,2,0:2:0:0:
256,288,33546,1,6,0:0:0:0:
160,96,34699,5,2,0:2:0:0:
256,64,34864,1,10,0:0:0:0:
352,96,35029,1,2,0:2:0:0:
256,288,35194,2,0,L|256:352,2,45,2|0|0,0:2|0:0|0:2,0:0:0:0:
256,192,35524,5,8,3:0:0:0:
228,172,35606,1,8,3:0:0:0:
194,169,35688,1,8,3:0:0:0:
164,182,35771,1,8,3:0:0:0:
144,209,35853,1,4,3:0:0:0:
124,236,35936,1,4,3:0:0:0:
94,250,36018,1,4,3:0:0:0:
61,247,36101,1,4,3:0:0:0:
33,227,36183,6,0,B|-7:133|67:59,1,180,4|8,0:0|0:0,0:0:0:0:
241,108,36677,2,0,B|281:202|207:276,1,180,2|0,0:2|0:0,0:0:0:0:
133,322,37172,1,8,0:0:0:0:
207,372,37337,1,0,0:0:0:0:
283,323,37502,6,0,B|369:299|369:299|470:322,1,180,2|8,0:2|0:0,0:0:0:0:
500,239,37996,1,2,0:2:0:0:
500,239,38079,2,0,L|481:93,1,135,8|0,0:0|0:0,0:0:0:0:
394,87,38491,1,8,0:0:0:0:
359,169,38655,5,0,0:0:0:0:
359,169,38738,1,0,0:0:0:0:
359,169,38820,2,0,B|273:193|273:193|184:172,1,180,4|0,0:2|0:0,0:0:0:0:
101,148,39315,1,2,0:2:0:0:
101,148,39397,2,0,L|83:281,1,135,8|0,0:0|0:0,0:0:0:0:
168,384,39809,2,0,L|180:294,1,90,8|0,0:0|0:0,0:0:0:0:
299,226,40139,6,0,L|286:315,1,90,4|0,0:2|0:0,0:0:0:0:
286,315,40386,1,0,0:0:0:0:
286,315,40469,1,8,0:0:0:0:
386,384,40634,2,0,L|410:205,1,180,2|0,0:2|0:0,0:0:0:0:
494,174,41128,1,8,0:0:0:0:
463,89,41293,5,0,0:0:0:0:
463,89,41375,1,0,0:0:0:0:
463,89,41458,2,0,B|404:75|404:75|361:114|361:114|279:96,1,180,2|0,0:2|0:0,0:0:0:0:
224,144,41952,1,2,0:2:0:0:
224,144,42035,2,0,L|81:117,1,135,8|0,0:0|0:0,0:0:0:0:
12,162,42447,2,0,B|-6:212|16:249,1,90,8|0,0:0|0:0,0:0:0:0:
99,330,42776,6,0,L|211:317,1,90,4|0,0:2|0:0,0:0:0:0:
188,319,43024,1,0,0:0:0:0:
188,319,43106,1,8,0:0:0:0:
292,366,43271,1,2,0:2:0:0:
292,366,43353,2,0,B|318:302|290:234,1,135,8|0,0:0|0:0,0:0:0:0:
203,168,43765,2,0,B|114:157,1,90,8|0,0:0|0:0,0:0:0:0:
290,104,44095,6,0,B|402:90,1,90
379,92,44342,1,0,0:0:0:0:
379,92,44425,1,8,0:0:0:0:
431,18,44590,1,0,0:0:0:0:
512,189,44919,5,8,3:0:0:0:
491,181,45002,1,8,3:0:0:0:
468,183,45084,1,0,1:2:0:0:
448,192,45166,1,0,1:2:0:0:
431,207,45249,1,0,1:2:0:0:
420,226,45331,1,0,1:2:0:0:
417,248,45414,1,8,3:3:0:0:
417,269,45496,1,8,3:3:0:0:
409,289,45579,1,4,3:3:0:0:
390,301,45661,1,4,3:3:0:0:
368,304,45743,1,0,1:0:0:0:
347,295,45826,1,0,1:0:0:0:
333,276,45908,1,0,1:0:0:0:
330,253,45991,1,0,1:0:0:0:
339,232,46073,1,6,0:0:0:0:
96,192,47226,5,6,0:2:0:0:
416,192,47556,1,6,0:2:0:0:
96,192,47886,1,6,0:2:0:0:
416,192,48215,1,6,1:2:0:0:
389,178,48298,1,0,1:0:0:0:
359,176,48380,1,8,1:3:0:0:
331,184,48463,1,8,1:3:0:0:
307,203,48545,1,4,1:3:0:0:
294,226,48627,1,4,1:3:0:0:
289,259,48710,2,0,L|299:358,1,90,4|0,0:1|0:0,0:0:0:0:
158,384,49039,6,0,L|148:285,1,90,8|0,0:2|0:0,0:0:0:0:
77,238,49369,1,2,0:2:0:0:
114,156,49534,2,0,B|161:133|201:148,1,90,0|8,0:2|0:0,0:0:0:0:
324,265,49863,2,0,B|280:235|273:193,1,90,2|0,0:2|0:0,0:0:0:0:
314,29,50193,2,0,B|310:80|276:108,1,90,0|8,0:2|0:0,0:0:0:0:
208,155,50523,1,2,0:2:0:0:
208,155,50605,1,0,0:0:0:0:
208,155,50688,2,0,L|20:122,2,180,0|8|0,0:2|0:0|0:0,0:0:0:0:
463,187,51677,5,8,0:1:0:0:
502,267,51841,1,0,0:0:0:0:
448,340,52006,2,0,B|405:349|405:349|363:328,2,90,2|0|8,0:2|0:0|0:0,0:0:0:0:
291,272,52501,2,0,B|250:252|250:252|206:260,1,90,2|0,0:2|0:0,0:0:0:0:
39,285,52830,2,0,B|78:305|78:305|124:297,1,90,0|8,0:0|0:0,0:0:0:0:
133,204,53160,1,2,0:2:0:0:
133,204,53242,1,0,0:0:0:0:
133,204,53325,2,0,B|94:184|94:184|48:192,1,90
185,102,53655,5,8,0:0:0:0:
214,134,53737,1,0,0:0:0:0:
256,142,53819,1,0,0:0:0:0:
298,134,53902,1,0,0:0:0:0:
327,102,53984,2,0,B|318:0,1,90,4|0,0:1|0:0,0:0:0:0:
476,39,54314,5,8,0:0:0:0:
423,111,54479,1,0,0:0:0:0:
423,111,54561,1,0,0:0:0:0:
423,111,54644,1,0,0:2:0:0:
495,163,54808,2,0,B|487:267,1,90,2|8,0:2|0:0,0:0:0:0:
392,335,55138,2,0,B|377:235,1,90
256,192,55468,2,0,B|256:288,1,90,2|8,0:2|0:0,0:0:0:0:
120,335,55797,2,0,B|135:235,1,90
17,163,56127,1,2,0:2:0:0:
17,163,56210,1,0,0:0:0:0:
17,163,56292,2,0,B|25:267,1,90,8|0,0:0|0:0,0:0:0:0:
256,192,56622,5,6,0:2:0:0:
32,32,56951,1,8,0:0:0:0:
32,32,57116,1,6,0:2:0:0:
256,192,57446,1,6,0:2:0:0:
480,32,57775,1,6,0:2:0:0:
186,152,58105,6,0,L|146:129,2,45,2|0|0,0:2|0:0|0:0,0:0:0:0:
256,272,58435,2,0,L|256:318,2,45,2|0|0,0:2|0:0|0:0,0:0:0:0:
325,152,58764,2,0,L|365:128,2,45,2|0|0,0:2|0:0|0:0,0:0:0:0:
178,241,59094,5,2,0:1:0:0:
178,241,59177,1,0,0:0:0:0:
178,241,59259,1,0,0:0:0:0:
252,99,59424,1,2,0:1:0:0:
252,99,59506,1,0,0:0:0:0:
252,99,59589,1,0,0:0:0:0:
337,235,59753,1,2,0:1:0:0:
337,235,59836,1,0,0:0:0:0:
337,235,59918,1,0,0:0:0:0:
147,129,60083,5,4,0:2:0:0:
256,316,60248,1,4,0:2:0:0:
364,129,60413,1,4,0:2:0:0:
464,166,60578,6,0,B|521:251|464:341,1,180,4|8,0:0|0:0,0:0:0:0:
361,379,61072,2,0,B|154:359,1,180,2|0,0:2|0:0,0:0:0:0:
93,383,61567,1,8,0:0:0:0:
48,305,61731,1,0,0:0:0:0:
136,283,61896,6,0,B|154:242|154:242|139:180,1,90,4|0,0:2|0:0,0:0:0:0:
143,198,62144,1,0,0:0:0:0:
143,198,62226,1,8,0:0:0:0:
85,131,62391,2,0,B|41:118|41:118|15:82,1,90,2|0,0:2|0:0,0:0:0:0:
172,113,62720,2,0,B|204:81|204:81|249:76,1,90,2|8,0:2|0:0,0:0:0:0:
369,175,63050,5,2,0:2:0:0:
369,175,63133,1,0,0:0:0:0:
369,175,63215,2,0,L|357:366,2,180,4|8|0,0:2|0:0|0:0,0:0:0:0:
455,148,64039,2,0,B|478:109|461:58,1,90,2|8,0:2|0:0,0:0:0:0:
377,28,64369,6,0,B|312:28|312:28|283:70|283:70|201:68,1,180,4|0,0:2|0:0,0:0:0:0:
143,21,64863,1,8,0:0:0:0:
89,93,65028,1,0,0:0:0:0:
166,140,65193,1,8,3:3:0:0:
178,158,65275,1,8,3:3:0:0:
188,178,65358,1,8,3:3:0:0:
195,200,65440,1,8,3:3:0:0:
199,222,65523,1,12,3:0:0:0:
199,244,65605,1,4,3:0:0:0:
197,267,65688,1,4,3:0:0:0:
192,289,65770,1,4,3:0:0:0:
184,310,65852,6,0,B|94:359|9:293,1,180,4|8,0:0|0:0,0:0:0:0:
30,161,66347,2,0,B|120:112|205:178,1,180,2|0,0:2|0:0,0:0:0:0:
253,245,66841,1,8,0:0:0:0:
332,202,67006,1,0,0:0:0:0:
383,275,67171,6,0,B|423:291|423:291|487:270,1,90,4|0,0:2|0:0,0:0:0:0:
467,276,67418,1,0,0:0:0:0:
467,276,67501,1,8,0:0:0:0:
507,195,67666,1,0,0:0:0:0:
457,120,67830,2,0,B|417:104|417:104|353:125,1,90,2|0,0:2|0:0,0:0:0:0:
247,200,68160,2,0,B|287:216|287:216|331:201,1,90,8|0,0:2|0:0,0:0:0:0:
284,117,68490,6,0,L|274:28,1,90,4|0,0:2|0:0,0:0:0:0:
273,27,68737,1,0,0:0:0:0:
273,27,68819,1,8,0:0:0:0:
197,102,68984,2,0,B|148:151|148:151|21:108,1,180,6|0,0:2|0:0,0:0:0:0:
0,201,69479,1,8,0:0:0:0:
81,238,69644,1,0,0:0:0:0:
159,279,69808,6,0,B|177:330|144:378,1,90,4|0,0:2|0:0,0:0:0:0:
151,365,70056,1,0,0:0:0:0:
151,365,70138,1,8,0:0:0:0:
76,327,70303,2,0,B|255:310,1,180,6|8,0:2|0:0,0:0:0:0:
331,359,70797,1,0,0:0:0:0:
415,327,70962,5,0,0:0:0:0:
415,327,71045,1,0,0:0:0:0:
415,327,71127,2,0,B|486:253|429:159,1,180,4|8,0:0|0:0,0:0:0:0:
271,146,71622,2,0,B|200:220|257:314,1,180,2|0,0:2|0:0,0:0:0:0:
346,203,72116,1,8,0:0:0:0:
357,108,72281,5,0,0:0:0:0:
357,108,72363,1,0,0:0:0:0:
357,108,72446,2,0,L|165:72,1,180,2|8,0:2|0:0,0:0:0:0:
92,55,72940,2,0,L|58:231,1,180,2|0,0:2|0:0,0:0:0:0:
42,320,73435,1,8,0:0:0:0:
131,336,73600,1,0,0:0:0:0:
147,247,73764,6,0,L|171:114,1,135.000005149842,4|0,1:2|0:0,0:0:0:0:
254,135,74259,1,0,1:0:0:0:
254,135,74341,1,0,1:0:0:0:
254,135,74424,2,0,L|229:267,1,135.000005149842,8|0,0:0|0:0,0:0:0:0:
278,326,74918,1,0,0:0:0:0:
349,300,75083,2,0,L|373:167,1,135.000005149842,6|0,1:2|0:0,0:0:0:0:
456,188,75578,1,0,1:0:0:0:
456,188,75660,1,0,1:0:0:0:
456,188,75742,2,0,L|431:320,1,135.000005149842,8|0,0:0|1:0,0:0:0:0:
285,359,76237,6,0,B|223:342|223:342|179:375|179:375|86:350,1,180,4|8,0:2|3:0,0:0:0:0:
103,345,76649,1,8,3:0:0:0:
98,322,76731,1,4,3:0:0:0:
103,300,76814,1,4,3:0:0:0:
121,286,76896,1,0,1:0:0:0:
143,281,76979,1,0,1:0:0:0:
164,285,77061,1,8,3:0:0:0:
185,277,77144,1,8,3:0:0:0:
202,263,77226,1,0,1:0:0:0:
210,242,77308,1,0,1:0:0:0:
207,219,77391,1,0,1:0:0:0:
194,200,77473,1,0,1:0:0:0:
173,189,77556,1,0,1:0:0:0:
150,186,77638,1,0,1:0:0:0:
130,196,77720,5,6,0:2:0:0:
104,100,77885,1,0,0:2:0:0:
201,81,78050,1,0,0:2:0:0:
256,0,78215,5,6,0:2:0:0:
382,196,78545,5,6,0:2:0:0:
256,384,78874,6,0,B|355:185|160:201|258:-4,1,403.200004921875,6|2,0:1|0:0,2:0:0:0:
256,192,80234,12,0,81347,0:0:0:0:
256,192,81512,6,0,B|219:308|219:308|135:307,1,198.000006042481,6|0,0:0|0:0,0:1:0:0:
57,357,82006,1,8,0:1:0:0:
0,275,82171,1,0,0:0:0:0:
85,225,82336,2,0,L|78:115,2,99.0000030212403,2|0|8,0:2|0:0|0:0,0:0:0:0:
142,307,82830,6,0,L|360:326,1,198.000006042481,6|0,0:2|0:0,0:1:0:0:
421,380,83325,1,8,0:1:0:0:
500,320,83490,1,0,0:0:0:0:
467,227,83655,1,2,0:2:0:0:
376,237,83819,1,0,0:0:0:0:
376,237,83902,1,0,0:0:0:0:
376,237,83984,1,8,0:0:0:0:
285,190,84149,6,0,B|275:133|275:133|337:87|337:87|323:3,1,198.000006042481,6|0,0:0|0:0,0:0:0:0:
227,2,84644,1,8,0:0:0:0:
163,80,84808,1,0,0:0:0:0:
163,80,84891,1,0,0:0:0:0:
163,80,84973,2,0,L|179:182,1,99.0000030212403,2|0,0:2|0:0,0:0:0:0:
119,256,85303,1,8,0:0:0:0:
180,333,85468,6,0,B|277:381|365:306,1,198.000006042481,6|0,0:2|0:0,0:0:0:0:
511,246,85962,2,0,L|416:222,1,99.0000030212403,8|0,0:0|0:0,0:0:0:0:
415,221,86210,1,0,0:0:0:0:
415,221,86292,1,2,0:2:0:0:
372,141,86457,1,0,0:0:0:0:
285,189,86622,1,8,0:0:0:0:
254,95,86786,6,0,B|170:22|69:68,1,198.000006042481,6|0,0:0|0:0,0:0:0:0:
1,141,87281,1,8,0:0:0:0:
53,236,87446,1,0,0:0:0:0:
53,236,87528,1,0,0:0:0:0:
53,236,87611,2,0,L|40:338,2,99.0000030212403,2|0|8,0:2|0:0|0:0,0:0:0:0:
131,175,88105,6,0,B|246:167|206:218|330:207,1,198.000006042481,6|0,0:2|0:0,0:0:0:0:
496,290,88600,2,0,B|456:268|400:270,1,99.0000030212403,8|0,0:0|0:0,0:0:0:0:
307,304,88929,1,2,0:2:0:0:
394,369,89094,1,0,0:0:0:0:
394,369,89177,1,0,0:0:0:0:
394,369,89259,1,8,0:0:0:0:
401,270,89424,1,0,0:0:0:0:
323,207,89589,6,0,B|316:148|316:148|364:95|364:95|354:25,1,198.000006042481,6|8,0:0|0:0,0:0:0:0:
256,2,90083,1,0,0:0:0:0:
157,28,90248,2,0,B|148:95|148:95|196:148|196:148|189:207,1,198.000006042481,2|8,0:2|0:0,0:0:0:0:
256,310,90742,6,0,B|223:386|144:391|85:337,1,198.000006042481,6|0,0:2|1:0,0:0:0:0:
92,343,91155,1,0,1:1:0:0:
92,343,91237,1,8,1:1:0:0:
13,275,91402,5,8,3:3:0:0:
17,242,91484,1,8,3:3:0:0:
22,209,91567,1,4,3:3:0:0:
27,177,91649,1,4,3:3:0:0:
31,144,91731,1,0,1:1:0:0:
36,111,91814,1,0,1:1:0:0:
41,79,91896,1,8,1:1:0:0:
161,31,92061,6,0,B|255:63|255:63|357:9,1,198.000006042481,6|0,0:0|0:0,0:0:0:0:
434,54,92556,1,8,0:1:0:0:
357,117,92720,1,0,0:0:0:0:
449,155,92885,1,2,0:2:0:0:
372,218,93050,1,0,0:0:0:0:
464,256,93215,1,8,0:0:0:0:
387,319,93380,6,0,B|296:353|296:353|204:295,1,198.000006042481,6|0,0:2|0:0,0:1:0:0:
121,254,93874,2,0,L|22:267,1,99.0000030212403,8|0,0:0|0:0,0:0:0:0:
181,178,94204,1,2,0:2:0:0:
277,224,94369,1,0,0:0:0:0:
277,224,94451,1,0,0:0:0:0:
277,224,94534,1,8,0:0:0:0:
367,183,94699,6,0,B|425:154|433:51|351:19,1,198.000006042481,6|0,0:0|0:0,0:0:0:0:
261,3,95193,1,8,0:0:0:0:
213,90,95358,1,0,0:2:0:0:
116,72,95523,1,2,0:2:0:0:
76,166,95688,1,0,0:0:0:0:
76,166,95770,1,0,0:0:0:0:
76,166,95852,1,8,0:0:0:0:
151,230,96017,6,0,B|254:273|341:204,1,198.000006042481,6|0,0:2|0:0,0:0:0:0:
501,307,96512,2,0,B|463:275|410:274,1,99.0000030212403,8|0,0:0|0:0,0:0:0:0:
410,274,96759,1,0,0:0:0:0:
410,274,96841,1,10,0:0:0:0:
373,365,97006,1,8,0:0:0:0:
337,206,97336,6,0,B|253:139|150:182,1,198.000006042481,6|0,0:1|0:0,0:0:0:0:
70,241,97830,1,8,0:0:0:0:
1,185,97995,1,0,0:0:0:0:
1,185,98078,1,0,0:0:0:0:
1,185,98160,1,2,0:2:0:0:
81,126,98325,2,0,L|90:10,1,99.0000030212403,0|8,0:0|0:0,0:0:0:0:
218,66,98655,6,0,B|282:61|282:61|334:115|334:115|392:108,1,198.000006042481,6|0,0:2|0:0,0:0:0:0:
512,214,99149,2,0,B|469:192|469:192|419:198,1,99.0000030212403,8|0,0:0|0:0,0:0:0:0:
419,198,99396,1,0,0:0:0:0:
419,198,99479,1,2,0:2:0:0:
297,284,99644,1,0,0:0:0:0:
423,354,99808,1,8,0:0:0:0:
297,284,99973,6,0,B|226:273|226:273|180:317|180:317|96:304,1,198.000006042481,6|0,0:2|0:3,0:0:0:0:
118,307,100385,1,0,0:0:0:0:
118,307,100468,1,8,0:2:0:0:
23,252,100633,5,8,3:3:0:0:
26,232,100715,1,8,3:3:0:0:
30,213,100797,1,0,1:0:0:0:
33,193,100880,1,0,1:0:0:0:
37,174,100962,1,0,1:0:0:0:
41,154,101045,1,0,1:0:0:0:
44,135,101127,1,0,1:0:0:0:
48,115,101210,1,0,1:0:0:0:
52,96,101292,1,0,1:0:0:0:
55,76,101374,1,0,1:0:0:0:
59,57,101457,5,12,0:2:0:0:
90,40,101539,1,0,0:2:0:0:
125,36,101622,1,0,0:2:0:0:
157,49,101704,1,0,0:2:0:0:
185,71,101786,1,8,0:2:0:0:
199,102,101869,1,0,0:2:0:0:
198,137,101951,1,0,0:2:0:0:
186,169,102034,1,0,0:2:0:0:
157,191,102116,1,10,0:2:0:0:
140,222,102199,1,0,0:2:0:0:
135,257,102281,1,0,0:2:0:0:
149,289,102363,1,0,0:2:0:0:
175,312,102446,1,8,0:2:0:0:
209,321,102528,1,0,0:2:0:0:
243,311,102611,1,0,0:2:0:0:
271,288,102693,1,0,0:2:0:0:
274,253,102775,6,0,B|260:202|260:202|290:157|290:157|267:68,2,168.75,6|0|0,0:0|0:1|0:1,0:0:0:0:
340,321,103435,2,0,B|389:373|471:354|484:271,1,180,2|8,0:2|0:0,0:0:0:0:
503,163,103929,5,0,0:0:0:0:
503,163,104012,1,0,0:0:0:0:
503,163,104094,2,0,B|399:148,1,90,4|0,0:2|0:0,0:0:0:0:
327,177,104424,1,8,0:0:0:0:
255,122,104589,1,0,0:0:0:0:
177,167,104753,2,0,B|156:206|156:206|161:274,2,90,2|0|8,0:2|0:0|0:0,0:0:0:0:
255,122,105248,6,0,B|244:45|161:23|106:69,1,180,6|0,0:2|0:0,0:0:0:0:
0,159,105742,2,0,B|36:138|86:144,1,90,8|0,0:0|0:0,0:0:0:0:
87,144,105990,1,0,0:0:0:0:
87,144,106072,1,2,0:2:0:0:
154,217,106237,1,0,0:0:0:0:
87,277,106402,1,8,0:0:0:0:
146,344,106567,6,0,B|234:363|234:363|346:318,1,180,6|0,0:2|0:0,0:0:0:0:
394,375,107061,1,10,0:0:0:0:
467,316,107226,1,0,0:0:0:0:
467,316,107308,1,0,0:0:0:0:
467,316,107391,1,2,0:2:0:0:
383,268,107556,1,0,0:0:0:0:
360,240,107638,1,0,0:0:0:0:
346,206,107720,1,0,0:0:0:0:
350,170,107803,1,0,0:0:0:0:
367,138,107885,1,0,0:0:0:0:
397,118,107968,1,0,0:0:0:0:
432,116,108050,6,0,B|504:161|504:161|446:246,2,168.75,6|0|0,0:0|0:0|0:0,0:0:0:0:
355,53,108710,2,0,B|307:106|224:89|210:10,1,180,2|8,0:2|0:0,0:0:0:0:
49,95,109204,5,0,0:0:0:0:
49,95,109286,1,0,0:0:0:0:
49,95,109369,2,0,B|91:83|91:83|136:90,1,90,4|0,0:2|0:0,0:0:0:0:
225,107,109699,1,8,0:0:0:0:
236,196,109863,1,0,0:0:0:0:
155,234,110028,1,2,0:2:0:0:
94,169,110193,1,0,0:0:0:0:
14,207,110358,1,8,0:0:0:0:
26,295,110523,1,0,0:0:0:0:
113,310,110688,6,0,L|223:321,1,90,6|0,0:2|0:0,0:0:0:0:
202,318,110935,1,0,0:0:0:0:
202,318,111017,1,8,0:0:0:0:
302,380,111182,1,0,0:0:0:0:
302,380,111264,1,0,0:0:0:0:
302,380,111347,2,0,B|310:263,1,90,2|0,0:2|0:0,0:0:0:0:
468,281,111677,2,0,B|460:398,1,90,8|0,0:2|0:0,0:0:0:0:
380,216,112006,5,6,0:2:0:0:
460,175,112171,1,8,0:0:0:0:
419,95,112336,1,8,0:0:0:0:
339,136,112501,1,6,0:2:0:0:
270,16,112666,1,0,0:0:0:0:
150,85,112830,1,0,0:2:0:0:
219,205,112995,1,8,3:3:0:0:
243,243,113078,1,8,3:3:0:0:
243,287,113160,1,4,3:3:0:0:
219,324,113242,1,4,3:3:0:0:
177,342,113325,6,0,B|125:334|125:334|80:365|80:365|-2:353,2,168.75,6|0|0,0:0|0:0|0:0,0:0:0:0:
268,305,113984,2,0,B|324:304|324:304|368:352|368:352|449:350,1,180,2|8,0:2|0:0,0:0:0:0:
495,271,114479,5,0,0:0:0:0:
495,271,114561,1,0,0:0:0:0:
495,271,114644,2,0,B|483:166,1,90,4|0,0:2|0:0,0:0:0:0:
398,153,114973,1,8,0:0:0:0:
317,193,115138,1,0,0:0:0:0:
238,148,115303,2,0,B|226:43,2,90,2|0|8,0:2|0:0|0:0,0:0:0:0:
196,227,115797,6,0,B|169:300|83:304|39:247,1,180,6|0,0:2|0:0,0:0:0:0:
49,259,116210,1,0,0:0:0:0:
49,259,116292,1,8,0:0:0:0:
1,193,116457,1,0,0:0:0:0:
82,154,116622,1,0,0:0:0:0:
45,72,116786,1,8,0:0:0:0:
129,39,116951,1,8,0:0:0:0:
214,11,117116,6,0,B|222:76|222:76|191:117|191:117|203:203,1,180,6|0,0:2|0:0,0:0:0:0:
299,226,117611,2,0,L|313:133,1,90,8|0,0:0|0:0,0:0:0:0:
405,102,117940,1,2,0:2:0:0:
471,175,118105,1,0,0:0:0:0:
481,218,118188,1,0,0:0:0:0:
480,263,118270,1,0,0:0:0:0:
467,305,118352,1,0,0:0:0:0:
443,343,118435,6,0,B|357:362|357:362|246:310,1,180,6|0,0:0|0:0,0:0:0:0:
199,374,118929,1,8,0:0:0:0:
118,336,119094,1,0,0:0:0:0:
118,336,119177,1,0,0:0:0:0:
118,336,119259,1,2,0:2:0:0:
111,247,119424,1,0,0:0:0:0:
185,197,119589,1,8,0:0:0:0:
265,236,119753,6,0,B|352:261|352:261|392:158,1,180,6|0,0:2|0:0,0:0:0:0:
503,120,120248,2,0,B|418:93,1,90,8|0,0:0|0:0,0:0:0:0:
417,92,120495,1,0,0:0:0:0:
417,92,120578,1,2,0:2:0:0:
341,19,120742,1,8,0:0:0:0:
256,99,120907,1,8,0:0:0:0:
171,19,121072,6,0,B|83:39|83:39|63:134,1,180,6|0,0:0|0:0,0:0:0:0:
1,192,121567,1,8,0:0:0:0:
49,279,121731,1,0,0:0:0:0:
49,279,121814,1,0,0:0:0:0:
49,279,121896,2,0,L|33:392,2,90,2|0|8,0:2|0:0|0:0,0:0:0:0:
159,210,122391,6,0,B|221:203|221:203|260:244|260:244|331:237,1,180,6|0,0:2|0:0,0:0:0:0:
431,298,122885,1,8,0:0:0:0:
491,187,123050,1,0,0:0:0:0:
491,187,123133,1,0,0:0:0:0:
491,187,123215,1,10,0:2:0:0:
380,127,123380,1,8,0:0:0:0:
320,238,123545,1,8,0:0:0:0:
260,349,123710,6,0,B|175:387|105:359|44:277|82:184|150:154,1,360,6|0,0:0|0:0,0:0:0:0:
296,87,125193,5,10,0:2:0:0:
320,117,125275,1,0,0:0:0:0:
355,133,125358,1,0,0:0:0:0:
393,131,125440,1,0,0:0:0:0:
425,106,125523,1,8,0:0:0:0:
441,69,125605,1,0,0:0:0:0:
428,30,125688,1,0,0:0:0:0:
390,15,125770,1,0,0:0:0:0:
351,26,125852,1,8,0:0:0:0:
336,64,125935,1,0,0:0:0:0:
350,101,126017,1,0,0:0:0:0:
387,117,126100,1,0,0:0:0:0:
427,118,126182,1,8,0:0:0:0:
454,147,126264,1,0,0:0:0:0:
461,186,126347,1,0,0:0:0:0:
441,221,126429,1,0,0:0:0:0:
404,239,126512,6,0,B|317:262|317:262|240:202,1,180,4|8,0:0|0:0,0:0:0:0:
427,118,127006,2,0,B|355:62|355:62|268:85,1,180,2|0,0:2|0:0,0:0:0:0:
191,132,127501,1,8,0:0:0:0:
142,55,127666,1,0,0:0:0:0:
53,73,127830,6,0,B|-13:150|21:241,1,180,2|8,0:2|0:0,0:0:0:0:
66,324,128325,1,2,0:2:0:0:
66,324,128407,2,0,L|225:308,1,135,8|0,0:0|0:0,0:0:0:0:
267,370,128819,1,8,0:0:0:0:
337,314,128984,5,0,0:0:0:0:
337,314,129067,1,0,0:0:0:0:
337,314,129149,2,0,B|350:256|350:256|321:203|321:203|335:135,1,180,6|8,0:2|0:0,0:0:0:0:
295,67,129644,1,2,0:2:0:0:
295,67,129726,2,0,L|136:83,1,135,8|0,0:0|0:0,0:0:0:0:
72,59,130138,1,8,0:0:0:0:
59,148,130303,1,0,0:0:0:0:
147,169,130468,6,0,L|245:160,1,90,4|0,0:2|0:0,0:0:0:0:
236,160,130715,1,0,0:0:0:0:
236,160,130797,1,8,0:0:0:0:
314,224,130962,2,0,B|409:275|487:194,1,180,2|0,0:2|0:0,0:0:0:0:
505,115,131457,1,8,0:0:0:0:
449,43,131622,5,0,0:0:0:0:
449,43,131704,1,0,0:0:0:0:
449,43,131786,2,0,B|354:-8|276:73,1,180,2|8,0:2|0:0,0:0:0:0:
217,125,132281,1,2,0:2:0:0:
217,125,132363,2,0,L|74:106,1,135,8|0,0:0|0:0,0:0:0:0:
9,159,132775,2,0,B|17:263,1,90,8|0,0:0|0:0,0:0:0:0:
123,348,133105,6,0,B|116:258,1,90,4|0,0:2|0:0,0:0:0:0:
116,258,133352,1,0,0:0:0:0:
116,258,133435,1,8,0:0:0:0:
227,307,133600,1,2,0:2:0:0:
227,307,133682,2,0,B|292:330|357:278,1,135,8|0,0:0|0:0,0:0:0:0:
415,215,134094,2,0,B|504:224,1,90,8|0,0:0|0:0,0:0:0:0:
377,132,134424,6,0,B|265:118,1,90
287,120,134671,1,0,0:0:0:0:
287,120,134753,1,8,0:0:0:0:
252,24,134918,1,0,0:0:0:0:
58,181,135248,5,8,3:3:0:0:
78,176,135330,1,8,3:3:0:0:
100,180,135413,1,0,1:0:0:0:
120,192,135495,1,0,1:0:0:0:
133,209,135578,1,0,1:0:0:0:
141,229,135660,1,0,1:0:0:0:
141,251,135742,1,8,3:3:0:0:
137,273,135825,1,8,3:3:0:0:
143,294,135907,1,4,3:3:0:0:
159,308,135990,1,4,3:3:0:0:
180,314,136072,1,0,1:0:0:0:
203,309,136155,1,0,1:0:0:0:
220,293,136237,1,0,1:0:0:0:
229,271,136319,1,0,1:0:0:0:
221,250,136402,1,6,1:0:0:0:
98,69,137555,5,6,0:2:0:0:
414,315,137885,1,6,0:2:0:0:
98,69,138215,1,6,0:2:0:0:
414,315,138544,1,0,0:0:0:0:
384,298,138627,1,0,0:0:0:0:
352,294,138709,1,8,0:3:0:0:
320,302,138792,1,8,0:3:0:0:
294,321,138874,1,4,0:3:0:0:
276,349,138956,1,4,0:3:0:0:
270,382,139039,1,4,0:0:0:0:
99,248,139368,5,0,0:2:0:0:
256,192,139698,1,0,0:0:0:0:
413,136,140028,1,0,0:0:0:0:
256,192,140357,1,0,0:0:0:0:
200,35,140687,1,0,0:0:0:0:
256,192,141017,1,0,0:0:0:0:
312,349,141346,5,0,0:0:0:0:
256,192,141511,1,8,2:0:0:0:
99,248,141676,1,2,0:2:0:0:
200,35,142006,5,0,0:2:0:0:
99,248,142335,1,0,0:0:0:0:
312,349,142665,1,0,0:0:0:0:
413,136,142995,1,0,0:0:0:0:
200,35,143324,1,0,0:0:0:0:
99,248,143654,1,8,2:0:0:0:
29,170,143819,5,8,3:3:0:0:
21,136,143901,1,8,3:3:0:0:
25,103,143984,1,4,3:3:0:0:
41,73,144066,1,4,3:3:0:0:
65,50,144148,1,8,3:2:0:0:
200,35,144313,1,4,0:2:0:0:
312,349,144643,5,0,0:2:0:0:
205,298,144808,1,0,2:0:0:0:
99,248,144973,1,0,0:0:0:0:
312,349,145302,1,0,0:0:0:0:
413,136,145632,1,0,0:0:0:0:
362,242,145797,1,0,2:0:0:0:
312,349,145962,1,0,0:0:0:0:
99,248,146291,1,0,0:0:0:0:
413,136,146621,5,0,0:0:0:0:
256,192,146786,1,8,2:0:0:0:
312,349,146951,1,2,0:2:0:0:
413,136,147280,5,0,0:2:0:0:
99,248,147610,1,0,0:0:0:0:
312,349,147940,1,0,0:0:0:0:
200,35,148269,1,0,0:0:0:0:
99,248,148599,1,0,0:0:0:0:
413,136,148929,1,8,2:0:0:0:
483,214,149093,5,8,3:3:0:0:
491,248,149176,1,8,3:3:0:0:
487,281,149258,1,4,3:3:0:0:
471,311,149341,1,4,3:3:0:0:
447,334,149423,1,8,3:2:0:0:
312,349,149588,1,4,0:2:0:0:
186,135,149918,6,0,B|153:119|120:119,1,67.5000025749208,0|0,0:0|2:0,0:0:0:0:
346,196,150247,2,0,B|382:190|407:170,1,67.5000025749208,0|0,0:0|2:0,0:0:0:0:
180,240,150577,2,0,B|154:267|145:298,1,67.5000025749208,0|0,0:0|2:0,0:0:0:0:
288,107,150907,2,0,B|293:71|282:40,1,67.5000025749208,0|0,0:0|2:0,0:0:0:0:
279,279,151236,2,0,B|296:311|323:329,1,67.5000025749208,0|0,0:0|2:0,0:0:0:0:
179,109,151566,5,0,1:0:0:0:
90,137,151731,1,8,2:0:0:0:
0,160,151896,1,8,3:3:0:0:
8,130,151978,1,8,3:3:0:0:
16,100,152060,1,8,3:2:0:0:
24,70,152143,1,8,3:2:0:0:
297,339,153214,1,2,2:0:0:0:
211,366,153379,6,0,B|123:386|123:386|41:343,1,180,4|0,0:0|0:0,0:0:0:0:
43,344,153791,1,0,0:0:0:0:
43,344,153874,1,0,0:0:0:0:
0,205,154039,5,8,3:0:0:0:
27,201,154121,1,8,3:0:0:0:
55,198,154203,1,8,0:0:0:0:
83,194,154286,1,0,0:0:0:0:
111,191,154368,1,0,0:0:0:0:
139,188,154451,1,0,0:0:0:0:
167,184,154533,1,8,3:3:0:0:
195,181,154615,1,8,3:3:0:0:
223,178,154698,1,4,3:3:0:0:
327,216,154863,5,8,0:0:0:0:
320,180,154945,1,0,0:0:0:0:
313,144,155028,1,8,3:0:0:0:
306,108,155110,1,8,3:0:0:0:
299,72,155192,1,4,3:0:0:0:
203,0,155357,5,8,0:0:0:0:
203,0,155440,1,0,0:0:0:0:
203,0,155522,1,0,0:0:0:0:
146,95,155687,5,6,0:2:0:0:
382,38,155852,1,6,0:2:0:0:
219,233,156181,6,0,B|151:155|56:185,1,180,4|8,0:0|0:0,0:0:0:0:
16,319,156676,2,0,B|83:396|178:366,1,180,2|0,0:2|0:0,0:0:0:0:
256,322,157170,1,8,0:0:0:0:
335,366,157335,1,0,0:0:0:0:
415,327,157500,6,0,B|423:280|400:226,1,90,4|0,0:2|0:0,0:0:0:0:
404,238,157747,1,0,0:0:0:0:
404,238,157830,1,8,0:0:0:0:
335,179,157995,2,0,B|290:173|253:143,1,90,2|0,0:2|0:0,0:0:0:0:
421,147,158324,2,0,B|447:110|492:94,1,90,2|8,0:2|0:0,0:0:0:0:
350,39,158654,5,2,0:2:0:0:
350,39,158736,1,0,0:0:0:0:
350,39,158819,2,0,L|154:26,1,180,4|8,0:2|0:0,0:0:0:0:
97,80,159313,1,0,0:0:0:0:
162,142,159478,2,0,B|285:152,2,90,2|0|8,0:2|0:0|0:0,0:0:0:0:
66,189,159973,6,0,B|58:251|58:251|97:286|97:286|87:368,1,180,4|0,0:2|0:0,0:0:0:0:
176,375,160467,1,12,0:2:0:0:
264,359,160632,1,0,0:0:0:0:
353,369,160797,1,8,3:3:0:0:
365,351,160879,1,8,3:3:0:0:
375,331,160962,1,8,3:3:0:0:
382,309,161044,1,8,3:3:0:0:
386,287,161126,1,12,3:0:0:0:
386,265,161209,1,4,3:0:0:0:
384,242,161291,1,4,3:0:0:0:
379,220,161374,1,4,3:0:0:0:
371,199,161456,6,0,B|310:188|310:188|264:227|264:227|197:214,1,180,4|8,0:0|0:0,0:0:0:0:
120,241,161951,2,0,B|70:199|74:104|152:80,1,180,2|0,0:2|0:0,0:0:0:0:
168,5,162445,1,8,0:0:0:0:
253,32,162610,1,0,0:0:0:0:
218,115,162775,6,0,B|260:124|260:124|316:100,1,90,4|0,0:2|0:0,0:0:0:0:
303,105,163022,1,0,0:0:0:0:
303,105,163104,1,8,0:0:0:0:
385,62,163269,1,0,0:0:0:0:
474,186,163434,2,0,B|483:144|483:144|465:101,1,90,2|0,0:2|0:0,0:0:0:0:
342,272,163764,2,0,B|384:281|384:281|427:262,1,90,8|0,0:2|0:0,0:0:0:0:
290,346,164093,6,0,L|186:327,1,90,4|0,0:2|0:0,0:0:0:0:
201,329,164341,1,0,0:0:0:0:
201,329,164423,1,8,0:0:0:0:
107,375,164588,2,0,B|103:183,1,180,6|0,0:2|0:0,0:0:0:0:
27,145,165082,1,8,0:0:0:0:
94,85,165247,1,0,0:0:0:0:
170,135,165412,6,0,B|219:144|264:109,1,90,4|0,0:2|0:0,0:0:0:0:
255,115,165659,1,0,0:0:0:0:
255,115,165742,1,8,0:0:0:0:
335,173,165907,1,2,0:2:0:0:
467,151,166071,1,8,0:0:0:0:
489,283,166236,1,8,0:0:0:0:
357,305,166401,1,8,0:0:0:0:
283,361,166566,5,8,0:0:0:0:
283,361,166648,1,8,0:0:0:0:
283,361,166731,2,0,B|195:376|195:376|96:339,1,180,4|8,0:0|0:0,0:0:0:0:
292,240,167225,2,0,B|210:207|210:207|119:223,1,180,2|0,0:2|0:0,0:0:0:0:
50,280,167720,1,8,0:0:0:0:
4,203,167885,5,0,0:0:0:0:
4,203,167967,1,0,0:0:0:0:
4,203,168049,2,0,L|33:19,1,180,2|8,0:2|0:0,0:0:0:0:
148,45,168544,2,0,L|119:229,1,180,0|0,0:2|0:0,0:0:0:0:
187,288,169039,1,8,0:0:0:0:
275,265,169203,1,0,0:0:0:0:
355,309,169368,6,0,B|417:334|417:334|486:321,1,135.000005149842,4|0,1:2|0:0,0:0:0:0:
489,245,169863,1,0,1:0:0:0:
489,245,169945,1,0,1:0:0:0:
489,245,170028,2,0,B|427:220|427:220|360:232,1,135.000005149842,8|0,0:2|2:0,0:0:0:0:
294,266,170522,1,0,0:0:0:0:
252,204,170687,2,0,B|276:142|276:142|263:73,1,135.000005149842,6|0,1:2|0:0,0:0:0:0:
187,64,171181,1,0,1:0:0:0:
187,64,171264,1,0,1:0:0:0:
187,64,171346,2,0,B|162:126|162:126|175:195,1,135.000005149842,8|0,0:2|1:0,0:0:0:0:
224,329,171841,6,0,B|121:292|151:364|49:330,1,180,4|8,0:2|3:0,0:0:0:0:
33,315,172253,1,8,3:0:0:0:
23,294,172335,1,4,3:0:0:0:
24,271,172418,1,4,3:0:0:0:
31,249,172500,1,0,1:0:0:0:
48,235,172582,1,0,1:0:0:0:
69,228,172665,1,8,3:0:0:0:
91,227,172747,1,8,3:0:0:0:
112,234,172830,1,0,1:0:0:0:
134,233,172912,1,0,1:0:0:0:
154,224,172995,1,0,1:0:0:0:
171,209,173077,1,0,1:0:0:0:
176,187,173159,1,0,1:0:0:0:
176,164,173242,1,0,1:0:0:0:
166,143,173324,5,6,0:2:0:0:
79,71,173489,1,0,0:2:0:0:
169,3,173654,1,0,0:2:0:0:
256,75,173819,5,6,0:2:0:0:
0,192,174148,5,6,0:2:0:0:
256,309,174478,6,0,B|383:379|532:246|476:95,1,396.000012084961,6|2,0:1|0:0,2:0:0:0:
256,192,175838,12,0,176951,0:0:0:0:
246,51,177115,6,0,B|198:154|198:154|114:141,1,198.000006042481,6|0,0:0|0:0,0:1:0:0:
17,121,177610,1,8,0:1:0:0:
7,219,177775,1,0,0:0:0:0:
104,239,177940,2,0,L|92:349,2,99.0000030212403,2|0|8,0:2|0:0|0:0,0:0:0:0:
201,184,178434,6,0,B|268:178|268:178|316:231|316:231|386:226,1,198.000006042481,6|0,0:2|0:0,0:1:0:0:
467,190,178929,1,8,0:1:0:0:
452,288,179093,1,0,0:0:0:0:
375,226,179258,1,2,0:2:0:0:
360,329,179423,1,0,0:0:0:0:
360,329,179506,1,0,0:0:0:0:
360,329,179588,1,8,0:0:0:0:
284,263,179753,6,0,B|222:257|222:257|173:312|173:312|99:305,1,198.000006042481,6|0,0:1|0:0,0:1:0:0:
12,296,180247,1,8,0:0:0:0:
27,205,180412,1,0,0:0:0:0:
27,205,180495,1,0,0:0:0:0:
27,205,180577,2,0,L|39:98,1,99.0000030212403,2|0,0:2|0:0,0:0:0:0:
120,50,180907,1,8,0:0:0:0:
205,105,181071,6,0,B|305:154|386:69,1,198.000006042481,6|0,0:2|0:0,0:0:0:0:
511,187,181566,2,0,B|471:157|418:164,1,99.0000030212403,8|0,0:0|0:0,0:0:0:0:
418,163,181813,1,0,0:0:0:0:
418,163,181896,1,2,0:2:0:0:
323,217,182060,1,0,0:0:0:0:
247,138,182225,1,8,0:0:0:0:
141,162,182390,6,0,B|55:240|117:342,1,198.000006042481,6|0,0:0|0:0,0:0:0:0:
209,375,182885,1,8,0:0:0:0:
289,315,183049,1,0,0:0:0:0:
289,315,183132,1,0,0:0:0:0:
289,315,183214,2,0,L|280:212,2,99.0000030212403,2|0|8,0:2|0:0|0:0,0:0:0:0:
366,376,183709,6,0,B|437:403|502:331|474:262,1,198.000006042481,6|0,0:2|0:0,0:0:0:0:
512,162,184203,2,0,B|456:168|413:129,1,99.0000030212403,8|0,0:0|0:0,0:0:0:0:
349,65,184533,1,2,0:2:0:0:
330,167,184698,1,0,0:0:0:0:
330,167,184780,1,0,0:0:0:0:
330,167,184863,1,8,0:0:0:0:
420,134,185028,1,0,0:0:0:0:
253,95,185192,6,0,B|194:88|194:88|141:136|141:136|71:126,1,198.000006042481,6|8,0:0|0:0,0:0:0:0:
0,192,185687,1,0,0:0:0:0:
74,258,185852,2,0,B|141:249|141:249|194:297|194:297|253:290,1,198.000006042481,2|8,0:2|0:0,0:0:0:0:
355,345,186346,6,0,B|410:390|501:351|511:260,1,198.000006042481,6|0,0:2|1:0,0:0:0:0:
507,279,186758,1,0,1:1:0:0:
507,279,186841,1,8,1:1:0:0:
471,185,187006,5,8,3:3:0:0:
438,178,187088,1,8,3:3:0:0:
405,173,187170,1,4,3:3:0:0:
373,168,187253,1,4,3:3:0:0:
340,161,187335,1,0,1:1:0:0:
307,156,187418,1,0,1:1:0:0:
275,151,187500,1,8,1:1:0:0:
203,82,187665,6,0,B|142:177|142:177|29:164,1,198.000006042481,6|0,0:0|0:0,0:0:0:0:
15,77,188159,1,8,0:1:0:0:
95,18,188324,1,0,0:0:0:0:
180,67,188489,1,2,0:2:0:0:
267,20,188654,1,0,0:0:0:0:
319,104,188819,1,8,0:0:0:0:
410,65,188984,6,0,B|487:51|539:129|500:197,1,198.000006042481,6|0,0:2|0:0,0:1:0:0:
459,280,189478,2,0,L|314:254,1,99.0000030212403,8|0,0:0|0:0,0:0:0:0:
273,310,189808,1,2,0:2:0:0:
207,250,189973,1,0,0:0:0:0:
207,250,190055,1,0,0:0:0:0:
207,250,190137,1,8,0:0:0:0:
295,202,190302,6,0,B|356:158|347:65|273:41,1,198.000006042481,6|0,0:0|0:0,0:0:0:0:
183,7,190797,1,8,0:0:0:0:
111,76,190962,1,0,0:2:0:0:
203,109,191126,1,2,0:2:0:0:
284,49,191291,1,0,0:0:0:0:
284,49,191374,1,0,0:0:0:0:
284,49,191456,1,8,0:0:0:0:
377,82,191621,6,0,B|438:126|429:218|359:241,1,198.000006042481,6|0,0:2|0:0,0:0:0:0:
283,319,192115,1,8,0:0:0:0:
211,236,192280,1,0,0:0:0:0:
180,217,192363,1,0,0:0:0:0:
144,207,192445,1,0,0:0:0:0:
107,207,192528,1,0,0:0:0:0:
71,216,192610,2,0,B|54:239|50:278,1,49.5000015106202
201,363,192940,6,0,B|416:349,1,198.000006042481,6|0,0:1|0:0,0:0:0:0:
493,380,193434,1,8,0:0:0:0:
483,281,193599,1,0,0:0:0:0:
483,281,193681,1,0,0:0:0:0:
483,281,193764,1,2,0:2:0:0:
387,255,193929,2,0,B|365:211|383:148,1,99.0000030212403,0|8,0:0|0:0,0:0:0:0:
312,46,194258,6,0,B|94:31,1,198.000006042481,6|0,0:2|0:0,0:0:0:0:
0,138,194753,2,0,B|48:151|48:151|91:129,1,99.0000030212403,8|0,0:0|0:0,0:0:0:0:
91,128,195000,1,0,0:0:0:0:
91,128,195082,1,2,0:2:0:0:
22,261,195247,1,0,0:0:0:0:
130,362,195412,1,8,0:0:0:0:
241,326,195577,6,0,B|312:319|312:319|345:340|345:340|444:331,1,180,6|0,0:1|0:0,0:0:0:0:
492,289,196071,1,8,3:2:0:0:
481,273,196154,1,0,3:2:0:0:
473,255,196236,1,0,3:2:0:0:
468,237,196319,1,0,3:2:0:0:
466,217,196401,1,2,3:2:0:0:
467,198,196484,1,0,3:2:0:0:
472,179,196566,1,0,3:2:0:0:
482,163,196648,1,0,3:2:0:0:
490,145,196731,1,8,3:2:0:0:
495,127,196813,1,0,3:2:0:0:
497,107,196896,1,0,3:2:0:0:
496,88,196978,1,0,3:2:0:0:
491,69,197060,5,2,3:2:0:0:
463,65,197143,1,0,3:0:0:0:
435,62,197225,1,0,3:0:0:0:
407,58,197308,1,0,3:0:0:0:
379,55,197390,1,8,3:2:0:0:
351,51,197473,1,0,3:0:0:0:
323,48,197555,1,0,3:0:0:0:
295,45,197637,1,0,3:0:0:0:
267,41,197720,5,8,3:3:0:0:
218,128,197885,1,4,3:3:0:0:
127,89,198049,1,8,0:0:0:0:
45,145,198214,6,0,B|-19:238|50:333,1,180,6|0,0:2|0:0,0:0:0:0:
115,359,198709,1,8,0:0:0:0:
192,313,198874,2,0,B|184:223,1,90,2|0,0:2|0:0,0:0:0:0:
327,223,199203,2,0,B|320:313,1,90,2|8,0:2|0:0,0:0:0:0:
99,187,199533,2,0,B|108:98,1,90,6|0,0:2|0:0,0:0:0:0:
404,98,199863,2,0,B|412:187,1,90,2|8,0:2|0:0,0:0:0:0:
172,9,200192,5,0,0:0:0:0:
256,160,200357,1,8,0:0:0:0:
340,9,200522,1,8,0:0:0:0:
259,64,200687,5,0,0:0:0:0:
259,64,200769,1,0,0:0:0:0:
259,64,200852,2,0,B|193:55|193:55|151:97|151:97|61:85,1,180,6|0,1:0|0:0,0:0:0:0:
29,149,201346,1,8,0:0:0:0:
62,232,201511,2,0,B|97:255|153:242,1,90,2|0,0:2|0:0,0:0:0:0:
212,179,201841,1,2,0:2:0:0:
212,179,201923,1,0,0:0:0:0:
212,179,202006,1,8,0:0:0:0:
276,260,202170,6,0,L|265:363,1,90,6|0,0:2|0:0,0:0:0:0:
380,384,202500,2,0,L|391:281,1,90,2|8,0:2|0:0,0:0:0:0:
483,273,202830,1,2,0:2:0:0:
483,273,202912,1,0,0:0:0:0:
483,273,202995,1,0,0:0:0:0:
458,186,203159,1,8,0:0:0:0:
364,207,203324,1,8,0:0:0:0:
340,119,203489,6,0,B|280:32|183:73,1,180,6|8,0:1|0:0,0:0:0:0:
102,32,203984,1,8,0:0:0:0:
58,112,204148,1,0,0:0:0:0:
58,112,204231,1,0,0:0:0:0:
58,112,204313,1,0,0:0:0:0:
147,156,204478,1,0,0:0:0:0:
147,156,204560,1,0,0:0:0:0:
147,156,204643,1,0,0:0:0:0:
0,197,204808,5,6,0:1:0:0:
29,328,204973,1,6,0:2:0:0:
161,305,205137,1,2,0:2:0:0:
198,297,205220,1,0,0:0:0:0:
234,305,205302,1,0,0:0:0:0:
263,328,205385,1,0,0:0:0:0:
283,357,205467,1,8,3:3:0:0:
317,373,205549,1,8,3:3:0:0:
355,369,205632,1,4,3:3:0:0:
383,343,205714,1,4,3:3:0:0:
390,306,205797,1,0,0:0:0:0:
376,270,205879,1,0,0:0:0:0:
346,244,205962,1,0,0:0:0:0:
309,234,206044,1,0,0:0:0:0:
284,205,206126,1,0,0:0:0:0:
287,164,206209,1,0,0:0:0:0:
315,135,206291,6,0,B|357:108|422:131,1,99.0000030212403,6|0,0:0|0:0,0:0:0:0:
199,133,206621,2,0,B|172:91|195:26,1,99.0000030212403,10|0,0:0|0:0,0:0:0:0:
197,249,206951,2,0,B|155:276|90:253,1,99.0000030212403,2|0,0:0|0:0,0:0:0:0:
313,251,207280,2,0,B|340:293|317:358,1,99.0000030212403,10|0,0:0|0:0,0:0:0:0:
244,368,207610,6,0,L|170:350,1,67.5000025749208,6|0,0:2|0:0,0:0:0:0:
80,179,207940,2,0,L|98:106,1,67.5000025749208,10|0,0:2|0:0,0:0:0:0:
268,16,208269,2,0,L|342:34,1,67.5000025749208,2|0,0:2|0:0,0:0:0:0:
432,204,208599,2,0,L|414:278,1,67.5000025749208,10|0,0:2|0:0,0:0:0:0:
322,287,208929,6,0,B|378:303|429:258,1,99.0000030212403,6|0,0:0|0:0,0:0:0:0:
160,258,209258,2,0,B|144:314|189:365,1,99.0000030212403,10|0,0:0|0:0,0:0:0:0:
190,97,209588,2,0,B|134:81|83:126,1,99.0000030212403,2|0,0:0|0:0,0:0:0:0:
352,126,209918,2,0,B|368:70|323:19,1,99.0000030212403,10|0,0:0|0:0,0:0:0:0:
254,7,210247,6,0,L|178:17,1,67.5000025749208,6|0,0:2|0:0,0:0:0:0:
71,194,210577,2,0,L|81:270,1,67.5000025749208,10|0,0:2|0:0,0:0:0:0:
258,377,210907,2,0,L|334:367,1,67.5000025749208,2|0,0:2|0:0,0:0:0:0:
441,190,211236,2,0,L|431:114,1,67.5000025749208,10|0,0:2|0:0,0:0:0:0:
399,51,211566,6,0,B|455:35|506:80,1,99.0000030212403,6|0,0:0|0:0,0:0:0:0:
399,333,211896,2,0,B|455:349|506:304,1,99.0000030212403,10|0,0:0|0:0,0:0:0:0:
212,116,212225,2,0,B|249:81|305:97,1,99.0000030212403,2|0,0:0|0:0,0:0:0:0:
212,268,212555,1,10,0:0:0:0:
304,287,212720,1,6,0:2:0:0:
128,192,212885,6,0,L|32:192,1,67.5000025749208,6|0,0:2|0:0,0:0:0:0:
238,68,213214,2,0,L|169:58,1,67.5000025749208,2|0,0:2|0:0,0:0:0:0:
238,316,213544,2,0,L|169:326,1,67.5000025749208,2|0,0:2|0:0,0:0:0:0:
171,325,213791,1,0,0:0:0:0:
171,325,213874,1,8,0:0:0:0:
289,382,214039,1,0,0:0:0:0:
384,316,214203,6,0,B|439:232|387:137,1,180,6|8,0:2|0:0,0:0:0:0:
341,69,214698,1,0,0:0:0:0:
258,33,214863,2,0,L|145:38,1,90,2|0,0:2|0:0,0:0:0:0:
168,36,215110,1,0,0:0:0:0:
168,36,215192,1,8,0:0:0:0:
84,122,215357,5,0,0:0:0:0:
84,122,215440,1,0,0:0:0:0:
84,122,215522,2,2,B|47:191|94:251,1,135,4|0,0:1|0:0,0:1:0:0:
204,283,216181,5,0,0:0:0:0:
238,248,216264,1,0,0:0:0:0:
287,249,216346,1,0,0:0:0:0:
324,282,216429,1,0,0:0:0:0:
319,331,216511,1,0,0:0:0:0:
347,372,216593,1,0,0:0:0:0:
395,379,216676,1,0,0:0:0:0:
434,349,216758,1,0,0:0:0:0:
437,298,216841,1,6,0:0:0:0:
254,379,237940,6,2,B|267:321|267:321|222:264|222:264|240:192,1,198.000006042481,6|8,0:0|0:0,0:1:0:0:
300,66,238434,2,2,B|287:124|287:124|332:180|332:180|316:244,1,198.000006042481,2|0,0:0|0:0,0:1:0:0:
142,273,238929,1,8,0:0:0:0:
142,273,239011,1,0,0:0:0:0:
142,273,239093,1,0,0:0:0:0:
108,179,239258,6,2,B|54:159|12:195,1,99.0000030212403,6|0,0:0|0:0,0:1:0:0:
14,192,239506,1,0,0:0:0:0:
14,192,239588,1,8,0:0:0:0:
142,273,239753,2,0,B|256:259,1,99.0000030212403,2|0,0:2|0:0,0:0:0:0:
420,296,240082,2,0,B|377:319|377:319|327:307,1,99.0000030212403,2|8,0:1|0:0,0:0:0:0:
288,174,240412,5,4,0:2:0:0:
386,161,240577,2,8,B|372:45,2,99.0000030212403,2|0|8,0:0|0:0|0:0,0:0:0:0:
484,148,241071,1,2,0:2:0:0:
497,246,241236,1,2,0:1:0:0:
399,259,241401,1,0,0:0:0:0:
305,276,241566,1,8,0:0:0:0:
288,174,241731,5,6,0:1:0:0:
145,197,241896,1,2,0:2:0:0:
168,340,242060,1,0,0:0:0:0:
311,317,242225,1,8,0:0:0:0:
454,294,242390,1,0,0:0:0:0:
431,151,242555,5,6,0:2:0:0:
392,123,242637,1,0,0:0:0:0:
349,102,242720,1,0,0:0:0:0:
318,137,242802,1,0,0:0:0:0:
288,174,242885,1,8,0:0:0:0:
247,151,242967,1,0,0:0:0:0:
207,125,243049,1,0,0:0:0:0:
176,161,243132,1,0,0:0:0:0:
145,197,243214,6,0,B|83:237|-2:177|44:98,2,198.000006042481,6|8|0,0:0|0:0|0:0,0:1:0:0:
229,267,244039,1,2,0:0:0:0:
318,205,244203,1,8,0:0:0:0:
234,135,244368,1,0,0:0:0:0:
410,89,244533,6,2,B|374:59|316:62,1,99.0000030212403,6|0,0:0|0:0,0:1:0:0:
216,18,244863,1,8,0:0:0:0:
128,83,245028,2,2,B|77:192|159:283,1,198.000006042481,6|0,0:2|0:0,0:1:0:0:
85,346,245522,1,8,0:0:0:0:
179,375,245687,1,0,0:0:0:0:
241,297,245852,6,0,B|248:249|248:249|218:200,1,99.0000030212403,6|0,0:0|0:0,0:0:0:0:
221,205,246099,1,0,0:0:0:0:
221,205,246181,1,8,0:0:0:0:
355,68,246346,2,2,B|290:144|290:144|351:238,1,198.000006042481,6|0,0:2|0:0,0:1:0:0:
412,298,246841,1,8,0:0:0:0:
473,220,247006,1,0,0:0:0:0:
404,148,247170,6,2,L|199:119,1,198.000006042481,6|0,0:1|0:0,0:1:0:0:
238,318,247665,2,2,L|41:290,1,198.000006042481,6|0,0:2|0:0,0:1:0:0:
6,197,248159,1,0,0:0:0:0:
77,127,248324,1,0,0:0:0:0:
142,201,248489,6,0,B|190:221|190:221|234:207,1,99.0000030212403,6|0,0:0|0:0,0:0:0:0:
234,207,248736,1,0,0:0:0:0:
234,207,248819,1,8,0:0:0:0:
250,84,248984,2,0,B|202:64|202:64|157:77,1,99.0000030212403,0|0,0:2|0:0,0:0:0:0:
315,158,249313,1,2,0:0:0:0:
399,106,249478,1,8,0:0:0:0:
483,157,249643,6,2,B|526:213|510:303|450:336,1,198.000006042481,2|0,0:0|0:0,0:1:0:0:
367,376,250137,2,0,B|146:348,1,198.000006042481,8|0,0:0|0:0,0:0:0:0:
75,381,250632,1,2,0:2:0:0:
23,295,250797,1,8,0:0:0:0:
118,265,250962,1,0,0:2:0:0:
65,128,251126,6,2,B|50:157|49:193,2,67.5000025749208,6|0|2,1:1|0:0|0:0,0:0:0:0:
122,79,251621,1,0,1:2:0:0:
176,129,251786,2,0,L|270:142,1,67.5000025749208,8|0,0:0|0:0,0:0:0:0:
294,192,252115,2,0,L|388:205,1,67.5000025749208,2|0,0:2|0:0,0:0:0:0:
454,239,252445,6,0,B|489:180|470:109,1,135.000005149842,4|2,1:2|0:0,0:0:0:0:
424,50,252940,1,0,1:0:0:0:
350,60,253104,2,0,L|205:41,1,135.000005149842,8|2,0:0|0:0,0:0:0:0:
77,64,253599,6,0,B|-9:129|33:228,1,180,4|8,0:2|3:0,0:0:0:0:
39,243,254011,1,8,3:0:0:0:
54,259,254093,1,4,3:0:0:0:
75,267,254176,1,4,3:0:0:0:
97,267,254258,1,0,1:0:0:0:
118,259,254341,1,0,1:0:0:0:
134,243,254423,1,8,3:0:0:0:
141,221,254506,1,8,3:0:0:0:
139,198,254588,1,0,1:0:0:0:
128,178,254670,1,0,1:0:0:0:
129,155,254753,1,0,1:0:0:0:
139,135,254835,1,0,1:0:0:0:
158,123,254918,1,0,1:0:0:0:
179,117,255000,1,0,1:0:0:0:
202,123,255082,5,6,0:2:0:0:
256,282,255247,1,0,0:2:0:0:
415,228,255412,1,0,0:2:0:0:
382,309,255577,6,2,B|430:319|430:319|482:289,1,99.0000030212403,6|0,0:2|0:0,0:1:0:0:
172,251,255907,2,2,B|164:301|164:301|191:351,1,99.0000030212403,6|0,0:2|0:0,0:1:0:0:
401,142,256236,6,0,B|337:3|133:-22|-67:151|91:387|251:416|384:307,1,804.375024547578,6|2,1:0|0:0,0:0:0:0:
512,147,260192,6,0,B|472:34|472:34|394:42,1,198.000006042481,6|0,0:0|0:0,0:1:0:0:
339,124,260686,1,8,0:1:0:0:
266,56,260851,1,0,0:0:0:0:
193,124,261016,2,0,L|177:234,1,99.0000030212403,2|0,0:2|0:0,0:0:0:0:
178,221,261264,1,0,0:0:0:0:
178,221,261346,1,8,0:0:0:0:
217,324,261510,6,0,B|114:384|41:296,1,198.000006042481,6|0,0:2|0:0,0:1:0:0:
3,204,262005,1,8,0:1:0:0:
41,112,262170,1,0,0:0:0:0:
133,74,262335,1,2,0:2:0:0:
230,122,262500,1,0,0:0:0:0:
230,122,262582,1,0,0:0:0:0:
230,122,262664,1,8,0:0:0:0:
267,213,262830,6,0,B|359:250|359:250|444:178,1,198.000006042481,6|0,0:0|0:0,0:0:0:0:
503,114,263324,1,8,0:0:0:0:
441,37,263488,1,0,0:0:0:0:
441,37,263571,1,0,0:0:0:0:
441,37,263653,2,0,L|329:24,1,99.0000030212403,2|0,0:2|0:0,0:0:0:0:
256,75,263983,1,8,0:0:0:0:
170,25,264148,6,0,B|100:44|74:127|120:188,1,198.000006042481,6|0,0:2|0:0,0:0:0:0:
37,304,264642,2,0,B|76:275|131:282,1,99.0000030212403,8|0,0:0|0:0,0:0:0:0:
130,281,264890,1,0,0:0:0:0:
130,281,264973,1,2,0:2:0:0:
219,345,265137,1,0,0:0:0:0:
303,294,265302,1,8,0:0:0:0:
388,343,265466,6,0,B|452:376|525:318|512:243,1,198.000006042481,6|0,0:0|0:0,0:0:0:0:
469,153,265961,1,8,0:0:0:0:
382,192,266126,1,0,0:0:0:0:
382,192,266208,1,0,0:0:0:0:
382,192,266291,2,0,L|249:171,2,99.0000030212403,2|0|8,0:2|0:0|0:0,0:0:0:0:
469,153,266786,6,0,B|488:77|408:20|344:53,1,198.000006042481,6|0,0:2|0:0,0:0:0:0:
250,29,267280,2,0,B|211:65|156:49,1,99.0000030212403,8|0,0:0|0:0,0:0:0:0:
62,23,267609,1,2,0:2:0:0:
8,108,267774,1,0,0:0:0:0:
8,108,267857,1,0,0:0:0:0:
8,108,267939,1,8,0:0:0:0:
103,134,268104,1,0,0:0:0:0:
197,163,268269,6,0,B|207:220|207:220|154:284|154:284|168:345,1,198.000006042481,6|8,0:0|0:0,0:0:0:0:
256,384,268763,1,0,0:0:0:0:
345,339,268929,2,0,B|358:284|358:284|305:220|305:220|315:163,1,198.000006042481,2|8,0:2|0:0,0:0:0:0:
256,64,269422,6,0,B|283:-2|374:-11|428:28,1,198.000006042481,6|0,0:2|1:0,0:0:0:0:
425,26,269835,1,0,1:1:0:0:
425,26,269917,1,8,1:1:0:0:
512,124,270082,5,8,3:3:0:0:
508,157,270164,1,8,3:3:0:0:
503,190,270247,1,4,3:3:0:0:
498,222,270329,1,4,3:3:0:0:
494,255,270411,1,0,1:1:0:0:
489,288,270494,1,0,1:1:0:0:
484,320,270576,1,8,1:1:0:0:
362,347,270741,6,0,B|297:336|297:336|254:372|254:372|160:358,1,198.000006042481,6|0,0:0|0:0,0:0:0:0:
79,371,271236,1,8,0:1:0:0:
19,290,271401,1,0,0:0:0:0:
60,198,271565,1,2,0:2:0:0:
159,187,271731,1,0,0:0:0:0:
219,268,271896,1,8,0:0:0:0:
318,257,272060,6,0,B|374:227|393:130|323:73,1,198.000006042481,6|0,0:2|0:0,0:1:0:0:
253,30,272554,2,0,B|200:41|156:16,1,99.0000030212403,8|0,0:0|0:0,0:0:0:0:
63,50,272884,1,2,0:2:0:0:
102,150,273049,1,0,0:0:0:0:
102,150,273131,1,0,0:0:0:0:
102,150,273214,1,8,0:0:0:0:
198,126,273379,6,0,B|260:154|268:249|213:296,1,198.000006042481,6|0,0:1|0:0,0:1:0:0:
150,369,273873,1,8,0:0:0:0:
63,320,274038,1,0,0:2:0:0:
137,254,274203,1,2,0:2:0:0:
223,302,274368,1,0,0:0:0:0:
223,302,274450,1,0,0:0:0:0:
223,302,274532,1,8,0:0:0:0:
301,241,274697,6,0,B|362:232|362:232|414:291|414:291|498:284,1,198.000006042481,6|0,0:2|0:0,0:0:0:0:
508,193,275192,2,0,B|492:89,1,99.0000030212403,8|0,0:0|0:0,0:0:0:0:
492,95,275439,1,0,0:0:0:0:
492,95,275521,1,10,0:0:0:0:
412,35,275686,1,8,0:0:0:0:
249,128,276016,6,0,B|232:191|232:191|284:253|284:253|263:334,1,198.000006042481,6|0,0:1|0:0,0:0:0:0:
96,337,276511,2,0,B|133:369|189:360,1,99.0000030212403,8|0,0:0|0:0,0:0:0:0:
189,359,276758,1,0,0:0:0:0:
189,359,276840,1,2,0:2:0:0:
163,250,277006,1,0,0:0:0:0:
44,262,277170,1,8,0:0:0:0:
197,122,277335,6,0,B|137:114|137:114|86:172|86:172|23:164,1,198.000006042481,6|0,0:2|0:0,0:0:0:0:
230,29,277829,2,0,B|123:14,1,99.0000030212403,8|0,0:0|0:0,0:0:0:0:
131,15,278076,1,0,0:0:0:0:
131,15,278159,1,2,0:2:0:0:
214,148,278324,1,0,0:0:0:0:
359,122,278488,1,8,0:0:0:0:
214,148,278653,6,0,B|143:194|159:293|240:307,1,198.000006042481,6|0,0:2|0:0,0:0:0:0:
226,303,279065,1,0,0:0:0:0:
226,303,279148,1,8,0:2:0:0:
362,286,279313,5,8,3:3:0:0:
365,263,279395,1,8,3:3:0:0:
370,241,279477,1,0,1:0:0:0:
373,218,279560,1,0,1:0:0:0:
378,196,279642,1,0,1:0:0:0:
382,173,279725,1,0,1:0:0:0:
386,151,279807,1,0,1:0:0:0:
390,128,279890,1,0,1:0:0:0:
395,106,279972,1,0,1:0:0:0:
398,83,280054,1,0,1:0:0:0:
403,61,280137,5,12,0:2:0:0:
376,30,280220,1,0,0:2:0:0:
340,11,280302,1,0,0:2:0:0:
301,12,280384,1,0,0:2:0:0:
262,24,280466,1,8,0:2:0:0:
234,51,280549,1,0,0:2:0:0:
220,89,280631,1,0,0:2:0:0:
220,129,280714,1,0,0:2:0:0:
242,164,280796,1,10,0:2:0:0:
248,205,280879,1,0,0:2:0:0:
239,244,280961,1,0,0:2:0:0:
210,273,281043,1,0,0:2:0:0:
173,287,281126,1,8,0:2:0:0:
133,282,281208,1,0,0:2:0:0:
101,258,281291,1,0,0:2:0:0:
80,221,281373,1,0,0:2:0:0:
91,182,281456,6,0,B|170:63|323:154|290:211|260:266|381:356|474:269,1,472.500018024445,6|0,0:0|0:1,0:0:0:0:
512,208,282775,6,0,B|455:137|292:142|369:295|237:314|146:256,1,405.000015449525,6|0,1:2|0:0,0:0:0:0:
92,317,283929,6,0,B|-31:264|-30:64|154:3|249:97,1,472.500018024445,6|0,1:2|0:0,0:0:0:0:
324,33,285247,5,4,0:0:0:0:
351,165,285412,1,8,0:0:0:0:
485,150,285577,1,0,0:0:0:0:
490,125,285659,1,0,0:0:0:0:
489,100,285741,1,0,0:0:0:0:
483,75,285824,1,0,0:0:0:0:
472,53,285906,1,0,0:0:0:0:
343,11,286071,5,10,0:0:0:0:
232,82,286236,1,8,0:0:0:0:
91,28,286401,1,0,0:0:0:0:
232,82,286566,5,0,1:0:0:0:
232,82,286648,1,0,1:0:0:0:
232,82,286731,2,0,B|341:168|292:364|65:340|63:171,1,472.500018024445,6|0,1:0|0:0,0:0:0:0:
31,92,288049,6,0,B|78:14|198:23|243:109|214:139|186:166|285:256|371:232|409:164,1,472.500018024445,6|0,1:2|0:0,0:0:0:0:
489,196,289368,5,0,0:0:0:0:
504,170,289450,1,0,0:0:0:0:
512,142,289532,1,0,0:0:0:0:
511,113,289615,1,0,0:0:0:0:
502,85,289697,1,8,3:0:0:0:
485,61,289780,1,8,3:0:0:0:
462,42,289862,1,8,3:0:0:0:
435,31,289944,1,8,3:0:0:0:
406,28,290028,5,4,3:3:0:0:
390,58,290110,1,4,3:3:0:0:
367,83,290192,1,4,3:3:0:0:
340,103,290275,1,4,3:3:0:0:
309,115,290357,1,0,0:0:0:0:
276,121,290440,1,0,0:0:0:0:
242,118,290522,1,0,0:0:0:0:
210,108,290604,1,0,0:0:0:0:
147,28,292006,6,0,B|87:21|87:21|53:64|53:64|0:58,2,168.75,6|0|0,0:0|0:1|0:1,0:0:0:0:
208,94,292666,2,0,B|214:285,1,180,2|8,0:2|0:0,0:0:0:0:
364,357,293160,5,0,0:0:0:0:
364,357,293243,1,0,0:0:0:0:
364,357,293325,2,0,B|321:335|260:342,1,90,4|0,0:2|0:0,0:0:0:0:
194,379,293655,1,8,0:0:0:0:
132,312,293820,1,0,0:0:0:0:
214,274,293984,2,0,B|210:165,2,90,2|0|8,0:2|0:0|0:0,0:0:0:0:
276,340,294479,6,0,B|331:379|408:334|397:258,1,180,6|0,0:2|0:0,0:0:0:0:
506,200,294973,2,0,B|456:207|421:178,1,90,8|0,0:0|0:0,0:0:0:0:
421,178,295221,1,0,0:0:0:0:
421,178,295303,1,2,0:2:0:0:
363,108,295468,1,0,0:0:0:0:
277,136,295633,1,8,0:0:0:0:
217,68,295798,6,0,B|133:35|133:35|45:82,1,180,6|0,0:2|0:0,0:0:0:0:
11,157,296292,1,10,0:0:0:0:
58,244,296457,1,0,0:0:0:0:
58,244,296539,1,0,0:0:0:0:
58,244,296622,1,2,0:2:0:0:
21,326,296787,1,0,0:0:0:0:
48,350,296869,1,0,0:0:0:0:
81,366,296951,1,0,0:0:0:0:
117,364,297034,1,0,0:0:0:0:
151,349,297116,1,0,0:0:0:0:
172,320,297199,1,0,0:0:0:0:
175,285,297281,6,0,B|163:234|163:234|193:185|193:185|172:109,2,168.75,6|0|0,0:0|0:0|0:0,0:0:0:0:
252,344,297941,2,0,B|303:381|387:351|384:271,1,180,2|8,0:2|0:0,0:0:0:0:
471,238,298435,5,0,0:0:0:0:
471,238,298517,1,0,0:0:0:0:
471,238,298600,2,0,B|489:198|489:198|474:147,1,90,4|0,0:2|0:0,0:0:0:0:
404,94,298930,1,8,0:0:0:0:
328,142,299094,1,0,0:0:0:0:
259,85,299259,1,2,0:2:0:0:
184,134,299423,1,0,0:0:0:0:
208,221,299587,1,8,0:0:0:0:
132,270,299753,1,0,0:0:0:0:
61,212,299918,6,0,B|51:169|51:169|76:122,1,90,4|0,0:2|0:0,0:0:0:0:
73,128,300166,1,0,0:0:0:0:
73,128,300248,1,8,0:0:0:0:
162,114,300413,1,0,0:0:0:0:
226,176,300578,2,0,B|270:185|270:185|332:158,1,90,2|0,0:2|0:0,0:0:0:0:
298,32,300907,2,0,B|254:23|254:23|213:42,1,90,8|0,0:2|0:0,0:0:0:0:
370,98,301237,5,6,0:2:0:0:
512,177,301484,5,8,0:2:0:0:
375,261,301731,5,8,0:2:0:0:
286,180,301896,5,8,3:3:0:0:
253,172,301978,1,8,3:3:0:0:
220,175,302060,1,8,3:3:0:0:
189,189,302143,1,8,3:3:0:0:
165,212,302225,1,4,3:3:0:0:
149,242,302308,1,4,3:3:0:0:
144,275,302390,1,4,3:3:0:0:
150,309,302472,1,4,3:3:0:0:
165,338,302555,6,0,B|246:368|246:368|323:320,2,168.75,6|0|0,0:0|0:0|0:0,0:0:0:0:
79,371,303215,2,0,B|68:313|68:313|108:265|108:265|99:206,1,180,2|8,0:2|0:0,0:0:0:0:
84,118,303710,5,0,0:0:0:0:
84,118,303792,1,0,0:0:0:0:
84,118,303875,2,0,B|42:138|42:138|0:131,1,90,4|0,0:2|0:0,0:0:0:0:
155,63,304204,1,8,0:0:0:0:
227,116,304369,1,0,0:0:0:0:
295,58,304533,2,0,B|336:37|336:37|379:44,2,90,2|0|8,0:2|0:0|0:0,0:0:0:0:
227,116,305028,6,0,B|212:182|212:182|242:227|242:227|227:297,1,180,6|0,0:2|0:0,0:0:0:0:
229,283,305441,1,0,0:0:0:0:
229,283,305523,1,8,0:0:0:0:
278,369,305688,1,0,0:0:0:0:
363,340,305853,1,0,0:0:0:0:
446,372,306017,1,8,0:0:0:0:
497,297,306182,1,8,0:0:0:0:
446,222,306346,6,0,B|433:163|433:163|463:116|463:116|446:41,1,180,6|0,0:2|0:0,0:0:0:0:
362,24,306842,2,0,B|321:41|321:41|275:30,1,90,8|0,0:0|0:0,0:0:0:0:
209,90,307171,1,2,0:2:0:0:
272,153,307336,1,0,0:0:0:0:
286,195,307419,1,0,0:0:0:0:
289,240,307501,1,0,0:0:0:0:
279,283,307583,1,0,0:0:0:0:
259,323,307666,6,0,B|174:352|174:352|80:303,1,180,6|0,0:0|0:0,0:0:0:0:
20,258,308160,1,8,0:0:0:0:
101,214,308325,1,0,0:0:0:0:
101,214,308408,1,0,0:0:0:0:
101,214,308489,1,2,0:2:0:0:
183,249,308654,1,0,0:0:0:0:
264,205,308820,1,8,0:0:0:0:
346,240,308984,6,0,B|394:279|479:257|493:186,1,180,6|0,0:2|0:0,0:0:0:0:
504,103,309479,2,0,B|467:10,1,90,8|0,0:0|0:0,0:0:0:0:
470,19,309726,1,0,0:0:0:0:
470,19,309809,1,2,0:2:0:0:
366,71,309973,1,8,0:0:0:0:
256,30,310138,1,8,0:0:0:0:
146,71,310303,6,0,B|83:112|83:112|121:230,1,180,6|0,0:0|0:0,0:0:0:0:
164,298,310798,1,8,0:0:0:0:
256,256,310962,1,0,0:0:0:0:
256,256,311045,1,0,0:0:0:0:
256,256,311126,2,0,L|264:142,2,90,4|0|8,0:2|0:0|0:0,0:0:0:0:
362,343,311621,6,0,B|448:367|448:367|513:302,1,180,6|0,0:1|0:0,0:0:0:0:
480,170,312116,1,8,0:0:0:0:
347,187,312281,1,0,0:0:0:0:
213,209,312445,1,2,0:2:0:0:
184,179,312527,1,0,0:0:0:0:
168,140,312609,1,0,0:0:0:0:
164,99,312692,1,0,0:0:0:0:
175,59,312774,1,0,0:0:0:0:
200,26,312857,1,0,0:0:0:0:
234,4,312940,6,0,B|296:75|259:195|149:119|120:245|161:319,1,360,6|0,0:0|0:0,0:0:0:0:
272,360,314424,5,10,0:2:0:0:
294,326,314506,1,0,0:0:0:0:
333,314,314589,1,0,0:0:0:0:
371,325,314671,1,0,0:0:0:0:
391,359,314754,1,8,0:0:0:0:
429,370,314836,1,0,0:0:0:0:
465,350,314919,1,0,0:0:0:0:
479,312,315001,1,0,0:0:0:0:
457,277,315083,1,8,0:0:0:0:
418,262,315166,1,0,0:0:0:0:
383,282,315248,1,0,0:0:0:0:
371,325,315331,1,0,0:0:0:0:
335,343,315413,1,8,0:0:0:0:
292,340,315495,1,0,0:0:0:0:
260,312,315578,1,0,0:0:0:0:
254,272,315659,1,0,0:0:0:0:
270,236,315742,6,0,B|294:194|294:194|275:136,1,99.0000030212403,6|8,0:0|0:0,0:0:0:0:
228,60,316071,1,0,0:0:0:0:
135,95,316236,1,4,0:2:0:0:
169,187,316401,1,8,3:0:0:0:
160,220,316484,1,8,3:0:0:0:
152,253,316566,1,4,3:0:0:0:
142,286,316648,1,4,3:0:0:0:
129,318,316731,6,0,B|26:325|26:325|-3:192,1,215.999993408203,6|0,0:1|0:0,0:0:0:0:
1,214,317143,1,0,0:0:0:0:
1,214,317225,1,2,0:2:0:0:
92,140,317390,1,8,3:3:0:0:
128,152,317473,1,8,3:3:0:0:
163,165,317555,1,4,3:3:0:0:
199,175,317637,1,4,3:3:0:0:
236,183,317720,6,0,B|283:146|262:68,1,116.999994644165,6|0,0:2|0:0,0:0:0:0:
465,289,318049,2,0,B|446:219|493:182,1,116.999994644165,6|0,0:2|0:0,0:0:0:0:
339,374,318379,1,8,0:0:0:0:
335,344,318461,1,0,0:0:0:0:
332,315,318543,1,0,0:0:0:0:
329,286,318626,1,0,0:0:0:0:
326,257,318709,6,0,B|289:221|229:230,1,99.0000030212403,6|8,0:1|0:3,0:0:0:0:
234,229,318956,1,8,0:3:0:0:
234,229,319038,1,8,0:3:0:0:
152,165,319203,5,8,3:3:0:0:
122,193,319285,1,8,3:3:0:0:
81,202,319367,1,0,1:0:0:0:
40,191,319450,1,0,1:0:0:0:
11,161,319532,1,0,1:0:0:0:
0,120,319615,1,0,1:0:0:0:
16,82,319697,1,4,3:0:0:0:
46,54,319779,1,4,3:0:0:0:
87,44,319862,1,4,3:0:0:0:
125,56,319944,1,4,3:0:0:0:
153,86,320027,1,0,1:3:0:0:
164,126,320109,1,0,1:3:0:0:
151,163,320192,1,8,3:3:0:0:
138,200,320274,1,8,3:3:0:0:
146,238,320356,1,4,3:3:0:0:
170,269,320439,1,4,3:3:0:0:
204,287,320521,1,8,3:3:0:0:
243,289,320604,1,8,3:3:0:0:
279,275,320686,1,0,1:0:0:0:
304,245,320768,1,0,1:0:0:0:
316,207,320851,1,0,1:0:0:0:
306,168,320933,1,0,1:0:0:0:
279,143,321016,1,6,1:1:0:0:
256,192,321098,12,0,328268,0:0:0:0:
