osu file format v14

[General]
AudioFilename: audio.mp3
AudioLeadIn: 0
PreviewTime: 81491
Countdown: 0
SampleSet: Soft
StackLeniency: 0.6
Mode: 0
LetterboxInBreaks: 0
WidescreenStoryboard: 1

[Editor]
Bookmarks: 25634,48875,60578,77720,80852,102775,126512,139368,149588,156181,177115,206291,216841,237940,256236,258915,260192,281456,292006,312940,315742,321017
DistanceSpacing: 1.2
BeatDivisor: 8
GridSize: 32
TimelineZoom: 1.9

[Metadata]
Title:Kakusei -Fractional Vision-
TitleUnicode:覚醒-Fractional Vision-
Artist:Ayane
ArtistUnicode:彩音
Creator:Lasse
Version:Hard
Source:SINCLIENT
Tags:tatsh japanese rock visual novel eroge hishiro chizuru amb1d3x some hero heroine
BeatmapID:3707241
BeatmapSetID:1802588

[Difficulty]
HPDrainRate:4
CircleSize:3.8
OverallDifficulty:6.8
ApproachRate:8
SliderMultiplier:1.4
SliderTickRate:1

[Events]
//Background and Video events
0,0,"imustdecrease.jpg",0,0
//Break Periods
2,139239,148838
2,217041,237190
//Storyboard Layer 0 (Background)
//Storyboard Layer 1 (Fail)
//Storyboard Layer 2 (Pass)
//Storyboard Layer 3 (Foreground)
//Storyboard Layer 4 (Overlay)
//Storyboard Sound Samples

[TimingPoints]
5208,624.02496099844,4,2,51,40,1,0
5208,-166.666666666667,4,2,51,40,0,0
21432,613.496932515337,4,2,51,40,1,0
21432,-166.666666666667,4,2,51,40,0,0
22658,634.920634920635,4,2,51,40,1,0
25197,437.956204379562,4,2,51,5,1,0
25634,329.67032967033,4,1,51,60,1,0
25634,-100,4,1,51,60,0,0
36183,-100,4,1,51,70,0,0
46073,329.67032967033,4,1,51,70,1,0
48710,329.67032967033,4,1,51,70,1,0
73764,-111.111111111111,4,2,51,60,0,0
76237,-100,4,1,51,70,0,0
78874,-100,4,1,51,70,0,0
79039,-100,4,2,51,5,0,0
80193,-100,4,2,51,30,0,0
81512,-90.9090909090909,4,1,51,75,0,1
102775,-100,4,1,51,70,0,0
103270,-100,4,1,51,70,0,0
108050,-100,4,1,51,70,0,0
108545,-100,4,1,51,70,0,0
113325,-100,4,1,51,70,0,0
113819,-100,4,1,51,70,0,0
123710,-133.333333333333,4,1,51,70,0,0
123874,-100,4,2,51,5,0,0
125028,-100,4,2,51,50,0,0
125193,-100,4,1,51,60,0,0
126512,-100,4,1,51,70,0,0
136402,329.67032967033,4,1,51,70,1,0
139039,329.67032967033,4,1,51,60,1,0
139368,-111.111111111111,4,1,51,55,0,0
149588,-111.111111111111,4,1,51,60,0,0
153214,-111.111111111111,4,1,51,50,0,0
153379,-100,4,1,51,60,0,0
156181,-100,4,1,51,70,0,0
169368,-111.111111111111,4,2,51,60,0,0
171841,-100,4,1,51,70,0,0
174478,-181.818181818182,4,1,51,70,0,0
174643,-181.818181818182,4,2,51,5,0,0
175797,-181.818181818182,4,2,51,30,0,0
177115,-90.9090909090909,4,1,51,75,0,1
195577,-100,4,1,51,70,0,0
206291,-90.9090909090909,4,1,51,70,0,0
207610,-111.111111111111,4,1,51,60,0,0
208929,-90.9090909090909,4,1,51,70,0,0
210247,-111.111111111111,4,1,51,60,0,0
211566,-90.9090909090909,4,1,51,70,0,0
212885,-111.111111111111,4,1,51,60,0,0
214203,-100,4,1,51,70,0,0
215522,-100,4,1,51,60,0,0
215604,-100,4,2,51,40,0,0
216181,-100,4,1,51,65,0,0
216841,-100,4,1,51,60,0,0
237940,-90.9090909090909,4,1,51,75,0,0
248489,-90.9090909090909,4,1,51,75,0,0
251126,-111.111111111111,4,2,51,60,0,0
253599,-100,4,1,51,70,0,0
255082,-100,4,1,51,75,0,0
256236,-100,4,1,51,70,0,0
256401,-100,4,2,51,5,0,0
258915,-100,4,2,51,40,0,0
260192,-90.9090909090909,4,1,51,75,0,1
281456,-100,4,1,51,70,0,0
281539,-100,4,2,51,30,0,0
282775,-100,4,2,51,60,0,0
282857,-100,4,2,51,30,0,0
283929,-100,4,2,51,60,0,0
284011,-100,4,2,51,30,0,0
285247,-100,4,1,51,65,0,0
286731,-100,4,2,51,60,0,0
286813,-100,4,2,51,30,0,0
288049,-100,4,2,51,60,0,0
288131,-100,4,2,51,30,0,0
289368,-100,4,1,51,65,0,0
292006,-100,4,1,51,70,0,0
292500,-100,4,1,51,70,0,0
297280,-100,4,1,51,70,0,0
297775,-100,4,1,51,70,0,0
302555,-100,4,1,51,70,0,0
303049,-100,4,1,51,70,0,0
312940,-133.333333333333,4,1,51,70,0,0
313104,-100,4,2,51,5,0,0
314258,-100,4,2,51,50,0,0
314423,-100,4,1,51,60,0,0
315742,329.67032967033,3,1,51,75,1,0
315742,-90.9090909090909,3,1,51,75,0,0
316731,-90.9090909090909,3,1,51,75,0,0
317720,-90.9090909090909,3,1,51,75,0,0
318709,329.67032967033,7,1,51,75,1,0
318709,-90.9090909090909,7,1,51,75,0,0
321016,329.67032967033,4,1,51,60,1,0
321017,-90.9090909090909,4,1,51,60,0,0
321098,-90.9090909090909,4,1,51,40,0,0
322334,-90.9090909090909,4,1,51,30,0,0
323653,-90.9090909090909,4,1,51,20,0,0
324972,-90.9090909090909,4,1,51,10,0,0
328268,-90.9090909090909,4,2,99,20,0,0

[Colours]
Combo1 : 240,140,140
Combo2 : 200,180,220
Combo3 : 240,200,155
Combo4 : 150,185,220

[HitObjects]
157,72,5208,6,0,P|60:220|119:357,3,335.999989746094,2|2|2|2,0:0|0:0|0:0|0:0,0:0:0:0:
342,72,15192,6,0,P|439:220|380:357,2,335.999989746094,2|2|2,0:0|0:0|0:0,0:0:0:0:
173,197,21432,6,0,P|112:220|115:139,1,167.999994873047,2|2,0:0|0:0,0:0:0:0:
256,192,22737,12,0,25197,0:0:0:0:
83,65,25634,5,6,0:0:0:0:
83,65,27776,5,2,0:2:0:0:
37,127,27941,1,0,0:0:0:0:
108,156,28106,1,0,0:0:0:0:
154,94,28271,1,4,0:1:0:0:
471,91,30084,5,6,0:2:0:0:
452,244,30414,1,6,0:2:0:0:
299,225,30743,1,6,0:2:0:0:
306,301,30908,1,6,0:1:0:0:
32,288,33051,5,2,0:2:0:0:
94,331,33216,1,2,0:2:0:0:
110,254,33381,1,2,0:2:0:0:
47,211,33546,1,6,0:0:0:0:
153,44,34699,5,2,0:2:0:0:
200,104,34864,2,0,P|248:105|294:80,1,70,10|2,0:0|0:2,0:0:0:0:
319,41,35194,1,2,0:2:0:0:
319,41,35276,1,0,0:0:0:0:
319,41,35359,1,0,0:2:0:0:
367,101,35524,2,0,L|358:158,3,35,8|8|8|8,3:0|3:0|3:0|3:0,0:0:0:0:
369,169,35853,2,0,L|360:226,3,35,4|4|4|4,3:0|3:0|3:0|3:0,0:0:0:0:
344,233,36183,6,0,B|349:284|411:297|411:297|462:252,1,140,4|8,0:0|0:0,0:0:0:0:
491,203,36677,2,0,P|492:145|446:61,1,140,2|0,0:2|0:0,0:0:0:0:
390,19,37172,1,8,0:0:0:0:
390,19,37337,1,0,0:0:0:0:
324,72,37502,6,0,P|269:94|175:48,1,140,2|8,0:2|0:0,0:0:0:0:
139,133,37996,1,2,0:2:0:0:
139,133,38079,2,0,P|90:115|41:133,1,105,8|0,0:0|0:0,0:0:0:0:
8,209,38491,1,8,0:0:0:0:
62,291,38655,5,0,0:0:0:0:
62,291,38738,1,0,0:0:0:0:
62,291,38820,2,0,B|220:277,1,140,4|0,0:2|0:0,0:0:0:0:
252,345,39315,2,0,B|410:331,1,140,2|0,0:2|0:0,0:0:0:0:
468,299,39809,2,0,P|476:332|470:367,1,70,8|0,0:0|0:0,0:0:0:0:
400,248,40139,6,0,P|395:213|405:180,1,70,4|0,0:2|0:0,0:0:0:0:
405,180,40386,1,0,0:0:0:0:
405,180,40469,1,8,0:0:0:0:
320,208,40634,2,0,B|162:194,1,140,2|0,0:2|0:0,0:0:0:0:
102,225,41128,1,8,0:0:0:0:
39,169,41293,5,0,0:0:0:0:
39,169,41375,1,0,0:0:0:0:
39,169,41458,2,0,P|29:114|78:28,1,140,2|0,0:2|0:0,0:0:0:0:
148,23,41952,1,2,0:2:0:0:
148,23,42035,2,0,B|172:47|172:47|267:41,1,105,8|0,0:0|0:0,0:0:0:0:
320,75,42447,2,0,L|389:69,1,70,8|0,0:0|0:0,0:0:0:0:
488,115,42776,6,0,P|498:170|449:256,1,140,4|8,0:2|0:0,0:0:0:0:
392,289,43271,1,2,0:2:0:0:
321,243,43436,2,0,L|320:158,1,70
231,258,43765,2,0,L|230:173,1,70,8|0,0:0|0:0,0:0:0:0:
163,114,44095,6,0,P|124:99|74:100,1,70
96,97,44342,1,0,0:0:0:0:
96,97,44425,1,8,0:0:0:0:
31,150,44590,2,0,P|22:218|55:279,1,140,0|8,0:0|3:0,0:0:0:0:
120,332,45084,2,0,L|166:325,3,35,0|0|0|0,1:2|1:2|1:2|1:2,0:0:0:0:
187,339,45414,2,0,L|233:332,3,35,8|8|4|4,3:3|3:3|3:3|3:3,0:0:0:0:
254,346,45743,2,0,L|300:339,3,35,0|0|0|0,1:0|1:0|1:0|1:0,0:0:0:0:
321,353,46073,5,6,0:0:0:0:
399,95,47226,5,6,0:2:0:0:
268,144,47556,1,6,0:2:0:0:
143,81,47886,1,6,0:2:0:0:
18,144,48215,1,6,1:2:0:0:
18,144,48298,1,0,1:0:0:0:
18,144,48380,2,0,P|9:188|20:238,1,70,8|4,1:3|1:3,0:0:0:0:
68,291,48710,6,0,L|227:275,1,140,4|8,0:1|0:2,0:0:0:0:
349,366,49369,1,2,0:2:0:0:
417,317,49534,2,0,P|425:280|420:227,1,70,0|8,0:2|0:0,0:0:0:0:
435,164,49863,2,0,L|526:154,1,70,2|0,0:2|0:0,0:0:0:0:
403,81,50193,2,0,L|472:73,1,70,0|8,0:2|0:0,0:0:0:0:
321,124,50523,1,2,0:2:0:0:
321,124,50605,1,0,0:0:0:0:
321,124,50688,2,0,P|320:91|305:42,1,70,0|0,0:2|0:0,0:0:0:0:
231,93,51017,2,0,P|198:69|103:74,1,140,8|0,0:0|0:0,0:0:0:0:
3,210,51677,5,8,0:1:0:0:
3,210,51841,1,0,0:0:0:0:
55,275,52006,2,0,P|122:288|183:256,1,140,2|8,0:2|0:0,0:0:0:0:
235,188,52501,2,0,B|223:98,1,70,2|0,0:2|0:0,0:0:0:0:
319,198,52830,2,0,B|307:108,1,70,0|8,0:0|0:0,0:0:0:0:
404,208,53160,1,2,0:2:0:0:
404,208,53242,1,0,0:0:0:0:
404,208,53325,2,0,B|392:118,1,70
478,93,53655,1,8,0:0:0:0:
478,93,53737,1,0,0:0:0:0:
478,93,53819,1,0,0:0:0:0:
478,93,53902,1,0,0:0:0:0:
478,93,53984,6,0,P|507:156|496:235,1,140,4|8,0:1|0:0,0:0:0:0:
464,301,54479,1,0,0:0:0:0:
381,314,54644,2,0,B|377:398,2,70,0|2|8,0:2|0:2|0:0,0:0:0:0:
313,263,55138,2,0,B|316:193,1,70
164,229,55468,2,0,P|202:229|245:216,1,70,2|8,0:2|0:0,0:0:0:0:
221,137,55797,2,0,P|183:137|140:150,1,70
82,199,56127,1,2,0:2:0:0:
82,199,56210,1,0,0:0:0:0:
82,199,56292,2,0,B|79:268,1,70,8|0,0:0|0:0,0:0:0:0:
107,348,56622,5,6,0:2:0:0:
256,275,56951,1,8,0:0:0:0:
256,275,57116,1,6,0:2:0:0:
405,348,57446,1,6,0:2:0:0:
256,275,57775,1,6,0:2:0:0:
406,193,58105,6,0,L|458:203,2,35,2|0|0,0:2|0:0|0:0,0:0:0:0:
359,112,58435,2,0,L|369:60,2,35,2|0|0,0:2|0:0|0:0,0:0:0:0:
278,159,58764,2,0,L|226:149,2,35,2|0|0,0:2|0:0|0:0,0:0:0:0:
325,240,59094,1,2,0:1:0:0:
325,240,59177,1,0,0:0:0:0:
325,240,59259,2,0,B|338:314|281:333|281:333|248:316,1,140
180,365,59753,2,0,L|169:294,1,70,2|0,0:1|0:0,0:0:0:0:
106,213,60083,5,4,0:2:0:0:
27,244,60248,1,4,0:2:0:0:
0,165,60413,1,4,0:2:0:0:
75,134,60578,6,0,B|123:125|123:125|161:143|161:143|224:132,1,140,4|8,0:0|0:0,0:0:0:0:
271,191,61072,2,0,B|319:200|319:200|357:182|357:182|420:193,1,140,2|0,0:2|0:0,0:0:0:0:
472,241,61567,1,8,0:0:0:0:
472,241,61731,1,0,0:0:0:0:
505,164,61896,6,0,L|491:63,1,70,4|0,0:2|0:0,0:0:0:0:
495,94,62144,1,0,0:0:0:0:
495,94,62226,1,8,0:0:0:0:
427,43,62391,2,0,P|384:33|347:36,1,70,2|0,0:2|0:0,0:0:0:0:
291,85,62720,2,0,P|256:85|222:75,1,70,2|8,0:2|0:0,0:0:0:0:
143,31,63050,5,2,0:2:0:0:
143,31,63133,1,0,0:0:0:0:
143,31,63215,2,0,P|88:24|6:68,2,140,4|8|0,0:2|0:0|0:0,0:0:0:0:
222,75,64039,2,0,B|203:172,1,70,2|8,0:2|0:0,0:0:0:0:
259,210,64369,6,0,P|314:217|396:173,1,140,4|0,0:2|0:0,0:0:0:0:
443,117,64863,1,8,0:0:0:0:
443,117,65028,1,0,0:0:0:0:
495,182,65193,2,0,L|486:232,3,35,8|8|8|8,3:3|3:3|3:3|3:3,0:0:0:0:
499,250,65523,2,0,L|490:300,3,35,12|4|4|4,3:0|3:0|3:0|3:0,0:0:0:0:
464,305,65852,6,0,P|409:312|327:268,1,140,4|8,0:0|0:0,0:0:0:0:
262,320,66347,2,0,B|250:271|250:271|262:238|262:238|248:184,1,140,2|0,0:2|0:0,0:0:0:0:
313,131,66841,1,8,0:0:0:0:
313,131,67006,1,0,0:0:0:0:
240,66,67171,6,0,P|190:49|152:55,1,70,4|0,0:2|0:0,0:0:0:0:
173,49,67418,1,0,0:0:0:0:
173,49,67501,1,8,0:0:0:0:
90,67,67666,1,0,0:0:0:0:
39,133,67830,2,0,L|49:223,1,70,2|0,0:2|0:0,0:0:0:0:
109,259,68160,2,0,P|143:257|175:242,1,70,8|0,0:2|0:0,0:0:0:0:
244,290,68490,6,0,B|323:280|310:324|378:318,1,140,4|8,0:2|0:0,0:0:0:0:
459,296,68984,2,0,P|478:235|467:152,1,140,6|0,0:2|0:0,0:0:0:0:
512,89,69479,1,8,0:0:0:0:
512,89,69644,1,0,0:0:0:0:
453,29,69808,6,0,P|406:15|369:17,1,70,4|0,0:2|0:0,0:0:0:0:
385,14,70056,1,0,0:0:0:0:
385,14,70138,1,8,0:0:0:0:
330,78,70303,2,0,B|339:225,1,140,6|8,0:2|0:0,0:0:0:0:
303,294,70797,1,0,0:0:0:0:
241,245,70962,5,0,0:0:0:0:
241,245,71045,1,0,0:0:0:0:
241,245,71127,2,0,B|213:222|178:233|178:233|146:272|95:243,1,140,4|8,0:0|0:0,0:0:0:0:
37,212,71622,2,0,P|22:149|72:67,1,140,2|0,0:2|0:0,0:0:0:0:
125,40,72116,1,8,0:0:0:0:
206,87,72281,5,0,0:0:0:0:
206,87,72363,1,0,0:0:0:0:
206,87,72446,2,0,L|375:73,1,140,2|8,0:2|0:0,0:0:0:0:
423,107,72940,2,0,P|452:168|438:236,1,140,2|0,0:2|0:0,0:0:0:0:
485,312,73435,1,8,0:0:0:0:
485,312,73600,1,0,0:0:0:0:
421,369,73764,6,0,L|285:357,1,125.999996154785,4|0,1:2|0:0,0:0:0:0:
217,381,74259,1,0,1:0:0:0:
217,381,74341,1,0,1:0:0:0:
217,381,74424,2,0,L|228:245,1,125.999996154785,8|0,0:0|0:0,0:0:0:0:
293,216,74918,1,0,0:0:0:0:
293,216,75083,2,0,L|304:80,1,125.999996154785,6|0,1:2|0:0,0:0:0:0:
253,31,75578,1,0,1:0:0:0:
253,31,75660,1,0,1:0:0:0:
253,31,75742,2,0,L|117:19,1,125.999996154785,8|0,0:0|1:0,0:0:0:0:
35,64,76237,6,0,P|16:104|32:211,1,140,4|8,0:2|3:0,0:0:0:0:
78,261,76731,2,0,L|137:251,3,35,4|4|0|0,3:0|3:0|1:0|1:0,0:0:0:0:
144,268,77061,2,0,L|203:258,3,35,8|8|0|0,3:0|3:0|1:0|1:0,0:0:0:0:
210,275,77391,2,0,L|269:265,3,35,0|0|0|0,1:0|1:0|1:0|1:0,0:0:0:0:
277,278,77720,6,0,L|268:364,2,70,6|0|0,0:2|0:2|0:2,0:0:0:0:
336,218,78215,1,6,0:2:0:0:
496,269,78545,1,6,0:2:0:0:
461,105,78874,1,6,0:1:0:0:
256,192,78957,12,2,80852,0:0:0:0:
0,88,81512,6,0,P|67:53|143:57,1,154.000004699707,6|0,0:0|0:0,0:1:0:0:
216,114,82006,2,0,L|206:198,1,77.0000023498536,8|0,0:1|0:0,0:0:0:0:
233,279,82336,1,2,0:2:0:0:
162,338,82501,2,0,P|119:338|80:320,1,77.0000023498536,0|8,0:0|0:0,0:0:0:0:
26,256,82830,6,0,L|44:103,1,154.000004699707,6|0,0:2|0:0,0:1:0:0:
107,35,83325,2,0,P|73:17|35:13,1,77.0000023498536,8|0,0:1|0:0,0:0:0:0:
138,122,83655,2,0,P|176:118|209:100,1,77.0000023498536,2|0,0:2|0:0,0:0:0:0:
209,100,83902,1,0,0:0:0:0:
209,100,83984,1,8,0:0:0:0:
293,42,84149,6,0,B|382:46|354:81|449:91,1,154.000004699707,6|0,0:0|0:0,0:0:0:0:
487,158,84644,1,8,0:0:0:0:
435,225,84808,1,0,0:0:0:0:
435,225,84891,1,0,0:0:0:0:
435,225,84973,2,0,P|367:228|274:173,1,154.000004699707,2|8,0:2|0:0,0:0:0:0:
234,113,85468,6,0,P|166:77|90:79,1,154.000004699707,6|0,0:2|0:0,0:0:0:0:
38,146,85962,2,0,L|51:238,1,77.0000023498536,8|0,0:0|0:0,0:0:0:0:
5,295,86292,1,2,0:2:0:0:
84,323,86457,1,0,0:0:0:0:
127,250,86622,1,8,0:0:0:0:
202,287,86786,6,0,B|243:305|277:284|277:284|299:242|346:242,1,154.000004699707,6|0,0:0|0:0,0:0:0:0:
409,285,87281,2,0,P|450:282|487:257,1,77.0000023498536,8|0,0:0|0:0,0:0:0:0:
501,181,87611,1,2,0:2:0:0:
430,134,87775,2,0,P|389:137|352:162,1,77.0000023498536,0|8,0:0|0:0,0:0:0:0:
313,239,88105,6,0,B|243:267|243:267|172:224,1,154.000004699707,6|0,0:2|0:0,0:0:0:0:
114,167,88600,2,0,L|135:90,1,77.0000023498536,8|0,0:0|0:0,0:0:0:0:
193,31,88929,1,2,0:2:0:0:
276,76,89094,1,0,0:0:0:0:
276,76,89177,1,0,0:0:0:0:
276,76,89259,2,0,P|321:75|357:59,1,77.0000023498536,8|0,0:0|0:0,0:0:0:0:
458,85,89589,6,0,P|488:151|481:237,1,154.000004699707,6|8,0:0|0:0,0:0:0:0:
457,311,90083,1,0,0:0:0:0:
399,373,90248,2,0,L|233:347,1,154.000004699707,2|8,0:2|0:0,0:0:0:0:
193,283,90742,6,0,B|189:202|229:228|233:136,1,154.000004699707,6|0,0:2|1:0,0:0:0:0:
200,58,91237,1,8,1:1:0:0:
124,85,91402,1,8,3:3:0:0:
124,85,91484,1,8,3:3:0:0:
124,85,91567,2,0,L|32:68,2,77.0000023498536,4|0|8,3:3|1:1|1:1,0:0:0:0:
214,154,92061,6,0,B|247:190|296:174|296:174|317:140|375:137,1,154.000004699707,6|0,0:0|0:0,0:0:0:0:
427,171,92556,2,0,P|437:206|437:252,1,77.0000023498536,8|0,0:1|0:0,0:0:0:0:
413,327,92885,1,2,0:2:0:0:
340,370,93050,2,0,L|262:359,1,77.0000023498536,0|8,0:0|0:0,0:0:0:0:
183,312,93380,6,0,B|159:281|110:293|110:293|80:335|23:314,1,154.000004699707,6|0,0:2|0:0,0:1:0:0:
1,247,93874,2,0,L|25:163,1,77.0000023498536,8|0,0:0|0:0,0:0:0:0:
92,124,94204,2,0,L|116:40,1,77.0000023498536,2|0,0:2|0:0,0:0:0:0:
113,49,94451,1,0,0:0:0:0:
113,49,94534,1,8,0:0:0:0:
197,114,94699,6,0,B|268:125|278:78|354:90,1,154.000004699707,6|0,0:0|0:0,0:0:0:0:
429,69,95193,1,8,0:0:0:0:
468,144,95358,1,0,0:2:0:0:
397,191,95523,2,0,P|355:187|318:169,1,77.0000023498536,2|0,0:2|0:0,0:0:0:0:
323,172,95770,1,0,0:0:0:0:
323,172,95852,1,8,0:0:0:0:
286,252,96017,6,0,P|281:173|236:99,1,154.000004699707,6|0,0:2|0:0,0:0:0:0:
171,64,96512,2,0,P|128:66|89:41,1,77.0000023498536,8|0,0:0|0:0,0:0:0:0:
98,50,96759,1,0,0:0:0:0:
98,50,96841,1,10,0:0:0:0:
25,93,97006,1,8,0:0:0:0:
78,253,97336,6,0,P|161:264|246:221,1,154.000004699707,6|0,0:1|0:0,0:0:0:0:
313,217,97830,2,0,P|322:173|344:128,1,77.0000023498536,8|0,0:0|0:0,0:0:0:0:
334,143,98078,1,0,0:0:0:0:
334,143,98160,1,2,0:2:0:0:
419,214,98325,2,0,P|410:258|388:303,1,77.0000023498536,0|8,0:0|0:0,0:0:0:0:
307,338,98655,6,0,B|252:329|252:329|219:345|219:345|145:333,1,154.000004699707,6|0,0:2|0:0,0:0:0:0:
81,284,99149,2,0,P|73:240|87:189,1,77.0000023498536,8|0,0:0|0:0,0:0:0:0:
91,193,99396,1,0,0:0:0:0:
106,181,99479,2,0,L|208:170,1,77.0000023498536,2|0,0:2|0:0,0:0:0:0:
249,236,99808,1,8,0:0:0:0:
331,194,99973,6,0,P|351:128|312:55,1,154.000004699707,6|0,0:2|0:3,0:0:0:0:
238,1,100468,1,8,0:2:0:0:
163,51,100633,1,8,3:3:0:0:
163,51,100715,1,8,3:3:0:0:
163,51,100797,2,0,L|155:112,3,38.5000011749268,0|0|0|0,1:0|1:0|1:0|1:0,0:0:0:0:
133,119,101127,2,0,L|125:180,3,38.5000011749268,0|0|0|0,1:0|1:0|1:0|1:0,0:0:0:0:
143,192,101457,6,0,P|166:198|195:195,3,38.5000011749268,12|0|0|0,0:2|0:2|0:2|0:2,0:0:0:0:
210,221,101786,2,0,P|229:221|247:226,3,38.5000011749268,8|0|0|0,0:2|0:2|0:2|0:2,0:0:0:0:
277,251,102116,2,0,P|300:257|329:254,3,38.5000011749268,10|0|0|0,0:2|0:2|0:2|0:2,0:0:0:0:
344,280,102446,2,0,P|363:280|381:285,3,38.5000011749268,8|0|0|0,0:2|0:2|0:2|0:2,0:0:0:0:
410,309,102775,6,0,B|461:325|461:325|510:296,2,105,6|0|0,0:0|0:1|0:1,0:0:0:0:
341,358,103435,2,0,B|274:370|274:370|202:322,1,140,2|8,0:2|0:0,0:0:0:0:
144,262,103929,5,0,0:0:0:0:
144,262,104012,1,0,0:0:0:0:
144,262,104094,2,0,B|-7:276,2,140,4|8|2,0:2|0:0|0:2,0:0:0:0:
202,202,104918,2,0,L|193:124,1,70,0|8,0:0|0:0,0:0:0:0:
244,64,105248,6,0,B|330:46|324:98|407:77,1,140,6|0,0:2|0:0,0:0:0:0:
431,148,105742,2,0,P|468:145|507:161,1,70,8|0,0:0|0:0,0:0:0:0:
498,155,105990,1,0,0:0:0:0:
498,155,106072,1,2,0:2:0:0:
490,244,106237,2,0,P|453:247|414:231,1,70,0|8,0:0|0:0,0:0:0:0:
361,308,106567,6,0,P|306:287|208:294,1,140,6|0,0:2|0:0,0:0:0:0:
179,358,107061,2,0,P|109:361|43:338,1,140,10|2,0:0|0:2,0:0:0:0:
8,261,107556,1,0,0:0:0:0:
8,261,107638,1,0,0:0:0:0:
8,261,107720,2,0,L|17:220,3,35
44,195,108050,6,0,B|37:161|37:161|47:128|47:128|33:68,2,105,6|0|0,0:0|0:0|0:0,0:0:0:0:
115,239,108710,2,0,P|170:227|278:222,1,140,2|8,0:2|0:0,0:0:0:0:
358,243,109204,5,0,0:0:0:0:
358,243,109286,1,0,0:0:0:0:
358,243,109369,2,0,B|362:398,2,140,4|8|2,0:2|0:0|0:2,0:0:0:0:
430,200,110193,1,0,0:0:0:0:
502,157,110358,2,0,P|508:113|498:65,1,70,8|0,0:0|0:0,0:0:0:0:
425,35,110688,6,0,L|279:20,1,140,6|8,0:2|0:0,0:0:0:0:
213,53,111182,1,0,0:0:0:0:
213,53,111264,1,0,0:0:0:0:
213,53,111347,2,0,P|201:83|198:125,1,70,2|0,0:2|0:0,0:0:0:0:
253,183,111677,2,0,B|352:177,1,70,8|0,0:2|0:0,0:0:0:0:
416,228,112006,5,6,0:2:0:0:
373,300,112171,2,0,B|303:304,1,70,8|8,0:0|0:0,0:0:0:0:
240,360,112501,1,6,0:2:0:0:
167,317,112666,2,0,P|161:272|169:233,1,70,0|0,0:0|0:2,0:0:0:0:
198,170,112995,1,8,3:3:0:0:
198,170,113078,1,8,3:3:0:0:
198,170,113160,1,4,3:3:0:0:
198,170,113242,1,4,3:3:0:0:
198,170,113325,6,0,B|245:184|245:184|307:150,2,105,6|0|0,0:0|0:0|0:0,0:0:0:0:
115,186,113984,2,0,B|70:171|70:171|17:196|32:249,1,140,2|8,0:2|0:0,0:0:0:0:
80,326,114479,5,0,0:0:0:0:
80,326,114561,1,0,0:0:0:0:
80,326,114644,2,0,B|229:320,2,140,4|8|2,0:2|0:0|0:2,0:0:0:0:
17,269,115468,2,0,P|7:227|18:187,1,70,0|8,0:0|0:0,0:0:0:0:
68,133,115797,6,0,L|217:127,1,140,6|0,0:2|0:0,0:0:0:0:
221,138,116210,1,0,0:0:0:0:
233,150,116292,2,0,P|276:151|310:128,1,70,8|0,0:0|0:0,0:0:0:0:
363,84,116622,1,0,0:0:0:0:
441,112,116786,2,0,P|458:142|460:181,1,70,8|8,0:0|0:0,0:0:0:0:
512,248,117116,6,0,B|459:234|459:234|434:254|434:254|363:238,1,140,6|0,0:2|0:0,0:0:0:0:
304,209,117611,2,0,L|288:48,1,140,8|2,0:0|0:2,0:0:0:0:
222,31,118105,1,0,0:0:0:0:
222,31,118188,1,0,0:0:0:0:
222,31,118270,1,0,0:0:0:0:
222,31,118352,1,0,0:0:0:0:
222,31,118435,6,0,B|152:55|152:55|78:12,1,140,6|0,0:0|0:0,0:0:0:0:
16,51,118929,1,8,0:0:0:0:
9,141,119094,1,0,0:0:0:0:
9,141,119177,1,0,0:0:0:0:
9,141,119259,2,0,L|24:291,1,140,2|8,0:2|0:0,0:0:0:0:
81,354,119753,6,0,P|146:362|225:321,1,140,6|0,0:2|0:0,0:0:0:0:
258,261,120248,2,0,B|251:180,1,70,8|0,0:0|0:0,0:0:0:0:
238,180,120495,1,0,0:0:0:0:
225,167,120578,2,0,B|218:86,1,70,2|8,0:2|0:0,0:0:0:0:
258,23,120907,1,8,0:0:0:0:
320,79,121072,6,0,B|344:102|383:96|383:96|415:63|469:70,1,140,6|0,0:0|0:0,0:0:0:0:
510,125,121567,1,8,0:0:0:0:
474,203,121731,1,0,0:0:0:0:
474,203,121814,1,0,0:0:0:0:
474,203,121896,2,0,P|415:213|333:180,1,140,2|8,0:2|0:0,0:0:0:0:
243,203,122391,6,0,P|178:177|110:186,1,140,6|0,0:2|0:0,0:0:0:0:
55,250,122885,2,0,L|63:330,1,70,8|0,0:0|0:0,0:0:0:0:
61,319,123133,1,0,0:0:0:0:
61,319,123215,1,10,0:2:0:0:
141,369,123380,1,8,0:0:0:0:
215,330,123545,1,8,0:0:0:0:
293,370,123710,6,0,P|431:208|318:62,1,420.000016021729,6|0,0:0|0:0,0:0:0:0:
250,10,125193,6,0,L|204:28,3,35,10|0|0|0,0:2|0:0|0:0|0:0,0:0:0:0:
204,55,125523,2,0,L|158:73,3,35,8|0|0|0,0:0|0:0|0:0|0:0,0:0:0:0:
158,100,125852,2,0,L|112:118,3,35,8|0|0|0,0:0|0:0|0:0|0:0,0:0:0:0:
112,145,126182,2,0,L|66:163,3,35,8|0|0|0,0:0|0:0|0:0|0:0,0:0:0:0:
55,183,126512,6,0,P|48:238|89:323,1,140,4|8,0:0|0:0,0:0:0:0:
154,354,127006,2,0,B|192:342|192:342|239:376|296:352,1,140,2|0,0:2|0:0,0:0:0:0:
362,314,127501,1,8,0:0:0:0:
362,314,127666,1,0,0:0:0:0:
311,246,127830,6,0,B|296:176|333:196|322:103,1,140,2|8,0:2|0:0,0:0:0:0:
266,46,128325,1,2,0:2:0:0:
266,46,128407,2,0,B|216:68|216:68|149:46,1,105,8|0,0:0|0:0,0:0:0:0:
92,15,128819,1,8,0:0:0:0:
32,73,128984,5,0,0:0:0:0:
32,73,129067,1,0,0:0:0:0:
32,73,129149,2,0,P|3:131|21:213,1,140,6|8,0:2|0:0,0:0:0:0:
87,246,129644,2,0,B|245:232,1,140,2|0,0:2|0:0,0:0:0:0:
291,286,130138,2,0,B|360:279,1,70,8|0,0:0|0:0,0:0:0:0:
458,311,130468,6,0,P|463:276|453:243,1,70,4|0,0:2|0:0,0:0:0:0:
453,243,130715,1,0,0:0:0:0:
453,243,130797,1,8,0:0:0:0:
398,180,130962,2,0,B|400:130|400:130|428:107|428:107|432:23,1,140,2|0,0:2|0:0,0:0:0:0:
363,2,131457,1,8,0:0:0:0:
306,63,131622,5,0,0:0:0:0:
306,63,131704,1,0,0:0:0:0:
306,63,131786,2,0,P|268:84|166:51,1,140,2|8,0:2|0:0,0:0:0:0:
118,123,132281,1,2,0:2:0:0:
118,123,132363,2,0,P|64:122|17:162,1,105,8|0,0:0|0:0,0:0:0:0:
2,232,132775,2,0,L|21:304,1,70,8|0,0:0|0:0,0:0:0:0:
90,356,133105,6,0,P|164:357|219:311,1,140,4|8,0:2|0:0,0:0:0:0:
262,249,133600,1,2,0:2:0:0:
199,193,133764,2,0,L|180:121,1,70
273,128,134094,2,0,L|255:60,1,70,8|0,0:0|0:0,0:0:0:0:
355,103,134424,6,0,P|392:109|446:97,1,70
424,104,134671,1,0,0:0:0:0:
424,104,134753,1,8,0:0:0:0:
505,154,134918,2,0,L|492:302,1,140,0|8,0:0|3:3,0:0:0:0:
432,352,135413,2,0,L|386:345,3,35,0|0|0|0,1:0|1:0|1:0|1:0,0:0:0:0:
365,359,135742,2,0,L|319:352,3,35,8|8|4|4,3:3|3:3|3:3|3:3,0:0:0:0:
298,366,136072,2,0,L|252:359,3,35,0|0|0|0,1:0|1:0|1:0|1:0,0:0:0:0:
231,373,136402,5,6,1:0:0:0:
0,223,137555,5,6,0:2:0:0:
132,178,137885,1,6,0:2:0:0:
254,245,138215,1,6,0:2:0:0:
386,200,138544,1,0,0:0:0:0:
386,200,138627,1,0,0:0:0:0:
386,200,138709,2,0,P|395:156|384:106,1,70,8|4,0:3|0:3,0:0:0:0:
341,63,139039,5,4,0:0:0:0:
184,127,149588,5,4,0:2:0:0:
191,264,149918,1,0,0:0:0:0:
328,257,150247,1,0,0:0:0:0:
321,120,150577,1,0,0:0:0:0:
184,127,150907,1,0,0:0:0:0:
191,264,151236,1,0,0:0:0:0:
328,257,151566,5,0,1:0:0:0:
390,299,151731,1,8,2:0:0:0:
446,248,151896,1,8,3:3:0:0:
450,238,151978,1,8,3:3:0:0:
451,228,152060,1,8,3:2:0:0:
450,218,152143,1,8,3:2:0:0:
256,0,153214,1,2,2:0:0:0:
201,63,153379,6,0,B|137:86|137:86|66:39,1,140,4|0,0:0|0:0,0:0:0:0:
76,46,153791,1,0,0:0:0:0:
76,46,153874,1,0,0:0:0:0:
15,104,154039,2,0,L|22:272,1,140,8|0,3:0|0:0,0:0:0:0:
74,308,154533,2,0,P|137:300|161:285,1,70,8|4,3:3|3:3,0:0:0:0:
215,247,154863,5,8,0:0:0:0:
215,247,154945,1,0,0:0:0:0:
215,247,155028,2,0,L|212:177,1,70,8|4,3:0|3:0,0:0:0:0:
297,218,155357,2,0,L|294:148,1,70,8|0,0:0|0:0,0:0:0:0:
344,80,155687,1,6,0:2:0:0:
427,90,155852,1,6,0:2:0:0:
495,253,156181,6,0,B|505:312|466:347|466:347|406:336,1,140,4|8,0:0|0:0,0:0:0:0:
346,355,156676,2,0,B|292:344|292:344|260:364|260:364|197:353,1,140,2|0,0:2|0:0,0:0:0:0:
134,376,157170,1,8,0:0:0:0:
134,376,157335,1,0,0:0:0:0:
70,321,157500,6,0,P|75:263|93:235,1,70,4|0,0:2|0:0,0:0:0:0:
79,253,157747,1,0,0:0:0:0:
79,253,157830,1,8,0:0:0:0:
161,217,157995,2,0,L|240:236,1,70,2|0,0:2|0:0,0:0:0:0:
300,189,158324,2,0,P|311:156|309:121,1,70,2|8,0:2|0:0,0:0:0:0:
238,60,158654,5,2,0:2:0:0:
238,60,158736,1,0,0:0:0:0:
238,60,158819,2,0,L|88:72,2,140,4|8|2,0:2|0:0|0:2,0:0:0:0:
312,21,159643,2,0,P|342:12|381:19,1,70,0|8,0:0|0:0,0:0:0:0:
453,77,159973,6,0,B|455:130|455:130|479:155|479:155|481:226,1,140,4|0,0:2|0:0,0:0:0:0:
453,289,160467,1,12,0:2:0:0:
453,289,160632,1,0,0:0:0:0:
380,247,160797,2,0,L|374:213,3,35,8|8|8|8,3:3|3:3|3:3|3:3,0:0:0:0:
352,185,161126,2,0,L|346:151,3,35,12|4|4|4,3:0|3:0|3:0|3:0,0:0:0:0:
320,125,161456,6,0,B|245:100|259:153|169:123,1,140,4|8,0:0|0:0,0:0:0:0:
103,154,161951,2,0,P|67:209|85:299,1,140,2|0,0:2|0:0,0:0:0:0:
117,357,162445,1,8,0:0:0:0:
117,357,162610,1,0,0:0:0:0:
195,327,162775,6,0,P|229:318|284:325,1,70,4|0,0:2|0:0,0:0:0:0:
263,319,163022,1,0,0:0:0:0:
263,319,163104,1,8,0:0:0:0:
342,369,163269,1,0,0:0:0:0:
413,324,163434,2,0,P|425:292|422:255,1,70,2|0,0:2|0:0,0:0:0:0:
363,195,163764,2,0,L|285:184,1,70,8|0,0:2|0:0,0:0:0:0:
213,235,164093,6,0,B|147:256|147:256|74:218,1,140,4|8,0:2|0:0,0:0:0:0:
20,167,164588,2,0,P|27:97|82:42,1,140,6|0,0:2|0:0,0:0:0:0:
155,23,165082,1,8,0:0:0:0:
155,23,165247,1,0,0:0:0:0:
219,77,165412,6,0,P|251:88|289:85,1,70,4|0,0:2|0:0,0:0:0:0:
286,85,165659,1,0,0:0:0:0:
286,85,165742,1,8,0:0:0:0:
338,163,165907,2,0,P|406:147|488:184,1,140,2|8,0:2|0:0,0:0:0:0:
507,244,166401,1,8,0:0:0:0:
470,323,166566,5,8,0:0:0:0:
470,323,166648,1,8,0:0:0:0:
470,323,166731,2,0,P|402:339|337:316,1,140,4|8,0:0|0:0,0:0:0:0:
262,353,167225,2,0,P|194:369|129:346,1,140,2|0,0:2|0:0,0:0:0:0:
47,365,167720,1,8,0:0:0:0:
9,289,167885,5,0,0:0:0:0:
9,289,167967,1,0,0:0:0:0:
9,289,168049,2,0,B|16:237|16:237|35:220|35:220|46:142,1,140,2|8,0:2|0:0,0:0:0:0:
98,94,168544,2,0,B|188:89|154:124|243:120,1,140,0|0,0:2|0:0,0:0:0:0:
309,83,169039,1,8,0:0:0:0:
309,83,169203,1,0,0:0:0:0:
356,152,169368,6,0,L|337:278,1,125.999996154785,4|0,1:2|0:0,0:0:0:0:
388,351,169863,1,0,1:0:0:0:
388,351,169945,1,0,1:0:0:0:
388,351,170028,2,0,P|446:357|495:303,1,125.999996154785,8|0,0:2|2:0,0:0:0:0:
482,233,170522,1,0,0:0:0:0:
482,233,170687,2,0,L|500:108,1,125.999996154785,6|0,1:2|0:0,0:0:0:0:
447,45,171181,1,0,1:0:0:0:
447,45,171264,1,0,1:0:0:0:
447,45,171346,2,0,B|385:26|392:64|311:44,1,125.999996154785,8|0,0:2|1:0,0:0:0:0:
218,80,171841,6,0,P|156:54|77:67,1,140,4|8,0:2|3:0,0:0:0:0:
30,126,172335,2,0,L|32:177,3,35,4|4|0|0,3:0|3:0|1:0|1:0,0:0:0:0:
33,196,172665,2,0,L|70:230,3,35,8|8|0|0,3:0|3:0|1:0|1:0,0:0:0:0:
88,238,172995,2,0,L|138:235,3,35,0|0|0|0,1:0|1:0|1:0|1:0,0:0:0:0:
159,253,173324,6,0,L|147:341,2,70,6|0|0,0:2|0:2|0:2,0:0:0:0:
230,207,173819,1,6,0:2:0:0:
374,292,174148,1,6,0:2:0:0:
376,125,174478,1,6,0:1:0:0:
256,192,174560,12,2,176456,0:0:0:0:
210,327,177115,6,0,B|136:354|136:354|71:318,1,154.000004699707,6|0,0:0|0:0,0:1:0:0:
4,252,177610,2,0,L|13:175,1,77.0000023498536,8|0,0:1|0:0,0:0:0:0:
70,101,177940,1,2,0:2:0:0:
157,131,178104,2,0,P|200:131|234:115,1,77.0000023498536,0|8,0:0|0:0,0:0:0:0:
298,40,178434,6,0,B|354:31|354:31|382:47|382:47|456:40,1,154.000004699707,6|0,0:2|0:0,0:1:0:0:
509,109,178929,2,0,P|514:146|497:194,1,77.0000023498536,8|0,0:1|0:0,0:0:0:0:
426,235,179258,2,0,L|347:221,1,77.0000023498536,2|0,0:2|0:0,0:0:0:0:
350,221,179506,1,0,0:0:0:0:
350,221,179588,1,8,0:0:0:0:
270,258,179753,6,0,B|250:183|303:193|271:89,1,154.000004699707,6|0,0:1|0:0,0:1:0:0:
210,41,180247,1,8,0:0:0:0:
127,71,180412,1,0,0:0:0:0:
127,71,180495,1,0,0:0:0:0:
127,71,180577,2,0,P|97:115|102:226,1,154.000004699707,2|8,0:2|0:0,0:0:0:0:
35,282,181071,6,0,B|67:227|134:245|134:245|163:274,1,154.000004699707,6|0,0:2|0:0,0:0:0:0:
231,333,181566,2,0,L|316:328,1,77.0000023498536,8|0,0:0|0:0,0:0:0:0:
384,381,181896,1,2,0:2:0:0:
452,319,182060,1,0,0:0:0:0:
375,266,182225,1,8,0:0:0:0:
440,200,182390,6,0,P|459:126|438:53,1,154.000004699707,6|0,0:0|0:0,0:0:0:0:
350,21,182885,2,0,L|259:34,1,77.0000023498536,8|0,0:0|0:0,0:0:0:0:
210,98,183214,1,2,0:2:0:0:
270,167,183379,2,0,L|361:154,1,77.0000023498536,0|8,0:0|0:0,0:0:0:0:
440,200,183709,6,0,P|461:272|441:346,1,154.000004699707,6|0,0:2|0:0,0:0:0:0:
353,374,184203,2,0,L|262:361,1,77.0000023498536,8|0,0:0|0:0,0:0:0:0:
185,381,184533,1,2,0:2:0:0:
115,337,184698,1,0,0:0:0:0:
115,337,184780,1,0,0:0:0:0:
115,337,184863,2,0,P|114:300|129:258,1,77.0000023498536,8|0,0:0|0:0,0:0:0:0:
211,209,185192,6,0,B|309:198|273:245|380:232,1,154.000004699707,6|8,0:0|0:0,0:0:0:0:
433,291,185687,1,0,0:0:0:0:
501,229,185852,2,0,L|477:50,1,154.000004699707,2|8,0:2|0:0,0:0:0:0:
397,27,186346,6,0,B|299:16|335:63|228:50,1,154.000004699707,6|0,0:2|1:0,0:0:0:0:
164,10,186841,1,8,1:1:0:0:
87,55,187006,1,8,3:3:0:0:
87,55,187088,1,8,3:3:0:0:
87,55,187170,2,0,P|70:96|69:144,2,77.0000023498536,4|0|8,3:3|1:1|1:1,0:0:0:0:
165,104,187665,6,0,B|200:131|249:120|249:120|270:81|328:78,1,154.000004699707,6|0,0:0|0:0,0:0:0:0:
389,105,188159,2,0,P|404:140|404:185,1,77.0000023498536,8|0,0:1|0:0,0:0:0:0:
456,256,188489,1,2,0:2:0:0:
402,331,188654,2,0,P|370:332|327:312,1,77.0000023498536,0|8,0:0|0:0,0:0:0:0:
239,338,188984,6,0,B|222:294|254:253|254:253|237:166,1,154.000004699707,6|0,0:2|0:0,0:1:0:0:
279,106,189478,2,0,L|355:94,1,77.0000023498536,8|0,0:0|0:0,0:0:0:0:
222,31,189808,2,0,L|142:19,1,77.0000023498536,2|0,0:2|0:0,0:0:0:0:
153,26,190055,1,0,0:0:0:0:
153,26,190137,1,8,0:0:0:0:
65,59,190302,6,0,P|32:137|51:225,1,154.000004699707,6|0,0:0|0:0,0:0:0:0:
19,294,190797,1,8,0:0:0:0:
94,347,190962,1,0,0:2:0:0:
174,302,191126,2,0,L|182:222,1,77.0000023498536,2|0,0:2|0:0,0:0:0:0:
181,225,191374,1,0,0:0:0:0:
181,225,191456,1,8,0:0:0:0:
258,171,191621,6,0,B|354:157|317:200|405:200,1,154.000004699707,6|0,0:2|0:0,0:0:0:0:
484,247,192115,2,0,P|494:291|487:330,1,77.0000023498536,8|0,0:0|0:0,0:0:0:0:
489,322,192363,1,0,0:0:0:0:
489,322,192445,1,0,0:0:0:0:
418,382,192610,1,0,0:0:0:0:
242,324,192940,6,0,B|193:317|193:317|143:344|143:344|89:336,1,154.000004699707,6|0,0:1|0:0,0:0:0:0:
11,375,193434,2,0,L|3:281,1,77.0000023498536,8|0,0:0|0:0,0:0:0:0:
4,298,193681,1,0,0:0:0:0:
4,298,193764,1,2,0:2:0:0:
84,251,193929,2,0,L|92:157,1,77.0000023498536,0|8,0:0|0:0,0:0:0:0:
48,91,194258,6,0,B|151:68|113:121|204:99,1,154.000004699707,6|0,0:2|0:0,0:0:0:0:
267,162,194753,2,0,P|305:153|354:158,1,77.0000023498536,8|0,0:0|0:0,0:0:0:0:
359,163,195000,1,0,0:0:0:0:
374,173,195082,2,0,P|412:175|449:166,1,77.0000023498536,2|0,0:2|0:0,0:0:0:0:
507,93,195412,1,8,0:0:0:0:
432,35,195577,6,0,B|381:23|381:23|342:59|297:39,1,140,6|0,0:1|0:0,0:0:0:0:
217,55,196071,2,0,P|182:44|132:42,1,70,8|0,0:2|0:2,0:0:0:0:
67,63,196401,2,0,L|54:153,1,70,2|0,0:2|0:2,0:0:0:0:
12,204,196731,1,8,0:2:0:0:
68,266,196896,6,0,P|164:270|205:237,1,140,4|0,0:2|0:0,0:0:0:0:
260,192,197390,2,0,L|273:102,1,70,8|0,0:2|0:0,0:0:0:0:
327,60,197720,1,8,3:3:0:0:
407,84,197885,1,4,3:3:0:0:
350,146,198049,1,8,0:0:0:0:
430,170,198214,6,0,P|457:222|444:327,1,140,6|0,0:2|0:0,0:0:0:0:
411,374,198709,1,8,0:0:0:0:
334,338,198874,2,0,P|301:328|261:328,1,70,2|0,0:2|0:0,0:0:0:0:
191,366,199203,2,0,P|156:365|122:355,1,70,2|8,0:2|0:0,0:0:0:0:
49,288,199533,6,0,B|64:220,1,70,6|0,0:2|0:0,0:0:0:0:
133,171,199863,2,0,P|166:172|212:188,1,70,2|8,0:2|0:0,0:0:0:0:
265,240,200192,1,0,0:0:0:0:
337,196,200357,2,0,P|350:154|345:123,1,70,8|8,0:0|0:0,0:0:0:0:
299,60,200687,5,0,0:0:0:0:
299,60,200769,1,0,0:0:0:0:
299,60,200852,2,0,B|268:80|232:72|232:72|213:40|173:26,1,140,6|0,1:0|0:0,0:0:0:0:
95,16,201346,1,8,0:0:0:0:
24,61,201511,2,0,P|12:91|9:149,1,70,2|0,0:2|0:0,0:0:0:0:
43,215,201841,1,2,0:2:0:0:
43,215,201923,1,0,0:0:0:0:
43,215,202006,1,8,0:0:0:0:
119,181,202170,6,0,L|210:173,1,70,6|0,0:2|0:0,0:0:0:0:
262,215,202500,2,0,L|353:207,1,70,2|8,0:2|0:0,0:0:0:0:
405,163,202830,1,2,0:2:0:0:
405,163,202912,1,0,0:0:0:0:
405,163,202995,1,0,0:0:0:0:
471,220,203159,1,8,0:0:0:0:
437,300,203324,1,8,0:0:0:0:
350,292,203489,6,0,B|307:293|307:293|270:337|270:337|208:342,1,140,6|8,0:1|0:0,0:0:0:0:
156,380,203984,1,8,0:0:0:0:
78,349,204148,1,0,0:0:0:0:
78,349,204231,1,0,0:0:0:0:
78,349,204313,2,0,P|68:292|96:211,1,140
162,154,204808,5,6,0:1:0:0:
230,202,204973,2,0,L|287:195,3,35,6|0|2|0,0:2|0:0|0:2|0:0,0:0:0:0:
293,217,205302,2,0,L|350:210,3,35,0|0|8|8,0:0|0:0|3:3|3:3,0:0:0:0:
356,232,205632,2,0,L|413:225,3,35,4|4|0|0,3:3|3:3|0:0|0:0,0:0:0:0:
419,247,205962,2,0,L|476:240,3,35
486,261,206291,6,0,P|504:209|473:112,3,154.000004699707,6|10|2|10,0:0|0:0|0:0|0:0,0:0:0:0:
402,62,207445,1,0,0:0:0:0:
327,114,207610,6,0,L|334:185,1,62.9999980773926,6|0,0:2|0:0,0:0:0:0:
291,240,207940,2,0,L|298:311,1,62.9999980773926,10|0,0:2|0:0,0:0:0:0:
246,358,208269,2,0,L|183:364,1,62.9999980773926,2|0,0:2|0:0,0:0:0:0:
116,327,208599,2,0,L|109:264,1,62.9999980773926,10|0,0:2|0:0,0:0:0:0:
52,191,208929,6,0,B|67:141|67:141|59:94|59:94|75:36,3,154.000004699707,6|10|2|10,0:0|0:0|0:0|0:0,0:0:0:0:
160,13,210082,1,0,0:0:0:0:
212,92,210247,6,0,L|205:163,1,62.9999980773926,6|0,0:2|0:0,0:0:0:0:
232,226,210577,2,0,L|225:297,1,62.9999980773926,10|0,0:2|0:0,0:0:0:0:
257,357,210907,2,0,L|319:363,1,62.9999980773926,2|0,0:2|0:0,0:0:0:0:
391,336,211236,2,0,L|397:273,1,62.9999980773926,10|0,0:2|0:0,0:0:0:0:
465,203,211566,6,0,B|445:112|499:149|475:46,2,154.000004699707,6|10|2,0:0|0:0|0:0,0:0:0:0:
391,259,212390,1,0,0:0:0:0:
311,211,212555,1,10,0:0:0:0:
252,282,212720,1,6,0:2:0:0:
177,222,212885,6,0,L|186:152,1,62.9999980773926,6|0,0:2|0:0,0:0:0:0:
141,97,213214,2,0,L|71:88,1,62.9999980773926,2|0,0:2|0:0,0:0:0:0:
19,137,213544,2,0,L|10:207,1,62.9999980773926,2|0,0:2|0:0,0:0:0:0:
10,199,213791,1,0,0:0:0:0:
10,199,213874,1,8,0:0:0:0:
63,267,214039,1,0,0:0:0:0:
141,245,214203,6,0,B|224:230|195:278|275:269,1,140,6|8,0:2|0:0,0:0:0:0:
352,302,214698,1,0,0:0:0:0:
426,262,214863,2,0,P|436:226|432:105,1,140,2|8,0:2|0:0,0:0:0:0:
366,50,215357,5,0,0:0:0:0:
366,50,215440,1,0,0:0:0:0:
366,50,215522,2,2,B|316:37|316:37|281:61|281:61|218:43,1,140,4|0,0:1|0:0,0:1:0:0:
80,111,216181,2,0,L|87:157,3,35
67,176,216511,2,0,L|74:222,3,35
56,242,216841,5,6,0:0:0:0:
0,89,237940,6,2,B|60:82|60:82|87:110|87:110|152:104,1,154.000004699707,6|8,0:0|0:0,0:1:0:0:
216,51,238434,2,2,B|276:44|276:44|303:72|303:72|368:66,1,154.000004699707,2|0,0:0|0:0,0:1:0:0:
443,31,238929,1,8,0:0:0:0:
443,31,239093,1,0,0:0:0:0:
501,102,239258,6,2,L|493:182,1,77.0000023498536,6|0,0:0|0:0,0:1:0:0:
493,178,239506,1,0,0:0:0:0:
493,178,239588,1,8,0:0:0:0:
443,251,239753,2,0,P|394:246|368:229,1,77.0000023498536,2|0,0:2|0:0,0:0:0:0:
279,246,240082,2,0,P|245:228|207:226,1,77.0000023498536,2|8,0:1|0:0,0:0:0:0:
125,271,240412,5,4,0:2:0:0:
176,347,240577,2,8,P|209:364|247:366,2,77.0000023498536,2|0|8,0:0|0:0|0:0,0:0:0:0:
111,281,241071,1,2,0:2:0:0:
88,191,241236,2,0,P|102:139|136:107,1,77.0000023498536,2|0,0:1|0:0,0:0:0:0:
194,71,241566,1,8,0:0:0:0:
262,132,241731,6,0,B|292:161|337:146|337:146|355:100|401:100,1,154.000004699707,6|0,0:1|0:0,0:0:0:0:
481,115,242225,1,8,0:0:0:0:
504,204,242390,1,0,0:0:0:0:
434,262,242555,2,0,L|385:254,3,38.5000011749268,6|0|0|0,0:2|0:0|0:0|0:0,0:0:0:0:
360,270,242885,2,0,L|311:262,3,38.5000011749268,8|0|0|0,0:0|0:0|0:0|0:0,0:0:0:0:
288,282,243214,6,0,P|201:300|136:257,2,154.000004699707,6|8|0,0:0|0:0|0:0,0:1:0:0:
363,228,244039,1,2,0:0:0:0:
304,156,244203,1,8,0:0:0:0:
377,99,244368,1,0,0:0:0:0:
315,30,244533,6,2,B|225:0|259:62|167:35,1,154.000004699707,6|8,0:0|0:0,0:1:0:0:
123,118,245028,2,2,P|73:116|16:207,1,154.000004699707,6|0,0:2|0:0,0:1:0:0:
0,283,245522,1,8,0:0:0:0:
78,331,245687,1,0,0:0:0:0:
162,293,245852,6,0,L|176:196,1,77.0000023498536,6|0,0:0|0:0,0:0:0:0:
172,216,246099,1,0,0:0:0:0:
172,216,246181,1,8,0:0:0:0:
247,161,246346,2,2,B|338:154|297:231|388:217,1,154.000004699707,6|0,0:2|0:0,0:1:0:0:
443,293,246841,1,8,0:0:0:0:
443,293,247006,1,0,0:0:0:0:
495,217,247170,6,2,P|506:151|471:62,1,154.000004699707,6|0,0:1|0:0,0:1:0:0:
397,23,247665,2,2,B|363:53|363:53|235:32,1,154.000004699707,6|0,0:2|0:0,0:1:0:0:
168,6,248159,1,0,0:0:0:0:
120,85,248324,1,0,0:0:0:0:
207,114,248489,6,0,P|224:160|219:203,1,77.0000023498536,6|0,0:0|0:0,0:0:0:0:
223,187,248736,1,0,0:0:0:0:
223,187,248819,1,8,0:0:0:0:
150,244,248984,2,0,B|68:221|68:221|25:238|38:290,1,154.000004699707,0|2,0:2|0:0,0:0:0:0:
84,353,249478,1,8,0:0:0:0:
176,359,249643,6,2,L|356:347,1,154.000004699707,2|0,0:0|0:0,0:1:0:0:
418,375,250137,2,0,P|425:299|388:224,1,154.000004699707,8|0,0:0|0:0,0:0:0:0:
317,175,250632,1,2,0:2:0:0:
226,193,250797,1,8,0:0:0:0:
135,172,250962,1,0,0:2:0:0:
44,194,251126,6,0,B|18:159|18:159|24:112|51:77,1,125.999996154785,6|2,1:1|0:0,0:0:0:0:
104,33,251621,1,0,1:2:0:0:
171,66,251786,2,0,P|205:68|254:55,1,62.9999980773926,8|0,0:0|0:0,0:0:0:0:
308,73,252115,2,0,P|338:67|370:69,1,62.9999980773926,2|0,0:2|0:0,0:0:0:0:
447,108,252445,6,0,P|472:166|463:238,1,125.999996154785,4|2,1:2|0:0,0:0:0:0:
430,294,252940,1,0,1:0:0:0:
359,320,253104,2,0,L|227:302,1,125.999996154785,8|2,0:0|0:0,0:0:0:0:
141,336,253599,6,0,B|133:297|133:297|153:252|153:252|140:195,1,140,4|8,0:2|3:0,0:0:0:0:
92,134,254093,2,0,L|101:83,3,35,4|4|0|0,3:0|3:0|1:0|1:0,0:0:0:0:
114,68,254423,2,0,L|156:38,3,35,8|8|0|0,3:0|3:0|1:0|1:0,0:0:0:0:
175,35,254753,2,0,L|225:43,3,35,0|0|0|0,1:0|1:0|1:0|1:0,0:0:0:0:
241,54,255082,6,0,B|275:60|275:60|336:39,2,70,6|0|0,0:2|0:2|0:2,0:0:0:0:
182,115,255577,1,6,0:2:0:0:
300,234,255907,1,6,0:2:0:0:
137,276,256236,1,6,1:0:0:0:
256,192,256319,12,2,258915,0:0:0:0:
512,68,260192,6,0,B|430:71|462:15|351:25,1,154.000004699707,6|0,0:0|0:0,0:1:0:0:
292,76,260687,2,0,P|257:79|203:59,1,77.0000023498536,8|0,0:1|0:0,0:0:0:0:
130,32,261017,1,2,0:2:0:0:
46,71,261181,2,0,P|32:101|28:160,1,77.0000023498536,0|8,0:0|0:0,0:0:0:0:
83,218,261511,6,0,B|144:210|144:210|170:233|170:233|258:224,1,154.000004699707,6|0,0:2|0:0,0:1:0:0:
320,225,262006,2,0,P|324:186|339:151,1,77.0000023498536,8|0,0:1|0:0,0:0:0:0:
421,209,262335,2,0,P|416:247|401:282,1,77.0000023498536,2|0,0:2|0:0,0:0:0:0:
401,282,262582,1,0,0:0:0:0:
401,282,262665,1,8,0:0:0:0:
329,350,262830,6,0,B|278:338|278:338|230:371|177:350,1,154.000004699707,6|0,0:0|0:0,0:0:0:0:
91,373,263324,1,8,0:0:0:0:
18,315,263489,1,0,0:0:0:0:
18,315,263571,1,0,0:0:0:0:
18,315,263654,2,0,P|18:239|57:159,1,154.000004699707,2|8,0:2|0:0,0:0:0:0:
123,112,264148,6,0,B|177:107|177:107|215:133|215:133|296:132,1,154.000004699707,6|0,0:2|0:0,0:0:0:0:
328,203,264643,2,0,B|364:212|364:212|410:198,1,77.0000023498536,8|0,0:0|0:0,0:0:0:0:
491,172,264973,1,2,0:2:0:0:
512,81,265137,1,0,0:0:0:0:
443,17,265302,1,8,0:0:0:0:
353,44,265467,6,0,P|276:49|204:21,1,154.000004699707,6|0,0:0|0:0,0:0:0:0:
123,66,265962,2,0,P|81:66|43:87,1,77.0000023498536,8|0,0:0|0:0,0:0:0:0:
11,164,266291,1,2,0:2:0:0:
82,222,266456,2,0,P|124:222|162:201,1,77.0000023498536,0|8,0:0|0:0,0:0:0:0:
233,138,266786,6,0,B|319:123|304:174|382:160,1,154.000004699707,6|0,0:2|0:0,0:0:0:0:
464,202,267280,2,0,P|481:248|476:294,1,77.0000023498536,8|0,0:0|0:0,0:0:0:0:
434,356,267610,1,2,0:2:0:0:
367,307,267775,1,0,0:0:0:0:
367,307,267857,1,0,0:0:0:0:
367,307,267940,2,0,P|323:291|286:290,1,77.0000023498536,8|0,0:0|0:0,0:0:0:0:
208,326,268269,6,0,B|176:358|176:358|113:373|72:332,1,154.000004699707,6|8,0:0|0:0,0:0:0:0:
9,268,268764,1,0,0:0:0:0:
1,175,268929,2,0,P|16:116|108:50,1,154.000004699707,2|8,0:2|0:0,0:0:0:0:
178,37,269423,6,0,B|203:75|253:65|253:65|275:31|323:30,1,154.000004699707,6|0,0:2|1:0,0:0:0:0:
328,30,269835,1,0,1:1:0:0:
346,31,269918,2,0,P|373:59|381:100,1,77.0000023498536,8|8,1:1|3:3,0:0:0:0:
337,178,270247,1,4,3:3:0:0:
244,185,270412,2,0,L|150:169,1,77.0000023498536,0|8,1:1|1:1,0:0:0:0:
80,204,270742,6,0,B|28:246|36:301|36:301|81:347,1,154.000004699707,6|0,0:0|0:0,0:0:0:0:
147,374,271236,2,0,P|188:358|237:358,1,77.0000023498536,8|0,0:1|0:0,0:0:0:0:
299,305,271566,1,2,0:2:0:0:
377,354,271731,2,0,P|415:350|450:335,1,77.0000023498536,0|8,0:0|0:0,0:0:0:0:
503,255,272060,6,0,B|483:209|483:209|499:161|499:161|473:97,1,154.000004699707,6|0,0:2|0:0,0:1:0:0:
413,44,272555,2,0,P|447:25|485:24,1,77.0000023498536,8|0,0:0|0:0,0:0:0:0:
391,134,272885,2,0,P|352:132|319:114,1,77.0000023498536,2|0,0:2|0:0,0:0:0:0:
319,114,273132,1,0,0:0:0:0:
319,114,273214,1,8,0:0:0:0:
276,30,273379,6,0,B|191:10|212:52|120:37,1,154.000004699707,6|0,0:1|0:0,0:1:0:0:
33,19,273874,1,8,0:0:0:0:
1,105,274039,1,0,0:2:0:0:
92,123,274203,2,0,P|104:155|105:206,1,77.0000023498536,2|0,0:2|0:0,0:0:0:0:
106,197,274451,1,0,0:0:0:0:
106,197,274533,1,8,0:0:0:0:
172,282,274698,6,0,P|236:293|319:236,1,154.000004699707,6|0,0:2|0:0,0:0:0:0:
402,245,275192,2,0,P|382:205|379:163,1,77.0000023498536,8|0,0:0|0:0,0:0:0:0:
378,173,275440,1,0,0:0:0:0:
378,173,275522,1,10,0:0:0:0:
465,143,275687,1,8,0:0:0:0:
496,325,276017,6,0,B|461:366|461:366|404:379|360:342,1,154.000004699707,6|0,0:1|0:0,0:0:0:0:
283,305,276511,2,0,P|278:261|262:213,1,77.0000023498536,8|0,0:0|0:0,0:0:0:0:
268,229,276758,1,0,0:0:0:0:
268,229,276841,1,2,0:2:0:0:
184,202,277006,2,0,P|162:214|87:218,1,77.0000023498536,0|8,0:0|0:0,0:0:0:0:
30,169,277335,6,0,B|-3:127|28:64|28:64|80:51,1,154.000004699707,6|0,0:2|0:0,0:0:0:0:
159,33,277830,2,0,P|208:52|242:49,1,77.0000023498536,8|0,0:0|0:0,0:0:0:0:
251,49,278077,1,0,0:0:0:0:
269,43,278159,2,0,P|303:26|341:24,1,77.0000023498536,2|0,0:2|0:0,0:0:0:0:
431,47,278489,1,8,0:0:0:0:
485,122,278654,6,0,L|476:304,1,154.000004699707,6|0,0:2|0:0,0:0:0:0:
417,346,279148,1,8,0:2:0:0:
348,300,279313,1,8,3:3:0:0:
348,300,279396,1,8,3:3:0:0:
348,300,279478,2,0,L|349:261,3,38.5000011749268,0|0|0|0,1:0|1:0|1:0|1:0,0:0:0:0:
339,223,279808,2,0,L|340:184,3,38.5000011749268,0|0|0|0,1:0|1:0|1:0|1:0,0:0:0:0:
328,148,280137,6,0,P|305:142|276:145,3,38.5000011749268,12|0|0|0,0:2|0:2|0:2|0:2,0:0:0:0:
254,157,280467,2,0,P|235:157|217:152,3,38.5000011749268,8|0|0|0,0:2|0:2|0:2|0:2,0:0:0:0:
183,131,280797,2,0,P|160:125|131:128,3,38.5000011749268,10|0|0|0,0:2|0:2|0:2|0:2,0:0:0:0:
109,140,281126,2,0,P|90:140|72:135,3,38.5000011749268,8|0|0|0,0:2|0:2|0:2|0:2,0:0:0:0:
37,154,281456,5,6,0:0:0:0:
256,192,282775,1,6,1:2:0:0:
475,230,283929,1,6,1:2:0:0:
256,192,285247,5,4,0:0:0:0:
332,226,285412,1,8,0:0:0:0:
397,173,285577,1,0,0:0:0:0:
397,173,285659,1,0,0:0:0:0:
397,173,285742,2,0,P|396:129|378:86,1,70
327,46,286071,1,10,0:0:0:0:
244,61,286236,1,8,0:0:0:0:
163,37,286401,1,0,0:0:0:0:
97,85,286566,5,0,1:0:0:0:
97,85,286648,1,0,1:0:0:0:
97,85,286731,1,6,1:0:0:0:
415,299,288049,1,6,1:2:0:0:
77,368,289368,5,0,0:0:0:0:
77,368,289451,1,0,0:0:0:0:
77,368,289533,1,0,0:0:0:0:
77,368,289615,1,0,0:0:0:0:
77,368,289698,2,0,L|84:327,3,35,8|8|8|8,3:0|3:0|3:0|3:0,0:0:0:0:
103,304,290028,2,0,L|110:263,3,35,4|4|4|4,3:3|3:3|3:3|3:3,0:0:0:0:
129,240,290357,2,0,L|136:199,3,35
304,38,292006,6,0,B|417:51,2,105,6|0|0,0:0|0:1|0:1,0:0:0:0:
228,75,292665,2,0,B|197:101|153:86|153:86|133:59|84:59,1,140,2|8,0:2|0:0,0:0:0:0:
18,91,293159,5,0,0:0:0:0:
18,91,293242,1,0,0:0:0:0:
18,91,293324,2,0,B|3:238,2,140,4|8|2,0:2|0:0|0:2,0:0:0:0:
89,47,294148,2,0,P|122:47|163:62,1,70,0|8,0:0|0:0,0:0:0:0:
204,135,294478,6,0,B|189:274,1,140,6|0,0:2|0:0,0:0:0:0:
222,352,294973,2,0,P|258:359|303:351,1,70,8|0,0:0|0:0,0:0:0:0:
290,355,295220,1,0,0:0:0:0:
290,355,295302,1,2,0:2:0:0:
355,302,295467,2,0,B|362:232,1,70,0|8,0:0|0:0,0:0:0:0:
403,147,295797,6,0,B|434:183|486:176|486:176|506:161|511:133,1,140,6|0,0:2|0:0,0:0:0:0:
469,64,296291,2,0,P|402:46|331:67,1,140,10|2,0:0|0:2,0:0:0:0:
271,116,296786,1,0,0:0:0:0:
271,116,296868,1,0,0:0:0:0:
271,116,296951,2,0,L|264:158,3,35
246,179,297280,6,0,B|253:213|253:213|243:246|243:246|257:306,2,105,6|0|0,0:0|0:0|0:0,0:0:0:0:
187,118,297940,2,0,P|118:102|48:135,1,140,2|8,0:2|0:0,0:0:0:0:
10,210,298434,5,0,0:0:0:0:
10,210,298517,1,0,0:0:0:0:
10,210,298599,2,0,B|0:360,2,140,4|8|2,0:2|0:0|0:2,0:0:0:0:
64,145,299423,1,0,0:0:0:0:
135,189,299588,2,0,P|171:198|227:179,1,70,8|0,0:0|0:0,0:0:0:0:
283,137,299918,6,0,B|346:114|346:114|436:143,1,140,4|8,0:2|0:0,0:0:0:0:
476,209,300412,1,0,0:0:0:0:
476,209,300495,1,0,0:0:0:0:
476,209,300577,2,0,P|482:245|467:281,1,70,2|0,0:2|0:0,0:0:0:0:
396,315,300907,2,0,B|299:301,1,70,8|0,0:2|0:0,0:0:0:0:
227,285,301236,6,0,B|205:335|205:335|217:387,2,105,6|8|8,0:2|0:2|0:2,0:0:0:0:
299,231,301896,1,8,3:3:0:0:
299,231,301978,1,8,3:3:0:0:
299,231,302060,1,8,3:3:0:0:
299,231,302143,1,8,3:3:0:0:
299,231,302225,2,0,L|351:227,3,35,4|4|4|4,3:3|3:3|3:3|3:3,0:0:0:0:
365,214,302555,6,0,B|413:226|413:226|474:194,2,105,6|0|0,0:0|0:0|0:0,0:0:0:0:
328,138,303214,2,0,B|268:107|268:107|178:129,1,140,2|8,0:2|0:0,0:0:0:0:
130,185,303709,5,0,0:0:0:0:
130,185,303791,1,0,0:0:0:0:
130,185,303874,2,0,B|59:202|59:202|-1:171,2,140,4|8|2,0:2|0:0|0:2,0:0:0:0:
194,239,304698,2,0,B|229:243|229:243|278:227,1,70,0|8,0:0|0:0,0:0:0:0:
336,285,305028,6,0,B|425:269|393:315|470:305,1,140,6|0,0:2|0:0,0:0:0:0:
482,293,305440,1,0,0:0:0:0:
492,279,305522,2,0,P|491:238|481:202,1,70,8|0,0:0|0:0,0:0:0:0:
438,138,305852,1,0,0:0:0:0:
354,147,306017,2,0,P|313:146|277:122,1,70,8|8,0:0|0:0,0:0:0:0:
226,67,306346,6,0,B|174:55|174:55|147:71|147:71|83:61,1,140,6|0,0:2|0:0,0:0:0:0:
24,112,306841,2,0,P|1:169|15:245,1,140,8|2,0:0|0:2,0:0:0:0:
79,327,307335,1,0,0:0:0:0:
79,327,307418,1,0,0:0:0:0:
79,327,307500,1,0,0:0:0:0:
79,327,307582,1,0,0:0:0:0:
79,327,307665,6,0,B|124:316|124:316|156:351|223:346,1,140,6|0,0:0|0:0,0:0:0:0:
287,378,308159,1,8,0:0:0:0:
366,342,308324,1,0,0:0:0:0:
366,342,308407,1,0,0:0:0:0:
366,342,308489,2,0,P|388:280|372:195,1,140,2|8,0:2|0:0,0:0:0:0:
300,156,308984,6,0,B|255:145|255:145|223:180|160:162,1,140,6|0,0:2|0:0,0:0:0:0:
97,117,309478,2,0,P|95:88|112:50,1,70,8|0,0:0|0:0,0:0:0:0:
126,41,309725,1,0,0:0:0:0:
140,31,309808,2,0,B|233:44,1,70,2|8,0:2|0:0,0:0:0:0:
293,32,310137,1,8,0:0:0:0:
349,93,310302,6,0,B|354:181|312:147|331:250,1,140,6|0,0:0|0:0,0:0:0:0:
375,299,310797,1,8,0:0:0:0:
465,295,310962,1,0,0:0:0:0:
465,295,311044,1,0,0:0:0:0:
465,295,311126,2,0,P|486:242|480:157,1,140,4|8,0:2|0:0,0:0:0:0:
421,87,311621,6,0,B|368:76|368:76|339:88|339:88|262:73,1,140,6|0,0:1|0:0,0:0:0:0:
201,114,312115,2,0,P|197:76|182:41,1,70,8|0,0:0|0:0,0:0:0:0:
185,46,312363,1,0,0:0:0:0:
185,46,312445,1,2,0:2:0:0:
102,32,312610,1,0,0:0:0:0:
39,89,312775,1,0,0:0:0:0:
98,160,312940,6,0,B|172:200|336:183|228:61|391:23|477:96,1,420.000016021729,6|0,0:0|0:0,0:0:0:0:
498,176,314423,6,0,P|494:193|487:209,3,35,10|0|0|0,0:2|0:0|0:0|0:0,0:0:0:0:
495,243,314753,2,0,P|488:259|484:276,3,35,8|0|0|0,0:0|0:0|0:0|0:0,0:0:0:0:
463,304,315082,2,0,P|449:305|414:293,3,35,8|0|0|0,0:0|0:0|0:0|0:0,0:0:0:0:
394,305,315412,2,0,P|377:301|359:301,3,35,8|0|0|0,0:0|0:0|0:0|0:0,0:0:0:0:
328,324,315742,6,0,B|270:310|270:310|237:335|237:335|171:318,1,154.000004699707,6|0,0:0|0:0,0:0:0:0:
104,369,316236,1,4,0:2:0:0:
28,326,316401,1,8,3:0:0:0:
28,326,316483,1,8,3:0:0:0:
28,326,316566,1,4,3:0:0:0:
28,326,316648,1,4,3:0:0:0:
28,326,316731,6,0,P|18:258|43:165,1,154.000004699707,6|0,0:1|0:0,0:0:0:0:
97,105,317225,1,2,0:2:0:0:
198,153,317390,1,8,3:3:0:0:
198,153,317472,1,8,3:3:0:0:
198,153,317555,1,4,3:3:0:0:
198,153,317637,1,4,3:3:0:0:
198,153,317720,6,0,P|238:156|290:128,1,77.0000023498536,6|0,0:2|0:0,0:0:0:0:
356,181,318049,2,0,P|391:167|429:171,1,77.0000023498536,6|0,0:2|0:0,0:0:0:0:
495,264,318379,1,8,0:0:0:0:
495,264,318461,1,0,0:0:0:0:
495,264,318544,1,0,0:0:0:0:
495,264,318626,1,0,0:0:0:0:
495,264,318709,6,0,B|483:302|447:315|447:315|413:286|344:284,1,154.000004699707,6|8,0:1|0:3,0:0:0:0:
287,297,319203,1,8,3:3:0:0:
287,297,319285,1,8,3:3:0:0:
287,297,319368,2,0,L|279:360,3,38.5000011749268,0|0|0|0,1:0|1:0|1:0|1:0,0:0:0:0:
254,362,319698,2,0,P|231:363|205:353,3,38.5000011749268,4|4|4|4,3:0|3:0|3:0|3:0,0:0:0:0:
177,358,320027,2,0,P|158:354|139:355,3,38.5000011749268,0|0|8|8,1:3|1:3|3:3|3:3,0:0:0:0:
102,367,320357,2,0,P|79:368|53:358,3,38.5000011749268,4|4|8|8,3:3|3:3|3:3|3:3,0:0:0:0:
31,342,320687,2,0,L|39:279,3,38.5000011749268,0|0|0|0,1:0|1:0|1:0|1:0,0:0:0:0:
21,272,321016,5,6,1:1:0:0:
256,192,321098,12,0,328268,0:0:0:0:
