osu file format v14

[General]
AudioFilename: audio.mp3
AudioLeadIn: 0
PreviewTime: 81491
Countdown: 0
SampleSet: Soft
StackLeniency: 0.7
Mode: 0
LetterboxInBreaks: 0
WidescreenStoryboard: 0

[Editor]
Bookmarks: 5208,5832,48710,71457,71951,92061,102775,103105,126512,149588,149918,169368,187665,187995,206291,227390,227720,248489,270742,292006,314423,328269
DistanceSpacing: 1
BeatDivisor: 4
GridSize: 32
TimelineZoom: 2.2

[Metadata]
Title:Kakusei -Fractional Vision-
TitleUnicode:覚醒-Fractional Vision-
Artist:Ayane
ArtistUnicode:彩音
Creator:Lasse
Version:Collab Extra
Source:SINCLIENT
Tags:tatsh japanese rock visual novel eroge hishiro chizuru amb1d3x some hero heroine
BeatmapID:3767074
BeatmapSetID:1802588

[Difficulty]
HPDrainRate:5
CircleSize:4.3
OverallDifficulty:8.6
ApproachRate:9.3
SliderMultiplier:1.8
SliderTickRate:1

[Events]
//Background and Video events
0,0,"imustdecrease.jpg",0,0
//Break Periods
//Storyboard Layer 0 (Background)
//Storyboard Layer 1 (Fail)
//Storyboard Layer 2 (Pass)
//Storyboard Layer 3 (Foreground)
//Storyboard Layer 4 (Overlay)
//Storyboard Sound Samples

[TimingPoints]
5208,624.02496099844,4,2,51,40,1,0
5208,-133.333333333333,4,2,51,40,0,0
21432,613.496932515337,4,2,51,40,1,0
22658,634.920634920635,4,2,51,40,1,0
25197,437.956204379562,4,2,51,5,1,0
25634,329.67032967033,4,1,51,60,1,0
25634,-133.333333333333,4,1,51,60,0,0
36183,-100,4,1,51,70,0,0
46073,329.67032967033,4,1,51,70,1,0
48710,329.67032967033,4,1,51,70,1,0
48710,-111.111111111111,4,1,51,70,0,0
54314,-100,4,1,51,70,0,0
60083,-80,4,1,51,70,0,1
60495,-80,4,1,51,70,0,0
60578,-76.9230769230769,4,1,51,70,0,1
61072,-80,4,1,51,70,0,0
73764,-125,4,2,51,60,0,0
76237,-90.9090909090909,4,1,51,70,0,0
78874,-200,4,1,51,70,0,0
79039,-200,4,2,51,5,0,0
80193,-200,4,2,51,30,0,0
81347,-66.6666666666667,4,2,51,30,0,0
81512,-74.0740740740741,4,1,51,75,0,1
81841,-90.9090909090909,4,1,51,75,0,1
82830,-83.3333333333333,4,1,51,75,0,1
83160,-90.9090909090909,4,1,51,75,0,1
84149,-76.9230769230769,4,1,51,75,0,1
84479,-90.9090909090909,4,1,51,75,0,1
85468,-83.3333333333333,4,1,51,75,0,1
85797,-90.9090909090909,4,1,51,75,0,1
86786,-76.9230769230769,4,1,51,75,0,1
87116,-90.9090909090909,4,1,51,75,0,1
88105,-83.3333333333333,4,1,51,75,0,1
88435,-90.9090909090909,4,1,51,75,0,1
89589,-76.9230769230769,4,1,51,75,0,1
89918,-90.9090909090909,4,1,51,75,0,1
90742,-83.3333333333333,4,1,51,75,0,1
90907,-90.9090909090909,4,1,51,75,0,1
92061,-74.0740740740741,4,1,51,75,0,1
92391,-90.9090909090909,4,1,51,75,0,1
93380,-83.3333333333333,4,1,51,75,0,1
93710,-90.9090909090909,4,1,51,75,0,1
94699,-74.0740740740741,4,1,51,75,0,1
95028,-90.9090909090909,4,1,51,75,0,1
96017,-83.3333333333333,4,1,51,75,0,1
96347,-90.9090909090909,4,1,51,75,0,1
97336,-76.9230769230769,4,1,51,75,0,1
97666,-90.9090909090909,4,1,51,75,0,1
98655,-83.3333333333333,4,1,51,75,0,1
98984,-90.9090909090909,4,1,51,75,0,1
99973,-76.9230769230769,4,1,51,75,0,1
100303,-90.9090909090909,4,1,51,75,0,1
102775,-71.4285714285714,4,1,51,70,0,0
103023,-100,4,1,51,70,0,0
108050,-71.4285714285714,4,1,51,70,0,0
108380,-100,4,1,51,70,0,0
113325,-71.4285714285714,4,1,51,70,0,0
113655,-100,4,1,51,70,0,0
123710,-200,4,1,51,70,0,0
123874,-200,4,2,51,5,0,0
125028,-200,4,2,51,50,0,0
125193,-200,4,1,51,60,0,0
126512,-100,4,1,51,70,0,0
136402,329.67032967033,4,1,51,70,1,0
139039,329.67032967033,4,1,51,60,1,0
139039,-111.111111111111,4,1,51,60,0,0
139368,-125,4,1,51,55,0,0
143654,-111.111111111111,4,1,51,55,0,0
144560,-111.111111111111,4,1,51,30,0,0
144643,-125,4,1,51,55,0,0
149588,-111.111111111111,4,1,51,60,0,0
149835,-111.111111111111,4,1,51,30,0,0
149918,-125,4,1,51,60,0,0
153214,-125,4,1,51,50,0,0
153379,-125,4,1,51,60,0,0
155687,-76.9230769230769,4,1,51,60,0,0
155852,-133.333333333333,4,1,51,60,0,0
156181,-76.9230769230769,4,1,51,70,0,0
156676,-80,4,1,51,70,0,0
169368,-125,4,2,51,60,0,0
171841,-90.9090909090909,4,1,51,70,0,0
174478,-200,4,1,51,70,0,0
174643,-200,4,2,51,5,0,0
175797,-200,4,2,51,30,0,0
176951,-66.6666666666667,4,2,51,30,0,0
177115,-74.0740740740741,4,1,51,75,0,1
177445,-90.9090909090909,4,1,51,75,0,1
178434,-83.3333333333333,4,1,51,75,0,1
178764,-90.9090909090909,4,1,51,75,0,1
179753,-76.9230769230769,4,1,51,75,0,1
180082,-90.9090909090909,4,1,51,75,0,1
181071,-83.3333333333333,4,1,51,75,0,1
181401,-90.9090909090909,4,1,51,75,0,1
182390,-76.9230769230769,4,1,51,75,0,1
182720,-90.9090909090909,4,1,51,75,0,1
183709,-83.3333333333333,4,1,51,75,0,1
184039,-90.9090909090909,4,1,51,75,0,1
185192,-76.9230769230769,4,1,51,75,0,1
185522,-90.9090909090909,4,1,51,75,0,1
186346,-83.3333333333333,4,1,51,75,0,1
186511,-90.9090909090909,4,1,51,75,0,1
187665,-74.0740740740741,4,1,51,75,0,1
187995,-90.9090909090909,4,1,51,75,0,1
188984,-83.3333333333333,4,1,51,75,0,1
189313,-90.9090909090909,4,1,51,75,0,1
190302,-74.0740740740741,4,1,51,75,0,1
190632,-90.9090909090909,4,1,51,75,0,1
191621,-83.3333333333333,4,1,51,75,0,1
191951,-90.9090909090909,4,1,51,75,0,1
192940,-76.9230769230769,4,1,51,75,0,1
193269,-90.9090909090909,4,1,51,75,0,1
194258,-83.3333333333333,4,1,51,75,0,1
194588,-90.9090909090909,4,1,51,75,0,1
195577,-76.9230769230769,4,1,51,70,0,0
195907,-90.9090909090909,4,1,51,70,0,0
207610,-90.9090909090909,4,1,51,60,0,0
208929,-90.9090909090909,4,1,51,70,0,0
210247,-90.9090909090909,4,1,51,60,0,0
211566,-90.9090909090909,4,1,51,70,0,0
212885,-90.9090909090909,4,1,51,60,0,0
214203,-90.9090909090909,4,1,51,70,0,0
215522,-90.9090909090909,4,1,51,60,0,0
215604,-90.9090909090909,4,2,51,40,0,0
216181,-90.9090909090909,4,1,51,65,0,0
216841,-200,4,1,51,60,0,0
216923,-200,4,2,51,40,0,0
219478,-285.714285714286,4,2,51,40,0,0
221456,-200,4,2,51,40,0,0
230028,-166.666666666667,4,2,51,40,0,0
235302,-1000,4,2,99,40,0,0
235385,-1000,4,2,51,5,0,0
237610,-1000,4,2,51,10,0,0
237940,-76.9230769230769,4,1,51,75,0,0
238434,-83.3333333333333,4,1,51,75,0,0
239258,-76.9230769230769,4,1,51,75,0,0
239752,-83.3333333333333,4,1,51,75,0,0
241731,-76.9230769230769,4,1,51,75,0,0
242225,-83.3333333333333,4,1,51,75,0,0
243214,-76.9230769230769,4,1,51,75,0,0
243708,-83.3333333333333,4,1,51,75,0,0
245028,-76.9230769230769,4,1,51,75,0,0
245522,-83.3333333333333,4,1,51,75,0,0
245852,-76.9230769230769,4,1,51,75,0,0
246346,-71.4285714285714,4,1,51,75,0,0
246676,-83.3333333333333,4,1,51,75,0,0
247170,-76.9230769230769,4,1,51,75,0,0
247664,-71.4285714285714,4,1,51,75,0,0
247995,-83.3333333333333,4,1,51,75,0,0
248489,-71.4285714285714,4,1,51,75,0,0
248819,-100,4,1,51,75,0,0
251126,-58.8235294117647,4,2,51,60,0,0
252445,-100,4,2,51,60,0,0
253599,-66.6666666666667,4,1,51,70,0,0
255082,-66.6666666666667,4,1,51,75,0,0
256236,-133.333333333333,4,1,51,70,0,0
256401,-133.333333333333,4,2,51,5,0,0
258915,-133.333333333333,4,2,51,40,0,0
259863,-400,4,2,51,30,0,0
259904,-400,4,2,51,5,0,0
260192,-66.6666666666667,4,1,51,75,0,1
260522,-90.9090909090909,4,1,51,75,0,1
261511,-83.3333333333333,4,1,51,75,0,1
261841,-90.9090909090909,4,1,51,75,0,1
262830,-76.9230769230769,4,1,51,75,0,1
263159,-90.9090909090909,4,1,51,75,0,1
264148,-83.3333333333333,4,1,51,75,0,1
264478,-90.9090909090909,4,1,51,75,0,1
265467,-76.9230769230769,4,1,51,75,0,1
265797,-90.9090909090909,4,1,51,75,0,1
266786,-83.3333333333333,4,1,51,75,0,1
267115,-90.9090909090909,4,1,51,75,0,1
268269,-76.9230769230769,4,1,51,75,0,1
268599,-90.9090909090909,4,1,51,75,0,1
269423,-83.3333333333333,4,1,51,75,0,1
269588,-90.9090909090909,4,1,51,75,0,1
270742,-74.0740740740741,4,1,51,75,0,1
271072,-90.9090909090909,4,1,51,75,0,1
272060,-83.3333333333333,4,1,51,75,0,1
272390,-90.9090909090909,4,1,51,75,0,1
273379,-74.0740740740741,4,1,51,75,0,1
273709,-90.9090909090909,4,1,51,75,0,1
274698,-83.3333333333333,4,1,51,75,0,1
275028,-90.9090909090909,4,1,51,75,0,1
276017,-76.9230769230769,4,1,51,75,0,1
276346,-90.9090909090909,4,1,51,75,0,1
277335,-83.3333333333333,4,1,51,75,0,1
277665,-90.9090909090909,4,1,51,75,0,1
278654,-76.9230769230769,4,1,51,75,0,1
278984,-90.9090909090909,4,1,51,75,0,1
281456,-142.857142857143,4,1,51,70,0,0
281539,-142.857142857143,4,2,51,30,0,0
282775,-142.857142857143,4,2,51,60,0,0
282857,-142.857142857143,4,2,51,30,0,0
283929,-142.857142857143,4,2,51,60,0,0
284011,-142.857142857143,4,2,51,30,0,0
285247,-142.857142857143,4,1,51,65,0,0
286731,-142.857142857143,4,2,51,60,0,0
286813,-142.857142857143,4,2,51,30,0,0
288049,-142.857142857143,4,2,51,60,0,0
288131,-142.857142857143,4,2,51,30,0,0
289368,-142.857142857143,4,1,51,65,0,0
292006,-71.4285714285714,4,1,51,70,0,0
292253,-100,4,1,51,70,0,0
297280,-71.4285714285714,4,1,51,70,0,0
297528,-100,4,1,51,70,0,0
302555,-71.4285714285714,4,1,51,70,0,0
302802,-100,4,1,51,70,0,0
312940,-200,4,1,51,70,0,0
313104,-200,4,2,51,5,0,0
314258,-200,4,2,51,50,0,0
314423,-200,4,1,51,60,0,0
315742,329.67032967033,3,1,51,75,1,0
315742,-83.3333333333333,4,1,51,75,0,0
316731,-76.9230769230769,4,1,51,75,0,0
317720,-71.4285714285714,4,1,51,75,0,0
318709,329.67032967033,7,1,51,75,1,0
318709,-100,4,1,51,75,0,0
321016,329.67032967033,4,1,51,60,1,0
321017,-212.765957446809,4,1,51,60,0,0
321098,-212.765957446809,4,1,51,40,0,0
322334,-212.765957446809,4,1,51,30,0,0
323653,-212.765957446809,4,1,51,20,0,0
324972,-212.765957446809,4,1,51,10,0,0
328268,-212.765957446809,4,2,99,20,0,0

[Colours]
Combo1 : 240,140,140
Combo2 : 200,180,220
Combo3 : 240,200,155
Combo4 : 150,185,220

[HitObjects]
185,92,5208,6,0,B|255:143|338:111|331:74|335:61|477:-18|597:90|488:291|352:180,3,540.000020599366,2|2|2|2,0:0|0:0|0:0|0:0,0:0:0:0:
125,132,15192,6,0,B|100:58|-8:54|-68:230|81:274|126:182|189:194|236:288|229:358|103:412|70:303,2,540.000020599366,2|2|2,0:0|0:0|0:0,0:0:0:0:
210,333,21432,5,2,0:0:0:0:
298,71,22658,5,2,0:0:0:0:
256,192,22737,12,0,25197,0:0:0:0:
256,192,25634,5,6,0:0:0:0:
200,99,27776,5,2,0:2:0:0:
163,247,27941,1,0,0:0:0:0:
311,284,28106,1,0,0:0:0:0:
348,136,28271,1,4,0:1:0:0:
117,152,30084,5,6,0:2:0:0:
395,232,30414,1,6,0:2:0:0:
290,51,30743,5,6,0:2:0:0:
221,333,30908,1,6,0:1:0:0:
177,155,33051,5,2,0:2:0:0:
335,229,33216,1,2,0:2:0:0:
293,113,33381,1,2,0:2:0:0:
219,271,33546,1,6,0:0:0:0:
49,99,34699,5,2,0:2:0:0:
166,126,34864,1,10,0:0:0:0:
131,12,35029,1,2,0:2:0:0:
84,213,35194,1,2,0:2:0:0:
84,213,35276,1,0,0:0:0:0:
84,213,35359,2,0,L|100:256,1,33.7500012874604,0|0,0:2|0:0,0:0:0:0:
181,286,35524,5,8,3:0:0:0:
207,280,35606,1,8,3:0:0:0:
233,275,35688,1,8,3:0:0:0:
259,267,35771,1,8,3:0:0:0:
278,235,35853,5,4,3:0:0:0:
308,253,35936,1,4,3:0:0:0:
341,272,36018,1,4,3:0:0:0:
373,291,36101,1,4,3:0:0:0:
407,265,36183,6,0,B|448:249|448:249|463:208|463:208|511:187,1,135,4|0,0:0|0:0,0:0:0:0:
426,180,36513,1,8,0:0:0:0:
373,30,36677,2,0,P|457:19|519:92,1,180,2|0,0:2|0:0,0:0:0:0:
318,143,37172,1,8,0:0:0:0:
228,72,37337,1,0,0:0:0:0:
113,205,37502,6,0,B|153:184|153:184|200:197,1,90,2|0,0:2|0:0,0:0:0:0:
267,237,37749,1,0,0:0:0:0:
267,237,37831,1,8,0:0:0:0:
429,226,37996,1,2,0:2:0:0:
429,226,38079,2,0,L|409:392,1,135,8|0,0:0|0:0,0:0:0:0:
339,187,38491,1,8,0:0:0:0:
224,318,38655,5,0,0:0:0:0:
224,318,38738,1,0,0:0:0:0:
224,318,38820,2,0,P|156:315|95:288,1,135,4|0,0:2|0:0,0:0:0:0:
30,328,39150,1,0,0:0:0:0:
160,101,39315,2,0,P|47:117|9:200,1,180,2|0,0:2|0:0,0:0:0:0:
217,207,39809,1,8,0:0:0:0:
328,234,39974,1,0,0:0:0:0:
459,254,40139,6,0,P|470:204|455:149,1,90,4|0,0:2|0:0,0:0:0:0:
439,97,40386,1,0,0:0:0:0:
439,97,40469,1,8,0:0:0:0:
287,123,40634,1,2,0:2:0:0:
287,123,40716,2,0,L|120:92,1,135,8|0,0:0|0:0,0:0:0:0:
87,219,41128,6,0,P|44:231|0:226,1,90,8|0,0:0|0:0,0:0:0:0:
287,123,41458,2,0,P|311:169|306:226,1,90,2|0,0:2|0:0,0:0:0:0:
283,278,41705,1,0,0:0:0:0:
283,278,41787,1,0,0:0:0:0:
167,338,41952,1,2,0:2:0:0:
167,338,42035,2,0,L|53:318,1,90,8|0,0:0|0:0,0:0:0:0:
3,342,42282,1,0,0:0:0:0:
133,253,42447,1,8,0:0:0:0:
0,122,42612,5,0,0:0:0:0:
0,122,42694,1,0,0:0:0:0:
0,122,42776,2,0,B|37:143|37:143|146:122,1,135,4|0,0:2|0:0,0:0:0:0:
194,168,43106,1,8,0:0:0:0:
338,15,43271,1,2,0:2:0:0:
338,15,43353,2,0,B|301:36|301:36|192:15,1,135,8|0,0:0|0:0,0:0:0:0:
460,159,43765,2,0,B|474:117|474:117|461:71,1,90,8|0,0:0|0:0,0:0:0:0:
383,281,44095,6,0,L|495:267,1,90
472,269,44342,1,0,0:0:0:0:
472,269,44425,1,8,0:0:0:0:
286,361,44590,1,0,0:0:0:0:
286,361,44672,2,0,L|278:254,1,90
213,206,44919,5,8,3:0:0:0:
200,219,45002,1,8,3:0:0:0:
186,230,45084,5,0,1:2:0:0:
151,219,45166,1,0,1:2:0:0:
116,207,45249,1,0,1:2:0:0:
82,193,45331,1,0,1:2:0:0:
48,179,45414,5,8,3:3:0:0:
51,192,45496,1,8,3:3:0:0:
20,225,45579,5,4,3:3:0:0:
23,238,45661,1,4,3:3:0:0:
0,276,45743,5,0,1:0:0:0:
52,262,45826,1,0,1:0:0:0:
104,248,45908,1,0,1:0:0:0:
156,233,45991,1,0,1:0:0:0:
221,276,46073,5,6,0:0:0:0:
335,9,47226,5,6,0:2:0:0:
58,215,47556,1,6,0:2:0:0:
374,351,47886,1,6,0:2:0:0:
213,157,48215,5,6,1:2:0:0:
229,200,48298,1,0,1:0:0:0:
247,243,48380,5,8,1:3:0:0:
275,206,48463,1,8,1:3:0:0:
304,170,48545,5,4,1:3:0:0:
257,163,48627,1,4,1:3:0:0:
213,157,48710,6,0,B|166:162|166:162|139:177|139:177|96:182,1,121.499996292114,4|0,0:1|0:0,0:0:0:0:
25,195,49039,1,8,0:2:0:0:
108,89,49204,1,0,0:0:0:0:
162,273,49369,1,2,0:2:0:0:
213,157,49534,2,0,P|232:121|236:81,1,80.9999975280763,0|8,0:2|0:0,0:0:0:0:
59,286,49863,2,0,P|70:324|96:355,1,80.9999975280763,2|0,0:2|0:0,0:0:0:0:
299,336,50193,5,0,0:2:0:0:
299,336,50275,1,0,0:0:0:0:
299,336,50358,1,8,0:0:0:0:
374,250,50523,1,2,0:2:0:0:
374,250,50605,2,0,B|350:207|350:207|362:135,1,121.499996292114,8|0,0:0|0:0,0:0:0:0:
397,18,51017,2,0,P|367:43|327:46,1,80.9999975280763,8|0,0:0|0:0,0:0:0:0:
253,43,51264,1,0,0:0:0:0:
253,43,51347,1,0,0:0:0:0:
127,79,51512,6,0,L|86:76,1,40.4999987640381
14,73,51677,1,8,0:2:0:0:
60,200,51841,5,0,0:0:0:0:
60,200,51924,1,0,0:0:0:0:
60,200,52006,2,0,L|70:239,1,40.4999987640381,2|0,0:2|0:0,0:0:0:0:
147,248,52171,2,0,L|136:287,1,40.4999987640381
77,344,52336,1,8,0:0:0:0:
224,310,52501,6,0,B|322:302|282:358|376:346,1,161.999995056153,2|0,0:2|0:0,0:0:0:0:
439,289,52913,1,0,0:0:0:0:
439,289,52995,2,0,B|457:267|457:267|437:218,1,80.9999975280763,8|2,0:0|0:2,0:0:0:0:
372,166,53242,2,0,P|357:128|364:89,1,80.9999975280763
406,26,53490,1,0,0:0:0:0:
79,314,53655,5,8,0:0:0:0:
81,266,53737,1,0,0:0:0:0:
104,227,53819,1,0,0:0:0:0:
145,201,53902,1,0,0:0:0:0:
191,198,53984,1,4,0:1:0:0:
211,28,54231,5,0,0:0:0:0:
211,28,54314,2,0,L|121:15,1,90,8|0,0:0|0:0,0:0:0:0:
35,0,54644,1,0,0:2:0:0:
202,112,54808,2,0,L|112:99,1,90,2|8,0:2|0:0,0:0:0:0:
254,272,55138,6,0,B|257:167|298:206|306:103,1,180,0|2,0:0|0:2,0:0:0:0:
368,46,55550,1,0,0:0:0:0:
368,46,55633,1,8,0:0:0:0:
438,158,55797,1,0,0:0:0:0:
438,158,55880,2,0,B|450:229|450:229|396:261,1,135,8|2,0:0|0:2,0:0:0:0:
254,272,56292,2,0,L|268:314,1,45,8|0,0:0|0:0,0:0:0:0:
343,341,56457,2,0,L|328:383,1,45
163,379,56622,6,0,P|77:353|43:318,1,135,6|0,0:2|0:0,0:0:0:0:
15,252,56951,1,8,0:0:0:0:
469,13,57116,6,0,L|425:23,1,45,6|0,0:2|0:0,0:0:0:0:
469,13,57446,2,0,L|512:2,1,45,6|0,0:2|0:0,0:0:0:0:
476,44,57775,6,0,B|428:76|370:71|370:71|349:95|314:110,1,180,6|2,0:2|0:2,0:0:0:0:
245,138,58188,1,0,0:0:0:0:
199,153,58270,1,0,0:0:0:0:
91,46,58435,1,2,0:2:0:0:
91,46,58517,1,0,0:0:0:0:
91,46,58600,2,0,L|79:89,1,45
314,110,58764,2,0,L|325:153,1,45,2|0,0:2|0:0,0:0:0:0:
346,229,58929,1,0,0:0:0:0:
166,242,59094,5,2,0:1:0:0:
166,242,59177,1,0,0:0:0:0:
166,242,59259,1,0,0:0:0:0:
173,363,59424,2,0,L|184:319,1,45,2|0,0:1|0:0,0:0:0:0:
401,118,59589,1,0,0:0:0:0:
47,187,59753,6,0,B|97:203|97:203|120:227|120:227|166:242,1,135,2|0,0:1|0:0,0:0:0:0:
241,263,60083,6,0,L|293:242,1,56.25,4|0,0:2|0:0,0:0:0:0:
348,139,60248,6,0,L|400:118,1,56.25,4|0,0:2|0:0,0:0:0:0:
460,20,60413,6,0,L|512:0,1,56.25,4|0,0:2|0:0,0:0:0:0:
264,336,60578,6,0,B|233:310|233:310|262:178,1,175.499991966248,4|0,0:0|0:0,0:0:0:0:
278,101,60907,1,8,0:0:0:0:
3,34,61072,6,0,B|94:12|145:86|145:86|112:105|99:136,1,225,2|0,0:2|0:0,0:0:0:0:
321,280,61567,1,8,0:0:0:0:
342,207,61731,1,0,0:0:0:0:
52,198,61896,6,0,P|67:252|81:306,1,112.5,4|0,0:2|0:0,0:0:0:0:
106,381,62144,1,0,0:0:0:0:
106,381,62226,1,8,0:0:0:0:
404,266,62391,1,2,0:2:0:0:
404,266,62473,1,8,0:0:0:0:
456,93,62720,2,0,P|411:60|394:7,1,112.5,2|8,0:2|0:0,0:0:0:0:
341,207,63050,6,0,P|270:251|187:261,1,168.75,2|0,0:2|0:0,0:0:0:0:
111,254,63380,1,0,0:0:0:0:
34,246,63545,1,8,0:0:0:0:
280,335,63710,1,0,0:0:0:0:
218,179,63874,1,0,0:0:0:0:
146,328,64039,1,2,0:2:0:0:
86,123,64204,1,8,0:0:0:0:
506,182,64369,6,0,B|477:183|439:196|439:196|408:188|408:188|368:198|342:206,1,168.75,4|0,0:2|0:0,0:0:0:0:
274,221,64699,1,0,0:0:0:0:
399,72,64863,1,8,0:0:0:0:
339,31,65028,1,0,0:0:0:0:
274,221,65193,5,8,3:3:0:0:
234,195,65275,1,8,3:3:0:0:
215,154,65358,1,8,3:3:0:0:
217,106,65440,1,8,3:3:0:0:
140,44,65523,5,12,3:0:0:0:
99,28,65605,1,4,3:0:0:0:
84,68,65688,1,4,3:0:0:0:
40,52,65770,1,4,3:0:0:0:
15,79,65852,2,0,B|49:173|-10:158|26:253,1,168.75,4|0,0:0|0:0,0:0:0:0:
49,317,66182,1,8,0:0:0:0:
436,384,66347,5,2,0:2:0:0:
436,384,66429,2,0,P|426:328|426:272,1,112.5,8|0,0:0|0:0,0:0:0:0:
433,193,66677,1,0,0:0:0:0:
260,332,66841,2,0,P|271:277|273:220,1,112.5,8|0,0:0|0:0,0:0:0:0:
263,0,67171,6,0,B|303:39|303:39|274:93|267:145,1,168.75,4|0,0:2|0:0,0:0:0:0:
273,221,67501,1,8,0:0:0:0:
131,258,67666,2,0,B|96:265|96:265|22:243,1,112.5,0|2,0:0|0:2,0:0:0:0:
260,332,67995,1,0,0:0:0:0:
267,145,68160,1,8,0:2:0:0:
212,266,68325,1,0,0:0:0:0:
369,362,68490,6,0,P|381:280|445:227,1,168.75,4|0,0:2|0:0,0:0:0:0:
512,203,68819,1,8,0:0:0:0:
372,366,68984,2,0,P|418:265|391:158,1,225,6|0,0:2|0:0,0:0:0:0:
346,89,69479,1,8,0:0:0:0:
306,18,69644,1,0,0:0:0:0:
25,94,69808,5,4,0:2:0:0:
220,275,70056,1,0,0:0:0:0:
220,275,70138,1,8,0:0:0:0:
120,92,70303,2,0,B|156:222|82:146|124:269,1,168.75,6|0,0:2|0:0,0:0:0:0:
140,328,70633,5,8,0:0:0:0:
13,184,70797,1,0,0:0:0:0:
293,352,70962,5,0,0:0:0:0:
293,352,71045,1,0,0:0:0:0:
293,352,71127,2,0,B|305:304|305:304|416:260,1,168.75,4|0,0:0|0:0,0:0:0:0:
488,237,71457,1,8,0:0:0:0:
376,66,71622,6,0,B|405:141|492:115|492:115|508:119|508:119|466:130|462:175,1,225,2|0,0:2|0:0,0:0:0:0:
415,260,72116,1,8,0:0:0:0:
488,344,72281,1,0,0:0:0:0:
248,349,72446,6,0,B|279:356|306:340|306:340|329:342|370:368,1,112.5,2|0,0:2|0:0,0:0:0:0:
354,358,72693,1,0,0:0:0:0:
354,358,72775,1,8,0:0:0:0:
242,232,72940,1,2,0:2:0:0:
242,232,73023,2,0,B|199:178|228:128|228:128|257:113|273:66,1,168.75,8|0,0:0|0:0,0:0:0:0:
175,19,73435,1,8,0:0:0:0:
79,77,73600,1,0,0:0:0:0:
146,187,73764,6,0,L|296:170,1,144,4|0,1:2|0:0,0:0:0:0:
362,256,74259,1,0,1:0:0:0:
362,256,74341,1,0,1:0:0:0:
362,256,74424,2,0,L|512:239,1,144,8|0,0:0|0:0,0:0:0:0:
340,367,74918,1,0,0:0:0:0:
291,307,75083,2,0,P|214:280|135:290,1,144,6|0,1:2|0:0,0:0:0:0:
138,164,75578,1,0,1:0:0:0:
138,164,75660,1,0,1:0:0:0:
138,164,75742,2,0,P|66:167|-1:141,1,144,8|0,0:0|1:0,0:0:0:0:
252,0,76237,6,0,B|233:32|201:50|201:50|202:142|280:135,1,198.000006042481,4|8,0:2|3:0,0:0:0:0:
300,134,76649,1,8,3:0:0:0:
325,118,76731,1,4,3:0:0:0:
345,97,76814,1,4,3:0:0:0:
355,69,76896,5,0,1:0:0:0:
348,61,76979,1,0,1:0:0:0:
327,44,77061,5,8,3:0:0:0:
334,36,77144,1,8,3:0:0:0:
318,19,77226,5,0,1:0:0:0:
276,34,77308,1,0,1:0:0:0:
257,74,77391,1,0,1:0:0:0:
265,117,77473,1,0,1:0:0:0:
301,143,77556,1,0,1:0:0:0:
323,181,77638,1,0,1:0:0:0:
315,225,77720,5,6,0:2:0:0:
166,286,77885,1,0,0:2:0:0:
17,347,78050,1,0,0:2:0:0:
96,192,78215,5,6,0:2:0:0:
370,365,78545,5,6,0:2:0:0:
477,122,78874,6,0,B|503:159|503:159|383:119|383:119|360:74|360:74|217:35,1,360,6|2,0:1|0:0,2:0:0:0:
256,192,80234,12,0,81347,0:0:0:0:
234,296,81512,6,0,B|170:280|170:280|84:347|84:347|12:335,1,243.000000926971,6|0,0:0|0:0,0:1:0:0:
136,113,82006,2,0,P|100:92|34:84,1,99.0000030212403,8|0,0:1|0:0,0:0:0:0:
43,83,82253,1,0,0:0:0:0:
43,83,82336,1,2,0:2:0:0:
147,211,82501,1,0,0:0:0:0:
290,189,82666,1,8,0:0:0:0:
433,167,82830,5,6,0:2:0:0:
433,167,82913,2,0,B|465:222|523:212|523:212|487:202|480:159,1,161.999995056153,8|0,0:0|0:0,0:0:0:0:
335,105,83325,2,0,P|321:32|289:-25,1,99.0000030212403,8|0,0:1|0:0,0:0:0:0:
311,9,83572,1,0,0:0:0:0:
311,9,83655,1,2,0:2:0:0:
150,45,83819,1,0,0:0:0:0:
150,45,83902,1,0,0:0:0:0:
150,45,83984,1,8,0:0:0:0:
149,224,84149,6,0,B|103:152|-7:181|-7:181|32:192|39:239,1,233.999989288331,6|0,0:0|0:0,0:0:0:0:
202,326,84644,1,8,0:0:0:0:
102,372,84808,1,0,0:0:0:0:
102,372,84891,1,0,0:0:0:0:
102,372,84973,2,0,P|41:366|4:338,1,99.0000030212403,2|0,0:2|0:0,0:0:0:0:
228,190,85303,5,8,0:0:0:0:
301,225,85468,2,0,B|440:219|355:163|503:144,1,215.999993408203,6|0,0:2|0:0,0:0:0:0:
314,72,85962,1,8,0:0:0:0:
439,0,86127,1,0,0:0:0:0:
439,0,86210,1,0,0:0:0:0:
439,0,86292,1,2,0:2:0:0:
359,183,86457,1,0,0:0:0:0:
203,25,86622,1,8,0:0:0:0:
49,227,86786,6,0,B|35:259|35:259|163:231|163:231|165:186|220:159,1,233.999989288331,6|0,0:0|0:0,0:0:0:0:
356,378,87281,2,0,P|298:360|229:360,1,99.0000030212403,8|0,0:0|0:0,0:0:0:0:
189,376,87528,1,0,0:0:0:0:
189,376,87611,1,2,0:2:0:0:
409,306,87775,1,0,0:0:0:0:
370,192,87940,1,8,0:0:0:0:
506,107,88105,6,0,B|510:30|430:2|430:2|475:34|460:84,1,215.999993408203,6|0,0:2|0:0,0:0:0:0:
344,268,88600,2,0,P|392:266|435:238,1,99.0000030212403,8|0,0:0|0:0,0:0:0:0:
206,75,88929,2,0,L|318:94,1,99.0000030212403,2|0,0:2|0:0,0:0:0:0:
303,91,89177,1,0,0:0:0:0:
303,91,89259,1,8,0:0:0:0:
275,4,89424,1,0,0:0:0:0:
357,190,89589,6,0,L|126:150,1,233.999989288331,6|8,0:0|0:0,0:0:0:0:
62,197,90083,1,0,0:0:0:0:
149,324,90248,2,0,L|162:263,1,49.5000015106202,2|0,0:2|0:0,0:0:0:0:
225,317,90413,2,0,L|212:378,1,49.5000015106202
77,366,90578,5,8,0:0:0:0:
221,220,90742,2,0,B|179:173|88:180|108:248|54:249|0:213,1,215.999993408203,6|0,0:2|1:0,0:0:0:0:
22,225,91155,1,0,1:1:0:0:
22,225,91237,1,8,1:1:0:0:
204,42,91402,5,8,3:3:0:0:
211,53,91484,1,8,3:3:0:0:
217,65,91567,1,4,3:3:0:0:
183,55,91649,1,4,3:3:0:0:
149,47,91731,1,0,1:1:0:0:
114,41,91814,1,0,1:1:0:0:
80,34,91896,1,8,1:1:0:0:
369,341,92061,6,0,B|340:329|330:310|330:310|416:314|479:282|501:217,1,243.000000926971,6|0,0:0|0:0,0:0:0:0:
346,20,92556,2,0,L|362:117,1,99.0000030212403,8|0,0:1|0:0,0:0:0:0:
376,191,92803,1,0,0:0:0:0:
376,191,92885,1,2,0:2:0:0:
512,59,93050,1,0,0:0:0:0:
512,59,93133,1,0,0:0:0:0:
512,59,93215,1,8,0:0:0:0:
297,166,93380,6,0,B|260:172|239:197|239:197|167:212|134:160|125:111,1,215.999993408203,6|0,0:2|0:0,0:1:0:0:
307,343,93874,2,0,B|288:309|288:309|310:240,1,99.0000030212403,8|0,0:0|0:0,0:0:0:0:
278,79,94204,1,2,0:2:0:0:
148,281,94369,1,0,0:0:0:0:
148,281,94451,1,0,0:0:0:0:
148,281,94534,1,8,0:0:0:0:
40,342,94699,5,6,0:0:0:0:
40,342,94781,2,0,B|12:275|67:221|67:221|50:248|60:283,1,182.250000695229,8|0,0:0|0:0,0:0:0:0:
153,373,95193,1,8,0:0:0:0:
389,304,95358,1,0,0:2:0:0:
389,304,95440,1,0,0:0:0:0:
389,304,95523,2,0,L|408:197,1,99.0000030212403,2|0,0:2|0:0,0:0:0:0:
420,134,95770,1,0,0:0:0:0:
420,134,95852,1,8,0:0:0:0:
70,64,96017,6,0,B|106:32|179:31|211:73|211:73|175:94|145:68,1,215.999993408203,6|0,0:2|0:0,0:0:0:0:
271,6,96512,1,8,0:0:0:0:
245,219,96677,1,0,0:0:0:0:
245,219,96759,1,0,0:0:0:0:
245,219,96841,1,10,0:0:0:0:
70,64,97006,1,8,0:0:0:0:
447,353,97336,6,0,B|436:288|436:288|458:237|458:237|417:186|419:132,1,233.999989288331,6|0,0:1|0:0,0:0:0:0:
283,302,97830,2,0,P|235:313|190:294,1,99.0000030212403,8|0,0:0|0:0,0:0:0:0:
137,238,98078,1,0,0:0:0:0:
137,238,98160,1,2,0:2:0:0:
376,384,98325,1,0,0:0:0:0:
512,301,98490,1,8,0:0:0:0:
283,303,98655,6,0,B|301:319|301:319|271:257|279:191|279:191|234:141,1,215.999993408203,6|0,0:2|0:0,0:0:0:0:
186,58,99149,2,0,P|143:83|95:76,1,99.0000030212403,8|0,0:0|0:0,0:0:0:0:
26,39,99396,1,0,0:0:0:0:
26,39,99479,1,2,0:2:0:0:
239,146,99644,1,0,0:0:0:0:
289,72,99808,1,8,0:0:0:0:
403,208,99973,6,0,B|392:176|375:156|375:156|412:106|402:45,1,175.499991966248,6|0,0:2|0:0,0:0:0:0:
480,0,100303,1,0,0:3:0:0:
480,0,100385,1,0,0:0:0:0:
479,0,100468,2,0,P|482:24|489:48,1,49.5000015106202,8|0,0:2|0:0,0:0:0:0:
512,127,100633,2,0,B|509:151|502:175,1,49.5000015106202,8|8,3:3|3:3,0:0:0:0:
422,308,100797,5,0,1:0:0:0:
388,290,100880,1,0,1:0:0:0:
355,277,100962,1,0,1:0:0:0:
322,272,101045,1,0,1:0:0:0:
289,271,101127,1,0,1:0:0:0:
252,276,101210,1,0,1:0:0:0:
222,287,101292,1,0,1:0:0:0:
133,344,101457,5,12,0:2:0:0:
114,304,101539,1,0,0:2:0:0:
76,330,101622,1,0,0:2:0:0:
63,289,101704,1,0,0:2:0:0:
84,244,101786,5,8,0:2:0:0:
99,228,101869,1,0,0:2:0:0:
107,207,101951,1,0,0:2:0:0:
154,181,102034,5,0,0:2:0:0:
199,196,102116,1,10,0:2:0:0:
247,195,102199,1,0,0:2:0:0:
286,180,102281,1,0,0:2:0:0:
317,144,102363,1,0,0:2:0:0:
297,102,102446,5,8,0:2:0:0:
318,89,102528,1,0,0:2:0:0:
339,76,102611,1,0,0:2:0:0:
360,63,102693,1,0,0:2:0:0:
319,0,102775,6,0,B|274:39|274:39|327:100,1,125.999996154785,6|0,0:0|0:0,0:0:0:0:
367,154,103023,1,0,0:1:0:0:
367,154,103105,1,0,0:0:0:0:
201,114,103270,1,0,0:1:0:0:
55,78,103435,2,0,P|15:144|37:252,1,180,2|8,0:2|0:0,0:0:0:0:
139,321,103929,6,0,P|164:312|194:308,1,45
290,343,104094,2,0,B|305:358|324:362|324:362|266:399|230:355,1,135,4|0,0:2|0:0,0:0:0:0:
182,308,104424,2,0,P|187:257|226:212,1,90,8|0,0:0|0:0,0:0:0:0:
208,225,104671,1,0,0:0:0:0:
208,225,104753,1,2,0:2:0:0:
341,277,104918,1,0,0:0:0:0:
439,317,105083,1,8,0:0:0:0:
389,138,105248,6,0,P|503:179|510:239,1,180,6|0,0:2|0:0,0:0:0:0:
298,200,105742,2,0,L|286:111,1,90,8|0,0:0|0:0,0:0:0:0:
285,110,105990,1,0,0:0:0:0:
285,110,106072,1,2,0:2:0:0:
389,138,106237,1,0,0:0:0:0:
205,177,106402,1,8,0:0:0:0:
175,36,106567,5,6,0:2:0:0:
175,36,106649,2,0,P|122:34|54:111,1,135,8|0,0:0|0:0,0:0:0:0:
89,250,107061,2,0,L|-13:270,1,90,10|0,0:0|0:0,0:0:0:0:
0,267,107308,1,0,0:0:0:0:
0,267,107391,1,2,0:2:0:0:
138,345,107556,1,0,0:0:0:0:
171,357,107638,1,0,0:0:0:0:
207,359,107720,1,0,0:0:0:0:
242,351,107803,1,0,0:0:0:0:
273,334,107885,1,0,0:0:0:0:
298,308,107968,1,0,0:0:0:0:
372,342,108050,6,0,B|325:278|325:278|371:216,1,125.999996154785,6|0,0:0|0:0,0:0:0:0:
405,186,108297,1,0,0:0:0:0:
405,186,108380,1,0,0:0:0:0:
512,235,108545,1,0,0:0:0:0:
357,114,108710,2,0,P|399:76|519:104,1,180,2|8,0:2|0:0,0:0:0:0:
352,240,109204,6,0,P|313:233|283:218,1,45
241,195,109369,2,0,B|242:182|256:177|256:177|191:160|161:213,1,135,4|0,0:2|0:0,0:0:0:0:
88,245,109699,2,0,P|131:244|160:211,1,90,8|0,0:0|0:0,0:0:0:0:
160,211,109946,1,0,0:0:0:0:
160,211,110028,1,2,0:2:0:0:
13,146,110193,1,0,0:0:0:0:
172,59,110358,1,8,0:0:0:0:
87,2,110523,1,0,0:0:0:0:
257,103,110688,6,0,B|300:74|350:94|350:94|387:46,1,135,6|0,0:2|0:0,0:0:0:0:
388,48,111017,1,8,0:0:0:0:
311,173,111182,1,0,0:0:0:0:
512,157,111347,2,0,L|413:138,1,90,2|0,0:2|0:0,0:0:0:0:
423,140,111594,1,0,0:0:0:0:
423,140,111677,1,8,0:2:0:0:
482,283,111841,1,0,0:0:0:0:
270,263,112006,5,6,0:2:0:0:
415,234,112171,1,8,0:0:0:0:
365,376,112336,1,8,0:0:0:0:
244,247,112501,2,0,B|135:228|183:290|50:265,1,180,6|0,0:2|0:2,0:0:0:0:
0,157,112995,1,8,3:3:0:0:
6,127,113078,1,8,3:3:0:0:
13,98,113160,1,4,3:3:0:0:
20,69,113242,1,4,3:3:0:0:
79,20,113325,6,0,B|126:14|126:14|162:46|141:85,1,125.999996154785,6|0,0:0|0:0,0:0:0:0:
99,146,113572,1,0,0:0:0:0:
99,146,113655,1,0,0:0:0:0:
275,115,113819,1,0,0:0:0:0:
405,91,113984,2,0,P|449:141|436:265,1,180,2|8,0:2|0:0,0:0:0:0:
319,328,114479,6,0,P|286:315|246:313,1,45
148,329,114644,2,0,B|135:350|119:355|119:355|177:372|203:331,1,135,4|0,0:2|0:0,0:0:0:0:
221,257,114973,2,0,P|213:219|184:169,1,90,8|0,0:0|0:0,0:0:0:0:
188,174,115220,1,0,0:0:0:0:
188,174,115303,1,2,0:2:0:0:
115,252,115468,1,0,0:0:0:0:
311,192,115633,1,8,0:0:0:0:
81,88,115797,6,0,P|148:31|235:36,1,180,6|0,0:2|0:0,0:0:0:0:
305,80,116210,1,0,0:0:0:0:
305,80,116292,2,0,B|346:86|346:86|395:61,1,90,8|0,0:0|0:0,0:0:0:0:
202,213,116622,1,0,0:0:0:0:
366,168,116786,1,8,0:0:0:0:
405,311,116951,1,8,0:0:0:0:
181,314,117116,6,0,P|248:370|335:365,1,180,6|0,0:2|0:0,0:0:0:0:
424,224,117611,2,0,L|514:243,1,90,8|0,0:0|0:0,0:0:0:0:
416,334,117940,1,2,0:2:0:0:
332,186,118105,1,0,0:0:0:0:
327,152,118188,1,0,0:0:0:0:
322,119,118270,1,0,0:0:0:0:
318,85,118352,1,0,0:0:0:0:
313,52,118435,6,0,B|273:15|226:39|226:39|195:79|145:61,1,180,6|0,0:0|0:0,0:0:0:0:
9,6,118929,1,8,0:0:0:0:
36,155,119094,1,0,0:0:0:0:
36,155,119177,1,0,0:0:0:0:
36,155,119259,1,2,0:2:0:0:
150,62,119424,1,0,0:0:0:0:
63,74,119589,1,8,0:0:0:0:
182,230,119753,6,0,P|106:276|21:257,1,180,6|0,0:2|0:0,0:0:0:0:
235,384,120248,2,0,P|244:325|257:286,1,90,8|0,0:0|0:0,0:0:0:0:
253,296,120495,1,0,0:0:0:0:
253,296,120578,1,2,0:2:0:0:
339,366,120742,1,8,0:0:0:0:
144,296,120907,1,8,0:0:0:0:
312,134,121072,6,0,L|95:152,1,180,6|0,0:0|0:0,0:0:0:0:
346,234,121567,2,0,P|395:242|474:191,1,135,8|0,0:0|0:0,0:0:0:0:
512,137,121896,1,2,0:2:0:0:
365,52,122061,1,0,0:0:0:0:
490,0,122226,1,8,0:0:0:0:
344,145,122391,6,0,P|235:144|182:77,1,180,6|0,0:2|0:0,0:0:0:0:
0,223,122885,2,0,P|39:205|96:204,1,90,8|0,0:0|0:0,0:0:0:0:
85,202,123133,1,0,0:0:0:0:
85,202,123215,1,10,0:2:0:0:
154,369,123380,1,8,0:0:0:0:
322,323,123545,1,8,0:0:0:0:
399,263,123710,6,0,B|347:234|334:188|312:54|451:29|472:114|422:179|327:168,1,360,6|0,0:0|0:0,0:0:0:0:
201,65,125193,5,10,2:2:0:0:
176,33,125275,1,8,2:0:0:0:
136,21,125358,1,8,2:0:0:0:
95,20,125440,1,8,2:0:0:0:
59,39,125523,5,8,2:3:0:0:
63,51,125605,1,8,2:3:0:0:
37,69,125688,5,8,2:2:0:0:
65,92,125770,1,8,2:2:0:0:
95,110,125852,5,4,2:3:0:0:
88,122,125935,1,4,2:3:0:0:
112,153,126017,5,8,2:0:0:0:
68,167,126100,1,8,2:0:0:0:
38,200,126182,1,8,2:0:0:0:
27,243,126264,1,8,2:0:0:0:
34,287,126347,1,8,2:0:0:0:
61,322,126429,1,8,2:0:0:0:
106,383,126512,6,0,P|105:339|115:295,1,90,4|0,0:0|0:0,0:0:0:0:
138,226,126759,1,0,0:0:0:0:
138,226,126841,1,8,0:0:0:0:
363,168,127006,1,2,0:2:0:0:
363,168,127089,2,0,B|312:146|312:146|291:119|291:119|250:98,1,135,8|0,0:0|0:0,0:0:0:0:
464,136,127501,2,0,P|464:180|450:223,1,90,8|0,0:0|0:0,0:0:0:0:
217,278,127830,6,0,P|222:211|190:153,1,135,2|0,0:2|0:0,0:0:0:0:
134,103,128160,1,8,0:0:0:0:
270,374,128325,1,2,0:2:0:0:
270,374,128407,2,0,P|302:342|322:303,1,90,8|0,0:0|0:0,0:0:0:0:
339,228,128655,1,0,0:0:0:0:
291,40,128819,2,0,B|313:64|313:64|368:77,1,90,8|0,0:0|0:0,0:0:0:0:
467,195,129149,6,0,B|410:202|410:202|381:221|381:221|336:227,1,135,6|0,0:2|0:0,0:0:0:0:
263,239,129479,1,8,0:0:0:0:
169,363,129644,1,2,0:2:0:0:
169,363,129726,2,0,L|79:352,1,90,8|0,0:0|0:0,0:0:0:0:
0,341,129973,1,0,0:0:0:0:
263,239,130138,2,0,L|273:149,1,90,8|0,0:0|0:0,0:0:0:0:
107,125,130468,6,0,P|94:167|96:212,1,90,4|0,0:2|0:0,0:0:0:0:
57,277,130715,1,0,0:0:0:0:
57,277,130797,1,8,0:0:0:0:
351,250,130962,1,2,0:2:0:0:
351,250,131045,2,0,P|308:237|263:239,1,90,8|0,0:0|0:0,0:0:0:0:
192,263,131292,1,0,0:0:0:0:
290,65,131457,6,0,P|224:76|168:42,1,135,8|0,0:0|0:0,0:0:0:0:
82,53,131786,2,0,P|44:76|22:115,1,90,2|0,0:2|0:0,0:0:0:0:
5,190,132034,1,0,0:0:0:0:
5,190,132116,1,8,0:0:0:0:
294,68,132281,5,2,0:2:0:0:
294,68,132363,2,0,P|317:105|356:127,1,90,8|0,0:0|0:0,0:0:0:0:
448,143,132611,1,0,0:0:0:0:
487,126,132693,1,0,0:0:0:0:
512,89,132775,1,8,0:0:0:0:
364,134,132940,5,0,0:0:0:0:
364,134,133023,1,0,0:0:0:0:
364,134,133105,2,0,B|341:181|341:181|342:220|342:220|322:259,1,135,4|0,0:2|0:0,0:0:0:0:
275,321,133435,1,8,0:0:0:0:
402,384,133600,2,0,P|392:318|429:264,1,135,2|0,0:2|0:0,0:0:0:0:
512,250,133929,2,0,P|473:271|428:264,1,90,0|8,0:0|0:0,0:0:0:0:
315,252,134259,5,0,0:0:0:0:
245,102,134424,1,0,0:0:0:0:
151,251,134671,1,0,0:0:0:0:
151,251,134753,1,8,0:0:0:0:
325,234,134918,1,0,0:0:0:0:
325,234,135001,1,0,0:0:0:0:
325,234,135083,1,0,0:0:0:0:
219,94,135248,1,8,3:3:0:0:
219,94,135330,1,8,3:3:0:0:
219,94,135413,5,0,1:0:0:0:
168,100,135495,1,0,1:0:0:0:
120,77,135578,1,0,1:0:0:0:
100,30,135660,1,0,1:0:0:0:
140,0,135742,5,8,3:3:0:0:
147,47,135825,1,8,3:3:0:0:
107,75,135907,1,4,3:3:0:0:
59,90,135990,1,4,3:3:0:0:
26,136,136072,5,0,1:0:0:0:
20,195,136155,1,0,1:0:0:0:
37,251,136237,1,0,1:0:0:0:
82,286,136319,1,0,1:0:0:0:
122,342,136402,5,6,1:0:0:0:
177,9,137555,5,6,0:2:0:0:
454,215,137885,1,6,0:2:0:0:
138,351,138215,1,6,0:2:0:0:
299,157,138544,5,0,0:0:0:0:
283,200,138627,1,0,0:0:0:0:
265,243,138709,5,8,0:3:0:0:
237,206,138792,1,8,0:3:0:0:
208,170,138874,5,4,0:3:0:0:
255,163,138956,1,4,0:3:0:0:
299,157,139039,6,0,B|346:162|346:162|373:177|373:177|416:182,1,121.499996292114,4|0,0:0|0:0,0:0:0:0:
512,134,139368,2,0,P|502:168|498:204,1,72,0|0,0:2|2:0,0:0:0:0:
428,269,139698,2,0,P|437:303|441:339,1,72,0|0,0:0|2:0,0:0:0:0:
364,384,140028,2,0,L|292:374,1,72,0|0,0:0|2:0,0:0:0:0:
43,303,140357,6,0,P|111:324|180:293,1,144
120,141,140852,2,0,P|105:173|103:208,1,72,0|0,2:0|0:0,0:0:0:0:
328,188,141181,2,0,P|342:155|344:120,1,72,0|0,2:0|0:0,0:0:0:0:
192,195,141511,1,8,2:0:0:0:
328,188,141676,2,0,P|345:218|351:254,1,72,2|0,0:2|0:0,0:0:0:0:
343,335,141923,5,0,0:0:0:0:
343,335,142006,1,0,0:2:0:0:
262,329,142170,1,0,2:0:0:0:
434,266,142335,1,0,0:0:0:0:
505,275,142500,2,0,L|434:266,1,72,0|0,2:0|0:0,0:0:0:0:
446,180,142830,2,0,L|455:108,1,72,0|0,2:0|0:0,0:0:0:0:
255,30,143159,2,0,P|314:64|391:45,1,144,0|0,2:0|2:0,0:0:0:0:
177,17,143654,6,0,P|161:53|160:93,1,80.9999975280763,8|8,2:0|3:3,0:0:0:0:
90,151,143901,1,8,3:3:0:0:
90,151,143984,1,4,3:3:0:0:
78,199,144066,1,4,3:3:0:0:
69,248,144148,1,8,3:2:0:0:
12,372,144313,6,0,B|39:349|39:349|124:340,1,121.499996292114,4|0,0:2|0:0,0:0:0:0:
203,332,144643,1,0,0:2:0:0:
280,323,144808,1,0,2:0:0:0:
359,253,144973,1,0,0:0:0:0:
288,244,145137,1,0,0:0:0:0:
288,244,145220,1,0,0:0:0:0:
288,244,145302,2,0,L|359:253,1,72,0|0,0:0|2:0,0:0:0:0:
420,139,145632,5,0,0:0:0:0:
346,91,145797,2,0,B|331:126|331:126|335:159,1,72,0|0,2:0|0:0,0:0:0:0:
116,140,146126,2,0,P|181:167|250:149,1,144,0|0,2:0|2:0,0:0:0:0:
41,224,146621,1,0,0:0:0:0:
2,116,146786,1,8,2:0:0:0:
116,140,146951,6,0,B|129:101|129:101|128:64|128:64|149:0,1,144,2|0,0:2|0:2,0:0:0:0:
253,0,147445,2,0,P|284:16|319:25,1,72,0|0,2:0|0:0,0:0:0:0:
427,194,147775,2,0,P|390:197|356:208,1,72,0|0,2:0|0:0,0:0:0:0:
505,4,148104,2,0,B|523:94|491:60|505:147,1,144
512,246,148599,5,0,0:0:0:0:
433,298,148764,1,0,0:0:0:0:
389,300,148846,1,0,0:0:0:0:
416,339,148929,1,8,2:0:0:0:
505,146,149093,5,8,3:3:0:0:
475,105,149176,1,8,3:3:0:0:
428,90,149258,1,4,3:3:0:0:
390,58,149341,1,4,3:3:0:0:
342,53,149423,5,8,3:2:0:0:
233,162,149588,6,0,B|228:204|228:204|246:231|246:231|240:287,1,121.499996292114,4|0,0:2|0:0,0:0:0:0:
231,350,149918,1,0,0:0:0:0:
168,258,150082,1,0,2:0:0:0:
308,178,150247,1,0,0:0:0:0:
244,89,150412,1,0,1:0:0:0:
244,89,150495,1,0,1:0:0:0:
244,89,150577,1,0,0:0:0:0:
308,178,150742,6,0,P|353:184|392:171,1,72,0|0,2:0|0:0,0:0:0:0:
308,13,151071,2,0,P|343:6|378:12,1,72,0|0,2:0|0:0,0:0:0:0:
244,89,151401,2,0,P|179:116|110:98,1,144,0|8,2:0|2:0,0:0:0:0:
0,180,151896,5,8,3:3:0:0:
9,144,151978,1,8,3:3:0:0:
19,108,152060,1,8,3:2:0:0:
28,72,152143,1,8,3:2:0:0:
171,380,153214,5,2,2:0:0:0:
171,380,153297,1,0,0:0:0:0:
171,380,153379,2,0,B|190:308|149:311|168:237,1,144,4|0,0:0|0:0,0:0:0:0:
199,175,153791,1,0,0:0:0:0:
199,175,153874,1,0,0:0:0:0:
267,324,154039,5,8,3:0:0:0:
300,337,154121,1,8,3:0:0:0:
335,341,154203,1,8,0:0:0:0:
371,336,154286,1,0,0:0:0:0:
403,320,154368,1,0,0:0:0:0:
430,296,154451,1,0,0:0:0:0:
449,266,154533,1,8,3:3:0:0:
459,232,154615,1,8,3:3:0:0:
459,196,154698,2,0,L|447:145,1,36,4|0,3:3|0:0,0:0:0:0:
400,61,154863,5,8,0:0:0:0:
373,97,154945,1,0,0:0:0:0:
335,120,155028,1,8,3:0:0:0:
291,128,155110,1,8,3:0:0:0:
247,118,155192,2,0,L|255:77,1,36,4|0,3:0|0:0,0:0:0:0:
169,1,155357,5,8,0:0:0:0:
169,1,155440,1,0,0:0:0:0:
169,1,155522,2,0,L|179:55,1,36
49,171,155687,6,0,P|67:157|110:154,1,58.4999973220826,6|0,0:2|0:0,0:0:0:0:
216,211,155852,2,0,B|260:236|260:236|326:211,1,101.250003862381,6|0,0:2|0:0,0:0:0:0:
375,167,156181,6,0,B|394:142|381:120|399:107|399:107|382:176|422:187|385:225,1,175.499991966248,4|0,0:0|0:0,0:0:0:0:
352,278,156511,1,8,0:0:0:0:
176,383,156676,2,0,B|224:313|313:346|313:346|278:328|272:281,1,225,2|0,0:2|0:0,0:0:0:0:
194,136,157170,5,8,0:0:0:0:
157,283,157335,1,0,0:0:0:0:
14,226,157500,6,0,B|53:219|53:219|78:197|78:197|139:192,1,112.5,4|0,0:2|0:0,0:0:0:0:
185,159,157747,1,0,0:0:0:0:
185,159,157830,1,8,0:0:0:0:
61,26,157995,1,2,0:2:0:0:
61,26,158077,2,0,B|42:53|18:58|18:58|13:101|51:114,1,112.5,8|0,0:0|0:0,0:0:0:0:
38,108,158324,2,0,B|81:101|81:101|102:85|102:85|143:77,1,112.5,2|8,0:2|0:0,0:0:0:0:
486,73,158654,6,0,B|497:65|497:65|478:50|418:44|443:101|399:106|399:106|435:61|398:7,1,225,2|0,0:2|0:0,0:0:0:0:
327,207,159148,1,8,0:0:0:0:
476,166,159313,1,0,0:0:0:0:
476,166,159396,1,0,0:0:0:0:
476,166,159478,1,2,0:2:0:0:
332,53,159643,1,0,0:0:0:0:
398,272,159808,1,8,0:0:0:0:
239,128,159973,6,0,B|250:169|250:169|236:199|236:199|258:234|245:293,1,168.75,4|0,0:2|0:0,0:0:0:0:
224,363,160302,1,0,0:0:0:0:
11,273,160467,2,0,P|84:278|137:236,1,112.5,12|0,0:2|0:0,0:0:0:0:
224,133,160797,5,8,3:3:0:0:
199,110,160879,1,8,3:3:0:0:
192,76,160962,1,8,3:3:0:0:
201,43,161044,1,8,3:3:0:0:
271,74,161126,5,12,3:0:0:0:
285,37,161209,1,4,3:0:0:0:
318,16,161291,1,4,3:0:0:0:
357,14,161374,1,4,3:0:0:0:
348,93,161456,6,0,B|355:145|418:142|430:123|430:123|426:81|462:57,1,168.75,4|0,0:0|0:0,0:0:0:0:
512,26,161786,1,8,0:0:0:0:
354,203,161951,1,2,0:2:0:0:
354,203,162033,2,0,B|369:241|408:246|408:246|406:220|387:209,1,112.5,8|0,0:0|0:0,0:0:0:0:
329,132,162280,1,0,0:0:0:0:
286,305,162445,2,0,B|284:345|317:366|317:366|326:341|313:323,1,112.5,8|0,0:0|0:0,0:0:0:0:
163,176,162775,6,0,B|200:212|200:212|83:187,1,168.75,4|0,0:2|0:0,0:0:0:0:
49,121,163104,2,0,P|12:162|15:217,1,112.5,8|0,0:0|0:0,0:0:0:0:
234,134,163434,1,2,0:2:0:0:
85,187,163599,1,0,0:0:0:0:
150,356,163764,1,8,0:2:0:0:
220,313,163929,5,0,0:0:0:0:
220,313,164011,1,0,0:0:0:0:
220,313,164093,2,0,B|284:299|284:299|324:343|399:322,1,168.75,4|0,0:2|0:0,0:0:0:0:
441,375,164423,1,8,0:0:0:0:
350,243,164588,2,0,B|338:235|349:216|349:216|474:171|363:194|488:145|488:145|498:122|485:106,1,225,6|0,0:2|0:0,0:0:0:0:
294,0,165082,5,8,0:0:0:0:
252,166,165247,1,0,0:0:0:0:
170,57,165412,5,4,0:2:0:0:
385,98,165659,1,0,0:0:0:0:
385,98,165742,1,8,0:0:0:0:
160,197,165907,5,2,0:2:0:0:
349,176,166071,1,8,0:0:0:0:
250,74,166236,1,8,0:0:0:0:
246,297,166401,1,8,0:0:0:0:
60,178,166566,5,8,0:0:0:0:
60,178,166648,1,8,0:0:0:0:
60,178,166731,2,0,B|14:219|14:219|-5:286|49:316,1,168.75,4|0,0:0|0:0,0:0:0:0:
80,382,167060,1,8,0:0:0:0:
263,208,167225,6,0,B|212:213|189:166|189:166|179:164|179:164|179:172|179:172|203:209|199:252|153:287,1,225,2|0,0:2|0:0,0:0:0:0:
264,121,167720,1,8,0:0:0:0:
368,250,167885,5,0,0:0:0:0:
368,250,167967,1,0,0:0:0:0:
368,250,168049,2,0,B|425:263|425:263|474:217,1,112.5,2|0,0:2|0:0,0:0:0:0:
512,162,168297,1,0,0:0:0:0:
512,162,168379,1,8,0:0:0:0:
365,16,168544,5,0,0:2:0:0:
365,16,168626,2,0,B|322:63|354:110|354:110|352:117|352:117|383:130|401:181,1,168.75,8|0,0:0|0:0,0:0:0:0:
288,323,169039,1,8,0:0:0:0:
214,189,169203,1,0,0:0:0:0:
173,119,169368,6,0,B|159:95|159:95|145:81|145:81|132:58,1,72,4|0,1:2|0:0,0:0:0:0:
78,132,169698,2,0,P|44:115|15:95,1,72,0|0,0:0|1:0,0:0:0:0:
16,95,169945,1,0,1:0:0:0:
16,95,170028,2,0,B|55:176|10:164|52:252,1,144,8|0,0:2|2:0,0:0:0:0:
83,314,170522,1,0,0:0:0:0:
203,374,170687,6,0,P|237:315|306:315,1,144,6|0,1:2|0:0,0:0:0:0:
377,371,171181,1,0,1:0:0:0:
377,371,171264,1,0,1:0:0:0:
377,371,171346,1,8,0:2:0:0:
216,228,171511,1,0,0:0:0:0:
411,147,171676,1,0,1:0:0:0:
416,228,171841,6,0,P|328:186|286:98,1,198.000006042481,4|8,0:2|3:0,0:0:0:0:
303,63,172253,1,8,3:0:0:0:
328,98,172335,1,4,3:0:0:0:
313,135,172418,1,4,3:0:0:0:
270,145,172500,5,0,1:0:0:0:
232,119,172582,1,0,1:0:0:0:
206,140,172665,5,8,3:0:0:0:
157,158,172747,1,8,3:0:0:0:
195,189,172830,5,0,1:0:0:0:
194,235,172912,1,0,1:0:0:0:
217,275,172995,1,0,1:0:0:0:
256,303,173077,1,0,1:0:0:0:
306,304,173159,1,0,1:0:0:0:
352,290,173242,1,0,1:0:0:0:
385,252,173324,5,6,0:2:0:0:
229,31,173489,1,0,0:2:0:0:
309,209,173654,1,0,0:2:0:0:
64,11,173819,5,6,0:2:0:0:
397,48,174148,5,6,0:2:0:0:
42,309,174478,6,0,B|33:288|17:269|17:269|85:262|134:228|134:228|194:249|194:249|242:216|312:207,1,360,6|2,0:1|0:0,2:0:0:0:
256,192,175838,12,0,176951,0:0:0:0:
240,117,177115,6,0,B|244:151|252:173|252:173|250:199|250:199|265:247|263:302,1,182.250000695229,6|0,0:0|0:0,0:1:0:0:
260,373,177445,1,0,0:0:0:0:
240,117,177610,2,0,P|229:68|226:19,1,99.0000030212403,8|0,0:1|0:0,0:0:0:0:
225,19,177857,1,0,0:0:0:0:
225,19,177940,1,2,0:2:0:0:
348,174,178104,1,0,0:0:0:0:
348,174,178187,2,0,B|377:173|397:177|397:177|410:158|435:145,1,99.0000030212403
511,24,178434,6,0,B|473:6|473:6|467:9|467:9|472:44|472:44|530:101|509:182,1,215.999993408203,6|0,0:2|0:0,0:1:0:0:
363,257,178929,2,0,P|314:251|276:220,1,99.0000030212403,8|0,0:1|0:0,0:0:0:0:
235,152,179176,1,0,0:0:0:0:
235,152,179258,1,2,0:2:0:0:
196,357,179423,5,0,0:0:0:0:
196,357,179506,1,0,0:0:0:0:
196,357,179588,2,0,P|181:329|157:306,1,49.5000015106202,8|0,0:0|0:0,0:0:0:0:
25,280,179753,1,6,0:1:0:0:
25,280,179835,2,0,B|65:284|65:284|89:244|89:244|134:226|134:226|136:181,1,175.499991966248,8|0,0:0|0:0,0:0:0:0:
31,168,180247,5,8,0:0:0:0:
169,316,180412,1,0,0:0:0:0:
31,168,180577,2,0,P|25:119|28:70,1,99.0000030212403,2|0,0:2|0:0,0:0:0:0:
43,0,180824,1,0,0:0:0:0:
43,0,180907,1,8,0:0:0:0:
136,186,181071,6,0,B|139:161|136:138|136:138|125:103|125:103|139:74|139:74|136:47|144:0,1,161.999995056153,6|0,0:2|0:0,0:0:0:0:
139,29,181401,5,0,0:0:0:0:
322,128,181566,1,8,0:0:0:0:
467,0,181731,5,0,0:0:0:0:
467,0,181813,1,0,0:0:0:0:
467,0,181896,6,0,P|479:21|484:45,1,49.5000015106202,2|0,0:2|0:0,0:0:0:0:
512,137,182060,6,0,P|505:160|492:181,1,49.5000015106202
474,228,182225,6,0,P|452:240|428:245,1,49.5000015106202,8|0,0:0|0:0,0:0:0:0:
202,326,182390,6,0,B|194:298|156:280|156:280|163:275|163:275|198:286|239:293|282:271|282:271|321:291,1,233.999989288331,6|0,0:0|0:0,0:0:0:0:
92,170,182885,2,0,B|102:176|115:187|115:187|94:155|96:108,1,99.0000030212403,8|0,0:0|0:0,0:0:0:0:
103,44,183132,1,0,0:0:0:0:
103,44,183214,1,2,0:2:0:0:
96,174,183379,1,0,0:0:0:0:
96,174,183462,2,0,P|56:144|8:140,1,99.0000030212403,8|0,0:0|0:0,0:0:0:0:
252,129,183709,6,0,B|283:122|304:108|304:108|359:124|407:103,1,161.999995056153,6|0,0:2|0:0,0:0:0:0:
476,68,184039,1,0,0:0:0:0:
252,129,184203,6,0,B|301:138|301:138|345:115,1,99.0000030212403,8|0,0:0|0:0,0:0:0:0:
416,109,184451,1,0,0:0:0:0:
416,109,184533,1,2,0:2:0:0:
282,25,184698,1,0,0:0:0:0:
282,25,184780,1,0,0:0:0:0:
282,25,184863,1,8,0:0:0:0:
341,223,185028,5,0,0:0:0:0:
307,313,185192,2,0,P|259:344|201:340,1,116.999994644165,6|0,0:0|0:0,0:0:0:0:
44,351,185522,2,0,L|60:211,1,99.0000030212403,8|0,0:0|0:0,0:0:0:0:
70,134,185852,1,2,0:2:0:0:
171,99,186017,1,0,0:0:0:0:
279,60,186181,1,8,0:0:0:0:
493,175,186346,6,0,B|457:169|433:182|433:182|420:180|420:180|385:134|341:134,1,161.999995056153,6|0,0:2|0:0,0:0:0:0:
292,198,186676,1,0,1:0:0:0:
269,230,186758,1,0,1:1:0:0:
273,271,186841,1,8,1:1:0:0:
512,72,187006,5,8,3:3:0:0:
491,30,187088,1,8,3:3:0:0:
450,1,187170,5,4,3:3:0:0:
453,48,187253,1,4,3:3:0:0:
435,99,187335,1,0,1:1:0:0:
397,131,187418,1,0,1:1:0:0:
348,135,187500,5,8,1:1:0:0:
118,62,187665,6,0,B|181:65|208:4|208:4|211:6|211:6|168:70|215:127,1,243.000000926971,6|0,0:0|0:0,0:0:0:0:
32,169,188159,2,0,P|87:151|153:151,1,99.0000030212403,8|0,0:1|0:0,0:0:0:0:
196,199,188407,1,0,0:0:0:0:
196,199,188489,1,2,0:2:0:0:
41,77,188654,1,0,0:0:0:0:
15,279,188819,1,8,0:0:0:0:
69,342,188984,6,0,B|204:300|154:386|278:360,1,215.999993408203,6|0,0:2|0:0,0:1:0:0:
400,231,189478,2,0,B|524:246,1,99.0000030212403,8|0,0:0|0:0,0:0:0:0:
298,105,189808,1,2,0:2:0:0:
406,57,189973,1,0,0:0:0:0:
406,57,190055,1,0,0:0:0:0:
406,57,190137,1,8,0:0:0:0:
212,150,190302,5,6,0:0:0:0:
212,150,190385,2,0,B|177:171|172:211|172:211|165:197|165:197|201:145|175:109,1,182.250000695229,8|0,0:0|0:0,0:0:0:0:
169,294,190797,1,8,0:0:0:0:
106,141,190962,1,0,0:2:0:0:
106,141,191044,1,0,0:0:0:0:
106,141,191126,2,0,P|64:141|5:172,1,99.0000030212403,2|0,0:2|0:0,0:0:0:0:
253,220,191456,2,0,P|319:205|327:199,1,49.5000015106202,8|0,0:0|0:0,0:0:0:0:
480,108,191621,6,0,B|413:66|413:66|453:236,1,215.999993408203,6|0,0:2|0:0,0:0:0:0:
311,337,192115,1,8,0:0:0:0:
247,128,192280,1,0,0:0:0:0:
220,91,192363,1,0,0:0:0:0:
177,77,192445,1,0,0:0:0:0:
133,89,192528,1,0,0:0:0:0:
109,126,192610,2,0,P|114:158|134:186,1,49.5000015106202
378,265,192940,6,0,B|430:257|436:199|436:199|446:197|446:197|459:215|421:242|429:297|492:313,1,233.999989288331,6|0,0:1|0:0,0:0:0:0:
293,384,193434,2,0,P|286:323|264:259,1,99.0000030212403,8|0,0:0|0:0,0:0:0:0:
240,222,193681,1,0,0:0:0:0:
240,222,193764,1,2,0:2:0:0:
187,351,193929,1,0,0:0:0:0:
373,282,194093,1,8,0:0:0:0:
223,122,194258,6,0,B|201:69|252:8|323:28|341:53|341:53|344:83|378:111,1,215.999993408203,6|0,0:2|0:0,0:0:0:0:
148,198,194753,2,0,P|101:195|55:168,1,99.0000030212403,8|0,0:0|0:0,0:0:0:0:
0,126,195000,1,0,0:0:0:0:
0,126,195082,1,2,0:2:0:0:
223,122,195247,1,0,0:0:0:0:
108,328,195412,1,8,0:0:0:0:
204,281,195577,6,0,B|227:273|227:273|294:310|367:269|367:269|335:249|338:206,1,233.999989288331,6|0,0:1|0:0,0:0:0:0:
482,121,196071,1,8,3:2:0:0:
457,115,196154,1,0,3:2:0:0:
436,100,196236,1,0,3:2:0:0:
421,79,196319,1,0,3:2:0:0:
422,54,196401,1,2,3:2:0:0:
440,70,196484,1,0,3:2:0:0:
441,94,196566,1,0,3:2:0:0:
434,117,196648,1,0,3:2:0:0:
415,134,196731,1,8,3:2:0:0:
409,109,196813,1,0,3:2:0:0:
431,97,196896,1,0,3:2:0:0:
455,101,196978,1,0,3:2:0:0:
472,118,197060,5,2,3:2:0:0:
449,162,197143,1,0,3:0:0:0:
436,209,197225,1,0,3:0:0:0:
442,258,197308,1,0,3:0:0:0:
467,300,197390,1,8,3:2:0:0:
458,250,197473,1,0,3:0:0:0:
425,212,197555,1,0,3:0:0:0:
376,201,197637,1,0,3:0:0:0:
329,219,197720,5,8,3:3:0:0:
275,361,197885,1,4,3:3:0:0:
130,305,198049,1,8,0:0:0:0:
42,375,198214,6,0,B|48:343|48:343|35:322|35:322|49:254|49:254|59:244|59:244|63:219|63:219|49:173,1,198.000006042481,6|0,0:2|0:0,0:0:0:0:
0,41,198709,1,8,0:0:0:0:
139,90,198874,1,2,0:2:0:0:
139,90,198956,1,0,0:0:0:0:
139,90,199039,1,0,0:0:0:0:
312,41,199203,6,0,B|263:51|263:51|221:27,1,99.0000030212403,2|8,0:2|0:0,0:0:0:0:
199,342,199533,2,0,B|248:332|248:332|291:357,1,99.0000030212403,6|0,0:2|0:0,0:0:0:0:
38,150,199863,2,0,P|58:195|52:244,1,99.0000030212403,2|8,0:2|0:0,0:0:0:0:
474,234,200192,5,0,0:0:0:0:
394,64,200357,1,8,0:0:0:0:
256,192,200522,1,8,0:0:0:0:
337,254,200687,5,0,0:0:0:0:
337,254,200769,1,0,0:0:0:0:
337,254,200852,2,0,B|372:288|348:341|348:341|362:364|362:364|354:318|384:284,1,198.000006042481,6|0,1:0|0:0,0:0:0:0:
281,304,201346,1,8,0:0:0:0:
442,346,201511,2,0,B|494:358|494:358|452:328,1,99.0000030212403,2|0,0:2|0:0,0:0:0:0:
201,291,201841,1,2,0:2:0:0:
201,291,201923,1,0,0:0:0:0:
201,291,202006,1,8,0:0:0:0:
106,278,202170,6,0,B|82:323|82:323|95:381,1,99.0000030212403,6|0,0:2|0:0,0:0:0:0:
377,291,202500,2,0,B|387:337|387:337|363:382,1,99.0000030212403,2|8,0:2|0:0,0:0:0:0:
200,200,202830,1,2,0:2:0:0:
200,200,202912,1,0,0:0:0:0:
200,200,202995,1,0,0:0:0:0:
335,164,203159,1,8,0:0:0:0:
282,8,203324,1,8,0:0:0:0:
245,131,203489,6,0,B|267:153|267:153|298:149|298:149|323:133|323:133|358:131|358:131|394:101|394:101|384:80,1,198.000006042481,6|8,0:1|0:0,0:0:0:0:
151,40,203984,1,8,0:0:0:0:
342,171,204148,1,0,0:0:0:0:
342,171,204231,1,0,0:0:0:0:
342,171,204313,1,0,0:0:0:0:
136,258,204478,1,0,0:0:0:0:
136,258,204560,1,0,0:0:0:0:
136,258,204643,1,0,0:0:0:0:
58,148,204808,5,6,0:1:0:0:
14,343,204973,1,6,0:2:0:0:
246,279,205137,5,2,0:2:0:0:
223,234,205220,1,0,0:0:0:0:
219,184,205302,1,0,0:0:0:0:
244,141,205385,1,0,0:0:0:0:
318,117,205467,5,8,3:3:0:0:
316,107,205549,1,8,3:3:0:0:
368,175,205632,5,4,1:3:0:0:
415,188,205714,1,0,1:3:0:0:
463,175,205797,1,0,1:0:0:0:
496,141,205879,1,0,1:0:0:0:
508,93,205962,1,0,1:0:0:0:
493,47,206044,1,0,1:0:0:0:
457,14,206126,1,0,1:0:0:0:
408,5,206209,1,0,1:0:0:0:
363,22,206291,6,0,B|368:34|338:55|297:37|297:37|307:71|286:103,1,148.50000453186,6|0,0:0|0:0,0:0:0:0:
195,103,206621,2,0,P|153:76|104:69,1,99.0000030212403,10|0,0:0|0:0,0:0:0:0:
30,78,206868,1,0,0:0:0:0:
30,78,206951,1,2,0:0:0:0:
280,260,207115,1,0,0:0:0:0:
280,260,207198,1,0,0:0:0:0:
280,260,207280,1,10,0:0:0:0:
121,268,207445,5,0,0:0:0:0:
121,268,207528,1,0,0:0:0:0:
121,268,207610,2,0,B|115:232|115:232|137:173,1,99.0000030212403,6|0,0:2|0:0,0:0:0:0:
296,354,207940,2,0,B|302:318|302:318|279:259,1,99.0000030212403,10|0,0:2|0:0,0:0:0:0:
250,186,208187,1,0,0:0:0:0:
250,186,208269,1,2,0:2:0:0:
399,225,208434,5,0,0:0:0:0:
399,225,208517,1,0,0:0:0:0:
399,225,208599,2,0,P|413:206|423:183,1,49.5000015106202,10|0,0:2|0:0,0:0:0:0:
302,119,208764,2,0,B|281:100|281:100|259:94,1,49.5000015106202
96,91,208929,6,0,B|130:87|155:98|155:98|176:88|176:88|179:52|212:26,1,148.50000453186,6|0,0:0|0:0,0:0:0:0:
288,0,209258,2,0,P|319:36|367:37,1,99.0000030212403,10|0,0:0|0:0,0:0:0:0:
445,69,209506,1,0,0:0:0:0:
445,69,209588,1,2,0:0:0:0:
250,186,209753,1,0,0:0:0:0:
250,186,209835,1,0,0:0:0:0:
250,186,209918,1,10,0:0:0:0:
223,275,210082,5,0,0:0:0:0:
223,275,210165,2,0,P|256:338|326:349,1,148.50000453186,8|0,0:0|0:0,0:0:0:0:
152,203,210577,1,10,0:2:0:0:
312,269,210742,1,0,0:0:0:0:
58,373,210907,1,2,0:2:0:0:
326,350,211071,5,0,0:0:0:0:
280,356,211154,1,0,0:0:0:0:
234,362,211236,1,10,0:2:0:0:
131,296,211401,1,0,0:0:0:0:
402,295,211566,6,0,B|410:262|410:262|388:200,1,99.0000030212403,6|0,0:0|0:0,0:0:0:0:
440,62,211896,2,0,P|405:96|357:103,1,99.0000030212403,10|0,0:0|0:0,0:0:0:0:
282,83,212143,1,0,0:0:0:0:
282,83,212225,1,2,0:0:0:0:
232,232,212390,1,0,0:0:0:0:
232,232,212473,1,0,0:0:0:0:
232,232,212555,2,0,P|209:224|186:216,1,49.5000015106202,10|0,0:0|0:0,0:0:0:0:
143,45,212720,2,0,P|121:53|96:54,1,49.5000015106202,6|0,0:2|0:0,0:0:0:0:
42,178,212885,6,0,B|83:183|117:162|117:162|123:162|123:162|100:190|102:232,1,148.50000453186,6|0,0:2|0:0,0:0:0:0:
86,324,213214,2,0,B|178:297|144:351|250:324,1,148.50000453186,2|0,0:2|0:0,0:0:0:0:
318,252,213544,2,0,P|356:281|405:283,1,99.0000030212403,2|0,0:2|0:0,0:0:0:0:
469,234,213791,1,0,0:0:0:0:
469,234,213874,1,8,0:0:0:0:
231,328,214039,1,0,0:0:0:0:
383,203,214203,6,0,P|399:133|349:81,1,148.50000453186,6|0,0:2|0:0,0:0:0:0:
278,100,214533,2,0,B|230:124|230:124|185:114,1,99.0000030212403,8|0,0:0|0:0,0:0:0:0:
47,60,214863,1,2,0:2:0:0:
271,226,215028,1,0,0:0:0:0:
271,226,215110,1,0,0:0:0:0:
271,226,215192,1,8,0:0:0:0:
130,265,215357,1,4,0:2:0:0:
130,265,215440,2,0,B|220:277|184:308|264:322,1,148.50000453186,8|0,0:0|0:0,0:0:0:0:
264,322,216181,5,0,0:0:0:0:
249,278,216264,1,0,0:0:0:0:
255,230,216346,1,0,0:0:0:0:
286,193,216429,1,0,0:0:0:0:
303,238,216511,5,0,0:0:0:0:
350,260,216593,1,0,0:0:0:0:
397,237,216676,1,0,0:0:0:0:
411,183,216758,1,0,0:0:0:0:
393,131,216841,6,0,B|342:118|319:74|319:74|310:70|310:70|353:133|340:181|302:233,1,270,6|0,0:0|0:0,0:0:0:0:
194,333,218159,2,0,B|220:255|174:198|119:201|119:201|93:254|124:296,1,270,2|0,0:0|0:0,0:0:0:0:
393,130,219478,6,0,P|322:189|322:280,1,188.999994232178,2|0,0:0|0:0,0:0:0:0:
280,351,220797,2,0,L|249:342,1,31.4999990386963
323,280,221126,2,0,L|307:252,1,31.4999990386963
403,262,221456,2,0,L|412:218,1,45
486,281,221786,2,0,L|512:244,1,45
280,351,222115,6,0,B|251:318|214:290|214:290|213:245|201:201,1,180,2|0,0:0|0:0,0:0:0:0:
112,200,222940,2,0,P|121:156|152:124,1,90
196,22,223434,2,0,P|263:75|346:51,1,180,2|0,0:0|0:0,0:0:0:0:
403,204,224423,5,0,0:0:0:0:
403,204,224753,2,0,B|405:232|419:259|419:259|409:291|391:320|391:320|394:347|407:373,1,180,2|0,0:0|0:0,0:0:0:0:
215,286,225742,6,0,B|172:268|140:279|140:279|129:293|114:305|92:311|63:309,1,157.5
69,309,226401,2,0,L|61:264,1,45
121,190,226731,2,0,L|128:145,1,45
221,111,227060,2,0,L|243:71,1,45
342,45,227390,6,0,B|381:61|408:45|428:13|428:13|439:10|439:10|396:73|402:124|457:148,1,270,2|0,0:0|0:0,0:0:0:0:
355,267,228709,2,0,B|463:284|389:418|510:375|531:281|466:333|416:314|427:260,1,247.5,2|0,0:0|0:0,0:0:0:0:
297,356,230028,6,0,P|209:355|124:320,1,161.999995056153,2|0,0:0|0:0,0:0:0:0:
173,93,231017,2,0,P|85:94|0:129,1,161.999995056153
199,175,232006,2,0,P|243:170|243:105,1,107.999996704102,2|0,0:0|0:0,0:0:0:0:
350,24,232665,6,0,L|178:40,1,161.999995056153,2|0,0:0|0:0,0:0:0:0:
162,360,233654,2,0,L|334:344,1,161.999995056153
445,73,234643,5,0,0:0:0:0:
453,297,234973,1,0,0:0:0:0:
256,192,235302,2,0,L|264:66,1,126
263,66,237940,6,2,B|203:77|203:77|149:40,1,116.999994644165,6|0,0:0|0:0,0:1:0:0:
95,8,238187,1,0,0:0:0:0:
95,8,238269,1,8,0:0:0:0:
184,156,238434,1,2,0:0:0:0:
184,156,238517,2,0,B|197:250|160:216|166:315,1,161.999995056153,8|0,0:0|0:0,0:0:0:0:
384,362,238929,1,8,0:0:0:0:
493,382,239093,1,0,0:0:0:0:
333,152,239258,6,2,B|388:125|388:125|447:142,1,116.999994644165,6|0,0:0|0:0,0:1:0:0:
512,179,239506,1,0,0:0:0:0:
512,179,239588,1,8,0:0:0:0:
374,278,239753,2,0,B|322:283|322:283|308:277|308:277|289:280|289:280|218:250,1,161.999995056153,2|0,0:2|0:0,0:0:0:0:
161,206,240082,2,0,B|108:197|108:197|144:237,1,107.999996704102,2|8,0:1|0:0,0:0:0:0:
333,152,240412,5,4,0:2:0:0:
326,125,240495,1,0,0:0:0:0:
323,98,240577,1,2,0:0:0:0:
137,36,240742,2,0,B|206:51|206:51|217:1,1,107.999996704102,0|8,0:0|0:0,0:0:0:0:
72,151,241071,1,2,0:2:0:0:
46,160,241154,1,0,0:0:0:0:
21,172,241236,1,2,0:1:0:0:
137,36,241401,1,0,0:0:0:0:
144,237,241566,1,8,0:0:0:0:
362,135,241731,6,0,B|353:170|353:170|364:211|364:211|381:226|381:226|392:271|392:271|375:311,1,175.499991966248,6|0,0:1|0:0,0:0:0:0:
342,365,242060,1,0,0:0:0:0:
276,211,242225,1,8,0:0:0:0:
444,165,242390,1,0,0:0:0:0:
338,20,242555,5,6,0:2:0:0:
312,54,242637,1,0,0:0:0:0:
271,70,242720,1,0,0:0:0:0:
228,63,242802,1,0,0:0:0:0:
180,121,242885,5,8,0:0:0:0:
161,94,242967,1,0,0:0:0:0:
130,83,243049,1,0,0:0:0:0:
97,88,243132,1,0,0:0:0:0:
33,47,243214,6,0,B|23:37|23:37|5:121|5:121|25:146|25:146|33:234|33:234|5:272,1,233.999989288331,6|8,0:0|0:0,0:1:0:0:
271,142,243709,2,0,B|242:129|221:132|221:132|165:168|165:168|141:171|110:158,1,161.999995056153
50,139,244039,1,2,0:0:0:0:
217,50,244203,1,8,0:0:0:0:
281,255,244368,5,0,0:0:0:0:
274,287,244451,1,0,0:0:0:0:
269,318,244533,1,6,0:0:0:0:
130,184,244698,1,0,0:0:0:0:
348,109,244863,1,8,0:0:0:0:
457,280,245028,6,2,B|502:350|502:350|489:367|489:367|463:328|463:328|485:286|485:286|461:241,1,233.999989288331,6|0,0:2|0:0,0:1:0:0:
348,109,245522,1,8,0:0:0:0:
463,13,245687,1,0,0:0:0:0:
316,187,245852,6,0,B|376:203|376:203|411:160,1,116.999994644165,6|0,0:0|0:0,0:0:0:0:
457,98,246099,1,0,0:0:0:0:
457,98,246181,1,8,0:0:0:0:
252,38,246346,6,2,B|195:54|169:9|169:9|151:3|151:3|149:18|149:18|200:63|157:137,1,251.999992309571,6|0,0:2|0:0,0:1:0:0:
84,289,246841,1,8,0:0:0:0:
2,338,247006,1,0,0:0:0:0:
227,384,247170,6,2,B|210:357|189:343|189:343|197:308|189:255,1,116.999994644165,6|0,0:1|0:0,0:1:0:0:
173,208,247418,1,0,0:0:0:0:
173,208,247500,1,0,0:0:0:0:
303,318,247665,2,2,B|429:354|429:354|463:304,1,188.999994232178,6|0,0:2|0:0,0:1:0:0:
506,247,247995,1,0,0:0:0:0:
318,153,248159,1,0,0:0:0:0:
389,0,248324,1,0,0:0:0:0:
173,208,248489,6,0,B|206:219|206:219|217:220|217:220|213:187|226:157|226:157|189:140|173:98,1,188.999994232178,6|0,0:0|0:0,0:0:0:0:
80,8,248819,2,0,P|120:26|162:16,1,90,8|0,0:0|0:2,0:0:0:0:
244,17,249066,1,0,0:0:0:0:
244,17,249148,1,0,0:0:0:0:
50,103,249313,1,2,0:0:0:0:
402,172,249478,2,0,B|355:173|355:173|317:152,1,90,8|2,0:0|0:0,0:0:0:0:
346,259,249808,6,0,P|358:301|355:346,1,90
286,383,250055,1,0,0:0:0:0:
286,383,250137,1,8,0:0:0:0:
129,284,250302,1,0,0:0:0:0:
129,284,250385,2,0,B|58:273|58:273|-5:293,1,135,8|2,0:0|0:2,0:0:0:0:
69,364,250797,1,8,0:0:0:0:
56,195,250962,1,0,0:2:0:0:
129,284,251126,6,2,B|167:250|169:198|158:165|158:165|165:142|165:142|171:146|171:146|216:248|328:197,2,306.000005836487,6|2|8,1:1|0:0|0:0,0:0:0:0:
204,339,251951,1,2,0:0:0:0:
278,301,252115,1,0,0:2:0:0:
352,263,252280,1,0,0:0:0:0:
432,137,252445,6,0,P|388:131|346:143,1,90,4|0,1:2|0:0,0:0:0:0:
445,307,252775,2,0,B|450:260|450:260|437:219,1,90,2|0,0:0|1:0,0:0:0:0:
257,133,253104,6,0,B|261:110|274:92|274:92|239:8,1,135,8|0,0:0|0:0,0:0:0:0:
104,0,253434,2,0,B|83:14|83:14|61:15,1,45,2|0,0:0|0:0,0:0:0:0:
0,151,253599,6,0,B|18:135|18:135|116:141|116:141|50:208,1,202.500007724762,4|0,0:2|0:0,0:0:0:0:
20,346,253929,1,8,3:0:0:0:
72,329,254011,1,8,3:0:0:0:
99,287,254093,1,4,3:0:0:0:
211,334,254258,5,0,1:0:0:0:
250,305,254341,1,0,1:0:0:0:
295,299,254423,5,8,3:0:0:0:
289,342,254506,1,8,3:0:0:0:
321,376,254588,1,0,1:0:0:0:
368,383,254670,1,0,1:0:0:0:
443,384,254753,5,0,1:0:0:0:
464,330,254835,1,0,1:0:0:0:
454,275,254918,1,0,1:0:0:0:
415,235,255000,1,0,1:0:0:0:
361,216,255082,5,6,0:2:0:0:
151,242,255247,1,0,0:2:0:0:
480,102,255412,1,0,0:2:0:0:
197,0,255577,5,6,0:2:0:0:
375,298,255907,5,6,0:2:0:0:
40,16,256236,6,0,B|53:36|53:36|87:119|53:209|21:252|21:252|22:272|22:272|39:255|39:255|43:163|102:137|142:141|142:141|171:121|183:84|183:84|141:75|125:43,1,607.500023174287,6|0,1:0|0:0,0:0:0:0:
256,192,257761,12,2,258915,0:0:0:0:
512,384,259863,6,0,L|511:377,1,5.625
203,273,260192,6,0,B|178:263|164:253|164:253|159:164|262:135|262:135|254:178|285:225,1,270.000010299683,6|0,0:0|0:0,0:1:0:0:
368,144,260687,2,0,P|389:108|380:44,1,99.0000030212403,8|0,0:1|0:0,0:0:0:0:
384,52,260934,1,0,0:0:0:0:
384,52,261017,1,2,0:2:0:0:
268,192,261181,1,0,0:0:0:0:
361,341,261346,1,8,0:0:0:0:
207,276,261511,5,6,0:2:0:0:
207,276,261593,2,0,P|146:300|70:240,1,161.999995056153,8|0,0:0|0:0,0:0:0:0:
268,192,262006,2,0,P|267:143|301:102,1,99.0000030212403,8|0,0:1|0:0,0:0:0:0:
392,59,262253,1,0,0:0:0:0:
392,59,262335,1,2,0:2:0:0:
422,252,262500,1,0,0:0:0:0:
422,252,262582,1,0,0:0:0:0:
422,252,262665,1,8,0:0:0:0:
268,192,262830,6,0,B|260:146|206:105|132:130|132:130|173:133|192:167,1,233.999989288331,6|0,0:0|0:0,0:0:0:0:
207,276,263324,1,8,0:0:0:0:
241,45,263489,1,0,0:0:0:0:
241,45,263571,1,0,0:0:0:0:
241,45,263654,2,0,P|206:6|138:8,1,99.0000030212403,2|0,0:2|0:0,0:0:0:0:
86,28,263901,1,0,0:0:0:0:
86,28,263984,1,8,0:0:0:0:
268,192,264148,6,0,B|309:175|348:179|348:179|390:157|390:157|433:157|472:133,1,215.999993408203,6|0,0:2|0:0,0:0:0:0:
345,52,264643,1,8,0:0:0:0:
412,282,264808,1,0,0:0:0:0:
412,282,264890,1,0,0:0:0:0:
412,282,264973,1,2,0:2:0:0:
473,132,265137,1,0,0:0:0:0:
268,192,265302,1,8,0:0:0:0:
188,182,265467,6,0,B|184:225|207:249|207:249|116:235|62:312,1,233.999989288331,6|0,0:0|0:0,0:0:0:0:
351,234,265962,2,0,P|303:194|254:194,1,99.0000030212403,8|0,0:0|0:0,0:0:0:0:
211,253,266209,1,0,0:0:0:0:
211,253,266291,1,2,0:2:0:0:
419,364,266456,1,0,0:0:0:0:
419,364,266539,1,0,0:0:0:0:
419,364,266621,1,8,0:0:0:0:
473,132,266786,6,0,B|437:50|493:4|493:4|511:41|472:88,1,215.999993408203,6|0,0:2|0:0,0:0:0:0:
268,192,267280,2,0,P|227:172|161:184,1,99.0000030212403,8|0,0:0|0:0,0:0:0:0:
323,84,267610,1,2,0:2:0:0:
206,29,267775,1,0,0:0:0:0:
206,29,267857,1,0,0:0:0:0:
206,29,267940,1,8,0:0:0:0:
211,253,268104,5,0,0:0:0:0:
211,253,268187,1,0,0:0:0:0:
211,253,268269,2,0,B|195:288|198:322|198:322|145:353|86:351|86:351|75:325|38:301,1,233.999989288331,6|8,0:0|0:0,0:0:0:0:
6,384,268764,1,0,0:0:0:0:
121,238,268929,2,0,P|129:214|133:190,1,49.5000015106202,2|0,0:2|0:0,0:0:0:0:
199,145,269093,2,0,P|200:120|198:95,1,49.5000015106202
58,316,269258,5,8,0:0:0:0:
211,253,269423,2,0,B|240:262|266:282|266:282|213:226|198:137,1,215.999993408203,6|0,0:2|1:0,0:0:0:0:
195,72,269835,1,0,1:1:0:0:
195,72,269918,1,8,1:1:0:0:
267,282,270082,5,8,3:3:0:0:
273,267,270165,1,8,3:3:0:0:
279,253,270247,1,4,3:3:0:0:
295,284,270330,1,4,3:3:0:0:
331,297,270412,1,0,1:1:0:0:
372,292,270495,1,0,1:1:0:0:
402,266,270577,1,8,1:1:0:0:
388,42,270742,6,0,B|372:32|372:32|457:25|457:25|469:32|469:32|425:67|429:120|470:140,1,243.000000926971,6|0,0:0|0:0,0:0:0:0:
426,354,271236,2,0,B|473:372|473:372|497:308,1,99.0000030212403,8|0,0:1|0:0,0:0:0:0:
429,281,271484,1,0,0:0:0:0:
429,281,271566,1,2,0:2:0:0:
256,352,271731,1,0,0:0:0:0:
280,143,271896,1,8,0:0:0:0:
241,234,272060,6,0,B|239:265|239:265|314:287|314:287|366:235|366:235|353:205,1,215.999993408203,6|0,0:2|0:0,0:1:0:0:
219,46,272555,2,0,B|261:23|261:23|330:40,1,99.0000030212403,8|0,0:0|0:0,0:0:0:0:
166,165,272885,1,2,0:2:0:0:
26,124,273049,1,0,0:0:0:0:
21,94,273132,1,0,0:0:0:0:
16,64,273214,1,8,0:0:0:0:
173,172,273379,5,6,0:1:0:0:
173,172,273462,2,0,B|166:197|166:197|122:196|86:264|86:264|101:280|100:307,1,182.250000695229,8|0,0:0|0:0,0:0:0:0:
0,231,273874,1,8,0:0:0:0:
191,348,274039,5,0,0:2:0:0:
191,348,274121,1,0,0:0:0:0:
191,348,274203,2,0,P|233:348|292:317,1,99.0000030212403,2|0,0:2|0:0,0:0:0:0:
299,332,274451,1,0,0:0:0:0:
320,339,274533,2,0,P|330:314|328:279,1,49.5000015106202,8|0,0:0|0:0,0:0:0:0:
426,170,274698,6,0,B|354:128|411:36|460:47|460:47|476:65|525:71,1,215.999993408203,6|0,0:2|0:0,0:0:0:0:
313,156,275192,1,8,0:0:0:0:
424,287,275357,1,0,0:0:0:0:
424,287,275440,1,0,0:0:0:0:
424,287,275522,2,0,P|456:284|474:271,1,49.5000015106202,10|0,0:0|0:0,0:0:0:0:
319,375,275687,2,0,P|294:364|252:364,1,49.5000015106202,8|0,0:0|0:0,0:0:0:0:
111,113,276017,6,0,B|59:105|53:47|53:47|43:45|43:45|62:74|68:90|60:145|-3:161,1,233.999989288331,6|0,0:1|0:0,0:0:0:0:
237,273,276511,2,0,P|192:252|143:245,1,99.0000030212403,8|0,0:0|0:0,0:0:0:0:
101,188,276758,1,0,0:0:0:0:
101,188,276841,1,2,0:2:0:0:
160,374,277006,1,0,0:0:0:0:
355,326,277170,1,8,0:0:0:0:
454,384,277335,6,0,B|473:359|473:359|458:296|458:296|443:278|443:278|425:216|425:216|452:183,1,215.999993408203,6|0,0:2|0:0,0:0:0:0:
310,83,277830,2,0,B|329:87|329:87|366:40|366:40|392:49,1,99.0000030212403,8|0,0:0|0:0,0:0:0:0:
460,18,278077,1,0,0:0:0:0:
460,18,278159,1,2,0:2:0:0:
445,191,278324,1,0,0:0:0:0:
323,315,278489,1,8,0:0:0:0:
237,189,278654,6,0,B|248:129|197:90|197:90|178:47|230:4|230:4|254:50,1,233.999989288331,6|0,0:2|0:0,0:0:0:0:
244,36,279066,1,0,0:0:0:0:
243,50,279148,2,0,P|221:66|194:69,1,49.5000015106202,8|0,0:2|0:0,0:0:0:0:
128,127,279313,2,0,P|107:116|76:111,1,49.5000015106202,8|8,3:3|3:3,0:0:0:0:
7,167,279478,5,0,1:0:0:0:
5,185,279560,1,0,1:0:0:0:
4,204,279643,1,0,1:0:0:0:
4,222,279725,1,0,1:0:0:0:
6,241,279808,1,0,1:0:0:0:
8,259,279890,1,0,1:0:0:0:
11,277,279973,1,0,1:0:0:0:
15,295,280055,1,0,1:0:0:0:
71,353,280137,5,12,0:2:0:0:
91,339,280220,1,0,0:2:0:0:
115,334,280302,1,0,0:2:0:0:
140,336,280385,1,0,0:2:0:0:
211,300,280467,5,8,0:3:0:0:
219,326,280549,1,8,0:3:0:0:
222,288,280632,5,4,0:3:0:0:
230,314,280714,1,4,0:3:0:0:
295,274,280797,5,10,0:2:0:0:
330,298,280879,1,0,0:2:0:0:
376,305,280962,1,0,0:2:0:0:
416,287,281044,1,0,0:2:0:0:
501,314,281126,5,4,0:3:0:0:
494,300,281209,1,4,0:3:0:0:
489,286,281291,1,4,0:3:0:0:
486,271,281374,1,4,0:3:0:0:
486,259,281456,6,0,B|474:226|435:214|435:214|428:171|428:171|452:126|452:126|420:6|420:6|346:54|346:54|372:130,1,440.999986541748,6|0,0:0|0:1,0:0:0:0:
366,113,282775,6,0,B|381:159|381:159|324:202|324:202|290:123|290:123|229:172|229:172|269:270,1,377.999988464356,6|0,1:2|0:0,0:0:0:0:
264,258,283929,6,0,B|272:283|272:283|194:345|194:345|169:232|169:232|50:253|50:253|107:327,1,440.999986541748,6|0,1:2|0:0,0:0:0:0:
188,375,285247,5,4,0:0:0:0:
231,183,285412,1,8,0:0:0:0:
158,120,285577,1,0,0:0:0:0:
129,133,285659,1,0,0:0:0:0:
98,134,285742,1,0,0:0:0:0:
68,123,285824,1,0,0:0:0:0:
45,102,285907,1,0,0:0:0:0:
177,11,286071,5,10,0:0:0:0:
256,96,286236,1,8,0:0:0:0:
335,11,286401,1,0,0:0:0:0:
467,102,286566,5,0,1:0:0:0:
467,102,286648,1,0,1:0:0:0:
467,102,286731,2,0,B|509:135|509:135|496:206|496:206|450:267|450:267|454:325|454:325|385:373|385:373|374:269,1,440.999986541748,6|0,1:0|0:0,0:0:0:0:
375,277,288049,6,0,B|380:214|380:214|283:226|283:226|302:320|302:320|214:365|214:365|204:259,1,440.999986541748,6|0,1:2|0:0,0:0:0:0:
137,198,289368,5,0,0:0:0:0:
102,220,289451,1,0,0:0:0:0:
61,221,289533,1,0,0:0:0:0:
24,201,289615,1,0,0:0:0:0:
6,164,289698,5,8,3:0:0:0:
18,154,289780,1,8,3:0:0:0:
31,146,289863,1,8,3:0:0:0:
45,139,289945,1,8,3:0:0:0:
59,133,290028,5,4,3:3:0:0:
51,115,290110,1,4,3:3:0:0:
42,97,290192,1,4,3:3:0:0:
32,80,290275,1,4,3:3:0:0:
21,64,290357,5,0,0:0:0:0:
50,26,290440,1,0,0:0:0:0:
95,15,290522,1,0,0:0:0:0:
139,31,290604,1,0,0:0:0:0:
138,30,292006,6,0,P|175:80|165:140,1,125.999996154785,6|0,0:0|0:0,0:0:0:0:
218,67,292253,2,0,P|257:47|301:51,1,90,0|0,0:1|0:0,0:0:0:0:
369,92,292500,1,0,0:1:0:0:
298,276,292665,1,2,0:2:0:0:
284,201,292830,1,0,0:0:0:0:
359,187,292995,1,8,0:0:0:0:
373,262,293159,1,0,0:0:0:0:
285,358,293324,5,4,0:2:0:0:
285,358,293407,2,0,B|235:350|235:350|200:362|200:362|153:355,1,135,8|8,0:0|0:0,0:0:0:0:
69,341,293819,1,0,0:0:0:0:
166,140,293984,1,2,0:2:0:0:
199,219,294148,2,0,P|193:174|165:139,1,90,0|8,0:0|0:0,0:0:0:0:
153,355,294478,6,0,B|251:338|203:297|311:278,1,180,6|0,0:2|0:0,0:0:0:0:
397,287,294973,2,0,P|391:242|363:207,1,90,8|0,0:0|0:0,0:0:0:0:
290,176,295220,1,0,0:0:0:0:
290,176,295302,1,2,0:2:0:0:
473,74,295467,1,0,0:0:0:0:
391,42,295632,1,8,0:0:0:0:
359,121,295797,2,0,P|364:76|392:41,1,90,6|0,0:2|0:0,0:0:0:0:
311,278,296126,5,0,0:0:0:0:
290,175,296291,2,0,B|212:151|250:136|172:111,1,135,10|0,0:0|0:0,0:0:0:0:
99,148,296621,6,0,B|87:183|87:183|102:234,1,90,2|0,0:2|0:0,0:0:0:0:
85,277,296868,1,0,0:0:0:0:
43,308,296951,1,0,0:0:0:0:
45,262,297033,1,0,0:0:0:0:
89,237,297115,1,0,0:0:0:0:
135,243,297198,1,0,0:0:0:0:
190,290,297280,6,0,B|247:268|247:268|312:277,1,125.999996154785,6|0,0:0|0:0,0:0:0:0:
367,344,297528,2,0,P|391:307|395:262,1,90
375,191,297775,1,0,0:0:0:0:
173,111,297940,1,2,0:2:0:0:
102,120,298104,1,0,0:0:0:0:
31,128,298269,1,8,0:0:0:0:
290,175,298434,5,0,0:0:0:0:
290,175,298517,1,0,0:0:0:0:
290,175,298599,2,0,B|271:142|271:142|303:50,1,135,4|0,0:2|0:0,0:0:0:0:
382,35,298929,1,8,0:0:0:0:
512,88,299093,6,0,L|473:112,1,45
445,228,299258,2,0,B|430:259|394:260|394:260|406:246|413:230,1,90,2|0,0:2|0:0,0:0:0:0:
361,133,299588,1,8,0:0:0:0:
497,310,299753,1,0,0:0:0:0:
332,214,299918,6,0,P|299:184|257:171,1,90,4|0,0:2|0:0,0:0:0:0:
182,172,300165,1,0,0:0:0:0:
182,172,300247,1,8,0:0:0:0:
452,235,300412,1,0,0:0:0:0:
452,235,300495,1,0,0:0:0:0:
452,235,300577,1,2,0:2:0:0:
389,42,300742,1,0,0:0:0:0:
389,42,300824,1,0,0:0:0:0:
389,42,300907,1,8,0:2:0:0:
255,268,301071,5,0,0:0:0:0:
259,284,301154,1,0,0:0:0:0:
291,354,301236,5,6,0:2:0:0:
98,32,301484,5,8,0:2:0:0:
494,52,301731,5,8,0:2:0:0:
181,357,301896,5,8,3:3:0:0:
141,351,301978,1,8,3:3:0:0:
102,345,302060,1,8,3:3:0:0:
63,340,302143,1,8,3:3:0:0:
106,364,302225,5,4,3:3:0:0:
157,363,302308,1,4,3:3:0:0:
195,330,302390,1,4,3:3:0:0:
201,282,302473,1,4,3:3:0:0:
171,244,302555,6,0,B|141:212|102:200|102:200|124:201|145:192,1,125.999996154785,6|0,0:0|0:0,0:0:0:0:
231,169,302802,2,0,P|253:130|292:109,1,90
367,103,303049,1,0,0:0:0:0:
144,193,303214,2,0,B|138:162|138:162|137:143|137:143|129:104,1,90,2|0,0:2|0:0,0:0:0:0:
317,190,303544,1,8,0:0:0:0:
228,345,303709,1,0,0:0:0:0:
228,345,303791,1,0,0:0:0:0:
228,345,303874,2,0,B|311:353|265:372|356:382,1,135,4|0,0:2|0:0,0:0:0:0:
444,370,304203,6,0,B|424:333|424:333|440:241,1,135,8|0,0:0|0:0,0:0:0:0:
453,167,304533,1,2,0:2:0:0:
317,190,304698,2,0,P|279:214|235:221,1,90,0|8,0:0|0:0,0:0:0:0:
495,80,305028,2,0,B|455:79|426:65|426:65|377:75|377:75|351:62|319:63,1,180,6|0,0:2|0:0,0:0:0:0:
280,85,305440,5,0,0:0:0:0:
237,96,305522,1,8,0:0:0:0:
195,85,305604,1,0,0:0:0:0:
162,52,305687,1,0,0:0:0:0:
119,33,305769,1,0,0:0:0:0:
70,32,305852,5,0,0:0:0:0:
0,253,306017,1,8,0:0:0:0:
235,221,306181,1,8,0:0:0:0:
55,127,306346,6,0,B|28:168|28:168|93:202|113:266,1,180,6|0,0:2|0:0,0:0:0:0:
21,377,306841,2,0,B|13:333|13:333|20:288,1,90,8|0,0:0|0:0,0:0:0:0:
209,332,307170,6,0,P|266:367|330:353,1,135,2|0,0:2|0:0,0:0:0:0:
412,379,307500,1,0,0:0:0:0:
448,353,307582,1,0,0:0:0:0:
461,310,307665,1,6,0:0:0:0:
297,80,307995,5,0,0:0:0:0:
267,3,308159,1,8,0:0:0:0:
429,113,308324,1,0,0:0:0:0:
429,113,308407,1,0,0:0:0:0:
429,113,308489,2,0,B|472:78|542:87|542:87|496:101|490:148,1,180,2|8,0:2|0:0,0:0:0:0:
169,232,308984,6,0,P|163:143|211:69,1,180,6|0,0:2|0:0,0:0:0:0:
373,197,309478,2,0,P|342:185|285:176,1,90,8|0,0:0|0:0,0:0:0:0:
286,176,309725,1,0,0:0:0:0:
286,176,309808,1,2,0:2:0:0:
73,317,309973,1,8,0:0:0:0:
44,191,310137,1,8,0:0:0:0:
169,232,310302,6,0,B|263:277|212:308|307:347,1,180,6|0,0:0|0:0,0:0:0:0:
391,384,310797,2,0,P|399:340|384:297,1,90,8|0,0:0|0:0,0:0:0:0:
431,113,311126,2,0,B|422:162|422:162|438:199,1,90,4|0,0:2|0:0,0:0:0:0:
512,237,311374,1,0,0:0:0:0:
512,237,311456,1,8,0:0:0:0:
332,156,311621,6,0,B|304:155|276:147|276:147|241:162|214:168|214:168|190:161|157:157,1,180,6|0,0:1|0:0,0:0:0:0:
331,66,312115,1,8,0:0:0:0:
256,262,312280,1,0,0:0:0:0:
157,157,312445,1,2,0:2:0:0:
115,136,312528,1,0,0:0:0:0:
68,127,312610,1,0,0:0:0:0:
21,132,312692,5,0,0:0:0:0:
31,143,312775,1,0,0:0:0:0:
41,152,312857,1,0,0:0:0:0:
101,209,312940,6,0,B|104:123|167:57|272:82|272:82|264:144|203:164,1,360,6|0,0:0|0:0,0:0:0:0:
105,112,314423,5,10,0:2:0:0:
84,90,314506,1,0,0:0:0:0:
55,87,314588,1,0,0:0:0:0:
27,95,314670,1,0,0:0:0:0:
9,118,314753,5,8,0:3:0:0:
12,126,314835,1,8,0:3:0:0:
15,134,314918,1,8,0:3:0:0:
18,142,315000,1,8,0:3:0:0:
74,195,315082,5,4,0:3:0:0:
72,203,315165,1,4,0:3:0:0:
19,265,315247,5,8,1:0:0:0:
45,252,315330,1,0,1:0:0:0:
74,252,315412,1,0,1:0:0:0:
98,267,315495,1,0,1:0:0:0:
109,293,315577,1,0,1:0:0:0:
133,308,315659,1,0,1:0:0:0:
161,304,315742,6,0,P|189:269|179:198,1,107.999996704102,6|8,0:0|0:0,0:0:0:0:
139,115,316071,1,0,0:0:0:0:
243,355,316236,1,4,0:2:0:0:
450,300,316401,1,8,3:0:0:0:
423,273,316484,1,8,3:0:0:0:
410,242,316566,1,4,3:0:0:0:
412,215,316648,1,4,3:0:0:0:
422,200,316731,6,0,B|470:185|469:122|469:122|392:100|409:16,1,233.999989288331,6|0,0:1|0:0,0:0:0:0:
408,18,317143,1,0,0:0:0:0:
408,18,317225,1,2,0:2:0:0:
294,134,317390,1,8,3:3:0:0:
247,158,317473,1,8,3:3:0:0:
200,152,317555,1,4,3:3:0:0:
165,130,317637,1,4,3:3:0:0:
152,100,317720,6,0,B|122:53|72:67|72:67|60:89|27:112,1,125.999996154785,6|0,0:2|0:0,0:0:0:0:
360,284,318049,2,0,B|390:331|440:317|440:317|452:295|485:272,1,125.999996154785,6|0,0:2|0:0,0:0:0:0:
233,383,318379,1,8,0:0:0:0:
240,334,318462,1,0,0:0:0:0:
246,289,318544,1,0,0:0:0:0:
250,245,318626,1,0,0:0:0:0:
254,198,318709,6,0,B|247:168|247:168|253:147|253:147|242:88,1,90,6|8,0:1|0:3,0:0:0:0:
225,38,318956,1,8,0:3:0:0:
225,38,319039,1,8,0:3:0:0:
56,7,319203,5,8,3:3:0:0:
49,28,319286,1,8,3:3:0:0:
15,57,319368,5,0,1:0:0:0:
50,57,319451,1,0,1:0:0:0:
86,54,319533,1,0,1:0:0:0:
121,53,319615,1,0,1:0:0:0:
181,105,319698,5,4,3:0:0:0:
181,105,319780,1,4,3:0:0:0:
133,160,319863,5,4,3:0:0:0:
133,160,319945,1,4,3:0:0:0:
197,205,320028,5,0,1:3:0:0:
214,200,320110,1,0,1:3:0:0:
223,271,320192,5,8,3:3:0:0:
238,279,320275,1,8,3:3:0:0:
183,338,320357,5,4,3:3:0:0:
183,355,320440,1,4,3:3:0:0:
106,346,320522,5,8,3:3:0:0:
98,362,320604,1,8,3:3:0:0:
33,320,320687,5,0,1:0:0:0:
33,320,320769,1,0,1:0:0:0:
33,320,320852,1,0,1:0:0:0:
33,320,320934,1,0,1:0:0:0:
33,320,321017,2,0,B|111:350|111:350|263:227|263:227|428:299|428:299|369:359|369:359|110:246|110:246|326:61|326:61|254:23|254:23|165:98|165:98|464:229|464:229|516:172|516:172|376:108,1,1861.19997160034,6|0,1:1|0:0,2:2:0:0:
