osu file format v14

[General]
AudioFilename: audio.mp3
AudioLeadIn: 0
PreviewTime: 81491
Countdown: 0
SampleSet: Normal
StackLeniency: 0.5
Mode: 0
LetterboxInBreaks: 0
WidescreenStoryboard: 1

[Editor]
Bookmarks: 5208,48710,48875,81512,81841,114644,114973,153214,177115,177445,195577,216841,217006,217170,217335,217500,217665,217830,217995,218159,218324,218489,218654,218819,218984,219148,219313,219478,219643,219808,219973,220137,220302,220467,220632,220797,220962,221126,221291,221456,221621,221786,221951,222115,222280,222445,222610,222775,222940,223104,223269,223434,223599,223764,223929,224093,224258,224423,224588,224753,224918,225082,225247,225412,225577,225742,225907,226071,226236,226401,226566,226731,226896,227060,227225,227390,227555,227720,227885,228049,228214,228379,228544,228709,228874,229039,229203,229368,229533,229698,229863,230028,230192,230357,230522,230687,230852,231017,231181,231346,231511,231676,231841,232006,232170,232335,232500,232665,232830,232995,233159,233324,233489,233654,233819,233984,234148,234313,234478,234643,234808,234973,235137,235302,235467,235632,235797,235962,236126,236291,236456,236621,237940,238269,270742,297280,297610
DistanceSpacing: 2
BeatDivisor: 4
GridSize: 16
TimelineZoom: 1.5

[Metadata]
Title:Kakusei -Fractional Vision-
TitleUnicode:覚醒-Fractional Vision-
Artist:Ayane
ArtistUnicode:彩音
Creator:Lasse
Version:Collab Expert
Source:SINCLIENT
Tags:tatsh japanese rock visual novel eroge hishiro chizuru amb1d3x some hero heroine
BeatmapID:3698763
BeatmapSetID:1802588

[Difficulty]
HPDrainRate:5
CircleSize:4
OverallDifficulty:8.4
ApproachRate:9.2
SliderMultiplier:1.7
SliderTickRate:1

[Events]
//Background and Video events
0,0,"imustdecrease.jpg",0,0
//Break Periods
2,217041,237370
//Storyboard Layer 0 (Background)
//Storyboard Layer 1 (Fail)
//Storyboard Layer 2 (Pass)
//Storyboard Layer 3 (Foreground)
//Storyboard Layer 4 (Overlay)
//Storyboard Sound Samples

[TimingPoints]
5208,624.02496099844,4,2,51,40,1,0
5208,-125,4,2,51,40,0,0
21432,613.496932515337,4,2,51,40,1,0
22658,634.920634920635,4,2,51,40,1,0
25197,437.956204379562,4,2,51,5,1,0
25634,329.67032967033,4,1,51,60,1,0
25634,-100,4,1,51,60,0,0
25798,-100,4,2,51,60,0,0
27776,-100,4,1,51,60,0,0
28436,-100,4,2,51,60,0,0
30084,-100,4,1,51,60,0,0
31238,-100,4,2,51,60,0,0
33051,-100,4,1,51,60,0,0
33710,-100,4,2,51,60,0,0
34699,-100,4,1,51,60,0,0
36183,-100,4,1,51,70,0,0
46073,329.67032967033,4,1,51,70,1,0
46237,-100,4,2,51,70,0,0
47226,-100,4,1,51,70,0,0
48710,329.67032967033,4,1,51,70,1,0
48710,-100,4,1,51,70,0,0
73764,-133.333333333333,4,2,51,60,0,0
76237,-100,4,1,51,70,0,0
78874,-153.846153846154,4,1,51,70,0,0
79039,-153.846153846154,4,2,51,5,0,0
80193,-153.846153846154,4,2,51,30,0,0
81512,-90.9090909090909,4,1,51,75,0,1
102775,-100,4,1,51,70,0,0
123710,-200,4,1,51,70,0,0
123874,-200,4,2,51,5,0,0
125028,-200,4,2,51,50,0,0
125193,-100,4,1,51,60,0,0
126512,-100,4,1,51,70,0,0
136402,329.67032967033,4,1,51,70,1,0
136566,-100,4,2,51,70,0,0
137555,-100,4,1,51,70,0,0
139039,329.67032967033,4,1,51,60,1,0
139368,-100,4,1,51,55,0,0
149588,-100,4,1,51,60,0,0
153214,-100,4,1,51,50,0,0
153379,-100,4,1,51,60,0,0
156181,-100,4,1,51,70,0,0
169368,-125,4,2,51,60,0,0
171841,-125,4,1,51,70,0,0
174478,-166.666666666667,4,1,51,70,0,0
174643,-166.666666666667,4,2,51,5,0,0
175797,-166.666666666667,4,2,51,30,0,0
177115,-90.9090909090909,4,1,51,75,0,1
195577,-100,4,1,51,70,0,0
207610,-100,4,1,51,60,0,0
208929,-100,4,1,51,70,0,0
210247,-100,4,1,51,60,0,0
211566,-100,4,1,51,70,0,0
212885,-100,4,1,51,60,0,0
214203,-100,4,1,51,70,0,0
215522,-133.333333333333,4,1,51,60,0,0
215604,-133.333333333333,4,2,51,40,0,0
216181,-133.333333333333,4,1,51,65,0,0
216841,-133.333333333333,4,1,51,60,0,0
236951,-133.333333333333,4,1,51,60,0,0
237940,-83.3333333333333,4,1,51,75,0,0
248489,-90.9090909090909,4,1,51,75,0,0
251126,-133.333333333333,4,2,51,60,0,0
253599,-83.3333333333333,4,1,51,70,0,0
255082,-76.9230769230769,4,1,51,75,0,0
255824,-76.9230769230769,4,1,51,35,0,0
255907,-76.9230769230769,4,1,51,75,0,0
256154,-76.9230769230769,4,1,51,35,0,0
256236,-840.336134453781,4,1,51,70,0,0
256401,-840.336134453781,4,2,51,5,0,0
258915,-500.000000000003,4,2,51,40,0,0
260192,-83.3333333333333,4,1,51,75,0,1
281456,-100,4,1,51,70,0,0
281539,-100,4,2,51,50,0,0
282775,-100,4,2,51,60,0,0
282857,-100,4,2,51,30,0,0
283929,-100,4,2,51,60,0,0
284011,-100,4,2,51,30,0,0
285247,-100,4,1,51,65,0,0
286731,-100,4,2,51,60,0,0
286813,-100,4,2,51,50,0,0
288049,-100,4,2,51,60,0,0
288131,-100,4,2,51,30,0,0
289368,-100,4,1,51,65,0,0
292006,-100,4,1,51,70,0,0
312940,-200,4,1,51,70,0,0
313104,-200,4,2,51,5,0,0
314258,-200,4,2,51,50,0,0
314423,-200,4,1,51,60,0,0
315742,329.67032967033,3,1,51,75,1,0
315742,-76.9230769230769,3,1,51,75,0,0
316731,-71.4285714285714,3,1,51,75,0,0
317720,-66.6666666666667,3,1,51,75,0,0
318709,329.67032967033,7,1,51,75,1,0
321016,329.67032967033,4,1,51,60,1,0
321016,-200,4,1,51,60,0,0
321098,-200,4,2,99,40,0,0
322334,-200,4,2,99,30,0,0
323653,-200,4,2,99,20,0,0
324972,-200,4,2,99,10,0,0
328268,-100,4,2,99,20,0,0

[Colours]
Combo1 : 240,140,140
Combo2 : 200,180,220
Combo3 : 240,200,155
Combo4 : 150,185,220

[HitObjects]
143,18,5208,6,0,B|202:11|209:64|266:65,2,136,2|0|0,0:0|0:0|0:0,0:0:0:0:
88,84,6768,2,0,B|107:114|107:114|92:142,1,68
11,127,7392,1,0,0:0:0:0:
15,258,7704,6,0,B|46:220|46:220|141:232,2,136,2|0|0,0:0|0:0|0:0,0:0:0:0:
91,376,9264,2,0,L|82:308,1,68
173,335,9888,1,0,0:0:0:0:
1,359,10200,5,2,0:0:0:0:
1,359,11136,1,0,0:0:0:0:
83,307,11448,2,0,L|241:326,1,136
294,262,12384,1,0,0:0:0:0:
365,377,12696,5,2,0:0:0:0:
365,377,15192,6,0,B|404:339|346:287|406:238,2,136,2|0|0,0:0|0:0|0:0,0:0:0:0:
454,300,16752,2,0,P|479:322|512:327,1,68
463,222,17376,1,0,0:0:0:0:
297,289,17688,6,0,P|214:301|183:144,1,272,2|0,0:0|0:0,0:0:0:0:
176,149,19560,2,0,P|207:158|224:187,1,68
106,309,20184,5,2,0:0:0:0:
81,298,21432,5,2,0:0:0:0:
75,266,22658,5,2,0:0:0:0:
256,192,22816,12,0,25197,0:0:0:0:
296,187,25634,6,0,P|253:190|217:157,1,85,6|0,0:0|0:0,0:0:0:0:
396,150,25963,1,0,0:0:0:0:
418,152,26128,1,0,0:0:0:0:
408,139,26293,1,0,0:0:0:0:
405,162,26458,1,0,0:0:0:0:
408,139,26623,1,0,0:0:0:0:
418,152,26787,1,0,0:0:0:0:
396,150,26952,1,0,0:0:0:0:
418,152,27117,1,0,0:0:0:0:
408,139,27282,1,0,0:0:0:0:
405,162,27447,1,0,0:0:0:0:
408,139,27612,1,0,0:0:0:0:
482,223,27776,5,2,0:2:0:0:
388,343,27941,5,0,0:0:0:0:
239,304,28106,5,0,0:0:0:0:
65,201,28271,6,0,P|13:246|17:291,1,85,4|0,0:1|0:0,0:0:0:0:
178,204,28601,1,0,0:0:0:0:
200,202,28765,1,0,0:0:0:0:
190,215,28930,1,0,0:0:0:0:
187,192,29095,1,0,0:0:0:0:
190,215,29260,1,0,0:0:0:0:
200,202,29425,1,0,0:0:0:0:
178,204,29590,1,0,0:0:0:0:
200,202,29754,1,0,0:0:0:0:
190,215,29919,1,0,0:0:0:0:
99,123,30084,5,6,0:2:0:0:
262,12,30414,5,6,0:2:0:0:
440,60,30743,5,6,0:2:0:0:
394,243,30908,6,0,P|320:201|353:105,1,170,6|0,0:1|0:0,0:0:0:0:
466,207,31403,1,0,0:0:0:0:
466,207,31568,2,0,P|435:235|393:243,1,85
371,338,31897,2,0,P|331:325|304:292,1,85
210,333,32227,2,0,P|201:291|215:252,1,85
328,125,32557,5,0,3:0:0:0:
328,125,32639,1,0,3:0:0:0:
328,125,32721,1,0,3:0:0:0:
328,125,32804,1,0,3:0:0:0:
328,125,32886,1,0,3:0:0:0:
411,170,33051,5,2,0:2:0:0:
194,252,33216,1,2,0:2:0:0:
77,198,33381,1,2,0:2:0:0:
179,30,33546,6,0,L|192:134,1,85,6|0,0:0|3:0,0:0:0:0:
189,114,33793,1,0,3:0:0:0:
189,114,33875,1,0,3:0:0:0:
305,207,34040,1,0,3:0:0:0:
136,329,34205,1,0,3:0:0:0:
136,329,34287,1,0,3:0:0:0:
136,329,34370,1,0,3:0:0:0:
136,329,34452,1,0,3:0:0:0:
136,329,34535,1,0,3:0:0:0:
25,260,34699,5,2,0:2:0:0:
221,192,34864,2,0,L|304:206,1,85,10|2,0:0|0:2,0:0:0:0:
92,111,35194,1,2,0:2:0:0:
92,111,35276,1,0,0:0:0:0:
92,111,35359,1,0,0:2:0:0:
177,11,35524,1,8,3:0:0:0:
463,106,35688,1,8,3:0:0:0:
463,106,35771,1,8,3:0:0:0:
463,106,35853,1,4,3:0:0:0:
385,2,36018,1,4,3:0:0:0:
306,282,36183,6,0,L|397:268,1,85,4|0,0:0|0:0,0:0:0:0:
390,269,36430,1,0,0:0:0:0:
390,269,36513,1,8,0:0:0:0:
222,184,36677,2,0,L|191:361,1,170,2|0,0:2|0:0,0:0:0:0:
192,351,37090,1,0,0:0:0:0:
192,351,37172,1,8,0:0:0:0:
101,250,37337,1,0,0:0:0:0:
369,128,37502,5,2,0:2:0:0:
277,71,37666,1,0,0:0:0:0:
277,71,37749,1,0,0:0:0:0:
277,71,37831,1,8,0:0:0:0:
107,141,37996,1,2,0:2:0:0:
107,141,38079,2,0,P|38:124|37:60,1,127.5,8|0,0:0|0:0,0:0:0:0:
123,50,38491,1,8,0:0:0:0:
275,241,38655,5,0,0:0:0:0:
275,241,38738,1,0,0:0:0:0:
275,241,38820,2,0,L|376:225,1,85,4|0,0:2|0:0,0:0:0:0:
358,227,39068,1,0,0:0:0:0:
358,227,39150,1,0,0:0:0:0:
155,314,39315,2,0,L|189:147,1,170,2|0,0:2|0:0,0:0:0:0:
189,147,39809,1,8,0:0:0:0:
71,211,39974,1,0,0:0:0:0:
331,370,40139,5,4,0:2:0:0:
432,301,40304,1,0,0:0:0:0:
432,301,40386,1,0,0:0:0:0:
432,301,40469,1,8,0:0:0:0:
274,173,40634,1,2,0:2:0:0:
274,173,40716,2,0,L|246:297,1,127.5
351,242,41128,1,8,0:0:0:0:
146,354,41293,5,0,0:0:0:0:
146,354,41375,1,0,0:0:0:0:
146,354,41458,2,0,L|26:332,1,85,2|0,0:2|0:0,0:0:0:0:
62,338,41705,1,0,0:0:0:0:
62,338,41787,1,0,0:0:0:0:
42,185,41952,1,2,0:2:0:0:
42,185,42035,2,0,L|187:160,1,127.5,8|0,0:0|0:0,0:0:0:0:
112,259,42447,1,8,0:0:0:0:
384,308,42612,5,0,0:0:0:0:
384,308,42694,1,0,0:0:0:0:
384,308,42776,1,4,0:2:0:0:
460,214,42941,1,0,0:0:0:0:
404,110,43106,1,8,0:0:0:0:
404,110,43271,1,2,0:2:0:0:
252,183,43436,2,0,L|362:210,1,85
334,203,43683,1,0,0:0:0:0:
334,203,43765,1,8,0:0:0:0:
179,247,43930,1,0,0:0:0:0:
49,57,44095,6,0,L|165:39,1,85
132,43,44342,1,0,0:0:0:0:
132,43,44425,1,8,0:0:0:0:
252,183,44590,1,0,0:0:0:0:
167,343,44754,1,0,0:0:0:0:
70,243,44919,5,8,3:0:0:0:
93,245,45002,1,8,3:0:0:0:
116,248,45084,1,0,1:2:0:0:
139,251,45166,1,0,1:2:0:0:
162,254,45249,1,0,1:2:0:0:
186,257,45331,1,0,1:2:0:0:
209,260,45414,1,8,3:3:0:0:
232,262,45496,1,8,3:3:0:0:
255,265,45579,1,4,3:3:0:0:
279,268,45661,1,4,3:3:0:0:
302,270,45743,1,0,1:0:0:0:
325,273,45826,1,0,1:0:0:0:
348,276,45908,1,0,1:0:0:0:
371,279,45991,1,0,1:0:0:0:
395,282,46073,5,6,0:0:0:0:
463,207,46237,1,0,0:0:0:0:
412,118,46402,1,0,0:0:0:0:
315,152,46567,1,0,0:0:0:0:
259,66,46732,1,0,0:0:0:0:
157,59,46897,1,0,0:0:0:0:
66,12,47062,1,0,0:0:0:0:
40,323,47226,5,6,0:2:0:0:
220,234,47556,5,6,0:2:0:0:
371,360,47886,5,6,0:2:0:0:
508,181,48215,5,6,1:2:0:0:
486,179,48298,1,0,1:0:0:0:
465,177,48380,1,8,1:3:0:0:
444,175,48463,1,8,1:3:0:0:
423,173,48545,1,4,1:3:0:0:
401,171,48627,1,4,1:3:0:0:
380,169,48710,2,0,L|365:285,1,85,4|0,0:1|0:0,0:0:0:0:
241,120,49039,6,0,L|256:4,1,85,8|0,0:2|0:0,0:0:0:0:
251,35,49286,1,0,0:0:0:0:
251,35,49369,1,2,0:2:0:0:
74,100,49534,2,0,P|125:83|188:82,1,85,0|8,0:2|0:0,0:0:0:0:
191,203,49863,2,0,P|140:220|77:221,1,85,2|0,0:2|0:0,0:0:0:0:
25,190,50193,5,0,0:2:0:0:
25,190,50275,1,0,0:0:0:0:
25,190,50358,1,8,0:0:0:0:
80,322,50523,1,2,0:2:0:0:
80,322,50605,1,0,0:0:0:0:
80,322,50688,2,0,P|122:316|161:301,1,85,0|0,0:2|0:0,0:0:0:0:
264,376,51017,1,8,0:0:0:0:
402,215,51182,1,0,0:0:0:0:
402,215,51264,1,0,0:0:0:0:
402,215,51347,2,0,P|438:282|394:336,1,127.5
401,342,51677,5,8,0:1:0:0:
304,240,51841,1,0,0:0:0:0:
304,240,51924,1,0,0:0:0:0:
304,240,52006,2,0,B|205:226,2,85,2|0|8,0:2|0:0|0:0,0:0:0:0:
416,120,52501,6,0,B|515:106,1,85,2|0,0:2|0:0,0:0:0:0:
354,7,52830,1,0,0:0:0:0:
354,7,52913,1,0,0:0:0:0:
354,7,52995,1,8,0:0:0:0:
261,85,53160,1,2,0:2:0:0:
261,85,53242,2,0,B|200:105|200:105|130:66,1,127.5
135,198,53655,5,8,0:0:0:0:
94,184,53737,1,0,0:0:0:0:
52,190,53819,1,0,0:0:0:0:
23,222,53902,1,0,0:0:0:0:
13,263,53984,2,0,B|27:362,1,85,4|0,0:1|0:0,0:0:0:0:
213,375,54314,5,8,0:0:0:0:
242,278,54479,1,0,0:0:0:0:
242,278,54561,1,0,0:0:0:0:
242,278,54644,1,0,0:2:0:0:
419,352,54808,2,0,B|318:337,1,85,2|8,0:2|0:0,0:0:0:0:
337,143,55138,2,0,B|438:128,1,85
493,58,55468,5,2,0:2:0:0:
493,58,55550,1,0,0:0:0:0:
493,58,55633,1,8,0:0:0:0:
440,241,55797,1,0,0:0:0:0:
440,241,55880,2,0,B|339:226,1,85
334,247,56127,2,0,B|233:232,1,85,2|8,0:2|0:0,0:0:0:0:
163,195,56457,5,0,0:0:0:0:
125,369,56622,1,6,0:2:0:0:
71,108,56951,5,8,0:0:0:0:
33,282,57116,1,6,0:2:0:0:
256,192,57446,5,6,0:2:0:0:
479,102,57775,5,6,0:2:0:0:
256,191,58105,6,0,L|216:223,2,42.5,2|0|0,0:2|0:0|0:0,0:0:0:0:
256,191,58435,2,0,L|247:141,2,42.5,2|0|0,0:2|0:0|0:0,0:0:0:0:
256,191,58764,2,0,L|302:209,2,42.5,2|0|0,0:2|0:0|0:0,0:0:0:0:
154,152,59094,5,2,0:1:0:0:
154,152,59177,1,0,0:0:0:0:
154,152,59259,1,0,0:0:0:0:
340,123,59424,5,2,0:1:0:0:
340,123,59506,1,0,0:0:0:0:
340,123,59589,1,0,0:0:0:0:
273,299,59753,5,2,0:1:0:0:
273,299,59836,1,0,0:0:0:0:
273,299,59918,1,0,0:0:0:0:
393,248,60083,5,4,0:2:0:0:
235,43,60248,1,4,0:2:0:0:
137,281,60413,1,4,0:2:0:0:
255,192,60578,6,0,P|334:165|422:165,1,170,4|8,0:0|0:0,0:0:0:0:
282,369,61072,2,0,P|366:368|446:341,1,170,2|0,0:2|0:0,0:0:0:0:
212,283,61567,1,8,0:0:0:0:
115,300,61731,1,0,0:0:0:0:
88,161,61896,6,0,P|52:160|-2:181,1,85,4|0,0:2|0:0,0:0:0:0:
6,175,62144,1,0,0:0:0:0:
6,175,62226,1,8,0:0:0:0:
211,192,62391,1,2,0:2:0:0:
211,192,62473,2,0,L|216:93,1,85
292,121,62720,2,0,L|287:205,1,85,2|8,0:2|0:0,0:0:0:0:
389,330,63050,5,2,0:2:0:0:
389,330,63133,1,0,0:0:0:0:
389,330,63215,2,0,P|431:330|470:315,1,85,4|0,0:2|0:0,0:0:0:0:
396,94,63545,1,8,0:0:0:0:
510,162,63710,1,0,0:0:0:0:
410,251,63874,2,0,P|415:205|433:164,2,85,0|2|8,0:0|0:2|0:0,0:0:0:0:
274,355,64369,6,0,L|81:334,1,170,4|0,0:2|0:0,0:0:0:0:
18,231,64863,1,8,0:0:0:0:
129,153,65028,1,0,0:0:0:0:
215,258,65193,1,8,3:3:0:0:
246,261,65275,1,8,3:3:0:0:
278,264,65358,1,8,3:3:0:0:
310,268,65440,1,8,3:3:0:0:
341,271,65523,1,12,3:0:0:0:
373,275,65605,1,4,3:0:0:0:
405,278,65688,1,4,3:0:0:0:
436,282,65770,1,4,3:0:0:0:
468,285,65852,6,0,P|498:218|467:115,1,170,4|8,0:0|0:0,0:0:0:0:
307,17,66347,2,0,B|371:9|371:9|405:40|491:31,1,170,2|0,0:2|0:0,0:0:0:0:
366,194,66841,1,8,0:0:0:0:
255,171,67006,1,0,0:0:0:0:
78,128,67171,6,0,B|60:223,1,85,4|0,0:2|0:0,0:0:0:0:
62,211,67418,1,0,0:0:0:0:
62,211,67501,1,8,0:0:0:0:
224,258,67666,1,0,0:0:0:0:
137,384,67830,2,0,P|125:333|132:290,1,85,2|0,0:2|0:0,0:0:0:0:
332,275,68160,2,0,P|344:326|337:369,1,85,8|0,0:2|0:0,0:0:0:0:
223,174,68490,6,0,B|241:79,1,85,4|0,0:2|0:0,0:0:0:0:
238,90,68737,1,0,0:0:0:0:
238,90,68819,1,8,0:0:0:0:
383,182,68984,2,0,P|449:197|513:118,1,170,6|0,0:2|0:0,0:0:0:0:
378,80,69479,1,8,0:0:0:0:
475,0,69644,1,0,0:0:0:0:
296,213,69808,6,0,B|279:119,1,85,4|0,0:2|0:0,0:0:0:0:
280,129,70056,1,0,0:0:0:0:
280,129,70138,1,8,0:0:0:0:
114,268,70303,2,0,B|264:306,1,127.5,6|0,0:2|0:0,0:0:0:0:
257,305,70633,1,8,0:0:0:0:
126,379,70797,1,0,0:0:0:0:
31,213,70962,5,0,0:0:0:0:
31,213,71045,1,0,0:0:0:0:
31,213,71127,2,0,P|32:117|72:49,1,170,4|8,0:0|0:0,0:0:0:0:
191,157,71622,1,2,0:2:0:0:
191,157,71704,2,0,P|253:166|325:125,1,127.5
399,207,72116,1,8,0:0:0:0:
493,44,72281,5,0,0:0:0:0:
493,44,72363,1,0,0:0:0:0:
493,44,72446,2,0,B|409:64|409:64|307:0,1,170,2|8,0:2|0:0,0:0:0:0:
191,157,72940,1,2,0:2:0:0:
191,157,73023,2,0,P|248:131|310:139,1,127.5
149,50,73435,1,8,0:0:0:0:
266,13,73600,1,0,0:0:0:0:
237,217,73764,6,0,L|98:191,1,127.500004863739,4|0,1:2|0:0,0:0:0:0:
133,319,74259,1,0,1:0:0:0:
133,319,74341,1,0,1:0:0:0:
133,319,74424,2,0,L|-6:293,1,127.500004863739,8|0,0:0|0:0,0:0:0:0:
253,382,74918,5,0,0:0:0:0:
253,382,75083,2,0,L|245:240,1,127.500004863739,6|0,1:2|0:0,0:0:0:0:
394,342,75578,1,0,1:0:0:0:
394,342,75660,1,0,1:0:0:0:
394,342,75742,2,0,L|386:200,1,127.500004863739,8|0,0:0|1:0,0:0:0:0:
481,62,76237,6,0,B|443:104|443:104|376:112|336:67,1,170,4|8,0:2|3:0,0:0:0:0:
312,55,76649,1,8,3:0:0:0:
284,46,76731,1,4,3:0:0:0:
254,41,76814,1,4,3:0:0:0:
223,43,76896,1,0,1:0:0:0:
194,50,76979,1,0,1:0:0:0:
166,63,77061,1,8,3:0:0:0:
141,80,77144,1,8,3:0:0:0:
120,102,77226,1,0,1:0:0:0:
103,127,77308,1,0,1:0:0:0:
92,155,77391,1,0,1:0:0:0:
85,185,77473,1,0,1:0:0:0:
85,215,77556,1,0,1:0:0:0:
90,245,77638,1,0,1:0:0:0:
100,273,77720,5,6,0:2:0:0:
256,192,77885,1,0,0:2:0:0:
412,111,78050,1,0,0:2:0:0:
200,0,78215,5,6,0:2:0:0:
312,384,78545,5,6,0:2:0:0:
456,187,78874,6,0,B|385:113|235:131|272:251|140:273|50:206,1,441.999979766847,6|2,0:1|0:0,2:0:0:0:
256,192,80234,12,0,81347,0:0:0:0:
183,141,81512,6,0,P|95:130|51:207,1,187.000005706787,6|0,0:0|0:0,0:1:0:0:
185,286,82006,2,0,P|252:289|298:322,1,93.5000028533936,8|0,0:1|0:0,0:0:0:0:
274,301,82253,1,0,0:0:0:0:
274,301,82336,1,2,0:2:0:0:
213,376,82501,1,0,0:0:0:0:
135,212,82666,1,8,0:0:0:0:
320,96,82830,5,6,0:2:0:0:
320,96,82913,2,0,P|361:175|463:136,1,187.000005706787,8|0,0:0|0:0,0:0:0:0:
462,149,83325,2,0,B|482:106|482:106|461:47,1,93.5000028533936,8|0,0:1|0:0,0:0:0:0:
256,192,83655,1,2,0:2:0:0:
53,69,83819,1,0,0:0:0:0:
53,69,83902,1,0,0:0:0:0:
53,69,83984,1,8,0:0:0:0:
260,13,84149,6,0,B|302:103|215:114|256:191,1,187.000005706787,6|0,0:0|0:0,0:0:0:0:
293,282,84644,2,0,P|342:257|347:211,1,93.5000028533936,8|0,0:0|0:0,0:0:0:0:
162,161,84973,2,0,P|176:118|219:102,1,93.5000028533936,2|0,0:2|0:0,0:0:0:0:
219,101,85220,1,0,0:0:0:0:
219,101,85303,1,8,0:0:0:0:
61,275,85468,6,0,P|148:263|189:340,1,187.000005706787,6|0,0:2|0:0,0:0:0:0:
104,360,85962,1,8,0:0:0:0:
16,160,86127,1,0,0:0:0:0:
12,182,86210,1,0,0:0:0:0:
9,204,86292,1,2,0:2:0:0:
162,161,86457,1,0,0:0:0:0:
337,213,86622,1,8,0:0:0:0:
496,144,86786,5,6,0:0:0:0:
496,144,86869,2,0,P|490:57|404:38,1,187.000005706787,8|0,0:0|0:0,0:0:0:0:
390,50,87281,2,0,L|377:144,1,93.5000028533936,8|0,0:0|0:0,0:0:0:0:
495,278,87611,1,2,0:2:0:0:
432,346,87775,1,0,0:0:0:0:
432,346,87858,1,0,0:0:0:0:
432,346,87940,1,8,0:0:0:0:
256,192,88105,6,0,B|216:160|216:160|64:192,1,187.000005706787,6|0,0:2|0:0,0:0:0:0:
109,354,88600,2,0,L|128:262,1,93.5000028533936,8|0,0:0|0:0,0:0:0:0:
236,100,88929,2,0,L|255:191,1,93.5000028533936,2|0,0:2|0:0,0:0:0:0:
255,191,89177,1,0,0:0:0:0:
255,191,89259,1,8,0:0:0:0:
409,253,89424,1,0,0:0:0:0:
500,31,89589,6,0,L|314:8,1,187.000005706787,6|8,0:0|0:0,0:0:0:0:
45,80,90083,1,0,0:0:0:0:
142,140,90248,1,2,0:2:0:0:
52,87,90413,1,0,0:0:0:0:
52,87,90495,1,0,0:0:0:0:
52,87,90578,1,8,0:0:0:0:
235,2,90742,2,0,L|252:141,1,140.25000428009,6|0,0:2|0:0,0:0:0:0:
252,141,91072,1,0,1:0:0:0:
252,141,91155,1,0,1:1:0:0:
252,141,91237,1,8,1:1:0:0:
116,250,91402,5,8,3:3:0:0:
162,255,91484,1,8,3:3:0:0:
208,261,91567,1,4,3:3:0:0:
255,267,91649,1,4,3:3:0:0:
301,272,91731,1,0,1:1:0:0:
348,278,91814,1,0,1:1:0:0:
394,283,91896,1,8,1:1:0:0:
500,181,92061,5,6,0:0:0:0:
500,180,92144,2,0,P|472:98|385:104,1,187.000005706787,8|0,0:0|0:0,0:0:0:0:
374,124,92556,2,0,B|406:159|406:159|386:223,1,93.5000028533936,8|0,0:1|0:0,0:0:0:0:
330,352,92885,2,0,B|298:317|298:317|318:253,1,93.5000028533936,2|0,0:2|0:0,0:0:0:0:
311,273,93133,1,0,0:0:0:0:
311,273,93215,1,8,0:0:0:0:
242,110,93380,6,0,P|208:191|120:189,1,187.000005706787,6|0,0:2|0:0,0:1:0:0:
73,23,93874,2,0,L|52:117,1,93.5000028533936,8|0,0:0|0:0,0:0:0:0:
8,303,94204,2,0,L|28:208,1,93.5000028533936,2|0,0:2|0:0,0:0:0:0:
27,211,94451,1,0,0:0:0:0:
27,211,94534,1,8,0:0:0:0:
159,328,94699,5,6,0:0:0:0:
159,328,94781,2,0,B|207:356|207:356|343:312,1,187.000005706787,8|0,0:0|0:0,0:0:0:0:
351,303,95193,2,0,P|351:250|321:225,1,93.5000028533936,8|0,0:0|0:2,0:0:0:0:
159,328,95523,1,2,0:2:0:0:
407,384,95688,1,0,0:0:0:0:
407,384,95770,1,0,0:0:0:0:
407,384,95852,1,8,0:0:0:0:
238,80,96017,6,0,L|214:270,1,187.000005706787,6|0,0:2|0:0,0:0:0:0:
50,193,96512,2,0,L|153:162,1,93.5000028533936,8|0,0:0|0:0,0:0:0:0:
139,166,96759,1,0,0:0:0:0:
139,166,96841,1,10,0:0:0:0:
69,345,97006,1,8,0:0:0:0:
12,0,97336,6,0,P|39:82|126:81,1,187.000005706787,6|0,0:1|0:0,0:0:0:0:
294,81,97830,2,0,P|217:102|214:119,1,93.5000028533936,8|0,0:0|0:0,0:0:0:0:
216,102,98078,1,0,0:0:0:0:
216,102,98160,1,2,0:2:0:0:
187,13,98325,1,0,0:0:0:0:
148,172,98490,1,8,0:0:0:0:
381,325,98655,6,0,P|330:250|237:259,1,187.000005706787,6|0,0:2|0:0,0:0:0:0:
133,364,99149,2,0,L|106:255,1,93.5000028533936,8|0,0:0|0:0,0:0:0:0:
6,208,99479,1,2,0:2:0:0:
242,255,99644,1,0,0:0:0:0:
214,338,99808,1,8,0:0:0:0:
475,124,99973,6,0,P|458:191|347:169,1,187.000005706787,6|0,0:2|0:3,0:0:0:0:
356,185,100385,1,0,0:0:0:0:
356,185,100468,1,8,0:2:0:0:
457,41,100633,5,8,3:3:0:0:
450,31,100715,1,8,3:3:0:0:
443,23,100797,1,8,1:0:0:0:
426,24,100880,1,0,1:0:0:0:
410,25,100962,1,0,1:0:0:0:
394,27,101045,1,0,1:0:0:0:
378,28,101127,1,8,1:0:0:0:
362,30,101210,1,0,1:0:0:0:
346,31,101292,1,0,1:0:0:0:
330,33,101374,1,0,1:0:0:0:
314,34,101457,1,8,0:2:0:0:
297,35,101539,1,0,0:2:0:0:
281,37,101622,1,0,0:2:0:0:
265,38,101704,1,0,0:2:0:0:
249,40,101786,1,8,0:2:0:0:
233,41,101869,1,0,0:2:0:0:
217,43,101951,1,0,0:2:0:0:
201,44,102034,1,0,0:2:0:0:
185,45,102116,1,10,0:2:0:0:
168,47,102199,1,0,0:2:0:0:
152,48,102281,1,0,0:2:0:0:
136,50,102363,1,0,0:2:0:0:
120,51,102446,1,8,0:2:0:0:
104,53,102528,1,0,0:2:0:0:
88,54,102611,1,0,0:2:0:0:
72,55,102693,1,0,0:2:0:0:
56,57,102775,6,0,L|44:152,1,85,6|0,0:0|0:0,0:0:0:0:
45,141,103023,1,0,0:1:0:0:
45,141,103105,1,0,0:0:0:0:
127,217,103270,1,0,0:1:0:0:
9,319,103435,2,0,L|104:309,1,85,2|0,0:2|0:0,0:0:0:0:
93,310,103682,1,0,0:0:0:0:
93,310,103764,1,8,0:0:0:0:
196,309,103929,1,0,0:0:0:0:
460,293,104094,5,4,0:2:0:0:
394,359,104341,1,0,0:0:0:0:
394,359,104424,2,0,P|345:330|344:257,1,127.5,8|0,0:0|0:0,0:0:0:0:
356,253,104753,1,2,0:2:0:0:
301,179,104918,1,0,0:0:0:0:
355,101,105083,1,8,0:0:0:0:
223,7,105248,5,6,0:2:0:0:
223,7,105330,2,0,L|92:32,1,127.5,8|0,0:0|0:0,0:0:0:0:
162,184,105742,2,0,L|193:97,1,85,8|0,0:0|0:0,0:0:0:0:
29,128,106072,1,2,0:2:0:0:
119,253,106237,1,0,0:0:0:0:
44,308,106402,1,8,0:0:0:0:
300,373,106567,5,6,0:2:0:0:
300,373,106649,2,0,P|378:348|385:256,1,170,8|0,0:0|0:0,0:0:0:0:
371,250,107061,2,0,L|275:238,1,85,10|0,0:0|0:0,0:0:0:0:
199,322,107391,1,2,0:2:0:0:
73,231,107556,1,0,0:0:0:0:
76,200,107638,1,0,0:0:0:0:
80,170,107720,1,0,0:0:0:0:
83,141,107803,1,0,0:0:0:0:
87,111,107885,1,0,0:0:0:0:
91,81,107968,1,0,0:0:0:0:
95,51,108050,6,0,L|190:39,1,85,6|0,0:0|0:0,0:0:0:0:
179,40,108297,1,0,0:0:0:0:
179,40,108380,1,0,0:0:0:0:
274,113,108545,1,0,0:0:0:0:
197,210,108710,2,0,L|112:220,1,85,2|0,0:2|0:0,0:0:0:0:
112,220,108957,1,0,0:0:0:0:
112,220,109039,1,8,0:0:0:0:
256,320,109204,1,0,0:0:0:0:
480,224,109369,5,4,0:2:0:0:
391,270,109616,1,0,0:0:0:0:
391,270,109699,2,0,P|390:331|444:360,1,127.5,8|0,0:0|0:0,0:0:0:0:
465,350,110028,1,2,0:2:0:0:
293,293,110193,1,0,0:0:0:0:
220,341,110358,1,8,0:0:0:0:
30,291,110523,5,0,0:0:0:0:
30,291,110605,1,0,0:0:0:0:
30,291,110688,2,0,B|79:226|0:194|55:130,1,170,6|8,0:2|0:0,0:0:0:0:
55,131,111182,1,0,0:0:0:0:
111,31,111347,2,0,P|148:49|170:85,1,85,2|0,0:2|0:0,0:0:0:0:
170,85,111594,1,0,0:0:0:0:
170,85,111677,1,8,0:2:0:0:
335,190,111841,5,0,0:0:0:0:
366,186,111924,1,0,0:0:0:0:
398,182,112006,1,6,0:2:0:0:
462,125,112171,1,8,0:0:0:0:
376,268,112336,1,8,0:0:0:0:
226,170,112501,1,6,0:2:0:0:
226,170,112583,2,0,P|237:94|277:74,1,127.5,8|0,0:0|0:2,0:0:0:0:
483,214,112995,1,8,3:3:0:0:
480,236,113078,1,8,3:3:0:0:
477,258,113160,1,4,3:3:0:0:
474,281,113242,1,4,3:3:0:0:
471,302,113325,6,0,L|375:313,1,85,6|0,0:0|0:0,0:0:0:0:
386,311,113572,1,0,0:0:0:0:
386,311,113655,1,0,0:0:0:0:
308,372,113819,1,0,0:0:0:0:
236,230,113984,2,0,L|221:327,1,85,2|0,0:2|0:0,0:0:0:0:
223,314,114231,1,0,0:0:0:0:
223,314,114314,1,8,0:0:0:0:
342,257,114479,1,0,0:0:0:0:
196,121,114644,6,0,L|208:36,1,85,4|0,0:2|0:0,0:0:0:0:
138,1,114891,1,0,0:0:0:0:
138,1,114973,2,0,L|126:86,1,85,8|0,0:0|0:0,0:0:0:0:
0,205,115303,1,2,0:2:0:0:
139,282,115468,1,0,0:0:0:0:
78,384,115633,1,8,0:0:0:0:
305,246,115797,6,0,L|138:282,1,170,6|0,0:2|0:0,0:0:0:0:
79,231,116210,1,0,0:0:0:0:
79,231,116292,2,0,L|91:146,1,85,8|0,0:0|0:0,0:0:0:0:
232,17,116622,1,0,0:0:0:0:
359,107,116786,1,8,0:0:0:0:
217,236,116951,1,8,0:0:0:0:
345,328,117116,5,6,0:2:0:0:
345,328,117199,2,0,L|326:197,1,127.5,8|0,0:0|0:0,0:0:0:0:
512,283,117611,2,0,L|417:267,1,85,8|0,0:0|0:0,0:0:0:0:
355,82,117940,1,2,0:2:0:0:
481,16,118105,1,0,0:0:0:0:
483,49,118188,1,0,0:0:0:0:
486,82,118270,1,0,0:0:0:0:
488,116,118352,1,0,0:0:0:0:
488,149,118435,6,0,B|446:177|446:177|318:155,1,170,6|0,0:0|0:0,0:0:0:0:
202,21,118929,1,8,0:0:0:0:
307,6,119094,1,0,0:0:0:0:
307,6,119177,1,0,0:0:0:0:
307,6,119259,1,2,0:2:0:0:
240,196,119424,1,0,0:0:0:0:
307,6,119589,1,8,0:0:0:0:
112,33,119753,5,6,0:2:0:0:
112,33,119836,2,0,P|89:89|112:168,1,127.5,8|0,0:0|0:0,0:0:0:0:
107,306,120248,2,0,B|23:326,1,85,8|0,0:0|0:0,0:0:0:0:
24,325,120495,1,0,0:0:0:0:
24,325,120578,1,2,0:2:0:0:
244,377,120742,1,8,0:0:0:0:
262,269,120907,1,8,0:0:0:0:
478,345,121072,6,0,B|468:296|468:296|490:236|490:236|471:158,1,170,6|0,0:0|0:0,0:0:0:0:
318,119,121567,1,8,0:0:0:0:
371,14,121731,1,0,0:0:0:0:
371,14,121814,1,0,0:0:0:0:
371,14,121896,1,2,0:2:0:0:
425,101,122061,1,0,0:0:0:0:
261,30,122226,1,8,0:0:0:0:
152,177,122391,6,0,P|43:181|-15:121,1,170,6|0,0:2|0:0,0:0:0:0:
172,349,122885,2,0,P|179:307|194:267,1,85,8|0,0:0|0:0,0:0:0:0:
194,267,123133,1,0,0:0:0:0:
194,267,123215,1,10,0:2:0:0:
356,155,123380,1,8,0:0:0:0:
506,286,123545,1,8,0:0:0:0:
436,335,123710,6,0,L|93:310,1,340,6|0,0:0|0:0,0:0:0:0:
42,159,125193,5,10,3:2:0:0:
68,169,125275,1,0,3:0:0:0:
96,172,125358,1,0,3:0:0:0:
124,167,125440,1,0,3:0:0:0:
152,160,125523,5,8,3:0:0:0:
148,148,125605,1,8,3:0:0:0:
144,136,125688,1,8,3:0:0:0:
140,124,125770,1,8,3:0:0:0:
159,103,125852,5,4,3:0:0:0:
153,91,125935,1,4,3:0:0:0:
118,69,126017,5,0,0:0:0:0:
155,49,126100,1,0,0:0:0:0:
197,46,126182,1,0,0:0:0:0:
237,59,126264,1,0,0:0:0:0:
263,92,126347,1,0,0:0:0:0:
301,111,126429,1,0,0:0:0:0:
342,105,126512,6,0,B|361:69|361:69|349:25,1,85,4|0,0:0|0:0,0:0:0:0:
349,26,126759,1,0,0:0:0:0:
349,26,126841,1,8,0:0:0:0:
195,146,127006,1,2,0:2:0:0:
195,146,127089,2,0,L|184:299,1,127.5,8|0,0:0|0:0,0:0:0:0:
103,371,127501,1,8,0:0:0:0:
0,353,127666,1,0,0:0:0:0:
34,176,127830,5,2,0:2:0:0:
287,226,128078,1,0,0:0:0:0:
287,226,128160,1,8,0:0:0:0:
335,309,128325,1,2,0:2:0:0:
335,309,128407,2,0,P|404:292|405:228,1,127.5,8|0,0:0|0:0,0:0:0:0:
512,171,128819,1,8,0:0:0:0:
426,25,128984,5,0,0:0:0:0:
426,25,129067,1,0,0:0:0:0:
426,25,129149,2,0,L|525:13,1,85,6|0,0:2|0:0,0:0:0:0:
510,14,129396,1,0,0:0:0:0:
510,14,129479,1,8,0:0:0:0:
404,124,129644,1,2,0:2:0:0:
404,124,129726,2,0,L|275:108,1,127.5,8|0,0:0|0:0,0:0:0:0:
107,88,130138,1,8,0:0:0:0:
0,75,130303,1,0,0:0:0:0:
50,230,130468,5,4,0:2:0:0:
338,163,130715,1,0,0:0:0:0:
338,163,130797,1,8,0:0:0:0:
435,198,130962,1,2,0:2:0:0:
435,198,131045,2,0,P|461:250|407:322,1,127.5,8|0,0:0|0:0,0:0:0:0:
341,384,131457,1,8,0:0:0:0:
218,241,131622,5,0,0:0:0:0:
218,241,131704,1,0,0:0:0:0:
218,241,131786,2,0,L|232:152,1,85,2|0,0:2|0:0,0:0:0:0:
231,157,132034,1,0,0:0:0:0:
231,157,132116,1,8,0:0:0:0:
0,207,132281,1,2,0:2:0:0:
0,207,132363,2,0,L|145:182,1,127.5,8|0,0:0|0:0,0:0:0:0:
107,82,132775,1,8,0:0:0:0:
52,325,132940,5,0,0:0:0:0:
52,325,133023,1,0,0:0:0:0:
52,325,133105,2,0,B|131:351|131:351|214:280,1,170,4|8,0:2|0:0,0:0:0:0:
391,157,133600,1,2,0:2:0:0:
391,157,133682,2,0,L|365:291,1,127.5,8|0,0:0|0:0,0:0:0:0:
299,179,134094,1,8,0:0:0:0:
474,165,134259,1,0,0:0:0:0:
336,30,134424,6,0,L|453:18,1,85
420,21,134671,1,0,0:0:0:0:
420,21,134753,1,8,0:0:0:0:
380,129,134918,1,0,0:0:0:0:
380,129,135001,1,0,0:0:0:0:
380,129,135083,1,0,0:0:0:0:
186,17,135248,5,8,3:3:0:0:
159,19,135330,1,8,3:3:0:0:
135,26,135413,1,0,1:0:0:0:
112,37,135495,1,0,1:0:0:0:
91,50,135578,1,0,1:0:0:0:
70,66,135660,1,0,1:0:0:0:
53,85,135742,1,8,3:3:0:0:
39,105,135825,1,8,3:3:0:0:
27,128,135907,1,4,3:3:0:0:
19,153,135990,1,4,3:3:0:0:
14,177,136072,1,0,1:0:0:0:
13,204,136155,1,0,1:0:0:0:
15,229,136237,1,0,1:0:0:0:
21,253,136319,1,0,1:0:0:0:
29,277,136402,5,6,1:0:0:0:
97,354,136566,1,0,0:0:0:0:
166,291,136731,1,0,0:0:0:0:
243,334,136896,1,0,0:0:0:0:
320,299,137061,1,0,0:0:0:0:
383,345,137226,1,0,0:0:0:0:
455,317,137391,1,0,0:0:0:0:
512,362,137555,5,6,0:2:0:0:
256,192,137885,5,6,0:2:0:0:
0,22,138215,5,6,0:2:0:0:
256,192,138544,5,0,0:0:0:0:
278,194,138627,1,0,0:0:0:0:
299,196,138709,1,8,0:3:0:0:
320,198,138792,1,8,0:3:0:0:
341,200,138874,1,4,0:3:0:0:
363,202,138956,1,4,0:3:0:0:
385,205,139039,1,4,0:0:0:0:
512,96,139368,5,0,0:2:0:0:
256,0,139698,1,0,0:0:0:0:
385,205,140028,1,0,0:0:0:0:
256,0,140357,1,0,0:0:0:0:
127,205,140687,1,0,0:0:0:0:
256,0,141017,1,0,0:0:0:0:
0,96,141346,5,0,0:0:0:0:
256,0,141511,1,8,2:0:0:0:
127,205,141676,1,2,0:2:0:0:
256,0,142006,5,0,0:2:0:0:
256,192,142335,1,0,0:0:0:0:
256,384,142665,1,0,0:0:0:0:
256,192,142995,1,0,0:0:0:0:
256,0,143324,1,0,0:0:0:0:
256,192,143654,1,8,2:0:0:0:
365,274,143819,5,8,3:3:0:0:
399,282,143901,1,8,3:3:0:0:
432,278,143984,1,4,3:3:0:0:
462,262,144066,1,4,3:3:0:0:
485,238,144148,1,8,3:2:0:0:
366,94,144313,1,4,0:2:0:0:
160,192,144643,5,0,0:2:0:0:
256,192,144808,1,0,2:0:0:0:
352,192,144973,1,0,0:0:0:0:
160,192,145302,1,0,0:0:0:0:
256,96,145632,5,0,0:0:0:0:
256,192,145797,1,0,2:0:0:0:
256,288,145962,1,0,0:0:0:0:
256,96,146291,1,0,0:0:0:0:
160,192,146621,5,0,0:0:0:0:
352,192,146786,1,8,2:0:0:0:
256,0,146951,1,2,0:2:0:0:
256,384,147280,5,0,0:2:0:0:
64,192,147610,1,0,0:0:0:0:
256,0,147940,1,0,0:0:0:0:
448,192,148269,1,0,0:0:0:0:
64,192,148599,1,0,0:0:0:0:
448,192,148929,1,8,2:0:0:0:
364,103,149093,5,8,3:3:0:0:
327,114,149176,1,8,3:3:0:0:
290,126,149258,1,4,3:3:0:0:
253,136,149341,1,4,3:3:0:0:
217,148,149423,1,8,3:2:0:0:
110,31,149588,1,4,0:2:0:0:
148,309,149918,6,0,L|53:318,1,85,0|0,0:0|2:0,0:0:0:0:
373,300,150247,2,0,L|382:395,1,85,0|0,0:0|2:0,0:0:0:0:
364,75,150577,2,0,L|459:66,1,85,0|0,0:0|2:0,0:0:0:0:
139,84,150907,2,0,L|130:-11,1,85,0|0,0:0|2:0,0:0:0:0:
148,309,151236,2,0,L|53:318,1,85,0|0,0:0|2:0,0:0:0:0:
376,205,151566,5,0,1:0:0:0:
136,179,151731,1,8,2:0:0:0:
258,213,151896,5,8,3:3:0:0:
256,198,151978,1,8,3:3:0:0:
255,184,152060,1,8,3:2:0:0:
254,170,152143,1,8,3:2:0:0:
254,170,153214,6,0,L|266:129,1,42.5,2|0,2:0|0:0,0:0:0:0:
222,61,153379,2,0,B|264:27|264:27|390:65,1,170,4|0,0:0|0:0,0:0:0:0:
375,60,153791,1,0,0:0:0:0:
375,60,153874,1,0,0:0:0:0:
410,197,154039,2,0,L|401:155,1,42.5,8|8,3:0|3:0,0:0:0:0:
481,292,154203,1,8,0:0:0:0:
445,269,154286,1,0,0:0:0:0:
404,274,154368,1,0,0:0:0:0:
374,303,154451,1,0,0:0:0:0:
377,312,154533,1,8,3:3:0:0:
379,320,154615,1,8,3:3:0:0:
382,329,154698,1,4,3:3:0:0:
384,338,154780,1,0,0:0:0:0:
386,346,154863,5,8,0:0:0:0:
336,377,154945,1,0,0:0:0:0:
280,370,155028,1,8,3:0:0:0:
239,330,155110,1,8,3:0:0:0:
253,314,155192,2,0,L|300:308,1,42.5,4|0,3:0|0:0,0:0:0:0:
136,228,155357,1,8,0:0:0:0:
136,228,155440,1,0,0:0:0:0:
136,228,155522,1,0,0:0:0:0:
357,119,155687,6,0,L|349:182,1,42.5,6|0,0:2|0:0,0:0:0:0:
377,0,155852,2,0,L|369:63,1,42.5,6|0,0:2|0:0,0:0:0:0:
344,249,156017,5,0,0:0:0:0:
344,249,156099,1,0,0:0:0:0:
344,249,156181,2,0,B|261:232|277:301|171:284,1,170,4|8,0:0|0:0,0:0:0:0:
0,186,156676,1,2,0:2:0:0:
0,186,156758,1,0,0:0:0:0:
0,186,156841,2,0,P|2:132|31:103,1,85
86,291,157170,1,8,0:0:0:0:
207,203,157335,1,0,0:0:0:0:
376,301,157500,6,0,L|473:289,1,85,4|0,0:2|0:0,0:0:0:0:
460,290,157747,1,0,0:0:0:0:
460,290,157830,1,8,0:0:0:0:
390,151,157995,1,2,0:2:0:0:
390,151,158077,2,0,L|301:159,1,85,8|0,0:0|0:0,0:0:0:0:
287,174,158324,1,2,0:2:0:0:
284,197,158407,1,0,0:0:0:0:
281,221,158489,1,8,0:0:0:0:
94,342,158654,5,2,0:2:0:0:
94,342,158736,2,0,P|36:269|87:199,1,170
87,196,159148,2,0,L|182:207,1,85,8|0,0:0|0:0,0:0:0:0:
171,206,159396,1,0,0:0:0:0:
171,206,159478,1,2,0:2:0:0:
33,130,159643,1,0,0:0:0:0:
256,64,159808,1,8,0:0:0:0:
476,132,159973,6,0,B|441:172|499:203|468:252,1,127.5,4|0,0:2|0:0,0:0:0:0:
448,268,160302,1,0,0:0:0:0:
283,352,160467,1,12,0:2:0:0:
215,299,160632,1,0,0:0:0:0:
36,341,160797,1,8,3:3:0:0:
45,319,160879,1,8,3:3:0:0:
51,301,160962,1,8,3:3:0:0:
157,365,161126,1,12,3:0:0:0:
341,284,161291,1,4,3:0:0:0:
261,43,161456,6,0,P|166:39|142:132,1,170,4|8,0:0|0:0,0:0:0:0:
261,228,161951,1,2,0:2:0:0:
261,228,162033,2,0,L|280:139,1,85,8|0,0:0|0:0,0:0:0:0:
297,135,162280,1,0,0:0:0:0:
169,184,162445,1,8,0:0:0:0:
283,352,162610,5,0,0:0:0:0:
283,352,162692,1,0,0:0:0:0:
283,352,162775,2,0,L|381:332,1,85,4|0,0:2|0:0,0:0:0:0:
366,335,163022,1,0,0:0:0:0:
366,335,163104,1,8,0:0:0:0:
184,265,163269,2,0,L|166:348,1,85,0|2,0:0|0:2,0:0:0:0:
292,256,163599,1,0,0:0:0:0:
70,172,163764,1,8,0:2:0:0:
165,107,163929,5,0,0:0:0:0:
165,107,164011,1,0,0:0:0:0:
165,107,164093,2,0,L|140:13,1,85,4|0,0:2|0:0,0:0:0:0:
143,24,164341,1,0,0:0:0:0:
143,24,164423,1,8,0:0:0:0:
70,172,164588,1,6,0:2:0:0:
70,172,164670,2,0,P|121:182|118:265,1,127.5,8|0,0:0|0:0,0:0:0:0:
38,263,165082,1,8,0:0:0:0:
223,173,165247,1,0,0:0:0:0:
100,332,165412,6,0,B|162:322|155:380|253:362,1,127.5,4|0,0:2|0:0,0:0:0:0:
236,357,165742,1,8,0:0:0:0:
387,289,165907,1,2,0:2:0:0:
331,370,166071,1,8,0:0:0:0:
235,260,166236,1,8,0:0:0:0:
303,145,166401,1,8,0:0:0:0:
166,23,166566,5,8,0:0:0:0:
166,23,166648,1,8,0:0:0:0:
166,23,166731,2,0,L|350:2,1,170,4|8,0:0|0:0,0:0:0:0:
482,77,167225,1,2,0:2:0:0:
482,77,167308,2,0,P|508:131|466:190,1,127.5,8|0,0:0|0:0,0:0:0:0:
388,85,167720,1,8,0:0:0:0:
260,213,167885,5,0,0:0:0:0:
260,213,167967,1,0,0:0:0:0:
260,213,168049,2,0,P|226:188|218:148,1,85,2|0,0:2|0:0,0:0:0:0:
339,269,168379,2,0,P|376:251|415:265,1,85,8|0,0:0|0:2,0:0:0:0:
415,265,168626,1,0,0:0:0:0:
415,265,168709,1,0,0:0:0:0:
231,309,168874,1,0,0:0:0:0:
231,309,169039,2,0,P|227:350|195:377,1,85,8|0,0:0|0:0,0:0:0:0:
17,198,169368,6,0,P|46:108|101:111,1,136,4|0,1:2|0:0,0:0:0:0:
200,165,169863,1,0,1:0:0:0:
200,165,169945,1,0,1:0:0:0:
200,165,170028,1,8,0:2:0:0:
200,165,170522,5,0,0:0:0:0:
299,121,170687,2,0,L|281:35,2,68,6|0|0,1:2|0:0|0:0,0:0:0:0:
404,170,171181,1,0,1:0:0:0:
404,170,171264,1,0,1:0:0:0:
404,170,171346,2,0,L|482:192,2,68,8|0|0,0:2|0:0|1:0,0:0:0:0:
317,339,171841,6,0,P|274:313|265:264,1,102,4|0,0:2|0:0,0:0:0:0:
287,247,172170,1,8,3:0:0:0:
311,249,172253,1,8,3:0:0:0:
337,252,172335,1,4,3:0:0:0:
202,183,172500,5,0,1:0:0:0:
198,166,172582,1,0,1:0:0:0:
194,149,172665,1,8,3:0:0:0:
190,133,172747,1,8,3:0:0:0:
186,116,172830,1,0,1:0:0:0:
182,100,172912,1,0,1:0:0:0:
178,83,172995,1,0,1:0:0:0:
175,67,173077,1,0,1:0:0:0:
171,50,173159,1,0,1:0:0:0:
168,34,173242,1,0,1:0:0:0:
164,17,173324,5,6,0:2:0:0:
55,71,173489,1,0,0:2:0:0:
105,177,173654,1,0,0:2:0:0:
23,280,173819,5,6,0:2:0:0:
489,136,174148,5,6,0:2:0:0:
311,349,174478,6,0,P|169:317|197:97,1,407.999987548829,6|2,0:1|0:0,2:0:0:0:
256,192,175838,12,0,176951,0:0:0:0:
181,67,177115,6,0,B|146:33|146:33|-3:60,1,187.000005706787,6|0,0:0|0:0,0:1:0:0:
280,135,177610,2,0,L|296:40,1,93.5000028533936,8|0,0:1|0:0,0:0:0:0:
295,42,177857,1,0,0:0:0:0:
295,42,177940,1,2,0:2:0:0:
369,144,178104,1,0,0:0:0:0:
206,202,178269,1,8,0:0:0:0:
367,343,178434,5,6,0:2:0:0:
367,343,178517,2,0,P|343:280|238:278,1,140.25000428009,8|0,0:0|0:0,0:0:0:0:
81,292,178929,2,0,L|65:387,1,93.5000028533936,8|0,0:1|0:0,0:0:0:0:
193,332,179258,1,2,0:2:0:0:
137,146,179423,1,0,0:0:0:0:
137,146,179506,1,0,0:0:0:0:
137,146,179588,1,8,0:0:0:0:
362,34,179753,6,0,P|274:21|222:93,1,187.000005706787,6|0,0:1|0:0,0:1:0:0:
341,204,180247,2,0,P|347:172|318:118,1,93.5000028533936,8|0,0:0|0:0,0:0:0:0:
154,181,180577,2,0,P|148:213|177:267,1,93.5000028533936,2|0,0:2|0:0,0:0:0:0:
174,265,180824,1,0,0:0:0:0:
174,265,180907,1,8,0:0:0:0:
356,323,181071,6,0,B|483:306|483:306|528:357,1,187.000005706787,6|0,0:2|0:0,0:0:0:0:
348,230,181566,1,8,0:0:0:0:
469,156,181731,1,0,0:0:0:0:
473,134,181813,1,0,0:0:0:0:
476,112,181896,1,2,0:2:0:0:
342,22,182060,1,0,0:0:0:0:
193,72,182225,1,8,0:0:0:0:
55,39,182390,5,6,0:0:0:0:
55,39,182473,2,0,P|61:126|161:148,1,187.000005706787,8|0,0:0|0:0,0:0:0:0:
170,162,182885,2,0,L|192:71,1,93.5000028533936,8|0,0:0|0:0,0:0:0:0:
367,0,183214,1,2,0:2:0:0:
442,65,183379,2,0,L|499:71,2,46.7500014266968,0|0|8,0:0|0:0|0:0,0:0:0:0:
343,230,183709,5,6,0:2:0:0:
343,230,183791,2,0,P|406:261|481:224,1,140.25000428009,8|0,0:0|0:0,0:0:0:0:
290,383,184203,2,0,P|291:328|276:291,1,93.5000028533936,8|0,0:0|0:0,0:0:0:0:
277,292,184451,1,0,0:0:0:0:
277,292,184533,1,2,0:2:0:0:
177,328,184698,1,0,0:0:0:0:
279,146,184863,1,8,0:0:0:0:
428,197,185028,1,0,0:0:0:0:
369,104,185192,5,6,0:0:0:0:
465,87,185357,1,0,0:0:0:0:
340,239,185522,1,8,0:0:0:0:
212,50,185687,1,0,0:0:0:0:
39,175,185852,6,0,L|149:161,1,93.5000028533936,2|0,0:2|0:0,0:0:0:0:
131,163,186099,1,0,0:0:0:0:
131,163,186181,1,8,0:0:0:0:
253,295,186346,2,0,P|212:349|144:359,1,140.25000428009,6|0,0:2|0:0,0:0:0:0:
68,333,186676,5,0,1:0:0:0:
68,333,186758,1,0,1:3:0:0:
68,333,186841,1,8,1:1:0:0:
139,170,187006,5,8,3:3:0:0:
185,175,187088,1,8,3:3:0:0:
231,181,187170,1,4,3:3:0:0:
278,187,187253,1,4,3:3:0:0:
324,192,187335,1,0,1:1:0:0:
371,198,187418,1,0,1:1:0:0:
417,203,187500,1,8,1:1:0:0:
512,51,187665,5,6,0:0:0:0:
512,51,187747,2,0,P|428:59|404:111,1,140.25000428009,8|0,0:0|0:0,0:0:0:0:
232,77,188159,2,0,B|352:63,1,93.5000028533936,8|0,0:1|0:0,0:0:0:0:
353,285,188489,2,0,B|260:295,1,93.5000028533936,2|0,0:2|0:0,0:0:0:0:
260,295,188736,1,0,0:0:0:0:
260,295,188819,1,8,0:0:0:0:
152,188,188984,6,0,P|69:190|21:289,1,187.000005706787,6|0,0:2|0:0,0:1:0:0:
236,209,189478,2,0,P|239:165|201:119,1,93.5000028533936,8|0,0:0|0:0,0:0:0:0:
119,288,189808,2,0,P|116:332|154:378,1,93.5000028533936,2|0,0:2|0:0,0:0:0:0:
142,371,190055,1,0,0:0:0:0:
142,371,190137,1,8,0:0:0:0:
351,337,190302,5,6,0:0:0:0:
351,337,190385,2,0,B|405:327|405:327|440:364|499:355,1,140.25000428009,8|0,0:0|0:0,0:0:0:0:
386,209,190797,1,8,0:0:0:0:
490,164,190962,1,0,0:2:0:0:
365,40,191126,2,0,P|409:95|406:150,1,93.5000028533936,2|0,0:2|0:0,0:0:0:0:
411,115,191374,1,0,0:0:0:0:
411,115,191456,1,8,0:0:0:0:
300,201,191621,5,6,0:2:0:0:
300,201,191703,2,0,B|246:191|246:191|211:228|152:219,1,140.25000428009,8|0,0:0|0:0,0:0:0:0:
14,148,192115,1,8,0:0:0:0:
229,41,192280,1,0,0:0:0:0:
198,20,192363,1,0,0:0:0:0:
161,18,192445,1,0,0:0:0:0:
128,35,192528,1,0,0:0:0:0:
108,66,192610,1,0,0:0:0:0:
106,103,192692,1,0,0:0:0:0:
352,51,192940,5,6,0:1:0:0:
352,51,193022,2,0,B|443:36|410:78|513:47,1,140.25000428009,8|0,0:0|0:0,0:0:0:0:
361,226,193434,2,0,P|406:232|449:213,1,93.5000028533936,8|0,0:0|0:0,0:0:0:0:
449,213,193681,1,0,0:0:0:0:
449,213,193764,1,2,0:2:0:0:
392,142,193929,1,0,0:0:0:0:
315,330,194093,1,8,0:0:0:0:
132,150,194258,6,0,P|223:144|268:226,1,187.000005706787,6|0,0:2|0:0,0:0:0:0:
46,186,194753,2,0,B|34:143|34:143|63:85,1,93.5000028533936,8|0,0:0|0:0,0:0:0:0:
55,99,195000,1,0,0:0:0:0:
55,99,195082,1,2,0:2:0:0:
176,230,195247,1,0,0:0:0:0:
0,291,195412,1,8,0:0:0:0:
263,362,195577,6,0,B|351:320|356:391|426:356,1,170,6|0,0:1|0:0,0:0:0:0:
448,344,195989,1,0,0:0:0:0:
456,320,196071,1,8,3:2:0:0:
392,239,196236,1,0,0:2:0:0:
460,43,196401,1,2,0:2:0:0:
505,126,196566,1,0,0:2:0:0:
491,136,196648,1,0,0:2:0:0:
480,149,196731,1,8,0:2:0:0:
272,54,196896,5,2,0:2:0:0:
272,54,196978,2,0,L|122:27,1,127.5,8|0,0:2|0:0,0:0:0:0:
26,128,197390,1,8,3:3:0:0:
50,156,197500,2,0,P|116:129|123:101,1,56.6666666666667,8|8,3:3|3:3,0:0:0:0:
155,225,197720,1,4,3:3:0:0:
191,218,197830,2,0,P|200:147|179:127,1,56.6666666666667,4|4,3:3|3:3,0:3:0:0:
63,246,198049,1,8,0:0:0:0:
322,351,198214,6,0,P|276:297|181:317,1,170,6|0,0:2|0:0,0:0:0:0:
237,382,198709,1,8,0:0:0:0:
63,246,198874,1,2,0:2:0:0:
66,228,198956,1,0,0:0:0:0:
70,211,199039,1,0,0:0:0:0:
351,162,199203,1,2,0:2:0:0:
262,122,199368,1,8,0:0:0:0:
23,19,199533,5,6,0:2:0:0:
23,19,199615,2,0,P|63:66|124:59,1,127.5,8|2,0:0|0:2,0:0:0:0:
30,155,200028,1,8,0:0:0:0:
218,44,200192,1,0,0:0:0:0:
218,44,200275,1,0,0:0:0:0:
218,44,200357,1,8,0:0:0:0:
274,287,200522,1,8,0:0:0:0:
298,374,200687,5,0,0:0:0:0:
320,376,200769,1,0,0:0:0:0:
344,379,200852,1,6,1:0:0:0:
367,382,200934,2,0,B|396:342|344:301|407:243,1,127.5,8|0,0:0|0:0,0:0:0:0:
478,148,201346,1,8,0:0:0:0:
478,148,201429,2,0,P|439:182|379:163,1,85,8|0,0:0|0:0,0:0:0:0:
355,131,201676,1,2,0:2:0:0:
355,131,201758,2,0,L|365:83,1,42.5,8|0,0:0|0:2,0:0:0:0:
386,14,201923,1,8,0:0:0:0:
386,14,202006,1,8,0:0:0:0:
327,227,202170,5,6,0:2:0:0:
327,227,202253,2,0,L|198:242,1,127.5,8|0,0:0|0:2,0:0:0:0:
13,193,202665,1,8,0:0:0:0:
136,168,202830,1,2,0:2:0:0:
136,168,202995,1,8,0:0:0:0:
221,335,203159,1,8,0:0:0:0:
97,94,203324,1,8,0:0:0:0:
154,12,203489,5,6,0:1:0:0:
154,12,203571,2,0,B|190:1|190:1|292:32,1,127.5,8|8,0:0|0:0,0:0:0:0:
350,241,203984,1,8,0:0:0:0:
453,188,204148,1,0,0:0:0:0:
453,188,204231,1,0,0:0:0:0:
453,188,204313,1,0,0:0:0:0:
297,145,204478,1,0,0:0:0:0:
297,145,204560,1,0,0:0:0:0:
297,145,204643,1,0,0:0:0:0:
188,250,204808,1,6,0:1:0:0:
172,362,204973,5,6,0:2:0:0:
63,162,205137,1,0,0:0:0:0:
63,162,205220,1,0,0:0:0:0:
63,162,205302,1,8,3:3:0:0:
96,140,205412,1,8,3:3:0:0:
135,139,205522,1,8,3:3:0:0:
183,173,205632,5,4,3:3:0:0:
185,164,205714,1,4,3:3:0:0:
189,156,205797,1,0,0:0:0:0:
195,148,205879,1,0,0:0:0:0:
201,142,205962,5,4,3:3:0:0:
245,166,206071,1,4,3:3:0:0:
295,155,206181,1,4,3:3:0:0:
331,87,206291,6,0,P|319:42|277:11,1,85,6|0,0:0|0:0,0:0:0:0:
371,255,206621,2,0,P|415:267|463:246,1,85,10|0,0:0|0:0,0:0:0:0:
205,205,206951,2,0,P|172:237|166:289,1,85,2|0,0:0|0:0,0:0:0:0:
168,278,207280,2,0,P|178:237|209:209,1,85,10|0,0:0|0:0,0:0:0:0:
480,131,207610,5,6,0:2:0:0:
417,188,207775,1,0,0:0:0:0:
342,146,207940,1,10,0:2:0:0:
266,183,208104,1,0,0:0:0:0:
182,164,208269,1,2,0:2:0:0:
102,194,208434,1,0,0:0:0:0:
21,165,208599,1,10,0:2:0:0:
215,16,208764,5,0,0:0:0:0:
215,16,208846,1,0,0:0:0:0:
214,15,208929,2,0,P|251:36|272:73,1,85,6|0,0:0|0:0,0:0:0:0:
143,323,209258,2,0,P|142:280|163:244,1,85,10|0,0:0|0:0,0:0:0:0:
444,231,209588,2,0,P|407:252|365:252,1,85,2|0,0:0|0:0,0:0:0:0:
302,210,209835,1,0,0:0:0:0:
302,210,209918,2,0,L|327:116,1,85,10|0,0:0|0:0,0:0:0:0:
512,7,210247,5,6,0:2:0:0:
477,94,210412,1,0,0:0:0:0:
383,97,210577,1,10,0:2:0:0:
338,179,210742,1,0,0:0:0:0:
244,175,210907,1,2,0:2:0:0:
192,252,211071,1,0,0:0:0:0:
99,267,211236,1,10,0:2:0:0:
63,353,211401,1,0,0:0:0:0:
298,373,211566,6,0,P|347:330|344:283,1,85,6|0,0:0|0:0,0:0:0:0:
107,112,211896,2,0,P|119:175|161:196,1,85,10|0,0:0|0:0,0:0:0:0:
428,77,212225,2,0,P|366:56|327:82,1,85,2|0,0:0|0:0,0:0:0:0:
288,193,212555,1,10,0:0:0:0:
507,307,212720,5,6,0:2:0:0:
507,307,212802,1,0,0:0:0:0:
507,307,212885,1,6,0:2:0:0:
430,271,213049,1,0,0:0:0:0:
365,326,213214,1,2,0:2:0:0:
285,295,213379,1,0,0:0:0:0:
211,338,213544,1,2,0:2:0:0:
138,292,213709,1,0,0:0:0:0:
66,338,213874,1,8,0:0:0:0:
254,188,214039,5,0,0:0:0:0:
254,188,214121,1,0,0:0:0:0:
254,188,214203,2,0,L|275:92,1,85,6|0,0:2|0:0,0:0:0:0:
70,146,214533,2,0,L|166:167,1,85,8|0,0:0|0:0,0:0:0:0:
430,230,214863,2,0,L|346:211,1,85,2|0,0:2|0:0,0:0:0:0:
346,211,215110,1,0,0:0:0:0:
346,211,215192,1,8,0:0:0:0:
194,365,215357,5,0,0:0:0:0:
194,365,215440,1,0,0:0:0:0:
194,365,215522,2,2,P|161:279|59:290,1,191.250007295609,4|0,0:1|0:0,0:1:0:0:
9,202,216181,1,0,0:0:0:0:
10,187,216264,1,0,0:0:0:0:
12,173,216346,1,0,0:0:0:0:
14,159,216429,1,0,0:0:0:0:
16,145,216511,1,0,0:0:0:0:
18,131,216593,1,0,0:0:0:0:
20,117,216676,1,0,0:0:0:0:
21,103,216758,1,0,0:0:0:0:
23,89,216841,1,6,0:0:0:0:
123,288,237940,6,2,P|77:268|26:268,1,101.999996887207,6|0,0:0|0:0,0:1:0:0:
26,268,238187,1,0,0:0:0:0:
26,268,238269,1,8,0:0:0:0:
217,359,238434,1,2,0:0:0:0:
217,359,238517,2,0,B|248:293|196:284|217:210,1,152.999995330811
424,175,238929,1,8,0:0:0:0:
445,272,239093,1,0,0:0:0:0:
341,80,239258,6,2,P|381:55|449:51,1,101.999996887207,6|0,0:0|0:0,0:1:0:0:
434,48,239506,1,0,0:0:0:0:
434,48,239588,1,8,0:0:0:0:
314,154,239753,2,0,P|253:161|178:106,1,152.999995330811,2|0,0:2|0:0,0:0:0:0:
163,116,240082,2,0,B|120:94|120:94|64:103,1,101.999996887207,2|8,0:1|0:0,0:0:0:0:
0,209,240412,5,4,0:2:0:0:
5,234,240495,1,0,0:0:0:0:
10,258,240577,1,2,0:0:0:0:
96,369,240742,2,0,B|104:332|104:332|98:314|98:314|108:265,1,101.999996887207,0|8,0:0|0:0,0:0:0:0:
254,224,241071,1,2,0:2:0:0:
229,216,241154,1,0,0:0:0:0:
204,209,241236,1,2,0:1:0:0:
287,369,241401,1,0,0:0:0:0:
374,168,241566,1,8,0:0:0:0:
512,220,241731,6,0,P|475:282|403:277,1,152.999995330811,6|0,0:1|0:0,0:0:0:0:
330,300,242060,1,0,0:0:0:0:
302,120,242225,1,8,0:0:0:0:
283,1,242390,1,0,0:0:0:0:
137,180,242555,5,6,0:2:0:0:
89,161,242637,1,0,0:0:0:0:
39,175,242720,1,0,0:0:0:0:
14,219,242802,1,0,0:0:0:0:
24,269,242885,1,8,0:0:0:0:
66,296,242967,1,0,0:0:0:0:
116,300,243049,1,0,0:0:0:0:
152,263,243132,1,0,0:0:0:0:
157,212,243214,6,0,B|118:154|166:83|166:83|129:-13,2,203.999993774414,6|8|0,0:0|0:0|0:0,0:1:0:0:
302,334,244039,1,2,0:0:0:0:
402,358,244203,1,8,0:0:0:0:
411,80,244368,5,0,0:0:0:0:
411,80,244451,1,0,0:0:0:0:
411,80,244533,2,2,P|476:66|520:75,1,101.999996887207,6|0,0:0|0:0,0:1:0:0:
510,71,244780,1,0,0:0:0:0:
510,71,244863,1,8,0:0:0:0:
318,215,245028,2,2,P|413:231|468:148,1,203.999993774414,6|0,0:2|0:0,0:1:0:0:
227,5,245522,1,8,0:0:0:0:
249,125,245687,1,0,0:0:0:0:
127,273,245852,6,0,P|76:278|27:264,1,101.999996887207,6|0,0:0|0:0,0:0:0:0:
27,264,246099,1,0,0:0:0:0:
27,264,246181,1,8,0:0:0:0:
149,59,246346,2,2,B|44:112|44:112|98:221,1,203.999993774414,6|0,0:2|0:0,0:1:0:0:
277,272,246841,1,8,0:0:0:0:
254,377,247006,1,0,0:0:0:0:
499,339,247170,6,2,L|398:326,1,101.999996887207,6|0,0:1|0:0,0:1:0:0:
405,332,247418,1,0,0:0:0:0:
405,332,247500,1,0,0:0:0:0:
327,172,247665,2,2,P|423:160|461:70,1,203.999993774414,6|0,0:2|0:0,0:1:0:0:
290,0,248159,1,0,0:0:0:0:
204,107,248324,1,0,0:0:0:0:
34,60,248489,6,0,P|6:98|22:163,1,93.5000028533936,6|0,0:0|0:0,0:0:0:0:
8,142,248736,1,0,0:0:0:0:
8,142,248819,1,8,0:0:0:0:
203,106,248984,2,0,P|205:152|178:189,1,93.5000028533936,0|0,0:2|0:0,0:0:0:0:
125,46,249313,5,2,0:0:0:0:
295,166,249478,1,8,0:0:0:0:
460,135,249643,5,2,0:0:0:0:
460,135,249725,2,0,P|493:192|433:279,1,140.25000428009,8|0,0:0|0:0,0:0:0:0:
469,258,250055,1,0,0:0:0:0:
469,258,250137,1,8,0:0:0:0:
347,334,250302,2,0,L|339:400,2,46.7500014266968
223,216,250632,5,2,0:2:0:0:
370,196,250797,1,8,0:0:0:0:
76,236,250962,1,0,0:2:0:0:
30,69,251126,6,0,P|15:99|12:133,2,63.7500024318696,6|0|2,1:1|0:0|0:0,0:0:0:0:
98,33,251621,1,0,1:2:0:0:
142,95,251786,2,0,P|138:126|123:154,1,63.7500024318696,8|0,0:0|0:0,0:0:0:0:
193,246,252115,2,0,P|196:214|211:186,1,63.7500024318696,2|0,0:2|0:0,0:0:0:0:
338,144,252445,6,0,L|490:174,1,127.500004863739,4|2,1:2|0:0,0:0:0:0:
493,239,252940,1,0,1:0:0:0:
441,295,253104,2,0,L|315:270,1,127.500004863739,8|2,0:0|0:0,0:0:0:0:
43,278,253599,6,0,P|56:343|177:376,1,203.999993774414,4|8,0:2|3:0,0:0:0:0:
175,376,254011,1,8,3:0:0:0:
175,376,254093,1,4,3:0:0:0:
279,291,254258,5,0,1:0:0:0:
265,263,254341,1,0,1:0:0:0:
258,233,254423,1,8,3:0:0:0:
258,203,254506,1,8,3:0:0:0:
266,173,254588,1,0,1:0:0:0:
280,146,254670,1,0,1:0:0:0:
293,118,254753,1,0,1:0:0:0:
300,89,254835,1,0,1:0:0:0:
299,58,254918,1,0,1:0:0:0:
293,28,255000,1,0,1:0:0:0:
282,0,255082,5,6,0:2:0:0:
107,29,255247,1,0,0:2:0:0:
143,201,255412,1,0,0:2:0:0:
224,237,255577,6,2,B|335:255|335:255|292:223,1,165.749992412568,6|0,0:2|2:0,0:1:0:0:
152,289,255907,6,2,B|80:376|80:376|128:354,1,165.749992412568,6|0,0:2|2:0,0:1:0:0:
143,201,256236,6,0,B|103:95|103:95|97:147,1,164.368752708714,6|2,1:0|0:0,0:0:0:0:
365,174,260192,6,0,P|439:79|527:97,1,203.999993774414,6|0,0:0|0:0,0:1:0:0:
289,112,260687,2,0,L|173:93,1,101.999996887207,8|0,0:1|0:0,0:0:0:0:
188,95,260934,1,0,0:0:0:0:
188,95,261017,1,2,0:2:0:0:
277,25,261181,1,0,0:0:0:0:
218,195,261346,1,8,0:0:0:0:
37,160,261511,5,6,0:2:0:0:
37,160,261593,2,0,P|-2:214|30:306,1,152.999995330811,8|0,0:0|0:0,0:0:0:0:
218,195,262006,2,0,L|203:76,1,101.999996887207,8|0,0:1|0:0,0:0:0:0:
205,93,262253,1,0,0:0:0:0:
205,93,262335,1,2,0:2:0:0:
94,235,262500,1,0,0:0:0:0:
243,358,262665,1,8,0:0:0:0:
414,246,262830,6,0,B|448:135|376:158|410:45,1,203.999993774414,6|0,0:0|0:0,0:0:0:0:
249,216,263324,2,0,P|300:223|340:168,1,101.999996887207,8|0,0:0|0:0,0:0:0:0:
204,38,263654,2,0,P|242:6|291:14,1,101.999996887207,2|0,0:2|0:0,0:0:0:0:
291,14,263901,1,0,0:0:0:0:
291,14,263984,1,8,0:0:0:0:
189,141,264148,6,0,B|46:112|46:112|-28:166,1,203.999993774414,6|0,0:2|0:0,0:0:0:0:
138,310,264643,1,8,0:0:0:0:
40,378,264808,1,0,0:0:0:0:
30,354,264890,1,0,0:0:0:0:
35,329,264973,1,2,0:2:0:0:
168,230,265137,1,0,0:0:0:0:
311,347,265302,1,8,0:0:0:0:
480,208,265467,5,6,0:0:0:0:
480,208,265549,2,0,P|405:244|431:152,1,203.999993774414,8|0,0:0|0:0,0:0:0:0:
307,168,265962,2,0,L|427:155,1,101.999996887207,8|0,0:0|0:0,0:0:0:0:
256,0,266291,1,2,0:2:0:0:
183,131,266456,1,0,0:0:0:0:
183,131,266539,1,0,0:0:0:0:
183,131,266621,1,8,0:0:0:0:
50,102,266786,5,6,0:2:0:0:
50,102,266868,2,0,P|18:158|70:216,1,152.999995330811,8|0,0:0|0:0,0:0:0:0:
176,365,267280,2,0,P|135:336|74:340,1,101.999996887207,8|0,0:0|0:0,0:0:0:0:
84,335,267528,1,0,0:0:0:0:
84,335,267610,1,2,0:2:0:0:
249,271,267775,1,0,0:0:0:0:
341,323,267940,1,8,0:0:0:0:
214,163,268104,5,0,0:0:0:0:
214,163,268187,1,0,0:0:0:0:
214,163,268269,1,6,0:0:0:0:
407,95,268434,1,0,0:0:0:0:
328,236,268599,1,8,0:0:0:0:
266,32,268764,1,0,0:0:0:0:
17,95,268929,6,0,L|127:79,1,101.999996887207,2|0,0:2|0:0,0:0:0:0:
117,80,269176,1,0,0:0:0:0:
117,80,269258,1,8,0:0:0:0:
9,308,269423,2,0,P|50:362|143:348,1,152.999995330811,6|0,0:2|0:0,0:0:0:0:
217,370,269753,5,0,1:0:0:0:
210,345,269835,1,0,1:1:0:0:
204,320,269918,1,8,1:1:0:0:
427,190,270082,5,8,3:3:0:0:
376,180,270165,1,8,3:3:0:0:
326,169,270247,1,4,3:3:0:0:
275,160,270330,1,4,3:3:0:0:
225,150,270412,1,0,1:1:0:0:
173,141,270495,1,0,1:1:0:0:
124,131,270577,1,8,1:1:0:0:
23,290,270742,5,6,0:0:0:0:
23,290,270824,2,0,P|107:282|134:215,1,152.999995330811,8|0,0:0|0:0,0:0:0:0:
266,358,271236,2,0,P|221:333|171:333,1,101.999996887207,8|0,0:1|0:0,0:0:0:0:
0,127,271566,2,0,P|37:160|51:209,1,101.999996887207,2|0,0:2|0:0,0:0:0:0:
51,209,271813,1,0,0:0:0:0:
51,209,271896,1,8,0:0:0:0:
309,270,272060,6,0,B|408:199|415:306|515:223,1,203.999993774414,6|0,0:2|0:0,0:1:0:0:
412,199,272555,2,0,L|398:300,1,101.999996887207,8|0,0:0|0:0,0:0:0:0:
407,312,272802,1,0,0:0:0:0:
416,323,272885,1,2,0:2:0:0:
198,378,273049,1,0,0:0:0:0:
198,378,273132,1,0,0:0:0:0:
198,378,273214,1,8,0:0:0:0:
51,209,273379,5,6,0:1:0:0:
51,209,273462,2,0,P|88:128|186:128,1,152.999995330811,8|0,0:0|0:0,0:0:0:0:
249,264,273874,2,0,L|267:160,1,101.999996887207,8|0,0:0|0:2,0:0:0:0:
255,174,274121,1,0,0:0:0:0:
244,185,274203,1,2,0:2:0:0:
357,348,274368,1,0,0:0:0:0:
357,348,274451,1,0,0:0:0:0:
357,348,274533,1,8,0:0:0:0:
512,122,274698,6,0,B|480:86|480:86|324:100,1,203.999993774414,6|0,0:2|0:0,0:0:0:0:
63,38,275192,1,8,0:0:0:0:
208,2,275357,1,0,0:0:0:0:
215,15,275440,1,0,0:0:0:0:
221,28,275522,1,10,0:0:0:0:
129,309,275687,1,8,0:0:0:0:
67,167,275934,5,0,0:0:0:0:
67,167,276017,2,0,B|161:131|179:222|269:187,1,203.999993774414,6|0,0:1|0:0,0:0:0:0:
434,91,276511,2,0,P|428:41|389:10,1,101.999996887207,8|0,0:0|0:0,0:0:0:0:
389,10,276758,1,0,0:0:0:0:
389,10,276841,1,2,0:2:0:0:
363,147,277006,1,0,0:0:0:0:
465,226,277170,1,8,0:0:0:0:
296,363,277335,6,0,L|93:337,1,203.999993774414,6|0,0:2|0:0,0:0:0:0:
17,201,277830,2,0,P|23:152|68:131,1,101.999996887207,8|0,0:0|0:0,0:0:0:0:
9,299,278159,1,2,0:2:0:0:
196,269,278324,1,0,0:0:0:0:
284,248,278489,1,8,0:0:0:0:
431,118,278654,5,6,0:2:0:0:
431,118,278736,2,0,P|495:155|470:241,1,152.999995330811,8|0,0:0|0:0,0:0:0:0:
472,230,279066,1,0,0:0:0:0:
457,225,279148,1,8,0:2:0:0:
268,199,279313,2,0,L|286:257,2,50.9999984436036,8|8|0,3:3|3:3|1:0,0:0:0:0:
339,123,279643,1,0,1:0:0:0:
341,108,279725,1,0,1:0:0:0:
344,93,279808,1,0,1:0:0:0:
346,78,279890,1,0,1:0:0:0:
349,63,279973,1,0,1:0:0:0:
352,48,280055,1,0,1:0:0:0:
333,33,280137,5,12,0:2:0:0:
337,52,280220,1,0,0:2:0:0:
341,72,280302,1,0,0:2:0:0:
344,93,280385,1,0,0:2:0:0:
348,113,280467,1,8,0:2:0:0:
350,133,280549,1,0,0:2:0:0:
355,154,280632,1,0,0:2:0:0:
358,174,280714,1,0,0:2:0:0:
362,193,280797,1,10,0:2:0:0:
365,214,280879,1,0,0:2:0:0:
367,234,280962,1,0,0:2:0:0:
371,254,281044,1,0,0:2:0:0:
374,275,281126,1,8,0:2:0:0:
377,295,281209,1,0,0:2:0:0:
381,315,281291,1,0,0:2:0:0:
385,336,281374,1,0,0:2:0:0:
388,355,281456,5,6,0:0:0:0:
206,380,281703,1,0,0:0:0:0:
102,248,281951,1,0,0:0:0:0:
266,244,282115,1,0,0:0:0:0:
490,268,282775,5,6,1:2:0:0:
31,148,283929,5,6,1:2:0:0:
447,55,285247,5,4,0:0:0:0:
354,8,285412,2,0,L|337:113,1,85,8|0,0:0|0:0,0:0:0:0:
316,115,285659,1,0,0:0:0:0:
284,118,285742,1,0,0:0:0:0:
252,122,285824,1,0,0:0:0:0:
220,126,285907,1,0,0:0:0:0:
143,91,286071,1,10,0:0:0:0:
368,178,286236,1,8,0:0:0:0:
278,226,286401,1,0,0:0:0:0:
84,332,286566,5,0,1:0:0:0:
84,332,286648,1,0,1:0:0:0:
84,332,286731,1,6,1:0:0:0:
21,250,286978,1,0,0:0:0:0:
182,330,287225,1,0,0:0:0:0:
359,290,287390,1,0,0:0:0:0:
178,19,288049,5,6,1:2:0:0:
464,208,289368,5,0,0:0:0:0:
442,171,289451,1,0,0:0:0:0:
407,148,289533,1,0,0:0:0:0:
365,142,289615,1,0,0:0:0:0:
325,154,289698,1,8,3:0:0:0:
303,190,289780,1,8,3:0:0:0:
268,213,289863,1,8,3:0:0:0:
226,219,289945,1,8,3:0:0:0:
186,207,290028,1,4,3:3:0:0:
163,171,290110,1,4,3:3:0:0:
128,148,290192,1,4,3:3:0:0:
86,142,290275,1,4,3:3:0:0:
46,154,290357,1,0,0:0:0:0:
51,170,290440,1,0,0:0:0:0:
55,186,290522,1,0,0:0:0:0:
60,201,290604,1,0,0:0:0:0:
60,201,292006,6,0,L|144:189,1,85,6|0,0:0|0:0,0:0:0:0:
221,132,292253,1,0,0:1:0:0:
221,132,292335,2,0,L|196:47,1,85,0|0,0:0|0:1,0:0:0:0:
282,20,292582,1,0,0:0:0:0:
282,20,292665,2,0,L|371:31,1,85,2|0,0:2|0:0,0:0:0:0:
366,30,292912,1,0,0:0:0:0:
366,30,292995,1,8,0:0:0:0:
421,215,293159,1,0,0:0:0:0:
189,299,293324,6,0,L|221:128,1,170,4|8,0:2|0:0,0:0:0:0:
313,246,293819,1,0,0:0:0:0:
92,326,293984,1,2,0:2:0:0:
47,249,294148,1,0,0:0:0:0:
239,368,294313,1,8,0:0:0:0:
316,110,294478,5,6,0:2:0:0:
315,110,294560,2,0,P|374:90|424:125,1,127.5
222,229,294973,2,0,L|191:127,1,85,8|0,0:0|0:0,0:0:0:0:
48,103,295302,1,2,0:2:0:0:
170,39,295467,1,0,0:0:0:0:
84,199,295632,1,8,0:0:0:0:
230,323,295797,5,6,0:2:0:0:
231,322,295879,2,0,B|289:302|294:357|351:345,1,127.5
364,333,296209,1,0,0:0:0:0:
371,317,296291,1,10,0:0:0:0:
480,288,296456,1,0,0:0:0:0:
341,167,296621,1,2,0:2:0:0:
400,0,296786,5,0,0:0:0:0:
357,4,296868,1,0,0:0:0:0:
315,9,296951,1,0,0:0:0:0:
273,13,297033,1,0,0:0:0:0:
231,18,297115,1,0,0:0:0:0:
188,23,297198,1,0,0:0:0:0:
146,27,297280,6,0,P|133:73|166:120,1,85,6|0,0:0|0:0,0:0:0:0:
147,105,297528,1,0,0:0:0:0:
147,105,297610,1,0,0:0:0:0:
253,223,297775,1,0,0:0:0:0:
131,298,297940,2,0,L|43:282,1,85,2|0,0:2|0:0,0:0:0:0:
47,282,298187,1,0,0:0:0:0:
47,282,298269,1,8,0:0:0:0:
216,379,298434,1,0,0:0:0:0:
390,235,298599,6,0,P|345:286|385:359,1,127.5,4|0,0:2|0:0,0:0:0:0:
370,357,298929,2,0,L|458:341,1,85,8|0,0:0|0:0,0:0:0:0:
453,341,299176,1,0,0:0:0:0:
453,341,299258,1,2,0:2:0:0:
320,259,299423,1,0,0:0:0:0:
218,280,299588,1,8,0:0:0:0:
218,280,299753,1,0,0:0:0:0:
191,92,299918,5,4,0:2:0:0:
481,16,300165,1,0,0:0:0:0:
481,16,300247,2,0,L|383:-4,1,85,8|0,0:0|0:0,0:0:0:0:
319,163,300577,1,2,0:2:0:0:
448,111,300742,1,0,0:0:0:0:
448,111,300824,1,0,0:0:0:0:
448,111,300907,1,8,0:2:0:0:
283,34,301071,1,0,0:0:0:0:
198,258,301236,5,6,0:2:0:0:
198,258,301319,1,0,0:0:0:0:
120,248,301484,1,8,0:2:0:0:
120,248,301566,1,0,0:0:0:0:
42,238,301731,1,8,0:2:0:0:
182,21,301896,5,8,3:3:0:0:
149,25,301978,1,8,3:3:0:0:
118,31,302060,1,8,3:3:0:0:
86,36,302143,1,8,3:3:0:0:
56,42,302225,5,4,3:3:0:0:
105,48,302308,1,4,3:3:0:0:
156,56,302390,1,4,3:3:0:0:
210,63,302473,1,4,3:3:0:0:
261,70,302555,6,0,P|273:128|240:165,1,85,6|0,0:0|0:0,0:0:0:0:
261,148,302802,1,0,0:0:0:0:
261,148,302885,1,0,0:0:0:0:
410,212,303049,1,0,0:0:0:0:
333,363,303214,2,0,P|321:305|354:268,1,85,2|0,0:2|0:0,0:0:0:0:
332,284,303462,1,0,0:0:0:0:
332,284,303544,1,8,0:0:0:0:
505,250,303709,1,0,0:0:0:0:
366,123,303874,6,0,P|409:120|456:80,1,85,4|0,0:2|0:0,0:0:0:0:
413,26,304121,1,0,0:0:0:0:
413,26,304203,2,0,P|370:29|323:69,1,85,8|0,0:0|0:0,0:0:0:0:
290,215,304533,1,2,0:2:0:0:
175,191,304698,1,0,0:0:0:0:
227,9,304863,1,8,0:0:0:0:
0,85,305028,6,0,P|55:69|160:131,1,170,6|0,0:2|0:0,0:0:0:0:
179,195,305440,1,0,0:0:0:0:
179,195,305522,2,0,L|156:281,1,85,8|0,0:0|0:0,0:0:0:0:
64,220,305852,5,0,0:0:0:0:
273,177,306017,1,8,0:0:0:0:
482,134,306181,1,8,0:0:0:0:
377,313,306346,6,0,P|428:368|521:330,1,170,6|0,0:2|0:0,0:0:0:0:
363,166,306841,2,0,L|252:150,1,85,8|0,0:0|0:0,0:0:0:0:
197,0,307170,1,2,0:2:0:0:
0,118,307335,1,0,0:0:0:0:
42,112,307418,1,0,0:0:0:0:
84,107,307500,1,0,0:0:0:0:
126,102,307582,1,0,0:0:0:0:
167,97,307665,6,0,B|198:213|146:165|183:288,1,170,6|0,0:0|0:0,0:0:0:0:
298,325,308159,1,8,0:0:0:0:
101,381,308324,1,0,0:0:0:0:
101,381,308407,1,0,0:0:0:0:
101,381,308489,1,2,0:2:0:0:
151,176,308654,1,0,0:0:0:0:
183,279,308819,1,8,0:0:0:0:
385,240,308984,5,6,0:2:0:0:
385,240,309066,2,0,P|398:178|370:120,1,127.5,8|0,0:0|0:0,0:0:0:0:
182,33,309478,2,0,B|269:23,1,85,8|0,0:0|0:0,0:0:0:0:
266,23,309725,1,0,0:0:0:0:
266,23,309808,1,2,0:2:0:0:
236,116,309973,1,8,0:0:0:0:
62,61,310137,1,8,0:0:0:0:
153,271,310302,6,0,P|85:263|12:362,1,170,6|0,0:0|0:0,0:0:0:0:
222,373,310797,1,8,0:0:0:0:
264,226,310962,1,0,0:0:0:0:
264,226,311044,1,0,0:0:0:0:
264,226,311126,2,0,L|243:83,1,127.5,4|0,0:2|0:0,0:0:0:0:
278,30,311456,1,8,0:0:0:0:
512,190,311621,6,0,P|405:204|345:134,1,170,6|0,0:1|0:0,0:0:0:0:
240,363,312115,2,0,P|278:348|345:343,1,85,8|0,0:0|0:0,0:0:0:0:
222,134,312445,1,2,0:2:0:0:
220,183,312528,1,0,0:0:0:0:
198,227,312610,1,0,0:0:0:0:
160,257,312692,1,0,0:0:0:0:
112,269,312775,1,0,0:0:0:0:
64,260,312857,1,0,0:0:0:0:
24,232,312940,6,0,B|228:181|152:294|359:241,1,340,6|0,0:0|0:0,0:0:0:0:
502,262,314423,5,10,3:2:0:0:
510,235,314506,1,0,3:2:0:0:
512,207,314588,1,0,3:2:0:0:
505,179,314670,1,0,3:2:0:0:
492,155,314753,5,8,0:0:0:0:
475,168,314835,1,8,3:0:0:0:
453,171,314918,1,8,3:0:0:0:
432,168,315000,1,8,3:0:0:0:
407,182,315082,5,12,3:0:0:0:
397,162,315165,1,4,3:0:0:0:
366,142,315247,5,0,0:0:0:0:
366,99,315330,1,0,0:0:0:0:
345,61,315412,1,0,0:0:0:0:
309,36,315495,1,0,0:0:0:0:
267,28,315577,1,0,0:0:0:0:
225,36,315659,1,0,0:0:0:0:
191,62,315742,6,0,B|174:118|174:118|192:176,1,110.499994941712,6|8,0:0|0:0,0:0:0:0:
246,327,316071,1,0,0:0:0:0:
112,274,316236,1,4,0:2:0:0:
304,203,316401,1,8,3:0:0:0:
335,229,316483,1,8,3:0:0:0:
374,243,316566,1,4,3:0:0:0:
415,243,316648,1,4,3:0:0:0:
454,229,316731,6,0,P|470:126|381:29,1,237.999992736817,6|0,0:1|0:0,0:0:0:0:
313,11,317143,1,0,0:0:0:0:
313,11,317225,1,2,0:2:0:0:
269,122,317390,1,8,3:3:0:0:
230,143,317472,1,8,3:3:0:0:
186,150,317555,1,4,3:3:0:0:
142,142,317637,1,4,3:3:0:0:
104,120,317720,6,0,P|52:116|-17:159,1,127.500004863739,6|0,0:2|0:0,0:0:0:0:
408,264,318049,2,0,P|460:268|529:225,1,127.500004863739,6|0,0:2|0:0,0:0:0:0:
250,382,318379,1,8,0:0:0:0:
244,338,318461,1,0,0:0:0:0:
239,297,318544,1,0,0:0:0:0:
235,257,318626,1,0,0:0:0:0:
231,215,318709,6,0,B|244:117,1,85,6|8,0:1|0:3,0:0:0:0:
323,117,318956,1,8,0:3:0:0:
323,117,319038,1,8,0:3:0:0:
326,4,319203,5,8,3:0:0:0:
352,0,319285,1,8,3:0:0:0:
379,5,319368,1,0,1:0:0:0:
403,17,319450,1,0,1:0:0:0:
423,35,319533,1,0,1:0:0:0:
436,58,319615,1,0,1:0:0:0:
443,84,319698,1,4,3:0:0:0:
442,111,319780,1,4,3:0:0:0:
433,136,319862,1,4,3:0:0:0:
418,159,319945,1,4,3:0:0:0:
396,176,320027,1,0,1:3:0:0:
372,185,320110,1,0,1:3:0:0:
348,195,320192,1,8,3:3:0:0:
326,212,320274,1,8,3:3:0:0:
310,234,320357,1,4,3:0:0:0:
302,259,320439,1,4,3:0:0:0:
301,286,320522,1,8,3:0:0:0:
307,312,320604,1,8,3:0:0:0:
321,336,320687,1,0,1:0:0:0:
341,354,320769,1,0,1:0:0:0:
365,366,320851,1,0,1:0:0:0:
392,370,320934,1,0,1:0:0:0:
415,368,321016,6,0,B|491:342|545:243|524:46|241:79|164:265|312:372|312:372|310:317|355:288|355:288|393:271|388:133|321:89|321:89|320:81|320:81|217:99|177:199|177:199|214:104|182:19|11:-35|-79:106|-51:263|124:274|124:274|89:254|60:211|95:137,1,1870,6|0,1:1|0:0,0:0:0:0:
