osu file format v14

[General]
AudioFilename: audio.ogg
AudioLeadIn: 0
PreviewTime: 193529
Countdown: 0
SampleSet: Soft
StackLeniency: 0.7
Mode: 0
LetterboxInBreaks: 0
WidescreenStoryboard: 1

[Editor]
DistanceSpacing: 1
BeatDivisor: 4
GridSize: 32
TimelineZoom: 1

[Metadata]
Title:Kaikou no Phetaritette
TitleUnicode:邂逅のフェタリテート
Artist:Ayane
ArtistUnicode:彩音
Creator:Matsuyuki Ame
Version:Insane
Source:STEINS;GATE 線形拘束のフェノグラム
Tags:rk657 visual novel video game s;g 5pb nitroplus nitro+ spike chunsoft linear bounded phenogram senkei kousoku no mosaicism mozaishizumu fenoguramu science adventure japanese rock jrock j-rock
BeatmapID:4426661
BeatmapSetID:2104916

[Difficulty]
HPDrainRate:5
CircleSize:4
OverallDifficulty:8
ApproachRate:8.8
SliderMultiplier:1.5
SliderTickRate:1

[Events]
//Background and Video events
0,0,"bg.jpg",0,0
//Break Periods
2,194759,199376
//Storyboard Layer 0 (Background)
//Storyboard Layer 1 (Fail)
//Storyboard Layer 2 (Pass)
//Storyboard Layer 3 (Foreground)
//Storyboard Layer 4 (Overlay)
//Storyboard Sound Samples

[TimingPoints]
661,327.868852459016,4,2,1,40,1,0
661,-125,4,2,1,40,0,0
19021,-125,4,2,1,55,0,0
20333,-100,4,2,1,55,0,0
21644,-100,4,2,1,70,0,0
32136,-100,4,2,1,60,0,0
32464,-111.111111111111,4,2,1,60,0,0
37382,-100,4,2,1,70,0,0
42628,-111.111111111111,4,2,1,60,0,0
47874,-100,4,2,1,70,0,0
53447,-111.111111111111,4,2,1,60,0,0
66234,-111.111111111111,4,2,1,70,0,0
76562,-90.9090909090908,4,2,1,75,0,0
98038,-111.111111111111,4,2,1,60,0,0
113447,-100,4,2,1,70,0,0
118693,-111.111111111111,4,2,1,60,0,0
123939,-100,4,2,1,70,0,0
129513,-111.111111111111,4,2,1,60,0,0
142300,-111.111111111111,4,2,1,70,0,0
152464,-90.9090909090908,4,2,1,70,0,0
152628,-90.9090909090908,4,2,1,75,0,0
171152,-100,4,2,1,75,0,0
193611,-100,4,2,1,40,0,0
200005,-125,4,2,1,40,0,0
201316,-125,4,2,1,55,0,0
202628,-100,4,2,1,60,0,0
203283,-100,4,2,1,65,0,0
205251,-90.9090909090908,4,2,1,75,0,0

[Colours]
Combo1 : 180,183,53
Combo2 : 109,184,154
Combo3 : 97,141,207
Combo4 : 240,32,125

[HitObjects]
359,106,661,6,0,P|387:162|377:216,1,120,0|0,3:2|0:0,0:0:0:0:
376,216,1152,1,0,3:2:0:0:
262,172,1316,2,0,P|269:114|278:50,1,120,8|0,0:0|0:0,0:0:0:0:
180,22,1808,2,0,P|189:56|193:85,1,60,8|0,0:0|0:0,0:0:0:0:
143,152,2136,1,8,0:0:0:0:
143,152,2300,2,0,P|108:144|77:140,1,60,0|0,3:2|3:2,0:0:0:0:
7,251,2628,2,0,B|67:232|55:266|124:246,1,120,8|0,0:0|0:0,0:0:0:0:
271,372,3283,6,0,P|240:309|250:250,1,120,0|0,3:2|0:0,0:0:0:0:
245,261,3775,1,0,3:2:0:0:
311,151,3939,2,0,P|342:214|332:273,1,120,8|0,0:0|0:0,0:0:0:0:
423,324,4431,2,0,L|359:340,1,60,8|0,0:0|0:0,0:0:0:0:
364,338,4759,1,0,0:0:0:0:
417,214,4923,2,0,P|426:229|430:253,4,30,2|2|2|2|10,3:2|0:0|3:2|0:0|0:0,0:0:0:0:
509,274,5579,1,2,0:0:0:0:
400,136,5906,6,0,P|392:91|427:21,1,120,2|0,3:2|0:0,0:0:0:0:
422,25,6398,1,0,3:2:0:0:
315,61,6562,2,0,B|275:52|275:52|252:60|252:60|191:46,1,120,8|2,0:0|0:0,0:0:0:0:
170,149,7054,2,0,L|232:129,1,60,2|0,0:0|3:2,0:0:0:0:
287,227,7382,1,0,0:0:0:0:
287,227,7546,2,0,P|257:226|229:214,1,60,0|0,3:2|3:2,0:0:0:0:
99,169,7874,2,0,L|124:289,1,120,8|0,0:0|0:0,0:0:0:0:
348,369,8529,6,0,B|367:313|341:312|361:244,1,120,0|0,3:2|0:0,0:0:0:0:
359,250,9021,1,0,3:2:0:0:
255,340,9185,2,0,P|222:367|149:361,1,120,8|0,0:0|0:0,0:0:0:0:
148,360,9841,1,0,3:2:0:0:
49,340,10005,1,8,0:0:0:0:
121,270,10169,2,0,P|134:237|136:204,1,60,0|0,3:2|0:0,0:0:0:0:
55,146,10497,2,0,L|59:165,6,20,2|2|2|2|2|2|2,0:0|0:0|0:0|0:0|0:0|0:0|0:0,0:0:0:0:
193,29,11152,6,0,P|256:17|306:50,1,120,2|2,3:2|0:0,0:0:0:0:
301,44,11644,1,0,3:2:0:0:
399,8,11808,2,0,L|369:131,1,120,8|2,0:0|0:0,0:0:0:0:
234,139,12300,2,0,P|263:125|304:123,1,60,0|2,0:0|0:0,0:0:0:0:
381,211,12628,1,0,0:0:0:0:
381,211,12792,2,0,L|319:195,1,60,2|2,3:2|3:2,0:0:0:0:
217,283,13120,2,0,B|283:263|260:301|351:277,1,120,8|0,0:0|0:0,0:0:0:0:
498,138,13775,6,0,P|453:111|369:120,1,120,2|2,3:2|0:0,0:0:0:0:
274,64,14267,2,0,P|288:100|289:133,1,60,2|8,3:2|0:0,0:0:0:0:
193,184,14595,2,0,L|207:110,1,60,2|0,0:0|0:0,0:0:0:0:
104,21,14923,2,0,B|115:58|115:58|104:84|104:84|123:141,1,120,2|2,0:0|0:0,0:0:0:0:
99,211,15415,1,0,3:2:0:0:
99,211,15497,1,2,0:0:0:0:
99,211,15579,2,0,L|17:201,2,60,10|2|0,0:0|0:0|0:0,0:0:0:0:
167,269,16070,1,10,0:0:0:0:
322,378,16398,6,0,P|293:318|312:250,1,120,2|0,3:2|0:0,0:0:0:0:
301,267,16890,1,0,3:2:0:0:
228,197,17054,2,0,P|235:138|207:86,1,120,8|2,0:0|0:0,0:0:0:0:
312,17,17546,1,2,0:0:0:0:
312,17,17628,1,0,0:0:0:0:
312,17,17710,2,0,L|295:87,1,60,0|8,3:2|0:0,0:0:0:0:
400,131,18038,2,0,P|396:95|378:61,1,60,0|0,3:2|3:2,0:0:0:0:
309,191,18365,2,0,P|368:224|442:212,1,120,8|2,0:0|0:0,0:0:0:0:
247,344,19021,6,0,L|116:372,1,120,2|0,3:2|3:2,0:0:0:0:
129,369,19513,1,0,3:2:0:0:
20,294,19677,2,0,P|55:305|94:312,1,60,8|0,0:0|0:0,0:0:0:0:
170,219,20005,2,0,P|165:265|151:297,1,60,0|0,3:2|0:0,0:0:0:0:
47,191,20333,6,0,P|41:168|33:149,3,37.5,0|0|0|0,3:2|3:2|3:2|3:2,0:0:0:0:
85,57,20660,2,0,P|91:80|99:99,3,37.5,0|0|0|0,3:2|3:2|3:2|3:2,0:0:0:0:
155,145,20988,1,2,3:2:0:0:
8,85,21152,1,2,3:2:0:0:
184,1,21316,2,0,P|230:29|284:19,1,112.5,10|0,0:0|0:0,0:0:0:0:
284,19,21644,6,0,P|326:81|299:156,1,150,4|10,3:2|0:0,0:0:0:0:
194,212,22136,2,0,L|217:122,1,75,0|0,0:0|3:2,0:0:0:0:
365,207,22464,1,2,3:2:0:0:
315,293,22628,2,0,P|280:296|239:315,1,75,8|0,0:0|0:0,0:0:0:0:
38,355,22956,6,0,B|109:372|109:372|116:321|157:281,1,150,2|8,3:2|0:0,0:0:0:0:
28,197,23447,1,2,0:0:0:0:
28,197,23529,1,0,0:0:0:0:
28,197,23611,2,0,P|23:239|40:273,1,75,0|2,3:2|3:2,0:0:0:0:
192,203,23939,2,0,P|156:200|112:187,1,75,10|0,0:0|0:0,0:0:0:0:
55,114,24267,5,0,3:2:0:0:
55,114,24431,1,0,3:2:0:0:
177,16,24595,2,0,B|260:-12|239:37|330:6,1,150,10|0,0:0|3:2,0:0:0:0:
493,61,25087,2,0,P|437:50|399:132,1,150,2|0,3:2|0:0,0:0:0:0:
265,181,25579,2,0,B|282:97,1,75,2|0,3:2|3:2,0:0:0:0:
348,203,25906,1,8,0:0:0:0:
177,153,26070,2,0,P|191:195|194:237,1,75,2|0,0:0|3:2,0:0:0:0:
227,361,26398,1,2,3:2:0:0:
283,253,26562,1,10,0:0:0:0:
148,300,26726,1,0,3:2:0:0:
366,340,26890,6,0,B|449:355|433:317|519:336,2,150,0|10|0,3:2|0:0|3:2,0:0:0:0:
400,223,27710,2,0,B|433:242|433:242|472:232,1,75,2|8,3:2|0:0,0:0:0:0:
427,136,28038,1,0,0:0:0:0:
309,256,28201,2,0,P|267:192|290:121,1,150,2|8,3:2|0:0,0:0:0:0:
349,9,28693,2,0,L|363:91,1,75,2|0,0:0|3:2,0:0:0:0:
244,22,29021,1,2,3:2:0:0:
176,144,29185,2,0,L|162:62,1,75,10|0,0:0|0:0,0:0:0:0:
301,218,29513,5,0,3:2:0:0:
301,218,29677,1,0,3:2:0:0:
236,318,29841,2,0,P|208:281|176:254,1,75,10|0,0:0|0:0,0:0:0:0:
416,207,30169,2,0,P|397:249|390:290,1,75,8|2,0:0|3:2,0:0:0:0:
238,113,30497,2,0,P|284:107|323:93,1,75,8|0,0:0|3:2,0:0:0:0:
301,218,30824,5,10,0:0:0:0:
167,176,30988,1,0,3:2:0:0:
228,28,31152,2,0,P|243:75|242:120,1,75,8|2,0:0|3:2,0:0:0:0:
115,228,31480,1,0,3:2:0:0:
19,153,31644,1,8,0:0:0:0:
35,144,31726,1,8,0:0:0:0:
52,137,31808,1,8,0:0:0:0:
70,133,31890,1,8,0:0:0:0:
88,131,31972,2,0,P|136:140|168:143,1,75,8|0,0:0|3:2,0:0:0:0:
298,335,32464,6,0,P|253:370|165:355,1,134.999995880127,10|0,0:0|0:0,0:0:0:0:
178,364,33120,2,0,P|168:317|155:284,1,67.4999979400635,8|0,0:0|0:0,0:0:0:0:
252,205,33447,2,0,B|259:242|259:242|235:284,1,67.4999979400635,2|0,0:0|0:0,0:0:0:0:
92,224,33775,1,10,0:0:0:0:
92,224,33939,2,0,P|131:214|182:205,1,67.4999979400635,2|0,3:2|0:0,0:0:0:0:
283,120,34267,1,2,3:2:0:0:
200,68,34431,2,0,P|198:116|187:145,1,67.4999979400635,8|0,0:0|3:2,0:0:0:0:
329,226,34759,5,0,3:2:0:0:
329,226,34923,1,0,3:2:0:0:
420,174,35087,2,0,P|455:131|434:52,1,134.999995880127,10|2,0:0|0:0,0:0:0:0:
439,57,35742,2,0,P|401:53|366:41,1,67.4999979400635,8|0,0:0|0:0,0:0:0:0:
266,162,36070,2,0,L|355:143,1,67.4999979400635,2|0,0:0|0:0,0:0:0:0:
420,174,36398,1,10,0:0:0:0:
307,303,36562,2,0,P|320:257|319:218,1,67.4999979400635,2|8,3:2|0:0,0:0:0:0:
498,227,36890,1,2,3:2:0:0:
425,371,37054,2,0,P|421:337|411:305,1,67.4999979400635,8|0,0:0|0:0,0:0:0:0:
266,162,37382,6,0,P|208:196|120:179,1,150,14|0,0:0|3:2,0:0:0:0:
7,114,37874,2,0,P|26:161|30:209,1,75,8|0,0:0|3:2,0:0:0:0:
176,108,38201,1,0,3:2:0:0:
117,15,38365,2,0,P|101:53|95:86,1,75,8|0,0:0|3:2,0:0:0:0:
33,280,38693,2,0,P|67:341|130:311,1,150,8|0,0:0|3:2,0:0:0:0:
208,205,39185,2,0,L|128:186,1,75,8|2,0:0|3:2,0:0:0:0:
212,382,39513,1,0,3:2:0:0:
271,257,39677,1,8,0:0:0:0:
137,312,39841,1,0,3:2:0:0:
343,339,40005,6,0,B|427:356|403:306|497:327,1,150,10|0,0:0|3:2,0:0:0:0:
385,187,40497,2,0,P|384:235|372:267,1,75,8|0,0:0|3:2,0:0:0:0:
467,211,40824,1,0,3:2:0:0:
313,156,40988,1,10,0:0:0:0:
450,57,41152,2,0,P|396:68|337:4,1,150,0|0,3:2|3:2,0:0:0:0:
200,2,41644,2,0,P|212:53|217:91,1,75,8|0,0:0|3:2,0:0:0:0:
313,156,41972,1,8,0:0:0:0:
134,129,42136,1,0,3:2:0:0:
230,274,42300,2,0,P|215:216|207:154,1,112.5,0|0,3:2|0:0,0:0:0:0:
208,163,42628,6,0,P|144:178|75:140,1,134.999995880127,0|10,3:2|0:0,0:0:0:0:
84,150,43283,2,0,P|48:161|10:164,1,67.4999979400635,0|2,3:2|3:2,0:0:0:0:
54,302,43611,2,0,P|65:263|68:232,1,67.4999979400635,8|0,0:0|0:0,0:0:0:0:
209,164,43939,2,0,P|194:233|186:303,1,134.999995880127,2|10,3:2|0:0,0:0:0:0:
275,375,44431,2,0,B|296:349|296:349|290:306,1,67.4999979400635,2|0,3:2|0:0,0:0:0:0:
397,175,44759,1,2,3:2:0:0:
303,154,44923,2,0,B|298:187|298:187|319:213,1,67.4999979400635,8|0,0:0|0:0,0:0:0:0:
495,252,45251,5,0,3:2:0:0:
495,252,45415,1,0,0:0:0:0:
423,325,45579,2,0,B|354:298|365:341|280:311,2,134.999995880127,10|2|10,0:0|3:2|0:0,0:0:0:0:
473,159,46562,2,0,L|394:182,1,67.4999979400635,2|0,3:2|0:0,0:0:0:0:
319,213,46890,1,10,0:0:0:0:
355,59,47054,2,0,P|354:99|341:135,1,67.4999979400635,2|0,3:2|0:0,0:0:0:0:
201,156,47382,1,2,3:2:0:0:
230,15,47546,2,0,P|245:44|252:77,1,67.4999979400635,8|0,0:0|3:2,0:0:0:0:
136,244,47874,6,0,P|76:207|-4:217,1,150,14|0,0:0|3:2,0:0:0:0:
77,342,48365,2,0,P|117:326|152:324,1,75,8|0,0:0|3:2,0:0:0:0:
276,276,48693,1,0,3:2:0:0:
218,145,48857,2,0,P|215:189|204:233,1,75,8|0,0:0|3:2,0:0:0:0:
378,378,49185,6,0,P|418:319|388:242,1,150,8|0,0:0|3:2,0:0:0:0:
508,142,49677,2,0,P|465:156|430:159,1,75,8|2,0:0|3:2,0:0:0:0:
256,123,50005,1,0,3:2:0:0:
362,188,50169,1,8,0:0:0:0:
409,50,50333,1,0,3:2:0:0:
242,124,50497,6,0,B|166:144|181:103|94:133,1,150,10|0,0:0|3:2,0:0:0:0:
36,30,50988,2,0,B|66:50|66:50|112:44,1,75,8|0,0:0|3:2,0:0:0:0:
188,46,51316,1,0,3:2:0:0:
30,129,51480,1,10,0:0:0:0:
198,41,51644,2,0,P|180:117|173:199,1,150,0|0,3:2|3:2,0:0:0:0:
100,286,52136,2,0,L|85:213,1,75,8|0,0:0|3:2,0:0:0:0:
272,164,52464,1,10,0:0:0:0:
279,179,52546,1,8,0:0:0:0:
280,195,52628,1,0,3:2:0:0:
277,211,52710,1,0,3:2:0:0:
272,227,52792,2,0,P|233:234|197:250,1,75,8|0,0:0|0:0,0:0:0:0:
33,321,53447,6,0,P|67:363|141:348,1,134.999995880127,6|2,3:2|3:2,0:0:0:0:
249,310,53939,2,0,L|321:323,1,67.4999979400635,2|8,3:2|0:0,0:0:0:0:
151,201,54267,2,0,P|164:235|166:274,1,67.4999979400635,2|0,3:2|0:0,0:0:0:0:
298,238,54595,1,2,3:2:0:0:
298,238,54759,1,8,0:0:0:0:
232,160,54923,2,0,P|235:126|247:95,1,67.4999979400635,2|0,0:0|3:2,0:0:0:0:
319,5,55251,2,0,P|358:39|334:122,1,134.999995880127,2|0,3:2|0:0,0:0:0:0:
469,210,55742,6,0,B|402:230|415:188|320:219,1,134.999995880127,2|8,3:2|0:0,0:0:0:0:
399,326,56234,2,0,P|435:318|475:313,1,67.4999979400635,2|0,0:0|3:2,0:0:0:0:
296,368,56562,1,0,3:2:0:0:
296,368,56726,2,0,B|316:337|316:337|307:288,1,67.4999979400635,10|0,0:0|0:0,0:0:0:0:
269,161,57054,2,0,P|264:198|257:242,1,67.4999979400635,2|0,3:2|3:2,0:0:0:0:
99,283,57382,2,0,P|103:245|111:202,1,67.4999979400635,10|0,0:0|0:0,0:0:0:0:
161,86,57710,2,0,P|166:119|170:152,1,67.4999979400635,2|0,3:2|3:2,0:0:0:0:
185,269,58038,1,10,0:0:0:0:
37,197,58201,1,0,3:2:0:0:
192,8,58693,6,0,P|235:38|313:26,1,134.999995880127,6|2,3:2|3:2,0:0:0:0:
465,4,59185,2,0,P|453:44|450:82,1,67.4999979400635,2|8,3:2|0:0,0:0:0:0:
374,171,59513,2,0,P|366:122|358:87,1,67.4999979400635,2|0,3:2|0:0,0:0:0:0:
466,156,59841,1,2,3:2:0:0:
466,156,60005,1,8,0:0:0:0:
345,258,60169,2,0,P|383:246|421:240,1,67.4999979400635,2|0,0:0|3:2,0:0:0:0:
512,352,60497,2,0,B|437:332|452:375|359:351,1,134.999995880127,2|0,3:2|0:0,0:0:0:0:
236,239,60988,6,0,P|270:281|251:363,1,134.999995880127,2|8,3:2|0:0,0:0:0:0:
87,337,61480,2,0,P|53:295|72:213,1,134.999995880127,2|0,0:0|3:2,0:0:0:0:
168,158,61972,2,0,P|157:202|152:243,1,67.4999979400635,10|0,0:0|0:0,0:0:0:0:
244,130,62300,1,2,3:2:0:0:
73,73,62464,2,0,P|78:106|87:138,1,67.4999979400635,0|8,3:2|0:0,0:0:0:0:
259,30,62792,5,2,0:0:0:0:
259,30,62874,1,8,0:0:0:0:
259,30,62956,2,0,L|216:20,3,33.7499989700318,8|8|0|0,0:0|0:0|3:2|3:2,0:0:0:0:
157,0,63283,1,2,0:3:0:0:
148,18,63365,1,2,0:3:0:0:
144,38,63447,1,0,3:2:0:0:
147,57,63529,1,0,3:2:0:0:
154,75,63611,1,0,3:2:0:0:
325,204,63939,6,0,P|392:170|465:180,1,134.999995880127,6|2,3:2|3:2,0:0:0:0:
473,273,64431,2,0,L|402:260,1,67.4999979400635,2|8,3:2|0:0,0:0:0:0:
344,358,64759,2,0,L|415:345,1,67.4999979400635,2|0,3:2|0:0,0:0:0:0:
301,282,65087,1,2,3:2:0:0:
301,282,65251,1,8,0:0:0:0:
200,375,65415,2,0,P|194:332|182:299,1,67.4999979400635,2|0,0:0|3:2,0:0:0:0:
250,173,65742,2,0,P|305:206|282:284,1,134.999995880127,2|0,3:2|0:0,0:0:0:0:
101,224,66234,6,0,P|92:171|159:113,1,134.999995880127,2|8,3:2|0:0,0:0:0:0:
313,59,66726,1,2,3:2:0:0:
207,23,66890,1,8,0:0:0:0:
207,23,67054,1,0,3:2:0:0:
250,173,67218,2,0,P|292:176|323:185,1,67.4999979400635,10|0,0:0|3:2,0:0:0:0:
454,75,67546,6,0,P|417:91|382:100,1,67.4999979400635,10|0,0:0|3:2,0:0:0:0:
426,239,67874,2,0,P|443:201|442:149,1,67.4999979400635,10|0,0:0|0:0,0:0:0:0:
332,3,68201,2,0,P|286:32|311:114,1,134.999995880127,10|10,0:0|0:0,0:0:0:0:
296,103,68693,1,0,0:0:0:0:
203,238,68857,6,0,B|135:222|139:255|46:232,1,134.999995880127,2|0,3:2|3:2,0:0:0:0:
69,236,69349,1,0,0:0:0:0:
157,358,69513,2,0,P|209:363|268:301,1,134.999995880127,2|0,3:2|3:2,0:0:0:0:
286,238,70005,1,8,0:0:0:0:
286,238,70087,1,8,0:0:0:0:
286,238,70169,1,2,3:2:0:0:
370,275,70333,1,8,0:0:0:0:
424,201,70497,2,0,P|460:196|493:182,1,67.4999979400635,0|0,3:2|0:0,0:0:0:0:
410,26,70824,5,2,3:2:0:0:
332,175,70988,1,8,0:0:0:0:
437,113,71152,2,0,P|387:106|358:97,1,67.4999979400635,0|8,3:2|0:0,0:0:0:0:
296,71,71398,1,8,0:0:0:0:
306,64,71480,2,0,P|319:32|325:0,1,67.4999979400635,2|8,3:2|0:0,0:0:0:0:
163,68,71808,2,0,P|168:101|181:132,1,67.4999979400635,0|0,3:2|0:0,0:0:0:0:
247,284,72136,2,0,L|271:144,1,134.999995880127,0|0,3:2|3:2,0:0:0:0:
160,224,72628,5,8,0:0:0:0:
160,224,72710,1,8,0:0:0:0:
160,224,72792,1,0,3:2:0:0:
59,185,72956,1,8,0:0:0:0:
6,285,73120,2,0,P|23:327|24:361,1,67.4999979400635,0|0,3:2|0:0,0:0:0:0:
249,374,73447,5,0,3:2:0:0:
196,296,73611,1,8,0:0:0:0:
106,333,73775,1,0,3:2:0:0:
106,333,73939,1,0,3:2:0:0:
276,233,74103,5,8,0:0:0:0:
170,379,74267,1,0,3:2:0:0:
170,379,74431,1,0,3:2:0:0:
370,321,74595,2,0,P|331:317|297:308,1,67.4999979400635,8|0,0:0|3:2,0:0:0:0:
179,204,74923,1,0,3:2:0:0:
283,105,75087,1,8,0:0:0:0:
196,296,75251,5,0,3:2:0:0:
121,264,75579,1,2,3:2:0:0:
65,322,75906,1,2,3:2:0:0:
139,353,76070,1,10,3:2:0:0:
56,173,76234,2,0,P|48:219|42:251,1,67.4999979400635,10|2,3:2|0:0,0:0:0:0:
248,378,76562,6,0,P|295:318|262:221,1,165.000005035401,6|0,3:2|0:0,0:0:0:0:
160,116,77054,2,0,B|150:157|150:157|181:194,1,82.5000025177003,8|0,0:0|0:0,0:0:0:0:
323,145,77382,1,2,3:2:0:0:
205,46,77546,1,0,3:2:0:0:
296,0,77710,2,0,P|286:40|276:96,1,82.5000025177003,8|0,0:0|0:0,0:0:0:0:
441,187,78038,6,0,P|451:147|461:91,1,82.5000025177003,2|0,3:2|3:2,0:0:0:0:
329,147,78365,1,10,0:0:0:0:
475,279,78529,2,0,B|386:250|409:307|309:275,1,165.000005035401,2|2,0:0|3:2,0:0:0:0:
231,222,79021,1,10,0:0:0:0:
231,222,79185,1,2,3:2:0:0:
163,373,79349,6,0,B|195:349|195:349|240:355,1,82.5000025177003,2|0,3:2|3:2,0:0:0:0:
313,276,79677,1,10,0:0:0:0:
137,202,79841,2,0,P|154:250|156:286,1,82.5000025177003,2|0,0:0|3:2,0:0:0:0:
294,127,80169,1,2,3:2:0:0:
231,222,80333,1,10,0:0:0:0:
103,119,80497,2,0,P|60:112|3:210,1,165.000005035401,2|0,0:0|3:2,0:0:0:0:
60,341,80988,6,0,P|66:291|75:254,1,82.5000025177003,10|0,0:0|0:0,0:0:0:0:
206,156,81316,1,2,3:2:0:0:
156,281,81480,1,0,3:2:0:0:
288,322,81644,2,0,B|294:276|294:276|258:241,1,82.5000025177003,10|0,0:0|0:0,0:0:0:0:
163,68,81972,6,0,B|260:38|234:91|346:60,1,165.000005035401,2|10,3:2|0:0,0:0:0:0:
386,187,82464,2,0,L|287:170,1,82.5000025177003,2|0,0:0|3:2,0:0:0:0:
418,22,82792,1,2,3:2:0:0:
418,22,82956,2,0,P|422:70|435:110,1,82.5000025177003,8|0,0:0|0:0,0:0:0:0:
512,244,83283,6,0,P|480:271|423:276,1,82.5000025177003,2|0,3:2|3:2,0:0:0:0:
304,173,83611,2,0,L|386:187,1,82.5000025177003,10|0,0:0|0:0,0:0:0:0:
353,357,83939,2,0,P|349:309|336:269,1,82.5000025177003,2|0,3:2|3:2,0:0:0:0:
211,187,84267,1,10,0:0:0:0:
138,319,84431,5,2,0:0:0:0:
138,319,84513,1,0,0:0:0:0:
138,319,84595,1,8,0:0:0:0:
252,264,84759,1,0,3:2:0:0:
82,207,84923,1,0,3:2:0:0:
228,100,85087,2,0,P|212:151|207:197,1,82.5000025177003,8|0,0:0|3:2,0:0:0:0:
131,120,85415,1,0,3:2:0:0:
307,168,85579,1,8,0:0:0:0:
162,24,85742,6,0,P|89:10|22:86,1,165.000005035401,0|0,3:2|3:2,0:0:0:0:
0,222,86234,2,0,L|84:206,1,82.5000025177003,10|0,0:0|3:2,0:0:0:0:
230,296,86562,1,2,3:2:0:0:
146,355,86726,1,8,0:0:0:0:
146,355,86808,1,8,0:0:0:0:
146,355,86890,2,0,P|139:319|129:300,1,41.2500012588501,10|0,0:0|0:0,0:0:0:0:
186,192,87054,2,0,P|179:228|169:247,1,41.2500012588501,8|8,0:0|0:0,0:0:0:0:
326,382,87218,6,0,B|292:289|350:306|315:206,1,165.000005035401,6|10,3:2|0:0,0:0:0:0:
277,66,87710,2,0,L|260:159,1,82.5000025177003,2|0,0:0|3:2,0:0:0:0:
421,223,88038,1,2,3:2:0:0:
484,98,88201,1,10,0:0:0:0:
359,141,88365,1,2,0:0:0:0:
496,260,88529,2,0,L|513:167,1,82.5000025177003,2|0,3:2|3:2,0:0:0:0:
418,333,88857,1,10,0:0:0:0:
295,247,89021,2,0,P|229:227|166:317,1,165.000005035401,2|2,0:0|3:2,0:0:0:0:
224,373,89513,2,0,B|261:349|261:349|307:355,1,82.5000025177003,10|2,0:0|0:0,0:0:0:0:
68,291,89841,6,0,P|87:345|86:372,1,82.5000025177003,2|0,3:2|3:2,0:0:0:0:
178,284,90169,1,10,0:0:0:0:
1,205,90333,2,0,B|91:174|69:231|181:191,1,165.000005035401,2|2,0:0|3:2,0:0:0:0:
261,148,90824,1,10,0:0:0:0:
125,12,90988,2,0,B|99:115|99:115|162:95,1,165.000005035401,2|0,3:2|3:2,0:0:0:0:
312,23,91480,2,0,P|264:16|217:7,1,82.5000025177003,8|0,0:0|0:0,0:0:0:0:
261,148,91808,1,0,3:2:0:0:
404,66,91972,1,0,3:2:0:0:
367,197,92136,2,0,B|343:156|343:156|354:110,1,82.5000025177003,10|0,0:0|0:0,0:0:0:0:
512,291,92464,6,0,P|453:284|387:371,1,165.000005035401,2|8,3:2|0:0,0:0:0:0:
244,246,92956,2,0,L|346:269,1,82.5000025177003,2|0,0:0|3:2,0:0:0:0:
297,359,93283,1,0,3:2:0:0:
128,306,93447,2,0,P|156:259|140:173,1,123.75000377655,10|0,0:0|0:0,0:0:0:0:
150,192,93775,6,0,P|108:196|49:215,1,82.5000025177003,8|2,0:0|3:2,0:0:0:0:
0,117,94103,1,2,3:2:0:0:
148,49,94267,1,2,0:3:0:0:
39,0,94431,1,2,0:0:0:0:
93,118,94595,1,0,3:2:0:0:
235,40,94759,2,0,P|277:56|321:57,1,82.5000025177003,10|2,0:0|0:0,0:0:0:0:
281,203,95087,5,8,0:0:0:0:
281,203,95169,1,8,0:0:0:0:
281,203,95251,2,0,P|272:171|264:152,1,41.2500012588501,10|8,0:0|0:0,0:0:0:0:
368,115,95415,2,0,P|373:135|379:154,3,41.2500012588501,2|2|0|0,0:3|0:3|3:2|3:2,0:0:0:0:
459,63,95742,1,2,0:3:0:0:
482,80,95824,1,2,0:3:0:0:
496,104,95906,1,0,3:2:0:0:
503,131,95988,1,0,3:2:0:0:
500,159,96070,6,0,B|480:206|480:206|489:238|489:238|465:273|462:337,1,165.000005035401,8|0,0:0|0:0,0:0:0:0:
295,374,96562,1,0,3:2:0:0:
354,234,96726,2,0,L|376:322,1,82.5000025177003,8|0,0:0|0:0,0:0:0:0:
179,368,97054,6,0,L|192:322,1,41.2500012588501,8|8,0:0|0:0,0:0:0:0:
274,265,97218,2,0,L|228:252,1,41.2500012588501,2|2,0:3|0:3,0:0:0:0:
115,206,97382,1,0,3:2:0:0:
122,219,97464,1,0,3:2:0:0:
128,233,97546,1,0,3:2:0:0:
134,248,97628,1,0,3:2:0:0:
135,264,97710,1,0,3:2:0:0:
1,130,98038,6,0,P|44:140|121:70,1,134.999995880127,14|0,0:0|3:2,0:0:0:0:
219,5,98529,2,0,P|284:0|332:43,1,134.999995880127,2|8,0:0|0:0,0:0:0:0:
221,163,99021,2,0,P|215:119|200:78,1,67.4999979400635,2|2,3:2|0:0,0:0:0:0:
305,124,99349,1,2,3:2:0:0:
242,246,99513,2,0,B|170:228|189:274|97:249,1,134.999995880127,2|0,0:0|0:0,0:0:0:0:
34,348,100005,2,0,L|110:332,1,67.4999979400635,2|8,3:2|0:0,0:0:0:0:
100,334,100251,1,8,0:0:0:0:
100,334,100333,1,0,3:2:0:0:
299,384,100660,6,0,P|269:340|286:246,1,134.999995880127,2|0,3:2|3:2,0:0:0:0:
413,147,101152,2,0,P|443:191|426:285,1,134.999995880127,2|10,0:0|0:0,0:0:0:0:
324,193,101644,2,0,P|321:149|311:125,1,67.4999979400635,2|10,3:2|0:0,0:0:0:0:
393,59,101972,1,2,3:2:0:0:
261,0,102136,2,0,P|219:16|229:100,1,134.999995880127,2|0,0:0|0:0,0:0:0:0:
151,198,102628,2,0,L|230:175,1,67.4999979400635,2|8,3:2|0:0,0:0:0:0:
215,179,102874,1,8,0:0:0:0:
215,179,102956,1,0,3:2:0:0:
332,326,103283,6,0,B|261:314|285:356|195:339,1,134.999995880127,2|0,3:2|3:2,0:0:0:0:
63,379,103775,2,0,P|21:327|37:249,1,134.999995880127,2|8,0:0|0:0,0:0:0:0:
151,198,104267,2,0,L|134:282,1,67.4999979400635,2|10,3:2|0:0,0:0:0:0:
67,184,104595,1,2,3:2:0:0:
144,85,104759,2,0,P|199:99|253:50,1,134.999995880127,10|0,0:0|0:0,0:0:0:0:
321,181,105251,2,0,P|281:169|244:163,1,67.4999979400635,2|8,3:2|0:0,0:0:0:0:
255,164,105497,1,8,0:0:0:0:
255,164,105579,1,0,3:2:0:0:
373,9,105906,6,0,P|409:73|397:147,1,134.999995880127,2|0,3:2|3:2,0:0:0:0:
321,263,106398,2,0,P|286:206|290:139,1,134.999995880127,2|8,0:0|0:0,0:0:0:0:
463,203,106890,5,10,0:0:0:0:
463,203,106972,1,8,0:0:0:0:
463,203,107054,2,0,L|448:256,3,33.7499989700318,8|0|0|0,0:0|3:2|3:2|3:2,0:0:0:0:
396,290,107382,1,10,0:0:0:0:
390,305,107464,1,8,0:0:0:0:
389,321,107546,1,0,3:2:0:0:
390,337,107628,1,0,3:2:0:0:
396,352,107710,2,0,L|406:387,1,33.7499989700318,0|0,3:2|3:2,0:0:0:0:
297,355,107874,2,0,P|223:350|191:293,1,134.999995880127,2|0,3:2|3:2,0:0:0:0:
192,303,108529,6,0,P|123:285|46:284,1,134.999995880127,10|0,0:0|0:0,0:0:0:0:
59,282,109185,2,0,P|52:241|36:214,1,67.4999979400635,8|0,0:0|0:0,0:0:0:0:
142,143,109513,2,0,L|125:214,1,67.4999979400635,2|0,0:0|0:0,0:0:0:0:
0,145,109841,1,10,0:0:0:0:
0,145,110005,2,0,P|42:136|76:125,1,67.4999979400635,2|0,3:2|0:0,0:0:0:0:
39,21,110333,1,2,3:2:0:0:
196,71,110497,2,0,P|163:61|130:54,1,67.4999979400635,8|0,0:0|3:2,0:0:0:0:
126,208,110824,5,0,3:2:0:0:
126,208,110988,1,0,3:2:0:0:
252,146,111152,2,0,B|333:165|316:126|405:148,1,134.999995880127,10|0,0:0|0:0,0:0:0:0:
385,143,111808,2,0,P|378:97|366:72,1,67.4999979400635,8|0,0:0|0:0,0:0:0:0:
479,15,112136,2,0,L|462:90,1,67.4999979400635,2|0,0:0|0:0,0:0:0:0:
362,231,112464,1,10,0:0:0:0:
512,211,112628,2,0,P|479:207|441:196,1,67.4999979400635,2|8,3:2|0:0,0:0:0:0:
466,358,112956,1,2,3:2:0:0:
291,328,113120,2,0,P|324:323|356:314,1,67.4999979400635,8|0,0:0|0:0,0:0:0:0:
224,165,113447,6,0,P|170:151|88:207,1,150,14|0,0:0|3:2,0:0:0:0:
80,364,113939,2,0,P|87:310|97:284,1,75,8|0,0:0|3:2,0:0:0:0:
17,219,114267,1,0,3:2:0:0:
193,310,114431,2,0,P|185:257|169:230,1,75,8|0,0:0|3:2,0:0:0:0:
0,114,114759,5,8,0:0:0:0:
99,202,114923,1,0,3:2:0:0:
187,81,115087,1,0,3:2:0:0:
76,33,115251,2,0,P|90:77|97:120,1,75,8|2,0:0|3:2,0:0:0:0:
196,168,115579,1,0,3:2:0:0:
337,98,115742,2,0,P|296:95|262:83,1,75,8|0,0:0|3:2,0:0:0:0:
289,299,116070,6,0,P|362:296|413:243,1,150,10|0,0:0|3:2,0:0:0:0:
496,95,116562,2,0,P|488:143|482:176,1,75,8|0,0:0|3:2,0:0:0:0:
352,172,116890,1,0,3:2:0:0:
491,255,117054,1,10,0:0:0:0:
404,85,117218,2,0,B|324:63|337:106|251:79,1,150,0|0,3:2|3:2,0:0:0:0:
174,237,117710,2,0,L|195:156,1,75,8|0,0:0|3:2,0:0:0:0:
174,61,118038,1,8,0:0:0:0:
99,153,118201,1,0,3:2:0:0:
32,4,118365,2,0,P|-5:62|13:120,1,112.5,0|0,3:2|0:0,0:0:0:0:
3,102,118693,6,0,P|23:172|30:253,1,134.999995880127,0|10,3:2|0:0,0:0:0:0:
29,233,119349,2,0,P|72:238|96:245,1,67.4999979400635,0|2,3:2|3:2,0:0:0:0:
232,159,119677,2,0,P|201:166|166:185,1,67.4999979400635,8|0,0:0|0:0,0:0:0:0:
101,339,120005,2,0,P|194:340|222:308,1,134.999995880127,2|10,3:2|0:0,0:0:0:0:
301,207,120497,2,0,P|304:238|313:275,1,67.4999979400635,2|0,3:2|0:0,0:0:0:0:
442,234,120824,1,2,3:2:0:0:
406,381,120988,2,0,B|381:355|381:355|394:312,1,67.4999979400635,8|0,0:0|0:0,0:0:0:0:
512,195,121316,5,0,3:2:0:0:
512,195,121480,1,0,3:2:0:0:
389,126,121644,2,0,L|377:195,1,67.4999979400635,10|0,0:0|0:0,0:0:0:0:
472,105,121972,1,2,3:2:0:0:
341,48,122136,2,0,B|265:34|286:73|208:57,1,134.999995880127,2|0,3:2|0:0,0:0:0:0:
96,5,122628,6,0,P|74:57|118:120,1,134.999995880127,2|10,3:2|0:0,0:0:0:0:
200,213,123120,2,0,L|213:139,1,67.4999979400635,2|0,3:2|0:0,0:0:0:0:
109,201,123447,1,2,3:2:0:0:
294,273,123611,2,0,L|281:199,1,67.4999979400635,8|0,0:0|3:2,0:0:0:0:
169,375,123939,5,14,0:0:0:0:
63,274,124103,1,0,3:2:0:0:
200,213,124267,1,0,3:2:0:0:
172,384,124431,2,0,P|132:375|79:371,1,75,8|0,0:0|3:2,0:0:0:0:
196,288,124759,1,0,3:2:0:0:
345,345,124923,2,0,P|303:362|255:359,1,75,8|0,0:0|3:2,0:0:0:0:
109,201,125251,6,0,P|176:209|223:142,1,150,8|0,0:0|3:2,0:0:0:0:
192,2,125742,2,0,L|175:91,1,75,8|2,0:0|3:2,0:0:0:0:
292,122,126070,1,0,3:2:0:0:
385,0,126234,2,0,P|347:11|304:17,1,75,8|0,0:0|3:2,0:0:0:0:
414,207,126562,5,10,0:0:0:0:
292,122,126726,1,0,3:2:0:0:
452,57,126890,1,0,3:2:0:0:
329,215,127054,2,0,P|323:177|314:140,1,75,8|0,0:0|3:2,0:0:0:0:
384,296,127382,1,0,3:2:0:0:
250,241,127546,1,10,0:0:0:0:
383,94,127710,2,0,P|419:129|416:226,1,150,0|0,3:2|3:2,0:0:0:0:
319,349,128201,2,0,P|283:337|238:336,1,75,8|0,0:0|3:2,0:0:0:0:
73,264,128529,6,0,L|22:275,3,37.5,10|8|0|0,0:0|0:0|3:2|3:2,0:0:0:0:
124,204,128857,1,2,0:3:0:0:
145,212,128939,1,2,0:3:0:0:
168,215,129021,1,0,3:2:0:0:
191,213,129103,1,0,3:2:0:0:
76,56,129513,6,0,P|39:109|54:189,1,134.999995880127,6|2,3:2|3:2,0:0:0:0:
168,78,130005,2,0,L|150:6,1,67.4999979400635,2|8,3:2|0:0,0:0:0:0:
286,90,130333,2,0,P|271:127|268:162,1,67.4999979400635,2|0,3:2|0:0,0:0:0:0:
191,213,130660,1,2,3:2:0:0:
191,213,130824,1,8,0:0:0:0:
148,310,130988,2,0,P|189:299|228:297,1,67.4999979400635,2|0,0:0|3:2,0:0:0:0:
323,375,131316,2,0,B|299:307|334:315|304:236,1,134.999995880127,2|0,3:2|0:0,0:0:0:0:
402,151,131808,6,0,P|434:179|528:167,1,134.999995880127,2|8,3:2|0:0,0:0:0:0:
486,56,132300,2,0,P|444:62|408:76,1,67.4999979400635,2|0,0:0|3:2,0:0:0:0:
327,11,132628,1,0,3:2:0:0:
327,11,132792,2,0,P|337:43|341:76,1,67.4999979400635,10|0,0:0|0:0,0:0:0:0:
249,189,133120,2,0,B|275:166|275:166|316:171,1,67.4999979400635,2|0,3:2|3:2,0:0:0:0:
242,17,133447,2,0,B|216:40|216:40|175:35,1,67.4999979400635,10|0,0:0|0:0,0:0:0:0:
93,107,133775,2,0,P|132:112|165:121,1,67.4999979400635,2|0,3:2|3:2,0:0:0:0:
271,92,134103,1,10,0:0:0:0:
167,213,134267,1,0,3:2:0:0:
0,317,134759,6,0,P|41:307|119:364,1,134.999995880127,6|2,3:2|3:2,0:0:0:0:
242,280,135251,2,0,P|208:287|164:300,1,67.4999979400635,2|8,3:2|0:0,0:0:0:0:
104,165,135579,2,0,P|104:203|119:241,1,67.4999979400635,2|0,3:2|0:0,0:0:0:0:
249,113,135906,1,2,3:2:0:0:
162,67,136070,1,8,0:0:0:0:
239,195,136234,2,0,B|277:189|277:189|310:208,1,67.4999979400635,2|0,0:0|3:2,0:0:0:0:
372,289,136562,2,0,P|412:232|394:149,1,134.999995880127,2|0,3:2|0:0,0:0:0:0:
483,49,137054,6,0,B|405:34|431:80|336:57,1,134.999995880127,2|8,3:2|0:0,0:0:0:0:
249,0,137546,2,0,P|260:36|260:72,1,67.4999979400635,2|0,0:0|3:2,0:0:0:0:
332,214,137874,1,0,3:2:0:0:
332,214,138038,2,0,P|320:177|321:142,1,67.4999979400635,10|0,0:0|0:0,0:0:0:0:
195,257,138365,1,2,3:2:0:0:
91,181,138529,2,0,P|135:175|171:160,1,67.4999979400635,0|8,3:2|0:0,0:0:0:0:
229,103,138857,1,2,3:2:0:0:
281,276,139021,5,8,0:0:0:0:
277,292,139103,1,8,0:0:0:0:
274,308,139185,1,0,3:2:0:0:
272,324,139267,1,0,3:2:0:0:
273,340,139349,2,0,P|229:346|193:361,1,67.4999979400635,2|2,0:3|0:3,0:0:0:0:
0,267,140005,6,0,P|68:267|101:206,1,134.999995880127,6|2,3:2|3:2,0:0:0:0:
18,96,140497,2,0,P|17:139|8:172,1,67.4999979400635,2|8,3:2|0:0,0:0:0:0:
159,59,140824,2,0,P|125:57|94:44,1,67.4999979400635,2|0,3:2|0:0,0:0:0:0:
106,138,141152,1,2,3:2:0:0:
106,138,141316,1,8,0:0:0:0:
238,184,141480,2,0,P|208:191|171:204,1,67.4999979400635,2|0,0:0|3:2,0:0:0:0:
245,46,141808,2,0,P|301:41|364:94,1,134.999995880127,2|0,3:2|0:0,0:0:0:0:
509,215,142300,6,0,B|476:209|476:209|451:215|451:215|419:199|375:200,1,134.999995880127,2|8,3:2|0:0,0:0:0:0:
280,335,142792,1,2,3:2:0:0:
401,281,142956,1,8,0:0:0:0:
401,281,143120,1,0,3:2:0:0:
277,153,143283,2,0,P|290:192|295:239,1,67.4999979400635,10|0,0:0|3:2,0:0:0:0:
154,292,143611,6,0,P|188:269|230:265,1,67.4999979400635,10|0,0:0|3:2,0:0:0:0:
356,354,143939,2,0,L|273:338,1,67.4999979400635,10|0,0:0|0:0,0:0:0:0:
98,377,144267,2,0,P|65:351|83:253,1,134.999995880127,10|10,0:0|0:0,0:0:0:0:
69,265,144759,1,0,0:0:0:0:
0,127,144923,6,0,B|74:141|61:104|146:124,1,134.999995880127,2|0,3:2|3:2,0:0:0:0:
133,121,145415,1,0,0:0:0:0:
215,22,145579,2,0,P|251:79|232:152,1,134.999995880127,2|0,3:2|3:2,0:0:0:0:
189,203,146070,1,8,0:0:0:0:
189,203,146152,1,8,0:0:0:0:
189,203,146234,1,2,3:2:0:0:
233,280,146398,1,8,0:0:0:0:
314,228,146562,2,0,P|355:217|384:216,1,67.4999979400635,0|0,3:2|0:0,0:0:0:0:
447,115,146890,5,2,3:2:0:0:
496,249,147054,1,8,0:0:0:0:
359,142,147218,2,0,P|371:105|375:65,1,67.4999979400635,0|8,3:2|0:0,0:0:0:0:
321,23,147464,1,8,0:0:0:0:
308,30,147546,2,0,P|271:44|226:49,1,67.4999979400635,2|8,3:2|0:0,0:0:0:0:
166,111,147874,2,0,P|199:116|230:129,1,67.4999979400635,0|0,3:2|0:0,0:0:0:0:
363,225,148201,2,0,P|332:254|235:253,1,134.999995880127,0|0,3:2|3:2,0:0:0:0:
165,218,148693,5,8,0:0:0:0:
165,218,148775,1,8,0:0:0:0:
165,218,148857,1,0,3:2:0:0:
111,300,149021,1,8,0:0:0:0:
20,265,149185,2,0,P|15:224|1:191,1,67.4999979400635,0|0,3:2|0:0,0:0:0:0:
21,64,149513,5,0,3:2:0:0:
75,146,149677,1,8,0:0:0:0:
166,111,149841,1,0,3:2:0:0:
166,111,150005,1,0,3:2:0:0:
126,35,150169,5,8,0:0:0:0:
97,225,150333,1,0,3:2:0:0:
97,225,150497,1,0,3:2:0:0:
252,196,150660,6,0,P|211:190|170:179,1,67.4999979400635,8|0,0:0|3:2,0:0:0:0:
262,95,150988,1,0,3:2:0:0:
326,261,151152,1,8,0:0:0:0:
477,202,151316,5,0,3:2:0:0:
424,140,151644,1,2,3:2:0:0:
352,178,151972,1,2,3:2:0:0:
405,238,152136,1,10,3:2:0:0:
405,238,152300,1,10,3:2:0:0:
512,75,152464,5,10,0:0:0:0:
512,75,152546,1,8,0:0:0:0:
512,75,152628,2,0,P|438:81|369:16,1,165.000005035401,6|0,3:2|0:0,0:0:0:0:
243,122,153120,2,0,B|279:99|279:99|333:107,1,82.5000025177003,8|0,0:0|0:0,0:0:0:0:
265,219,153447,1,2,3:2:0:0:
153,276,153611,1,0,3:2:0:0:
151,103,153775,2,0,P|167:156|166:206,1,82.5000025177003,8|0,0:0|0:0,0:0:0:0:
365,286,154103,6,0,P|349:233|350:183,1,82.5000025177003,2|0,3:2|3:2,0:0:0:0:
242,366,154431,1,10,0:0:0:0:
160,282,154595,2,0,B|108:267|108:267|74:284|74:284|38:267|-22:267,1,165.000005035401,2|2,0:0|3:2,0:0:0:0:
11,158,155087,2,0,B|57:163|57:163|82:129,1,82.5000025177003,10|2,0:0|3:2,0:0:0:0:
191,0,155415,5,2,3:2:0:0:
40,57,155579,1,0,3:2:0:0:
162,158,155742,1,10,0:0:0:0:
260,98,155906,2,0,P|212:82|160:82,1,82.5000025177003,2|0,0:0|3:2,0:0:0:0:
290,19,156234,1,2,3:2:0:0:
324,157,156398,1,10,0:0:0:0:
447,76,156562,2,0,P|496:90|484:196,1,165.000005035401,2|0,0:0|3:2,0:0:0:0:
387,289,157054,6,0,L|407:193,1,82.5000025177003,10|0,0:0|0:0,0:0:0:0:
491,272,157382,1,2,3:2:0:0:
419,384,157546,1,0,3:2:0:0:
298,342,157710,2,0,B|268:305|268:305|278:251,1,82.5000025177003,10|0,0:0|0:0,0:0:0:0:
354,90,158038,6,0,B|272:63|281:113|184:83,1,165.000005035401,2|10,3:2|0:0,0:0:0:0:
59,22,158529,2,0,P|100:-1|142:1,1,82.5000025177003,2|0,0:0|3:2,0:0:0:0:
116,181,158857,1,2,3:2:0:0:
116,181,159021,2,0,L|97:90,1,82.5000025177003,8|0,0:0|0:0,0:0:0:0:
271,192,159349,6,0,B|235:168|235:168|182:175,1,82.5000025177003,2|0,3:2|3:2,0:0:0:0:
46,289,159677,2,0,B|82:265|82:265|135:272,1,82.5000025177003,10|0,0:0|0:0,0:0:0:0:
228,363,160005,2,0,L|204:267,1,82.5000025177003,2|0,3:2|3:2,0:0:0:0:
116,181,160333,1,10,0:0:0:0:
244,104,160497,5,2,0:0:0:0:
244,104,160579,1,2,0:0:0:0:
244,104,160660,1,8,0:0:0:0:
140,42,160824,1,0,3:2:0:0:
192,189,160988,1,0,3:2:0:0:
327,129,161152,2,0,P|372:140|422:141,1,82.5000025177003,8|0,0:0|3:2,0:0:0:0:
405,56,161480,1,0,3:2:0:0:
331,218,161644,1,8,0:0:0:0:
498,94,161808,6,0,P|531:154|461:209,1,165.000005035401,0|0,3:2|3:2,0:0:0:0:
425,337,162300,2,0,L|403:244,1,82.5000025177003,10|0,0:0|3:2,0:0:0:0:
259,165,162628,1,2,3:2:0:0:
248,182,162710,1,0,3:2:0:0:
241,201,162792,1,8,0:0:0:0:
239,221,162874,1,8,0:0:0:0:
243,241,162956,1,10,0:0:0:0:
318,319,163120,1,8,0:0:0:0:
152,366,163283,6,0,B|69:336|78:381|-25:352,1,165.000005035401,6|10,3:2|0:0,0:0:0:0:
90,231,163775,2,0,B|125:258|125:258|176:248,1,82.5000025177003,2|0,0:0|3:2,0:0:0:0:
57,142,164103,1,2,3:2:0:0:
0,276,164267,1,10,0:0:0:0:
144,170,164431,1,2,0:0:0:0:
1,90,164595,2,0,P|15:146|17:177,1,82.5000025177003,2|0,3:2|3:2,0:0:0:0:
229,72,164923,1,10,0:0:0:0:
160,8,165087,2,0,P|106:76|142:151,1,165.000005035401,2|2,0:0|3:2,0:0:0:0:
241,235,165579,2,0,P|229:195|225:154,1,82.5000025177003,10|2,0:0|0:0,0:0:0:0:
381,22,165906,6,0,B|339:27|339:27|299:-2,1,82.5000025177003,2|0,3:2|3:2,0:0:0:0:
434,91,166234,1,10,0:0:0:0:
308,191,166398,2,0,B|356:178|356:178|391:197|391:197|426:182|476:178,1,165.000005035401,2|2,3:2|3:2,0:0:0:0:
343,105,166890,1,10,0:0:0:0:
472,259,167054,2,0,P|492:328|399:356,1,165.000005035401,2|0,3:2|3:2,0:0:0:0:
295,277,167546,2,0,P|347:273|386:255,1,82.5000025177003,8|0,0:0|0:0,0:0:0:0:
287,367,167874,1,0,3:2:0:0:
143,330,168038,1,0,3:2:0:0:
201,212,168201,2,0,P|212:263|216:308,1,82.5000025177003,10|0,0:0|0:0,0:0:0:0:
0,373,168529,6,0,B|26:281|-15:297|12:195,1,165.000005035401,2|8,3:2|0:0,0:0:0:0:
100,61,169021,2,0,B|64:83|64:83|16:75,1,82.5000025177003,2|0,0:0|3:2,0:0:0:0:
99,215,169349,1,0,3:2:0:0:
241,130,169513,2,0,P|207:86|216:20,1,123.75000377655,10|0,0:0|0:0,0:0:0:0:
215,21,169841,6,0,P|261:21|303:5,1,82.5000025177003,8|2,0:0|3:2,0:0:0:0:
419,139,170169,1,2,3:2:0:0:
309,85,170333,1,2,0:3:0:0:
393,40,170497,1,2,0:0:0:0:
323,195,170660,1,0,3:2:0:0:
491,94,170824,1,10,0:0:0:0:
432,241,170988,5,2,0:0:0:0:
432,241,171070,1,0,0:0:0:0:
432,241,171152,2,0,P|417:287|421:326,1,75,4|0,3:2|0:0,0:0:0:0:
271,375,171480,2,0,B|256:342|256:342|267:311|267:311|245:265|240:226,1,150,10|0,0:0|3:2,0:0:0:0:
241,234,171972,1,0,3:2:0:0:
108,302,172136,2,0,L|193:317,1,75,10|0,0:0|0:0,0:0:0:0:
261,134,172464,6,0,B|230:155|230:155|187:146,1,75,0|0,3:2|3:2,0:0:0:0:
47,238,172792,2,0,P|-7:207|27:128,1,150,10|0,0:0|3:2,0:0:0:0:
14,133,173283,1,0,3:2:0:0:
50,1,173447,2,0,P|68:43|71:87,1,75,10|0,0:0|0:0,0:0:0:0:
152,214,173775,6,0,P|167:180|173:143,1,75,0|0,3:2|3:2,0:0:0:0:
302,26,174103,2,0,B|224:8|242:52|146:29,1,150,10|0,0:0|3:2,0:0:0:0:
154,30,174595,1,0,3:2:0:0:
262,136,174759,2,0,B|288:110|288:110|336:120,1,75,10|0,0:0|0:0,0:0:0:0:
456,29,175087,6,0,L|373:52,1,75,0|0,3:2|3:2,0:0:0:0:
442,193,175415,2,0,P|451:146|457:116,1,75,10|0,0:0|0:0,0:0:0:0:
336,201,175742,1,0,3:2:0:0:
336,201,175906,1,0,3:2:0:0:
494,290,176070,2,0,P|400:280|345:384,1,225,10|0,0:0|3:2,0:0:0:0:
215,285,176726,2,0,P|254:280|291:269,1,75,8|0,0:0|0:0,0:0:0:0:
240,368,177054,5,0,3:2:0:0:
240,368,177218,1,0,3:2:0:0:
122,298,177382,2,0,P|135:347|137:377,1,75,8|0,0:0|0:0,0:0:0:0:
253,192,177710,2,0,B|271:148|271:148|255:117|255:117|271:82|275:36,1,150,2|8,3:2|0:0,0:0:0:0:
273,52,178201,1,0,0:0:0:0:
143,2,178365,2,0,P|139:41|158:76,1,75,2|0,3:2|3:2,0:0:0:0:
102,178,178693,2,0,P|144:164|187:159,1,75,8|0,0:0|0:0,0:0:0:0:
363,175,179021,5,10,0:0:0:0:
295,297,179185,1,0,3:2:0:0:
175,255,179349,1,0,3:2:0:0:
240,111,179513,2,0,P|253:154|259:195,1,75,10|0,0:0|3:2,0:0:0:0:
224,346,179841,1,0,3:2:0:0:
427,260,180005,2,0,L|333:244,1,75,10|0,0:0|3:2,0:0:0:0:
319,376,180333,1,0,3:2:0:0:
133,282,180497,6,0,L|227:266,1,75,10|0,0:0|3:2,0:0:0:0:
375,150,180824,1,0,3:2:0:0:
221,178,180988,1,10,0:0:0:0:
322,67,181152,1,0,3:2:0:0:
283,245,181316,1,10,0:0:0:0:
123,124,181480,5,2,0:0:0:0:
123,124,181562,1,2,0:0:0:0:
123,124,181644,2,0,P|118:77|101:36,1,75,2|2,3:2|0:0,0:0:0:0:
40,0,181972,2,0,P|-5:39|29:127,1,150,10|2,0:0|3:2,0:0:0:0:
136,207,182464,1,2,3:2:0:0:
68,272,182628,2,0,B|36:252|36:252|-13:264,1,75,10|0,0:0|0:0,0:0:0:0:
221,305,182956,5,0,3:2:0:0:
221,305,183120,1,0,3:2:0:0:
152,384,183283,2,0,P|145:336|134:306,1,75,10|0,0:0|0:0,0:0:0:0:
218,198,183611,1,2,3:2:0:0:
311,228,183775,1,2,3:2:0:0:
161,115,183939,2,0,B|241:88|220:138|310:108,1,150,10|0,0:0|3:2,0:0:0:0:
419,162,184431,1,0,3:2:0:0:
399,12,184595,6,0,L|383:88,1,75,10|0,0:0|3:2,0:0:0:0:
509,182,184923,2,0,P|507:143|489:108,1,75,0|0,3:2|3:2,0:0:0:0:
311,228,185251,2,0,P|369:227|411:315,1,150,10|0,0:0|3:2,0:0:0:0:
305,376,185742,1,0,3:2:0:0:
208,321,185906,2,0,L|287:298,1,75,10|0,0:0|0:0,0:0:0:0:
244,122,186234,2,0,P|243:173|231:204,1,75,2|0,3:2|3:2,0:0:0:0:
176,238,186480,1,0,0:0:0:0:
167,247,186562,6,0,P|115:207|17:231,1,150,10|0,0:0|0:0,0:0:0:0:
35,216,187054,1,0,3:2:0:0:
2,316,187218,2,0,L|85:295,1,75,8|0,0:0|0:0,0:0:0:0:
134,175,187546,1,0,3:2:0:0:
134,175,187710,1,0,3:2:0:0:
44,68,187874,2,0,P|26:118|28:149,1,75,8|0,0:0|0:0,0:0:0:0:
241,145,188201,5,10,0:0:0:0:
129,70,188365,1,0,3:2:0:0:
242,1,188529,1,0,3:2:0:0:
134,175,188693,2,0,P|152:225|150:256,1,75,2|0,0:3|3:2,0:0:0:0:
305,90,189021,1,2,3:2:0:0:
373,194,189185,2,0,B|344:218|344:218|292:205,1,75,2|0,0:3|3:2,0:0:0:0:
219,344,189513,6,0,P|227:367|230:389,3,37.5,0|0|0|0,3:2|3:2|3:2|3:2,0:0:0:0:
237,247,189841,2,0,P|228:223|226:202,3,37.5,0|0|0|0,3:2|3:2|3:2|3:2,0:0:0:0:
143,273,190169,2,0,L|74:261,3,37.5,2|2|2|2,0:3|0:3|0:3|0:3,0:0:0:0:
319,323,190497,2,0,L|388:335,3,37.5,2|2|2|2,0:3|0:3|0:3|0:3,0:0:0:0:
211,350,190824,5,2,0:3:0:0:
211,350,190906,1,2,0:3:0:0:
211,350,190988,2,0,L|160:359,1,37.5,0|0,3:2|3:2,0:0:0:0:
57,378,191152,2,0,P|51:334|30:295,1,75,8|0,0:0|3:2,0:0:0:0:
90,96,191480,5,8,0:0:0:0:
105,112,191562,1,8,0:0:0:0:
113,132,191644,1,2,0:3:0:0:
115,154,191726,1,2,0:3:0:0:
115,176,191808,1,0,3:2:0:0:
111,198,191890,1,0,3:2:0:0:
103,219,191972,2,0,L|58:233,1,37.5,0|0,3:2|3:2,0:0:0:0:
20,158,192136,5,2,3:2:0:0:
268,204,192300,1,2,3:2:0:0:
397,176,200005,6,0,P|349:209|291:201,1,120,0|0,3:0|3:2,0:0:0:0:
291,201,200497,1,0,3:2:0:0:
195,134,200660,2,0,P|137:125|89:159,1,120,8|2,0:0|3:2,0:0:0:0:
5,149,201152,1,2,0:0:0:0:
5,149,201234,1,0,0:0:0:0:
5,149,201316,2,0,P|15:186|20:223,1,60,2|8,3:2|0:0,0:0:0:0:
140,298,201644,2,0,P|150:261|155:224,1,60,2|2,3:2|3:2,0:0:0:0:
153,239,201890,1,0,3:2:0:0:
153,239,201972,1,8,0:0:0:0:
48,285,202136,5,0,0:0:0:0:
178,372,202300,2,0,P|220:361|260:355,1,60,0|10,3:2|0:0,0:0:0:0:
410,228,202628,5,2,3:2:0:0:
353,324,202792,1,10,0:0:0:0:
263,268,202956,1,0,3:2:0:0:
313,141,203120,2,0,P|323:187|330:228,1,75,10|0,0:0|3:2,0:0:0:0:
501,162,203447,1,10,0:0:0:0:
419,48,203611,2,0,P|408:94|402:135,1,75,0|8,3:2|0:0,0:0:0:0:
242,195,203939,5,8,0:0:0:0:
242,195,204021,1,8,0:0:0:0:
242,195,204103,2,0,P|217:187|189:184,3,37.5,8|8|2|0,0:0|0:0|3:2|3:2,0:0:0:0:
124,119,204431,1,0,3:2:0:0:
109,135,204513,1,2,3:2:0:0:
100,155,204595,1,8,0:0:0:0:
94,176,204677,1,8,0:0:0:0:
93,198,204759,2,0,L|109:263,1,37.5,8|8,0:0|0:0,0:0:0:0:
201,354,204923,2,0,L|217:289,1,37.5,10|0,0:0|0:0,0:0:0:0:
209,317,205251,6,0,B|160:332|160:332|126:323|126:323|87:342|34:341,1,165.000005035401,6|10,3:2|0:0,0:0:0:0:
184,199,205742,2,0,B|218:224|218:224|263:216,1,82.5000025177003,2|0,0:0|3:2,0:0:0:0:
339,292,206070,1,2,3:2:0:0:
251,136,206234,1,10,0:0:0:0:
401,204,206398,1,2,0:0:0:0:
341,72,206562,2,0,P|336:131|324:162,1,82.5000025177003,2|0,3:2|3:2,0:0:0:0:
488,188,206890,1,10,0:0:0:0:
452,336,207054,2,0,P|392:281|412:189,1,165.000005035401,2|2,0:0|3:2,0:0:0:0:
512,91,207546,2,0,L|408:112,1,82.5000025177003,10|2,0:0|0:0,0:0:0:0:
250,0,207874,6,0,P|291:14|351:17,1,82.5000025177003,2|0,3:2|3:2,0:0:0:0:
185,144,208201,1,10,0:0:0:0:
287,191,208365,2,0,P|285:138|266:93,1,82.5000025177003,2|0,0:0|3:2,0:0:0:0:
211,67,208693,1,2,3:2:0:0:
360,133,208857,1,10,0:0:0:0:
216,231,209021,6,0,B|129:210|149:260|47:234,1,165.000005035401,2|0,3:2|3:2,0:0:0:0:
11,124,209513,2,0,B|49:146|49:146|108:135,1,82.5000025177003,8|0,0:0|0:0,0:0:0:0:
242,87,209841,1,0,3:2:0:0:
242,87,210005,1,0,3:2:0:0:
134,0,210169,2,0,P|149:53|150:96,1,82.5000025177003,10|0,0:0|0:0,0:0:0:0:
301,210,210497,6,0,P|315:249|213:323,1,165.000005035401,2|8,3:2|0:0,0:0:0:0:
87,361,210988,2,0,P|131:364|177:383,1,82.5000025177003,2|0,0:0|3:2,0:0:0:0:
215,249,211316,1,0,3:2:0:0:
117,206,211480,2,0,P|134:250|136:288,1,82.5000025177003,10|0,0:0|3:2,0:0:0:0:
196,142,211808,5,8,0:0:0:0:
26,222,211972,1,2,3:2:0:0:
26,222,212136,1,2,3:2:0:0:
56,68,212300,2,0,P|96:80|147:84,1,82.5000025177003,2|2,0:3|3:2,0:0:0:0:
345,38,212628,1,0,3:2:0:0:
241,5,212792,2,0,B|264:44|264:44|257:93,1,82.5000025177003,10|2,0:0|0:0,0:0:0:0:
349,226,213120,5,8,0:2:0:0:
191,150,213283,1,2,3:2:0:0:
219,335,213447,1,0,3:2:0:0:
289,148,213611,5,8,0:0:0:0:
143,226,213775,2,0,P|103:214|50:210,1,82.5000025177003,0|0,3:2|3:2,0:0:0:0:
294,288,214103,1,8,0:2:0:0:
213,383,214267,2,0,P|210:333|197:295,1,82.5000025177003,0|0,3:2|3:2,0:0:0:0:
289,148,214595,1,8,0:2:0:0:
440,188,214759,2,0,P|428:227|427:268,1,82.5000025177003,0|0,3:2|3:2,0:0:0:0:
507,366,215087,5,8,3:2:0:0:
278,272,215251,1,8,3:2:0:0:
278,272,215579,6,0,P|323:207|282:103,1,165.000005035401,6|0,3:2|0:0,0:0:0:0:
243,6,216070,2,0,L|230:91,1,82.5000025177003,8|0,0:0|0:0,0:0:0:0:
149,255,216398,1,2,3:2:0:0:
91,124,216562,1,0,3:2:0:0:
234,186,216726,2,0,B|198:165|198:165|143:177,1,82.5000025177003,8|0,0:0|0:0,0:0:0:0:
4,341,217054,6,0,L|99:319,1,82.5000025177003,2|0,3:2|3:2,0:0:0:0:
176,360,217382,1,10,0:0:0:0:
49,233,217546,2,0,B|26:187|26:187|44:152|44:152|29:116|20:57,1,165.000005035401,2|2,0:0|3:2,0:0:0:0:
72,4,218038,1,10,0:0:0:0:
72,4,218201,1,2,3:2:0:0:
199,83,218365,6,0,L|104:109,1,82.5000025177003,2|0,3:2|3:2,0:0:0:0:
186,1,218693,1,10,0:0:0:0:
291,137,218857,2,0,P|340:142|373:161,1,82.5000025177003,2|0,0:0|3:2,0:0:0:0:
284,53,219185,1,2,3:2:0:0:
197,178,219349,1,10,0:0:0:0:
320,245,219513,2,0,P|388:256|458:180,1,165.000005035401,2|0,0:0|3:2,0:0:0:0:
458,24,220005,5,10,0:0:0:0:
368,157,220169,1,0,0:0:0:0:
375,8,220333,1,2,3:2:0:0:
512,106,220497,1,0,3:2:0:0:
300,70,220660,2,0,P|257:86|209:87,1,82.5000025177003,10|0,0:0|0:0,0:0:0:0:
76,186,220988,6,0,B|173:212|148:159|250:188,1,165.000005035401,2|10,3:2|0:0,0:0:0:0:
111,45,221480,2,0,B|98:87|98:87|131:125,1,82.5000025177003,2|0,0:0|3:2,0:0:0:0:
218,267,221808,1,2,3:2:0:0:
125,361,221972,2,0,L|142:278,1,82.5000025177003,8|0,0:0|0:0,0:0:0:0:
378,215,222300,6,0,P|339:219|291:238,1,82.5000025177003,2|0,3:2|3:2,0:0:0:0:
75,185,222628,2,0,P|113:199|154:203,1,82.5000025177003,10|0,0:0|0:0,0:0:0:0:
253,34,222956,1,10,0:0:0:0:
265,51,223038,1,8,0:0:0:0:
269,72,223120,1,2,0:3:0:0:
266,93,223201,1,2,0:3:0:0:
259,113,223283,2,0,L|250:154,3,41.2500012588501,2|0|0|0,0:3|3:2|3:2|3:2,0:0:0:0:
183,75,223611,5,8,0:0:0:0:
335,4,223775,1,0,3:2:0:0:
171,76,223939,1,0,3:2:0:0:
334,153,224103,2,0,B|370:129|370:129|412:134,1,82.5000025177003,8|0,0:0|3:2,0:0:0:0:
496,158,224431,1,0,3:2:0:0:
400,54,224595,1,8,0:0:0:0:
330,244,224759,2,0,P|323:298|415:327,1,165.000005035401,0|0,3:2|3:2,0:0:0:0:
504,257,225251,2,0,L|413:239,1,82.5000025177003,10|0,0:0|3:2,0:0:0:0:
220,158,225579,5,2,3:2:0:0:
220,158,225660,1,0,3:0:0:0:
220,158,225742,2,0,L|230:206,1,41.2500012588501,8|8,0:0|0:0,0:0:0:0:
247,284,225906,1,10,0:0:0:0:
244,308,225988,1,8,0:0:0:0:
229,328,226070,1,8,0:0:0:0:
207,340,226152,1,8,0:0:0:0:
182,340,226234,6,0,B|137:327|137:327|97:338|97:338|64:324|14:318,1,165.000005035401,6|10,3:2|0:0,0:0:0:0:
66,222,226726,2,0,B|107:231|107:231|149:206,1,82.5000025177003,2|0,0:0|3:2,0:0:0:0:
298,120,227054,1,2,3:2:0:0:
130,82,227218,1,10,0:0:0:0:
228,198,227382,1,2,0:0:0:0:
234,8,227546,2,0,P|226:60|218:101,1,82.5000025177003,2|0,3:2|3:2,0:0:0:0:
330,16,227874,1,10,0:0:0:0:
446,112,228038,2,0,P|469:148|397:231,1,165.000005035401,2|2,0:0|3:2,0:0:0:0:
228,198,228529,2,0,B|264:175|264:175|322:183,1,82.5000025177003,10|2,0:0|0:0,0:0:0:0:
391,384,228857,6,0,P|380:334|370:297,1,82.5000025177003,2|0,3:2|3:2,0:0:0:0:
404,231,229185,1,10,0:0:0:0:
268,347,229349,2,0,P|279:297|289:260,1,82.5000025177003,2|0,0:0|3:2,0:0:0:0:
370,134,229677,1,2,3:2:0:0:
228,198,229841,1,10,0:0:0:0:
198,54,230005,6,0,B|113:35|136:85|23:55,1,165.000005035401,2|0,3:2|3:2,0:0:0:0:
0,170,230497,2,0,B|34:146|34:146|83:156,1,82.5000025177003,8|0,0:0|0:0,0:0:0:0:
163,288,230824,1,0,3:2:0:0:
55,236,230988,1,0,3:2:0:0:
153,128,231152,2,0,P|158:178|135:211,1,82.5000025177003,10|0,0:0|0:0,0:0:0:0:
313,384,231480,6,0,B|294:335|294:335|308:303|308:303|286:267|290:203,1,165.000005035401,2|8,3:2|0:0,0:0:0:0:
309,63,231972,1,2,3:2:0:0:
153,128,232136,1,8,0:0:0:0:
338,163,232300,1,0,3:2:0:0:
214,9,232464,2,0,P|228:57|234:112,1,82.5000025177003,10|0,0:0|3:2,0:0:0:0:
421,108,232792,5,8,0:0:0:0:
421,108,232874,1,8,3:2:0:0:
421,108,232956,2,0,P|424:79|433:60,3,41.2500012588501,2|0|0|0,3:2|3:2|3:2|3:2,0:0:0:0:
477,235,233283,5,2,0:3:0:0:
477,235,233365,1,2,0:3:0:0:
477,235,233447,2,0,P|474:264|465:283,3,41.2500012588501,2|0|0|0,3:2|3:2|3:2|3:2,0:0:0:0:
356,177,233775,5,10,0:0:0:0:
332,168,233857,1,8,0:0:0:0:
307,163,233939,1,10,0:0:0:0:
282,163,234021,1,8,0:0:0:0:
257,168,234103,2,0,L|149:190,1,82.5000025177003,0|2,3:2|3:2,0:0:0:0:
90,62,234431,6,0,B|189:90|164:33|273:57,1,165.000005035401,8|0,0:0|3:2,0:0:0:0:
176,184,234923,1,0,3:2:0:0:
73,143,235087,2,0,P|90:192|92:241,1,82.5000025177003,8|0,0:0|0:0,0:0:0:0:
190,384,235415,1,0,3:2:0:0:
82,331,235579,1,0,3:2:0:0:
82,331,235660,1,0,3:2:0:0:
82,331,235742,2,0,P|105:326|132:321,1,41.2500012588501,8|0,0:0|0:0,0:0:0:0:
191,269,235906,6,0,P|214:274|241:279,1,41.2500012588501,2|0,0:3|0:0,0:0:0:0:
343,234,236070,1,0,3:2:0:0:
350,261,236152,1,0,3:2:0:0:
346,289,236234,1,0,3:2:0:0:
334,314,236316,1,0,3:2:0:0:
314,335,236398,2,0,P|322:361|326:378,3,41.2500012588501,2|2|0|0,0:3|0:3|3:2|3:2,0:0:0:0:
240,260,236726,6,0,L|256:172,1,82.5000025177003,10|0,0:0|3:2,0:0:0:0:
234,97,236972,1,0,3:2:0:0:
244,102,237054,2,0,P|271:105|292:111,1,41.2500012588501,2|2,0:3|0:3,0:0:0:0:
340,190,237218,2,0,P|360:194|380:196,1,41.2500012588501,2|0,3:2|3:2,0:0:0:0:
478,180,237382,1,0,3:2:0:0:
478,180,237464,1,0,3:2:0:0:
478,180,237546,2,0,L|468:130,1,41.2500012588501,0|0,3:2|3:2,0:0:0:0:
511,13,237710,6,0,P|445:5|383:92,1,165.000005035401,10|0,0:0|0:0,0:0:0:0:
254,178,238201,1,2,3:2:0:0:
191,23,238365,2,0,B|234:32|234:32|276:4,1,82.5000025177003,8|0,0:0|0:0,0:0:0:0:
159,199,238693,6,0,L|142:146,1,41.2500012588501,10|8,0:0|0:0,0:0:0:0:
113,40,238857,2,0,L|96:93,1,41.2500012588501,2|2,0:3|0:3,0:0:0:0:
23,131,239021,1,0,3:2:0:0:
25,143,239103,1,0,3:2:0:0:
28,155,239185,1,14,0:0:0:0:
