osu file format v14

[General]
AudioFilename: audio.mp3
AudioLeadIn: 0
PreviewTime: 226220
Countdown: 0
SampleSet: Soft
StackLeniency: 0.3
Mode: 0
LetterboxInBreaks: 0
WidescreenStoryboard: 1

[Editor]
Bookmarks: 120720,120886,121053,202886,203053,203220,203386
DistanceSpacing: 1.3
BeatDivisor: 8
GridSize: 4
TimelineZoom: 2.1

[Metadata]
Title:Itsumo Kono Basho de
TitleUnicode:いつもこの場所で
Artist:Ayane
ArtistUnicode:彩音
Creator:Kalibe
Version:Mirai
Source:劇場版 STEINS;GATE 負荷領域のデジャヴ
Tags:collaboration sotarks 5pb. Records nitro+ WHITE FOX Fuka Ryouiki no Deja Déjà vu Ending Theme the movie
BeatmapID:1164084
BeatmapSetID:549739

[Difficulty]
HPDrainRate:6
CircleSize:4
OverallDifficulty:8
ApproachRate:9
SliderMultiplier:2.03
SliderTickRate:1

[Events]
//Background and Video events
0,0,"45636363.jpg",0,0
//Break Periods
//Storyboard Layer 0 (Background)
//Storyboard Layer 1 (Fail)
//Storyboard Layer 2 (Pass)
//Storyboard Layer 3 (Foreground)
//Storyboard Sound Samples

[TimingPoints]
720,666.666666666667,4,2,0,40,1,0
720,-125,4,2,0,40,0,0
5886,-125,4,2,0,20,0,0
5970,-125,4,2,0,30,0,0
6053,-125,4,2,0,40,0,0
11386,-111.111111111111,4,2,1,40,0,0
20720,-200,4,2,1,40,0,0
22053,-133.333333333333,4,2,1,45,0,0
27220,-133.333333333333,4,2,0,20,0,0
27303,-133.333333333333,4,2,0,40,0,0
27386,-133.333333333333,4,2,1,45,0,0
32720,-125,4,2,1,40,0,0
37886,-125,4,2,0,25,0,0
38053,-125,4,2,0,45,0,0
38220,-125,4,2,1,45,0,0
42053,-125,4,2,0,50,0,0
42220,-125,4,2,1,45,0,0
42720,-125,4,2,0,50,0,0
42886,-125,4,2,1,45,0,0
43386,-125,4,2,0,50,0,0
43553,-125,4,2,1,45,0,0
53053,-100,4,2,1,55,0,0
53553,-66.6666666666667,4,2,1,60,0,0
54053,-100,4,2,1,60,0,0
64220,-66.6666666666667,4,2,1,60,0,0
64720,-100,4,2,1,60,0,0
72720,-90.9090909090909,4,2,1,65,0,0
75386,-100,4,2,1,50,0,0
77386,-100,4,2,1,80,0,0
78053,-83.3333333333333,4,2,2,60,0,1
78136,-83.3333333333333,4,2,1,70,0,1
80636,-83.3333333333333,4,2,1,5,0,1
80720,-83.3333333333333,4,2,1,70,0,1
82886,-66.6666666666667,4,2,1,70,0,1
83386,-83.3333333333333,4,2,1,70,0,1
91053,-125,4,2,1,70,0,0
91303,-125,4,2,1,5,0,1
91386,-83.3333333333333,4,2,1,70,0,1
93553,-66.6666666666667,4,2,1,70,0,1
94053,-83.3333333333333,4,2,1,70,0,0
95970,-83.3333333333333,4,2,1,5,0,0
96053,-83.3333333333333,4,2,1,70,0,0
99386,-83.3333333333333,4,2,1,70,0,1
104053,-66.6666666666667,4,2,1,70,0,1
104720,-83.3333333333333,4,2,1,70,0,1
115386,-90.9090909090909,4,2,1,65,0,0
116386,-90.9090909090909,4,2,0,65,0,0
117386,-90.9090909090909,4,2,1,65,0,0
118053,-90.9090909090909,4,2,0,65,0,0
118220,-90.9090909090909,4,2,1,65,0,0
119386,-90.9090909090909,4,2,0,65,0,0
119553,-90.9090909090909,4,2,1,65,0,0
120720,-100,4,2,1,55,0,0
130053,-100,4,2,0,55,0,0
130136,-100,4,2,1,55,0,0
139386,-100,4,2,2,30,0,0
139553,-100,4,2,1,55,0,0
141553,-66.6666666666667,4,2,1,65,0,0
142053,-100,4,2,1,60,0,0
152220,-66.6666666666667,4,2,1,65,0,0
152720,-100,4,2,1,60,0,0
160720,-90.9090909090909,4,2,1,65,0,0
163386,-100,4,2,1,50,0,0
165386,-100,4,2,1,80,0,0
166053,-83.3333333333333,4,2,2,60,0,1
166136,-83.3333333333333,4,2,1,70,0,1
170886,-66.6666666666667,4,2,1,70,0,1
171386,-83.3333333333333,4,2,1,70,0,1
182053,-83.3333333333333,4,2,1,70,0,0
184720,-90.9090909090909,4,2,1,70,0,0
185386,-71.4285714285714,4,2,1,70,0,0
187386,-83.3333333333333,4,2,1,70,0,1
203386,-90.9090909090909,4,2,1,65,0,0
204386,-90.9090909090909,4,2,0,65,0,0
205386,-90.9090909090909,4,2,1,65,0,0
206053,-90.9090909090909,4,2,0,65,0,0
206220,-90.9090909090909,4,2,1,65,0,0
207386,-90.9090909090909,4,2,0,65,0,0
207553,-90.9090909090909,4,2,1,65,0,0
211386,-90.9090909090909,4,2,0,65,0,0
211553,-90.9090909090909,4,2,1,65,0,0
214053,-76.9230769230769,4,2,2,50,0,0
214136,-76.9230769230769,4,2,1,5,0,0
214470,-76.9230769230769,4,1,1,60,0,0
214720,-76.9230769230769,4,2,1,50,0,0
215053,-71.4285714285714,4,2,1,80,0,0
216386,-71.4285714285714,4,2,1,60,0,0
216720,-76.9230769230769,4,2,1,70,0,0
217720,-71.4285714285714,4,2,1,75,0,0
218720,-71.4285714285714,4,2,1,85,0,0
218803,-71.4285714285714,4,2,1,75,0,0
219386,-71.4285714285714,4,2,1,70,0,0
219720,-71.4285714285714,4,2,1,60,0,0
219831,-71.4285714285714,4,2,1,70,0,0
219942,-71.4285714285714,4,2,1,65,0,0
220386,-71.4285714285714,4,2,1,60,0,0
220497,-71.4285714285714,4,2,1,70,0,0
220608,-71.4285714285714,4,2,1,65,0,0
220720,-71.4285714285714,4,2,1,75,0,0
220775,-71.4285714285714,4,1,1,65,0,0
221053,-71.4285714285714,4,2,1,60,0,0
221164,-71.4285714285714,4,2,1,70,0,0
221275,-71.4285714285714,4,2,1,65,0,0
221386,-71.4285714285714,4,2,1,75,0,0
222053,-83.3333333333333,4,2,1,60,0,0
223275,-83.3333333333333,4,2,1,5,0,0
223386,-83.3333333333333,4,2,1,60,0,0
224720,-100,4,2,1,50,0,0
227386,-125,4,2,2,30,0,0
227470,-125,4,2,1,40,0,0
238053,-125,4,2,1,45,0,0
243386,-111.111111111111,4,2,1,40,0,0
244720,-111.111111111111,4,2,1,50,0,0
246053,-111.111111111111,4,2,1,45,0,0
247386,-111.111111111111,4,2,1,60,0,0
248720,-100,4,2,1,50,0,0
249720,-100,4,2,1,75,0,0
250386,-133.333333333333,4,2,1,40,0,0
250636,-100,4,2,1,5,0,0
250720,-83.3333333333333,4,2,1,80,0,0
250803,-83.3333333333333,4,2,1,60,0,0
251386,-83.3333333333333,4,2,2,60,0,1
251470,-83.3333333333333,4,2,1,70,0,1
253970,-83.3333333333333,4,2,1,5,0,1
254053,-83.3333333333333,4,2,1,70,0,1
256220,-66.6666666666667,4,2,1,70,0,1
256720,-83.3333333333333,4,2,1,70,0,1
264386,-125,4,2,1,70,0,0
264636,-125,4,2,1,5,0,0
264720,-83.3333333333333,4,2,1,70,0,1
266886,-66.6666666666667,4,2,1,70,0,1
267386,-83.3333333333333,4,2,1,70,0,0
269303,-83.3333333333333,4,2,1,5,0,0
269386,-83.3333333333333,4,2,1,70,0,0
272720,-83.3333333333333,4,2,1,70,0,1
277386,-66.6666666666667,4,2,1,70,0,1
278053,-83.3333333333333,4,2,1,70,0,1
288636,-83.3333333333333,4,2,1,5,0,1
288720,-90.9090909090909,4,2,1,60,0,0
296386,-90.9090909090909,4,2,0,60,0,0
296720,-90.9090909090909,4,2,1,60,0,0
298053,-90.9090909090909,4,2,0,60,0,0
298220,-90.9090909090909,4,2,1,60,0,0
298386,-90.9090909090909,4,2,0,60,0,0
298553,-90.9090909090909,4,2,1,60,0,0
302053,-90.9090909090909,4,2,1,65,0,0
304720,-90.9090909090909,4,2,2,55,0,0
304803,-90.9090909090909,4,2,1,55,0,0
306053,-90.9090909090909,4,2,1,60,0,0
307386,-90.9090909090909,4,2,1,65,0,0
308053,-90.9090909090909,4,2,1,70,0,0
308720,-90.9090909090909,4,2,1,75,0,0
309386,-90.9090909090909,4,2,1,80,0,0
310053,-90.9090909090909,4,2,1,60,0,0
310720,-90.9090909090909,4,2,1,50,0,0
311386,-90.9090909090909,4,2,1,40,0,0
312053,-90.9090909090909,4,2,1,30,0,0
312720,-90.9090909090909,4,2,1,20,0,0
313386,-90.9090909090909,4,2,1,10,0,0
314053,-90.9090909090909,4,2,1,5,0,0

[Colours]
Combo1 : 91,139,56
Combo2 : 196,134,134
Combo3 : 223,156,83
Combo4 : 35,175,158
SliderBorder : 192,231,206
SliderTrackOverride : 32,32,53

[HitObjects]
47,215,720,6,0,P|123:224|179:239,1,121.8,2|2,0:0|0:0,0:0:0:0:
139,336,1386,2,0,P|180:333|220:325,1,81.2,0|0,3:0|0:0,0:0:0:0:
219,325,2386,5,2,0:3:0:0:
166,235,2553,1,0,0:0:0:0:
36,288,2720,2,0,L|89:303,1,40.6,2|0,0:0|0:0,0:0:0:0:
232,216,3053,2,0,L|176:232,1,40.6
16,164,3386,38,0,P|44:180|104:172,1,81.2,2|0,0:0|0:0,0:0:0:0:
169,107,3886,2,0,P|181:169|193:231,1,121.8,2|0,0:0|3:0,0:0:0:0:
484,59,5886,5,2,0:0:0:0:
484,59,5970,1,2,0:0:0:0:
484,59,6053,2,0,P|407:61|364:79,1,121.8,2|2,0:0|0:0,0:0:0:0:
221,126,6720,2,0,P|269:138|306:154,1,81.2,0|0,3:0|0:0,0:0:0:0:
312,172,7720,38,0,L|364:160,1,40.6
472,144,8053,2,0,L|428:132,1,40.6,2|0,0:0|0:3,0:0:0:0:
354,38,8386,2,0,L|370:90,1,40.6
440,220,8720,6,0,P|399:208|349:193,1,81.2,2|0,0:0|0:0,0:0:0:0:
245,230,9220,2,0,P|213:298|225:350,1,121.8,2|2,0:0|0:0,0:0:0:0:
220,341,10386,37,0,0:0:0:0:
220,341,10720,1,2,0:0:0:0:
260,136,11053,1,2,0:0:0:0:
260,136,11220,1,2,0:0:0:0:
245,230,11386,6,0,P|200:218|156:208,1,91.3499972122193,4|0,0:0|0:0,0:0:0:0:
23,138,11886,2,0,P|97:155|141:115,1,137.024995818329
183,315,12720,1,0,3:0:0:0:
183,315,13053,2,0,P|191:270|205:212,2,91.3499972122193,0|2|0,0:0|0:0|0:0,0:0:0:0:
183,315,14053,38,0,P|157:320|122:333,1,45.6749986061097
291,257,14386,2,0,P|317:262|352:275,1,45.6749986061097
185,193,14720,2,0,P|173:137|185:89,1,91.3499972122193,2|0,0:0|0:0,0:0:0:0:
248,36,15220,2,0,P|270:41|291:48,1,45.6749986061097,0|2,0:0|0:0,0:0:0:0:
256,144,15553,2,0,P|300:132|344:120,1,91.3499972122193
417,64,16053,2,0,P|441:128|409:188,1,137.024995818329,2|0,0:0|0:0,0:0:0:0:
224,140,16720,6,0,P|212:96|240:36,1,91.3499972122193,4|0,0:0|0:0,0:0:0:0:
342,109,17220,2,0,P|291:149|220:138,1,137.024995818329
124,112,17886,1,0,0:0:0:0:
124,112,18053,2,0,P|137:156|152:209,1,91.3499972122193,2|0,0:0|0:0,0:0:0:0:
187,295,18553,1,0,0:0:0:0:
102,349,18720,2,0,P|51:358|4:365,1,91.3499972122193,2|0,0:0|0:0,0:0:0:0:
260,248,19386,38,0,L|280:316,1,45.6749986061097,4|0,0:0|0:0,0:0:0:0:
176,340,19720,2,0,L|188:284,1,45.6749986061097
372,208,20053,1,2,0:0:0:0:
361,315,20220,2,0,L|273:291,1,91.3499972122193
176,340,20720,6,0,B|128:224|212:260|168:144,1,203,2|4,0:0|0:0,0:0:0:0:
148,116,22720,1,2,0:0:0:0:
281,45,23053,2,0,L|317:55,1,38.0625014519692
255,39,23386,37,2,0:0:0:0:
436,144,23720,2,0,P|473:136|511:132,2,76.1250029039384,0|2|0,0:0|0:0|0:0,0:0:0:0:
249,226,24720,5,2,0:0:0:0:
249,226,24886,2,0,P|317:239|369:220,1,114.187504355908,0|2,3:0|0:0,0:0:0:0:
492,316,25720,2,0,L|447:303,1,38.0625014519692
368,352,26053,2,0,P|328:356|280:360,1,76.1250029039384,2|0,0:0|0:0,0:0:0:0:
148,316,26720,2,0,P|185:312|223:308,1,76.1250029039384,2|0,0:0|0:0,0:0:0:0:
344,240,27220,37,2,0:0:0:0:
344,240,27303,1,2,0:0:0:0:
344,240,27386,2,0,B|284:248|284:248|228:224,1,114.187504355908,4|0,0:0|0:0,0:0:0:0:
177,176,28053,2,0,P|176:137|195:96,1,76.1250029039384,2|0,0:0|0:0,0:0:0:0:
249,55,28553,1,0,0:0:0:0:
297,114,28720,2,0,P|340:129|385:130,1,76.1250029039384,2|0,0:0|0:0,0:0:0:0:
495,44,29386,2,0,P|457:47|421:61,1,76.1250029039384,2|0,0:0|0:0,0:0:0:0:
318,226,30053,5,2,0:0:0:0:
318,226,30220,2,0,L|292:93,1,114.187504355908,0|2,3:0|0:0,0:0:0:0:
420,201,31053,1,0,0:0:0:0:
401,275,31220,1,0,0:0:0:0:
377,347,31386,2,0,P|342:329|298:316,1,76.1250029039384,2|0,0:0|0:0,0:0:0:0:
154,306,32053,2,0,P|190:294|223:276,1,76.1250029039384,2|0,0:0|0:0,0:0:0:0:
280,208,32553,1,0,0:0:0:0:
180,144,32720,38,0,P|162:180|156:224,1,81.2,4|0,0:0|0:0,0:0:0:0:
100,364,33386,2,0,P|122:330|154:305,1,81.2
221,356,33886,2,0,P|278:377|338:338,1,121.8,2|0,0:0|0:0,0:0:0:0:
273,286,34553,2,0,L|401:268,1,121.8,2|0,0:0|0:0,0:0:0:0:
504,220,35220,1,0,0:0:0:0:
469,296,35386,6,0,P|430:281|381:265,1,81.2,2|2,0:0|0:0,0:0:0:0:
381,163,35886,2,0,P|418:148|457:135,1,81.2
504,220,36386,2,0,L|452:212,1,40.6,2|0,0:0|0:0,0:0:0:0:
288,188,36720,37,0,0:0:0:0:
457,135,37053,1,2,0:0:0:0:
309,35,37386,1,0,0:0:0:0:
268,209,37720,2,0,L|281:148,1,40.6,2|0,0:0|0:0,0:0:0:0:
309,35,38053,1,0,0:0:0:0:
309,35,38386,6,0,L|298:89,1,40.6,2|0,0:0|0:0,0:0:0:0:
204,167,38720,2,0,P|243:157|284:151,1,81.2,2|0,0:0|0:0,0:0:0:0:
156,248,39220,2,0,P|116:241|76:228,1,81.2
232,304,39720,2,0,L|245:376,1,40.6
319,264,40053,1,2,0:0:0:0:
155,336,40386,2,0,L|107:320,1,40.6
140,236,40720,38,0,P|180:248|232:264,1,81.2,2|0,0:0|0:0,0:0:0:0:
77,358,41386,2,0,P|116:346|155:335,1,81.2,2|0,0:0|0:0,0:0:0:0:
217,259,41886,1,0,0:0:0:0:
120,212,42053,2,0,L|32:196,1,81.2,2|2,0:0|0:0,0:0:0:0:
240,360,42720,2,0,L|332:348,1,81.2,2|0,0:0|0:0,0:0:0:0:
416,336,43220,1,0,0:0:0:0:
344,264,43386,6,0,P|296:252|264:250,1,81.2,2|0,0:0|0:0,0:0:0:0:
92,128,44053,2,0,P|132:124|171:114,1,81.2,2|0,0:0|0:0,0:0:0:0:
272,48,44553,2,0,L|241:175,1,121.8,2|0,0:0|0:0,0:0:0:0:
264,250,45220,1,0,0:0:0:0:
338,201,45386,2,0,P|389:189|436:193,1,81.2,2|0,0:0|0:0,0:0:0:0:
496,232,45886,1,0,0:0:0:0:
364,304,46053,38,0,L|279:287,1,81.2,2|0,0:0|0:0,0:0:0:0:
36,332,46720,2,0,L|116:348,1,81.2,2|0,0:0|0:0,0:0:0:0:
212,384,47220,2,0,P|196:324|188:256,1,121.8,2|0,0:0|0:0,0:0:0:0:
248,96,48053,1,2,0:0:0:0:
288,196,48386,2,0,L|276:240,1,40.6,0|2,0:0|0:0,0:0:0:0:
188,264,48720,6,0,P|145:253|84:240,1,81.2
0,104,49386,2,0,P|39:95|79:85,1,81.2,2|0,0:0|0:0,0:0:0:0:
152,36,49886,1,0,0:0:0:0:
236,64,50053,37,2,0:0:0:0:
64,12,50386,1,0,0:0:0:0:
84,188,50720,1,2,0:0:0:0:
84,188,51053,2,0,P|59:180|44:176,1,40.6,2|0,0:3|0:0,0:0:0:0:
128,264,51386,6,0,P|195:235|251:245,2,121.8,4|2|0,0:0|0:0|0:0,0:0:0:0:
60,356,52720,1,2,0:0:0:0:
60,356,53053,6,0,P|120:364|168:336,1,101.5,8|8,0:0|0:0,0:0:0:0:
241,241,53553,6,0,P|336:216|388:248,1,152.250005807877,4|0,3:0|3:0,0:0:0:0:
398,380,54053,6,0,P|314:364|230:352,1,152.25,4|0,0:0|3:0,0:0:0:0:
150,297,54720,2,0,P|143:245|172:206,1,101.5,8|0,0:0|0:0,0:0:0:0:
266,149,55220,2,0,P|275:101|244:48,1,101.5
156,112,55720,1,2,0:0:0:0:
364,29,56053,5,8,0:0:0:0:
364,29,56220,1,0,0:0:0:0:
456,88,56386,2,0,L|506:78,1,50.75
400,176,56720,38,0,P|316:185|263:144,1,152.25,4|0,3:0|3:0,0:0:0:0:
186,226,57386,2,0,P|126:238|77:251,1,101.5,8|0,0:0|0:0,0:0:0:0:
165,124,57886,2,0,P|214:133|264:146,1,101.5
368,198,58386,1,2,0:0:0:0:
392,216,58720,5,8,0:0:0:0:
298,177,58886,1,4,3:0:0:0:
310,78,59053,1,0,0:0:0:0:
411,67,59220,1,0,3:0:0:0:
472,160,59386,38,0,P|483:253|445:297,1,152.25,2|0,0:0|3:0,0:0:0:0:
300,358,60053,2,0,L|272:247,1,101.5,8|0,0:0|3:0,0:0:0:0:
356,216,60553,1,0,0:0:0:0:
200,300,60720,2,0,P|144:308|88:284,1,101.5,2|0,0:0|3:0,0:0:0:0:
60,192,61220,1,0,0:0:0:0:
260,156,61386,1,8,0:0:0:0:
260,156,61553,2,0,P|211:170|162:162,1,101.5,4|0,3:0|0:0,0:0:0:0:
0,76,62053,6,0,B|80:40|60:116|152:75,1,152.25,2|0,0:0|3:0,0:0:0:0:
245,39,62720,2,0,P|290:50|344:58,1,101.5,8|4,0:0|3:0,0:0:0:0:
500,112,63220,2,0,P|449:119|400:131,1,101.5,2|0,0:0|0:0,0:0:0:0:
296,176,63720,1,0,3:0:0:0:
272,192,64053,5,8,0:0:0:0:
424,288,64220,2,0,B|336:264|336:264|276:296,1,152.250005807877,2|0,0:0|0:0,0:0:0:0:
216,364,64720,22,0,P|236:294|264:204,1,152.25,4|0,0:0|3:0,0:0:0:0:
328,140,65386,2,0,L|308:84,1,50.75,8|0,0:0|0:0,0:0:0:0:
259,218,65720,1,2,0:0:0:0:
328,308,65886,2,0,P|375:335|422:329,1,101.5
440,240,66386,2,0,L|380:256,1,50.75,2|0,0:0|0:0,0:0:0:0:
167,350,66720,2,0,L|221:365,1,50.75,8|0,0:0|3:0,0:0:0:0:
328,308,67053,1,0,0:0:0:0:
220,244,67220,1,0,0:0:0:0:
84,316,67386,6,0,P|58:246|95:182,1,152.25,2|0,0:0|3:0,0:0:0:0:
202,144,68053,2,0,L|222:256,1,101.5,8|2,0:0|0:0,0:0:0:0:
368,352,68553,2,0,L|392:248,1,101.5
332,156,69053,1,0,3:0:0:0:
320,184,69386,37,8,0:0:0:0:
359,79,69553,1,0,3:0:0:0:
308,211,69720,1,4,3:0:0:0:
430,167,69886,1,0,0:0:0:0:
428,324,70053,6,0,P|348:336|292:296,1,152.25,2|0,0:0|0:0,0:0:0:0:
220,202,70720,2,0,P|267:193|328:182,1,101.5,8|0,0:0|3:0,0:0:0:0:
412,100,71220,1,0,0:0:0:0:
412,100,71386,2,0,P|357:90|296:80,1,101.5,2|0,0:0|3:0,0:0:0:0:
192,16,71886,1,0,0:0:0:0:
200,216,72053,37,8,0:0:0:0:
56,160,72220,1,4,3:0:0:0:
239,94,72386,1,0,0:0:0:0:
156,288,72553,1,4,3:0:0:0:
136,84,72720,6,0,P|143:112|156:152,1,55.8250017036438,4|0,0:0|0:0,0:0:0:0:
40,213,73053,2,0,P|46:185|55:159,1,55.8250017036438,2|0,0:0|0:0,0:0:0:0:
265,266,73386,2,0,P|209:275|155:288,1,111.650003407288,8|4,0:0|3:0,0:0:0:0:
8,352,73886,2,0,P|71:366|117:374,1,111.650003407288,2|0,0:0|0:0,0:0:0:0:
220,320,74386,1,2,0:0:0:0:
117,374,74720,37,8,0:0:0:0:
304,276,74886,2,0,L|427:299,1,111.650003407288,4|2,3:0|0:0,0:0:0:0:
364,208,75386,6,0,B|296:196|296:196|144:264|75:183|99:107|196:80|260:136|260:240|208:288,1,507.5,6|0,0:0|3:0,0:0:0:0:
192,308,77386,5,8,0:0:0:0:
16,228,77553,1,12,3:0:0:0:
180,176,77720,5,4,3:0:0:0:
68,368,77886,1,4,3:0:0:0:
280,312,78053,38,0,P|216:328|140:348,1,121.799996282959,4|0,0:0|0:0,0:0:0:0:
68,368,78553,1,0,0:0:0:0:
280,312,78720,1,8,0:0:0:0:
161,342,79053,5,0,0:0:0:0:
352,272,79220,2,0,P|276:264|232:236,1,121.799996282959,2|0,0:0|0:0,0:0:0:0:
132,144,79720,2,0,L|144:208,1,60.8999981414795,2|0,0:0|0:0,0:0:0:0:
161,342,80053,1,8,0:0:0:0:
64,236,80220,1,4,3:0:0:0:
212,116,80386,2,0,L|232:212,1,91.3499972122193,2|0,0:0|0:0,0:0:0:0:
238,241,80720,37,2,0:0:0:0:
204,88,80886,1,0,0:0:0:0:
396,168,81053,2,0,L|336:154,1,60.8999981414795,0|0,0:0|3:0,0:0:0:0:
122,267,81386,2,0,P|190:239|250:243,1,121.799996282959,8|0,0:0|3:0,0:0:0:0:
380,376,81886,6,0,P|319:374|264:349,1,121.799996282959,4|0,0:0|3:0,0:0:0:0:
122,267,82386,1,0,0:0:0:0:
252,200,82553,1,2,0:0:0:0:
268,380,82720,37,12,0:0:0:0:
204,284,82886,2,0,B|172:212|232:220|196:132,1,152.250005807877,4|2,3:0|0:0,0:0:0:0:
16,168,83386,6,0,P|72:192|136:176,1,121.799996282959,4|0,0:0|0:0,0:0:0:0:
248,59,83886,1,0,0:0:0:0:
311,124,84053,2,0,P|256:147|197:135,1,121.799996282959,8|0,0:0|0:0,0:0:0:0:
80,76,84553,37,2,0:0:0:0:
200,224,84720,2,0,L|172:360,1,121.799996282959,0|0,0:0|3:0,0:0:0:0:
84,280,85220,1,0,0:0:0:0:
312,220,85386,5,8,0:0:0:0:
208,336,85553,1,4,3:0:0:0:
76,248,85720,1,2,0:0:0:0:
64,220,86053,38,0,L|40:148,1,60.8999981414795,2|0,0:0|0:0,0:0:0:0:
213,77,86386,2,0,L|234:137,1,60.8999981414795,0|0,0:0|3:0,0:0:0:0:
100,88,86720,5,8,0:0:0:0:
288,48,86886,2,0,L|348:35,1,60.8999981414795,2|0,0:0|3:0,0:0:0:0:
128,172,87220,38,0,B|232:132|200:216|308:172,1,182.699994424439,2|4,0:0|3:0,0:0:0:0:
396,112,87886,1,0,0:0:0:0:
512,224,88053,2,0,P|480:212|436:204,1,60.8999981414795,8|0,0:0|0:0,0:0:0:0:
292,260,88386,1,2,0:0:0:0:
384,144,88553,1,4,3:0:0:0:
460,297,88720,6,0,P|352:321|288:281,1,182.699994424439,6|0,0:0|0:0,0:0:0:0:
164,220,89386,2,0,L|98:211,1,60.8999981414795,8|0,0:0|0:0,0:0:0:0:
232,128,89720,1,4,3:0:0:0:
293,287,89886,38,0,B|229:279|229:279|181:299|181:299|113:291,1,182.699994424439,2|4,0:0|3:0,0:0:0:0:
164,220,90553,1,0,0:0:0:0:
248,368,90720,1,8,0:0:0:0:
332,284,90886,1,0,0:0:0:0:
216,184,91053,6,0,P|180:188|148:200,1,60.9,2|0,0:0|0:0,0:0:0:0:
90,224,91386,38,0,B|150:196|150:196|218:208|242:268,1,182.699994424439,6|0,0:0|0:0,0:0:0:0:
292,384,92053,2,0,P|351:374|428:364,1,121.799996282959,8|0,0:0|3:0,0:0:0:0:
476,276,92553,2,0,P|416:264|344:248,1,121.799996282959,4|0,3:0|0:0,0:0:0:0:
244,180,93053,1,0,3:0:0:0:
344,128,93220,1,0,0:0:0:0:
296,308,93386,5,12,0:0:0:0:
144,232,93553,2,0,B|124:180|124:180|160:80,1,152.250005807877,0|0,3:0|0:0,0:0:0:0:
364,164,94053,6,0,L|227:182,1,121.799996282959,4|0,0:0|0:0,0:0:0:0:
144,232,94553,1,0,0:0:0:0:
224,328,94720,2,0,P|284:352|352:332,1,121.799996282959,8|0,0:0|3:0,0:0:0:0:
156,260,95220,6,0,P|91:263|38:310,1,121.799996282959,4|0,0:0|3:0,0:0:0:0:
248,236,95720,2,0,P|260:192|248:140,1,91.3499972122193,2|0,0:0|0:0,0:0:0:0:
233,112,96053,1,12,0:0:0:0:
120,180,96220,1,0,0:0:0:0:
248,236,96386,1,2,0:0:0:0:
248,236,96720,38,0,P|276:248|324:256,1,60.8999981414795,4|0,0:0|0:0,0:0:0:0:
418,179,97053,2,0,P|388:185|360:197,1,60.8999981414795,0|0,3:0|3:0,0:0:0:0:
166,346,97386,6,0,P|194:334|242:326,1,60.8999981414795,8|0,0:0|0:0,0:0:0:0:
328,376,97720,1,0,3:0:0:0:
432,296,97886,2,0,P|440:256|416:176,1,121.799996282959,4|0,3:0|3:0,0:0:0:0:
240,128,98386,2,0,L|304:120,1,60.8999981414795,2|0,0:0|0:0,0:0:0:0:
504,52,98720,38,0,P|448:72|384:52,1,121.799996282959,12|0,0:0|0:0,0:0:0:0:
300,4,99220,1,2,0:0:0:0:
68,72,99386,38,0,P|46:144|74:192,1,121.799996282959,4|0,0:0|0:0,0:0:0:0:
140,129,99886,1,0,0:0:0:0:
0,232,100053,2,0,L|24:360,1,121.799996282959,8|4,0:0|3:0,0:0:0:0:
137,270,100553,38,0,P|209:266|252:300,1,121.799996282959,2|0,0:0|0:0,0:0:0:0:
392,236,101053,2,0,P|360:240|324:256,1,60.8999981414795,0|0,3:0|0:0,0:0:0:0:
179,344,101386,5,8,0:0:0:0:
268,188,101553,1,0,3:0:0:0:
382,312,101720,1,2,0:0:0:0:
412,332,102053,38,0,P|441:343|487:352,1,60.8999981414795,2|0,0:0|0:0,0:0:0:0:
333,250,102386,2,0,P|304:261|258:270,1,60.8999981414795,0|0,0:0|3:0,0:0:0:0:
69,317,102720,2,0,P|126:313|182:345,1,121.799996282959,8|0,0:0|3:0,0:0:0:0:
312,336,103220,6,0,P|319:305|328:272,1,60.8999981414795,2|0,0:0|0:0,0:0:0:0:
267,187,103553,2,0,P|257:157|246:128,1,60.8999981414795
340,24,103886,37,0,0:0:0:0:
401,158,104053,2,0,P|331:201|263:185,1,152.250005807877,12|0,0:0|3:0,0:0:0:0:
320,116,104553,5,2,0:0:0:0:
484,192,104720,2,0,P|515:257|499:313,1,121.799996282959,4|0,0:0|0:0,0:0:0:0:
432,368,105220,1,2,0:0:0:0:
312,300,105386,2,0,P|236:276|176:272,1,121.799996282959,8|4,0:0|3:0,0:0:0:0:
36,372,105886,38,0,P|96:364|153:343,1,121.799996282959,4|2,0:0|0:0,0:0:0:0:
296,264,106386,1,0,3:0:0:0:
312,300,106720,6,0,L|292:364,1,60.8999981414795,8|0,0:0|0:0,0:0:0:0:
160,184,107053,2,0,L|187:256,1,60.8999981414795,2|0,0:0|0:0,0:0:0:0:
364,96,107386,38,0,P|260:124|208:80,1,182.699994424439,4|0,0:0|3:0,0:0:0:0:
292,24,108053,1,8,0:0:0:0:
388,112,108220,1,0,3:0:0:0:
181,241,108386,5,2,0:0:0:0:
68,184,108553,2,0,P|50:136|42:58,1,121.799996282959,0|4,0:0|3:0,0:0:0:0:
144,108,109053,1,2,0:0:0:0:
36,200,109220,1,0,3:0:0:0:
176,340,109386,38,0,P|244:352|300:368,1,121.799996282959,12|2,0:0|0:0,0:0:0:0:
392,328,109886,1,2,0:0:0:0:
272,256,110053,6,0,P|251:203|279:144,1,121.799996282959,4|0,0:0|0:0,0:0:0:0:
356,206,110553,1,0,0:0:0:0:
176,340,110720,37,8,0:0:0:0:
64,316,110886,1,4,3:0:0:0:
272,256,111053,5,2,0:0:0:0:
84,207,111220,2,0,P|51:267|72:327,1,121.799996282959,4|4,0:0|3:0,0:0:0:0:
168,384,111720,2,0,L|184:304,1,60.8999981414795,0|0,0:0|3:0,0:0:0:0:
140,96,112053,37,8,0:0:0:0:
160,252,112220,1,8,2:3:0:0:
356,180,112386,1,2,0:0:0:0:
244,132,112553,1,0,0:0:0:0:
179,324,112720,1,4,0:0:0:0:
179,324,113220,5,0,3:0:0:0:
274,249,113386,2,0,P|263:188|238:121,1,121.799996282959,8|8,0:0|3:0,0:0:0:0:
243,131,114053,37,2,0:0:0:0:
274,249,114220,1,8,0:0:0:0:
176,88,114386,1,6,0:0:0:0:
328,132,114553,1,0,0:0:0:0:
184,196,114720,5,8,0:0:0:0:
272,56,114886,1,2,0:0:0:0:
360,212,115053,1,4,3:0:0:0:
496,128,115220,1,4,3:0:0:0:
380,20,115386,22,0,L|356:132,1,111.650003407288,6|0,0:0|0:0,0:0:0:0:
179,324,116053,2,0,L|160:240,1,55.8250017036438,8|0,0:0|0:0,0:0:0:0:
136,136,116386,37,2,0:0:0:0:
179,324,116553,1,2,0:0:0:0:
372,244,116720,2,0,P|304:240|252:220,1,111.650003407288,2|4,0:0|3:0,0:0:0:0:
40,368,117386,2,0,P|108:364|160:344,1,111.650003407288,10|0,0:0|0:0,0:0:0:0:
224,288,117886,1,2,0:0:0:0:
88,136,118053,6,0,L|72:256,1,111.650003407288,2|4,0:0|3:0,0:0:0:0:
148,349,118553,1,0,0:0:0:0:
263,225,118720,1,8,0:0:0:0:
263,225,119053,38,0,L|340:244,1,55.8250017036438,2|0,0:0|0:0,0:0:0:0:
508,292,119386,2,0,P|448:288|404:316,1,111.650003407288,2|4,0:0|3:0,0:0:0:0:
308,372,119886,1,0,0:0:0:0:
247,182,120053,37,10,0:0:0:0:
188,332,120220,1,8,3:2:0:0:
308,116,120386,37,12,3:0:0:0:
284,276,120553,1,4,3:0:0:0:
147,196,120720,38,0,P|192:190|271:180,1,101.5,4|0,0:0|0:0,0:0:0:0:
384,289,121386,2,0,P|339:283|260:273,1,101.5,8|0,0:0|0:0,0:0:0:0:
349,203,121886,1,0,0:0:0:0:
464,270,122053,2,0,P|471:334|467:372,2,101.5,4|0|8,3:0|3:0|0:0,0:0:0:0:
413,129,122886,1,0,3:0:0:0:
391,318,123053,1,0,0:0:0:0:
489,185,123220,1,0,0:0:0:0:
333,207,123386,38,0,P|281:211|224:210,1,101.5,2|0,0:0|0:0,0:0:0:0:
145,181,123886,1,0,0:0:0:0:
208,115,124053,2,0,P|234:176|228:219,1,101.5,8|0,0:0|0:0,0:0:0:0:
118,292,124553,2,0,L|184:288,1,50.75,0|4,0:0|3:0,0:0:0:0:
353,250,124886,1,8,0:0:0:0:
231,210,125053,2,0,L|238:265,1,50.75,2|0,0:0|3:0,0:0:0:0:
440,286,125386,2,0,L|425:179,1,101.5,8|2,0:0|0:0,0:0:0:0:
302,103,126053,6,0,P|246:124|188:101,1,101.5,0|0,3:0|0:0,0:0:0:0:
246,37,126553,1,0,0:0:0:0:
264,199,126720,2,0,L|274:315,1,101.5,8|0,0:0|0:0,0:0:0:0:
189,256,127220,1,2,0:0:0:0:
355,225,127386,2,0,P|406:210|461:189,2,101.5,4|0|8,3:0|3:0|0:0,0:0:0:0:
373,134,128220,1,0,3:0:0:0:
419,296,128386,1,2,0:0:0:0:
451,193,128553,1,2,0:0:0:0:
328,304,128720,38,0,B|255:332|255:280|174:318,1,152.25,4|0,3:0|0:0,0:0:0:0:
15,286,129386,2,0,P|76:268|128:245,1,101.5,8|0,0:0|0:0,0:0:0:0:
280,232,129886,2,0,P|275:174|274:165,1,50.75,0|2,3:0|0:0,0:0:0:0:
179,315,130220,1,8,0:0:0:0:
39,192,130386,1,0,0:0:0:0:
15,286,130553,1,0,3:0:0:0:
124,154,130720,2,0,L|131:220,1,50.75,10|0,0:0|0:0,0:0:0:0:
285,181,131053,2,0,L|278:247,1,50.75,2|2,0:0|0:0,0:0:0:0:
466,241,131386,6,0,L|456:354,2,101.5,4|0|8,3:0|0:0|0:0,0:0:0:0:
368,71,132386,1,2,0:0:0:0:
329,147,132553,2,0,P|390:151|435:123,1,101.5,0|0,3:0|0:0,0:0:0:0:
284,71,133053,2,0,L|224:79,1,50.75,0|0,3:0|0:0,0:0:0:0:
298,227,133386,2,0,L|358:235,1,50.75,8|2,0:0|0:0,0:0:0:0:
176,169,133720,1,0,0:0:0:0:
329,147,133886,1,2,0:0:0:0:
202,254,134053,38,0,P|140:250|96:239,1,101.5,4|0,3:0|0:0,0:0:0:0:
283,312,134720,2,0,P|345:308|389:297,1,101.5,8|0,0:0|0:0,0:0:0:0:
321,179,135220,2,0,L|321:239,1,50.75,0|4,3:0|3:0,0:0:0:0:
336,56,135553,1,8,0:0:0:0:
321,229,135886,5,2,0:0:0:0:
255,101,136053,2,0,P|197:107|184:110,1,50.75,8|0,0:0|0:0,0:0:0:0:
398,130,136386,2,0,P|456:136|469:139,1,50.75,2|0,0:0|0:0,0:0:0:0:
235,194,136720,38,0,B|182:203|182:203|131:194|131:194|69:203,1,152.25,4|0,3:0|0:0,0:0:0:0:
133,277,137386,2,0,P|140:335|140:344,1,50.75,8|0,0:0|0:0,0:0:0:0:
185,122,137720,2,0,P|187:96|191:71,1,50.75,0|0,3:0|0:0,0:0:0:0:
224,278,138053,2,0,P|279:269|323:236,1,101.5,2|0,0:0|3:0,0:0:0:0:
242,192,138553,1,0,0:0:0:0:
224,278,138720,2,0,L|219:339,1,50.75,8|4,0:0|3:0,0:0:0:0:
405,267,139053,2,0,L|400:216,1,50.75
317,46,139386,6,0,B|292:101|317:150|317:150|337:202|309:258,1,203,4|8,0:0|0:0,0:0:0:0:
388,92,140386,1,2,0:0:0:0:
168,144,140720,1,4,3:0:0:0:
242,192,140886,2,0,P|254:152|238:87,1,101.5,8|0,0:0|0:0,0:0:0:0:
272,288,141386,5,8,0:0:0:0:
381,229,141553,2,0,B|295:182|295:182|231:194,1,152.250005807877,6|0,0:0|3:0,0:0:0:0:
121,293,142053,22,0,P|205:281|293:293,1,152.25,4|0,0:0|3:0,0:0:0:0:
353,336,142720,2,0,P|413:332|425:328,1,50.75,8|0,0:0|0:0,0:0:0:0:
381,229,143053,1,0,3:0:0:0:
276,364,143220,2,0,P|224:367|168:368,1,101.5
111,231,143720,2,0,L|121:286,1,50.75,2|0,0:0|0:0,0:0:0:0:
22,357,144053,2,0,L|31:307,1,50.75,8|0,0:0|3:0,0:0:0:0:
109,213,144386,1,0,0:0:0:0:
138,358,144553,1,0,0:0:0:0:
27,164,144720,6,0,P|78:133|198:165,1,152.25,2|0,0:0|3:0,0:0:0:0:
238,203,145386,2,0,P|289:212|315:210,1,50.75,8|0,0:0|0:0,0:0:0:0:
358,150,145720,1,0,3:0:0:0:
291,313,145886,2,0,L|287:206,1,101.5
211,275,146386,2,0,L|153:281,1,50.75,2|0,0:0|0:0,0:0:0:0:
367,241,146720,2,0,L|426:246,1,50.75,8|0,0:0|0:0,0:0:0:0:
281,124,147053,1,0,0:0:0:0:
291,326,147220,1,0,0:0:0:0:
143,204,147386,38,0,P|207:191|250:198,1,101.5,2|0,0:0|0:0,0:0:0:0:
200,274,147886,1,0,3:0:0:0:
63,163,148053,2,0,L|58:226,1,50.75,8|0,0:0|0:0,0:0:0:0:
188,119,148386,2,0,L|183:68,1,50.75,2|0,0:0|3:0,0:0:0:0:
362,159,148720,2,0,P|417:160|470:149,1,101.5,0|0,0:0|3:0,0:0:0:0:
404,83,149220,1,0,0:0:0:0:
369,265,149386,5,8,0:0:0:0:
482,149,149553,1,2,0:0:0:0:
315,86,149720,1,0,0:0:0:0:
315,86,150053,38,0,B|240:115|241:54|142:101,1,152.25,2|0,0:0|0:0,0:0:0:0:
95,161,150720,2,0,L|89:222,1,50.75,8|0,0:0|0:0,0:0:0:0:
225,286,151053,2,0,L|221:234,1,50.75,4|0,3:0|0:0,0:0:0:0:
49,283,151386,2,0,P|112:283|158:265,1,101.5,2|0,0:0|0:0,0:0:0:0:
147,270,152053,37,8,0:0:0:0:
231,127,152220,2,0,P|151:121|81:182,1,152.250005807877,6|0,0:0|0:0,0:0:0:0:
227,210,152720,6,0,B|272:203|272:203|307:214|307:214|347:199|414:219,1,152.25,4|0,0:0|0:0,0:0:0:0:
340,298,153386,2,0,P|331:352|332:359,1,50.75,8|0,0:0|0:0,0:0:0:0:
375,211,153720,1,0,3:0:0:0:
256,315,153886,2,0,L|147:321,1,101.5
43,263,154386,2,0,L|102:263,1,50.75,2|0,0:0|0:0,0:0:0:0:
236,212,154720,37,8,0:0:0:0:
141,330,154886,1,0,3:0:0:0:
96,152,155053,1,0,0:0:0:0:
163,240,155220,1,0,0:0:0:0:
180,119,155386,6,0,P|307:114|356:116,1,152.25,2|0,0:0|3:0,0:0:0:0:
458,187,156053,2,0,P|472:240|475:294,1,101.5,8|0,0:0|3:0,0:0:0:0:
314,214,156553,2,0,P|317:163|331:114,1,101.5
385,41,157053,1,2,0:0:0:0:
385,41,157386,5,8,0:0:0:0:
252,56,157553,1,0,3:0:0:0:
398,126,157720,1,0,0:0:0:0:
373,280,157886,1,0,0:0:0:0:
213,217,158053,38,0,P|300:211|329:218,1,101.5,2|0,0:0|0:0,0:0:0:0:
266,289,158553,1,0,0:0:0:0:
128,248,158720,2,0,L|72:260,1,50.75,8|0,0:0|0:0,0:0:0:0:
172,128,159053,1,2,0:0:0:0:
72,152,159220,1,0,0:0:0:0:
260,108,159386,6,0,P|260:133|258:158,1,50.75,2|0,0:0|0:0,0:0:0:0:
164,240,159720,1,2,0:0:0:0:
332,179,159886,1,2,0:0:0:0:
176,162,160053,1,8,0:0:0:0:
349,255,160220,1,0,3:0:0:0:
266,289,160386,2,0,P|260:249|261:233,1,50.75
421,177,160720,38,0,P|431:242|431:273,1,55.8250017036438,2|0,0:0|0:0,0:0:0:0:
334,151,161053,2,0,P|340:95|344:74,1,55.8250017036438,0|0,0:0|3:0,0:0:0:0:
259,216,161386,2,0,P|187:211|144:199,1,111.650003407288,8|4,0:0|3:0,0:0:0:0:
15,101,161886,2,0,P|64:90|129:88,1,111.650003407288,2|8,0:0|0:0,0:0:0:0:
212,131,162386,1,0,3:0:0:0:
153,317,162720,5,12,0:0:0:0:
94,242,162886,2,0,P|151:232|237:263,1,111.650003407288,4|0,3:0|0:0,0:0:0:0:
301,321,163386,38,0,B|264:252|291:192|291:192|352:100|440:192|352:284|292:192|292:192|248:116|164:148,1,507.5,6|4,0:0|3:0,0:0:0:0:
96,169,165386,37,8,0:0:0:0:
296,82,165553,1,8,3:0:0:0:
382,311,165720,37,4,3:0:0:0:
216,252,165886,1,4,3:0:0:0:
381,77,166053,6,0,P|363:135|315:185,1,121.799996282959,4|0,0:0|0:0,0:0:0:0:
277,96,166553,1,0,3:0:0:0:
424,208,166720,1,12,0:0:0:0:
269,88,167053,37,4,3:0:0:0:
350,275,167220,2,0,B|297:278|297:278|230:239,1,121.799996282959,2|0,0:0|0:0,0:0:0:0:
148,105,167720,2,0,L|275:87,1,121.799996282959,2|8,0:0|0:0,0:0:0:0:
68,117,168220,1,0,3:0:0:0:
221,185,168386,2,0,P|236:231|229:293,1,60.8999981414795,2|0,0:0|0:0,0:0:0:0:
227,325,168720,5,0,3:0:0:0:
173,106,168886,1,0,0:0:0:0:
359,132,169053,2,0,P|328:123|299:118,1,60.8999981414795,2|0,0:0|3:0,0:0:0:0:
117,249,169386,2,0,B|180:227|172:273|247:238,1,121.799996282959,8|0,0:0|3:0,0:0:0:0:
420,85,169886,38,0,P|390:140|375:208,1,121.799996282959,4|0,3:0|0:0,0:0:0:0:
388,352,170386,1,0,3:0:0:0:
467,161,170553,1,0,0:0:0:0:
275,275,170720,5,8,0:0:0:0:
493,239,170886,2,0,B|442:242|442:242|393:225|393:225|326:227,1,152.250005807877,4|0,3:0|0:0,0:0:0:0:
424,52,171386,38,0,P|464:117|465:168,1,121.799996282959,4|0,0:0|0:0,0:0:0:0:
373,130,171886,1,0,3:0:0:0:
258,49,172053,2,0,L|135:39,1,121.799996282959,8|0,0:0|3:0,0:0:0:0:
40,116,172553,1,2,0:0:0:0:
196,153,172720,6,0,P|194:213|188:281,1,121.799996282959,0|0,0:0|3:0,0:0:0:0:
102,174,173220,1,0,0:0:0:0:
275,129,173386,1,8,0:0:0:0:
189,275,173553,1,0,3:0:0:0:
241,56,173720,1,2,0:0:0:0:
245,46,174053,38,0,L|314:39,1,60.8999981414795,4|0,0:0|0:0,0:0:0:0:
431,119,174386,2,0,L|362:112,1,60.8999981414795,2|0,0:0|3:0,0:0:0:0:
413,28,174720,5,8,0:0:0:0:
446,203,174886,2,0,P|450:249|448:274,1,60.8999981414795,2|0,0:0|3:0,0:0:0:0:
196,241,175220,38,0,B|275:212|298:282|380:232,1,182.699994424439,2|4,0:0|3:0,0:0:0:0:
320,165,175886,1,0,0:0:0:0:
240,314,176053,2,0,P|232:376|232:383,1,60.8999981414795,12|0,0:0|0:0,0:0:0:0:
136,191,176386,2,0,P|133:160|128:130,1,60.8999981414795,2|0,0:0|3:0,0:0:0:0:
57,277,176720,6,0,P|122:275|197:252,1,121.799996282959,4|0,0:0|0:0,0:0:0:0:
273,219,177220,1,0,0:0:0:0:
412,272,177386,2,0,P|369:266|341:259,1,60.8999981414795,8|0,0:0|0:0,0:0:0:0:
199,254,177720,1,0,3:0:0:0:
319,149,177886,38,0,P|346:190|344:283,1,121.799996282959,4|0,0:0|0:0,0:0:0:0:
422,175,178386,2,0,L|429:110,1,60.8999981414795,0|0,3:0|0:0,0:0:0:0:
345,17,178720,1,8,0:0:0:0:
317,130,178886,1,0,3:0:0:0:
184,67,179053,2,0,L|252:57,1,60.8999981414795,2|0,0:0|0:0,0:0:0:0:
134,179,179386,6,0,P|104:90|99:42,1,121.799996282959,4|0,0:0|0:0,0:0:0:0:
40,168,179886,1,0,3:0:0:0:
58,298,180053,2,0,P|74:255|84:214,1,60.8999981414795,8|0,0:0|0:0,0:0:0:0:
105,85,180386,1,2,0:0:0:0:
148,280,180553,38,0,L|275:255,1,121.799996282959,4|0,0:0|0:0,0:0:0:0:
380,326,181053,2,0,L|307:317,1,60.8999981414795,0|0,3:0|0:0,0:0:0:0:
220,185,181386,2,0,L|289:172,1,60.8999981414795,8|0,0:0|0:0,0:0:0:0:
386,227,181720,1,2,0:0:0:0:
258,259,181886,1,0,0:0:0:0:
372,136,182053,22,0,P|440:154|470:218,1,121.799996282959,4|0,0:0|0:0,0:0:0:0:
439,314,182553,1,0,3:0:0:0:
386,227,182720,2,0,L|317:220,1,60.8999981414795,8|0,0:0|0:0,0:0:0:0:
216,334,183053,1,2,0:0:0:0:
439,314,183220,6,0,B|381:302|377:340|307:317,1,121.799996282959,4|0,0:0|0:0,0:0:0:0:
182,256,183720,2,0,P|220:252|263:262,1,60.8999981414795,0|0,3:0|0:0,0:0:0:0:
337,347,184053,1,8,0:0:0:0:
230,334,184220,1,0,0:0:0:0:
259,170,184386,1,2,0:0:0:0:
259,170,184720,38,0,P|304:166|336:158,1,55.8250017036438,4|0,0:0|0:0,0:0:0:0:
186,103,185053,2,0,P|141:107|112:115,1,55.8250017036438,2|0,0:0|0:0,0:0:0:0:
287,88,185386,6,0,L|297:12,1,71.0499978317261,8|0,0:0|0:0,0:0:0:0:
176,188,185720,1,0,3:0:0:0:
121,100,185886,1,0,3:0:0:0:
79,285,186053,1,8,0:3:0:0:
219,261,186220,1,8,0:3:0:0:
39,211,186386,5,2,0:0:0:0:
202,107,186553,1,0,0:0:0:0:
162,337,186720,5,2,0:0:0:0:
128,197,186886,1,8,0:3:0:0:
301,223,187053,37,2,0:0:0:0:
190,261,187220,1,0,3:0:0:0:
299,128,187386,6,0,P|339:140|388:216,1,121.799996282959,4|0,0:0|0:0,0:0:0:0:
361,301,187886,1,0,3:0:0:0:
460,170,188053,1,8,0:0:0:0:
361,301,188386,37,0,3:0:0:0:
181,228,188553,2,0,P|248:216|323:209,1,121.799996282959,4|0,0:0|0:0,0:0:0:0:
229,325,189053,2,0,L|154:317,1,60.8999981414795,0|0,3:0|0:0,0:0:0:0:
120,234,189386,2,0,L|195:226,1,60.8999981414795,8|0,0:0|3:0,0:0:0:0:
238,111,189720,1,2,0:0:0:0:
238,111,190053,5,4,0:0:0:0:
271,270,190220,1,0,0:0:0:0:
166,157,190386,2,0,P|133:145|108:142,1,60.8999981414795,0|0,3:0|0:0,0:0:0:0:
300,186,190720,2,0,P|333:174|358:171,1,60.8999981414795,8|0,0:0|0:0,0:0:0:0:
174,263,191053,1,0,3:0:0:0:
202,75,191220,38,0,L|217:201,1,121.799996282959,4|0,0:0|0:0,0:0:0:0:
131,126,191720,2,0,L|119:63,1,60.8999981414795,2|0,0:0|0:0,0:0:0:0:
301,50,192053,2,0,L|289:109,1,60.8999981414795,8|0,0:0|0:0,0:0:0:0:
292,231,192386,2,0,L|303:290,1,60.8999981414795,0|0,3:0|0:0,0:0:0:0:
410,123,192720,6,0,P|349:112|274:110,1,121.799996282959,4|0,0:0|0:0,0:0:0:0:
188,174,193220,1,0,3:0:0:0:
361,190,193386,2,0,P|373:236|377:272,1,60.8999981414795,8|0,0:0|3:0,0:0:0:0:
277,228,193720,1,2,0:0:0:0:
129,327,193886,38,0,B|208:324|208:324|258:305,1,121.799996282959,4|0,0:0|0:0,0:0:0:0:
100,250,194386,2,0,P|63:247|18:244,1,60.8999981414795,2|0,0:0|0:0,0:0:0:0:
226,156,194720,2,0,P|263:153|308:150,1,60.8999981414795,8|0,0:0|3:0,0:0:0:0:
95,79,195053,1,2,0:0:0:0:
95,79,195386,6,0,P|166:78|270:20,1,182.699994424439,4|0,0:0|3:0,0:0:0:0:
394,88,196053,2,0,P|340:82|308:68,1,60.8999981414795,8|0,0:0|0:0,0:0:0:0:
375,6,196386,1,2,0:0:0:0:
420,163,196553,2,0,L|429:296,1,121.799996282959,4|0,0:0|0:0,0:0:0:0:
294,240,197053,2,0,L|286:307,1,60.8999981414795,0|0,3:0|3:0,0:0:0:0:
403,159,197386,37,8,0:0:0:0:
421,292,197553,1,0,3:0:0:0:
291,217,197720,1,2,0:0:0:0:
278,314,197886,1,0,0:0:0:0:
217,144,198053,6,0,L|86:130,1,121.799996282959,4|0,0:0|0:0,0:0:0:0:
162,61,198553,1,0,3:0:0:0:
168,210,198720,2,0,P|180:252|192:280,1,60.8999981414795,8|0,0:0|3:0,0:0:0:0:
235,117,199053,1,2,0:0:0:0:
246,332,199220,38,0,P|264:284|262:206,1,121.799996282959,4|0,0:0|0:0,0:0:0:0:
219,95,199720,1,0,3:0:0:0:
181,259,199886,1,2,0:0:0:0:
338,231,200053,1,8,0:0:0:0:
227,177,200220,1,0,3:0:0:0:
398,156,200386,1,2,0:0:0:0:
398,156,200720,6,0,P|422:194|377:314,1,182.699994424439,4|0,0:0|3:0,0:0:0:0:
196,246,201386,2,0,P|284:234|331:229,1,121.799996282959,8|8,0:0|0:3,0:0:0:0:
196,246,202053,37,2,0:0:0:0:
243,124,202220,1,8,0:0:0:0:
274,329,202386,1,4,0:0:0:0:
112,268,202553,1,2,0:0:0:0:
268,204,202720,5,8,0:0:0:0:
165,361,202886,1,2,0:0:0:0:
130,153,203053,1,0,3:0:0:0:
19,250,203220,1,2,0:0:0:0:
82,375,203386,22,0,P|96:319|114:259,1,111.650003407288,4|0,0:0|3:0,0:0:0:0:
200,26,204053,2,0,L|215:82,1,55.8250017036438,8|0,0:0|0:0,0:0:0:0:
246,204,204386,37,2,0:0:0:0:
246,204,204553,1,2,0:0:0:0:
116,144,204720,2,0,P|180:126|224:116,1,111.650003407288,2|4,0:0|3:0,0:0:0:0:
435,261,205386,2,0,P|380:248|326:232,1,111.650003407288,8|0,0:0|0:0,0:0:0:0:
384,156,205886,1,0,0:0:0:0:
267,310,206053,6,0,P|243:245|249:190,1,111.650003407288,6|0,0:0|0:0,0:0:0:0:
296,116,206553,1,0,0:0:0:0:
267,310,206720,1,8,0:0:0:0:
267,310,207053,38,0,L|208:296,1,55.8250017036438,2|0,0:0|0:0,0:0:0:0:
24,356,207386,2,0,P|80:348|140:340,1,111.650003407288,2|4,0:0|3:0,0:0:0:0:
267,310,207886,1,0,0:0:0:0:
40,232,208053,5,8,0:0:0:0:
40,232,208220,1,8,0:0:0:0:
140,256,208386,2,0,L|204:272,1,55.8250017036438,2|0,0:0|0:0,0:0:0:0:
427,315,208720,38,0,B|359:275|336:352|263:307,1,167.475005110932,4|0,0:0|0:0,0:0:0:0:
270,144,209386,2,0,P|310:200|302:256,1,111.650003407288,8|2,0:0|0:0,0:0:0:0:
155,365,209886,1,0,0:0:0:0:
155,365,210053,2,0,P|157:310|193:268,1,111.650003407288,2|4,0:0|3:0,0:0:0:0:
440,196,210720,2,0,L|320:176,1,111.650003407288,8|0,0:0|0:0,0:0:0:0:
232,160,211220,1,0,0:0:0:0:
266,309,211386,5,2,0:0:0:0:
204,56,211720,1,4,3:0:0:0:
32,256,212053,2,0,P|22:226|21:187,1,55.8250017036438,12|0,0:0|0:0,0:0:0:0:
88,84,212386,2,0,P|78:110|76:138,1,55.8250017036438,8|0,0:0|0:0,0:0:0:0:
128,308,212720,37,2,0:0:0:0:
252,272,212886,1,8,0:0:0:0:
158,182,213053,1,4,3:0:0:0:
158,182,213386,6,0,L|146:237,1,55.8250017036438,12|0,0:0|0:0,0:0:0:0:
232,360,213720,2,0,L|244:305,1,55.8250017036438,12|4,3:0|3:0,0:0:0:0:
344,180,214053,6,2,B|380:164|429:189|429:189|493:161|493:161|452:216|492:264,1,263.899987919617,4|8,0:2|0:0,0:1:0:0:
336,156,215053,6,2,B|293:140|238:169|238:169|162:137|162:137|108:168|56:144,1,284.199991326905,6|0,0:0|3:0,0:1:0:0:
66,148,216053,2,2,P|53:179|52:217,1,71.0499978317261,10|0,0:0|0:0,0:1:0:0:
96,360,216386,2,2,P|96:324|110:291,1,71.0499978317261,2|2,0:0|0:0,0:1:0:0:
238,169,216720,38,2,B|294:213|358:165|358:165|302:245|350:289,1,263.899987919617,4|8,0:0|0:0,0:1:0:0:
211,145,217720,6,2,B|124:100|32:180|32:180|8:128|60:92,1,284.199991326905,4|0,0:0|3:0,0:1:0:0:
49,100,218720,2,0,P|40:57|32:17,1,71.0499978317261,12|0,0:0|0:0,0:0:0:0:
211,145,219053,2,0,P|219:103|228:62,1,71.0499978317261
236,36,219303,1,0,3:0:0:0:
236,36,219386,37,6,0:1:0:0:
49,100,219553,1,2,0:0:0:0:
132,248,219720,6,0,L|148:180,2,47.3666652211508,2|2|2,0:1|0:1|0:1,0:1:0:0:
108,336,220053,2,2,P|179:329|254:324,1,142.099995663452,8|2,0:0|0:1,0:1:0:0:
376,308,220497,38,0,P|349:304|328:296,1,47.3666652211508,2|2,0:1|0:1,0:0:0:0:
256,240,220720,2,2,P|241:188|289:108,1,142.099995663452,2|2,0:1|0:1,0:1:0:0:
372,72,221164,6,0,L|378:126,1,47.3666652211508,2|2,0:1|0:1,0:0:0:0:
382,215,221386,2,2,P|323:252|255:239,1,142.099995663452,12|2,0:0|0:0,0:1:0:0:
170,135,221886,1,2,0:0:0:0:
64,240,222053,22,0,P|41:304|45:361,2,121.799996282959,4|0|8,0:0|0:0|0:0,0:0:0:0:
170,135,222942,2,0,P|176:176|184:224,2,81.1999975219727,2|2|4,0:1|0:0|0:0,0:0:0:0:
170,135,223720,1,0,0:0:0:0:
149,351,224053,37,8,0:0:0:0:
172,232,224220,1,4,3:0:0:0:
247,315,224386,1,0,3:0:0:0:
280,216,224553,1,4,3:0:0:0:
348,360,224720,1,4,0:0:0:0:
348,360,225164,6,0,L|402:371,1,33.8333333333333,0|2,0:0|0:0,0:0:0:0:
450,307,225386,2,0,B|342:283,2,101.5,2|0|0,0:1|3:0|0:0,0:0:0:0:
232,224,226386,38,0,L|121:200,1,101.5,0|8,3:0|0:0,0:0:0:0:
50,242,226886,1,0,3:0:0:0:
132,202,227053,1,0,0:0:0:0:
59,147,227220,1,0,3:0:0:0:
28,320,227386,6,0,P|65:311|116:300,1,81.2,4|0,0:0|0:0,0:0:0:0:
188,368,227886,2,0,P|212:316|192:248,1,121.8,2|0,0:0|0:0,0:0:0:0:
58,147,228720,38,0,P|133:169|199:125,1,162.4,2|2,0:0|0:0,0:0:0:0:
246,49,229720,1,0,0:0:0:0:
267,183,230053,6,0,L|317:173,1,40.6,2|0,0:0|0:0,0:0:0:0:
384,156,230386,2,0,L|434:146,1,40.6
315,97,230720,38,0,P|300:141|308:177,1,81.2,2|0,3:2|0:0,0:0:0:0:
415,225,231220,2,0,P|430:181|422:145,1,81.2
233,197,231886,1,0,0:0:0:0:
233,197,232053,2,0,L|249:323,1,121.8,2|0,3:2|0:0,0:0:0:0:
176,360,232720,6,0,P|168:320|161:280,1,81.2,2|0,0:0|0:0,0:0:0:0:
88,221,233220,2,0,P|80:260|73:300,1,81.2
326,328,233886,37,0,0:0:0:0:
326,328,234053,2,0,P|283:331|244:315,1,81.2,2|0,0:0|0:0,0:0:0:0:
158,265,234553,1,0,3:0:0:0:
232,192,234720,2,0,P|269:178|310:181,1,81.2,8|0,0:3|0:0,0:0:0:0:
476,269,235386,6,0,L|422:260,1,40.6,2|0,0:0|0:0,0:0:0:0:
365,336,235720,2,0,L|308:324,1,40.6
356,244,236053,37,0,3:0:0:0:
356,244,236220,2,0,L|447:265,1,81.2
496,184,236720,2,0,L|324:148,1,162.4,2|2,0:0|0:0,0:0:0:0:
160,228,238053,6,0,B|248:196|228:276|336:228,1,162.4,2|0,0:0|3:0,0:0:0:0:
454,155,239220,1,0,0:0:0:0:
454,155,239386,2,0,P|368:166|312:120,1,162.4,2|2,0:0|0:0,0:0:0:0:
242,41,240386,2,0,L|182:29,1,40.6
139,107,240720,38,0,P|151:171|159:227,1,121.8,2|0,0:0|0:0,0:0:0:0:
159,227,241386,2,0,P|107:215|72:208,1,81.2,0|0,3:0|0:0,0:0:0:0:
58,118,241886,2,0,P|98:112|138:106,1,81.2,2|0,0:0|0:0,0:0:0:0:
307,242,242553,2,0,P|219:206|153:231,1,162.4,2|0,0:0|0:0,0:0:0:0:
88,272,243386,5,2,0:0:0:0:
178,334,243720,1,0,0:0:0:0:
285,314,244053,1,0,3:0:0:0:
333,215,244386,1,0,0:0:0:0:
239,156,244720,37,2,0:0:0:0:
318,231,245053,1,0,0:0:0:0:
294,338,245386,1,0,3:0:0:0:
186,358,245720,1,0,0:0:0:0:
103,286,246053,5,2,0:0:0:0:
318,231,246386,1,8,0:3:0:0:
115,146,246720,1,8,0:3:0:0:
213,341,247053,1,8,0:3:0:0:
236,123,247386,37,8,0:0:0:0:
14,210,247720,1,8,0:0:0:0:
213,341,248053,2,0,L|288:327,1,68.5124979091645,8|0,0:0|3:0,0:0:0:0:
316,312,248386,2,0,L|372:324,1,45.6749986061097,8|8,0:3|0:0,0:0:0:0:
192,240,248720,6,0,L|127:223,1,50.75,6|0,3:2|0:0,0:0:0:0:
117,222,248970,1,4,3:0:0:0:
117,222,249053,1,8,3:0:0:0:
268,176,249220,1,8,3:0:0:0:
5,252,249553,37,4,3:0:0:0:
152,108,249720,21,6,0:0:0:0:
108,348,249886,1,12,0:0:0:0:
252,84,250386,38,0,L|264:144,1,57.0937521779538,0|0,3:0|0:0,0:0:0:0:
268,176,250720,6,0,P|324:210|384:196,1,121.799996282959,12|0,0:0|0:0,0:0:0:0:
252,84,251220,1,0,0:0:0:0:
328,316,251386,6,0,P|257:303|196:292,1,121.799996282959,4|0,0:0|0:0,0:0:0:0:
112,276,251886,1,0,3:0:0:0:
328,316,252053,1,8,0:0:0:0:
208,294,252386,37,0,0:0:0:0:
444,260,252553,2,0,L|306:280,1,121.799996282959,2|0,0:0|0:0,0:0:0:0:
210,163,253053,2,0,L|286:179,1,60.8999981414795,0|0,3:0|0:0,0:0:0:0:
392,148,253386,1,8,0:0:0:0:
269,175,253553,1,0,3:0:0:0:
140,112,253720,2,0,P|122:156|139:209,1,91.3499972122193,2|0,0:0|0:0,0:0:0:0:
145,231,254053,5,2,0:0:0:0:
269,175,254220,1,0,0:0:0:0:
140,112,254386,1,2,0:0:0:0:
248,36,254553,1,0,3:0:0:0:
388,197,254720,2,0,P|317:183|260:173,1,121.799996282959,8|0,0:0|3:0,0:0:0:0:
25,254,255220,38,0,P|84:242|144:231,1,121.799996282959,4|0,0:0|0:0,0:0:0:0:
284,292,255720,1,0,3:0:0:0:
236,164,255886,1,0,0:0:0:0:
124,332,256053,5,12,0:0:0:0:
226,241,256220,2,0,B|309:217|292:282|381:245,1,152.250005807877,4|0,3:0|0:0,0:0:0:0:
352,72,256720,38,0,P|324:134|336:186,1,121.799996282959,4|0,0:0|0:0,0:0:0:0:
408,140,257220,1,0,3:0:0:0:
226,241,257386,2,0,L|212:376,1,121.799996282959,8|0,0:0|3:0,0:0:0:0:
316,320,257886,5,2,0:0:0:0:
115,261,258053,2,0,P|183:269|231:233,1,121.799996282959,0|0,0:0|3:0,0:0:0:0:
157,177,258553,1,0,0:0:0:0:
213,362,258720,37,8,0:0:0:0:
344,314,258886,1,0,3:0:0:0:
225,240,259053,1,2,0:0:0:0:
225,240,259386,6,0,P|255:234|303:224,1,60.8999981414795,2|0,0:0|0:0,0:0:0:0:
476,188,259720,2,0,P|445:193|398:204,1,60.8999981414795,0|0,0:0|3:0,0:0:0:0:
192,252,260053,37,8,0:0:0:0:
412,304,260220,2,0,L|352:291,1,60.8999981414795,2|0,0:0|3:0,0:0:0:0:
35,270,260553,6,0,P|137:296|196:242,1,182.699994424439,2|0,0:0|0:0,0:0:0:0:
104,208,261220,1,0,0:0:0:0:
200,364,261386,2,0,P|230:359|280:352,1,60.8999981414795,8|0,0:0|0:0,0:0:0:0:
352,291,261720,1,2,0:0:0:0:
191,251,261886,1,4,3:0:0:0:
392,212,262053,38,0,B|308:172|296:260|208:212,1,182.699994424439,4|0,0:0|3:0,0:0:0:0:
48,140,262720,2,0,L|124:128,1,60.8999981414795,8|0,0:0|3:0,0:0:0:0:
276,76,263053,1,4,3:0:0:0:
179,189,263220,6,0,B|201:133|201:133|189:72|189:72|210:16,1,182.699994424439,2|0,0:0|3:0,0:0:0:0:
276,76,263886,1,0,0:0:0:0:
108,130,264053,1,8,0:0:0:0:
280,212,264220,1,4,3:0:0:0:
22,278,264386,38,0,L|93:269,1,60.9,2|0,0:0|0:0,0:0:0:0:
115,336,264720,6,0,P|19:340|33:266,1,182.699994424439,4|0,0:0|3:0,0:0:0:0:
149,192,265386,2,0,P|177:252|189:312,1,121.799996282959,8|0,0:0|3:0,0:0:0:0:
265,383,265886,2,0,P|278:323|304:268,1,121.799996282959,4|0,3:0|0:0,0:0:0:0:
400,212,266386,1,0,3:0:0:0:
428,344,266553,1,0,0:0:0:0:
376,124,266720,37,12,0:0:0:0:
303,268,266886,2,0,P|215:272|167:236,1,152.250005807877,4|0,3:0|0:0,0:0:0:0:
255,139,267386,38,0,P|312:132|383:123,1,121.799996282959,4|0,0:0|0:0,0:0:0:0:
296,36,267886,1,0,3:0:0:0:
166,119,268053,2,0,P|150:183|173:244,1,121.799996282959,8|0,0:0|3:0,0:0:0:0:
358,327,268553,38,0,P|306:285|241:280,1,121.799996282959,4|0,0:0|3:0,0:0:0:0:
56,352,269053,2,0,P|100:360|158:339,1,91.3499972122193,2|0,0:0|0:0,0:0:0:0:
174,322,269386,1,12,0:0:0:0:
79,199,269553,1,4,3:0:0:0:
56,352,269720,1,2,0:0:0:0:
56,352,270053,6,0,P|46:318|45:279,1,60.8999981414795,4|0,0:0|0:0,0:0:0:0:
20,188,270386,2,0,P|50:190|79:199,1,60.8999981414795,0|0,3:0|3:0,0:0:0:0:
311,267,270720,38,0,P|280:269|251:278,1,60.8999981414795,8|0,0:0|0:0,0:0:0:0:
124,384,271053,1,0,3:0:0:0:
124,384,271220,2,0,L|144:248,1,121.799996282959,0|4,3:0|3:0,0:0:0:0:
156,164,271720,2,0,P|188:168|224:180,1,60.8999981414795,2|0,0:0|0:0,0:0:0:0:
431,193,272053,6,0,P|359:193|311:225,1,121.799996282959,12|0,0:0|0:0,0:0:0:0:
247,294,272553,1,2,0:0:0:0:
195,56,272720,22,0,L|215:176,1,121.799996282959,4|0,0:0|0:0,0:0:0:0:
288,104,273220,1,0,3:0:0:0:
144,236,273386,2,0,P|92:248|28:212,1,121.799996282959,8|0,0:0|0:0,0:0:0:0:
128,332,273886,38,0,P|196:344|272:356,1,121.799996282959,2|0,0:0|0:0,0:0:0:0:
404,320,274386,2,0,P|370:313|324:304,1,60.8999981414795,0|0,3:0|0:0,0:0:0:0:
144,236,274720,5,8,0:0:0:0:
292,172,274886,1,0,3:0:0:0:
248,352,275053,1,2,0:0:0:0:
240,320,275386,38,0,L|222:250,1,60.8999981414795,2|0,0:0|0:0,0:0:0:0:
308,200,275720,2,0,L|326:130,1,60.8999981414795,0|0,0:0|3:0,0:0:0:0:
124,48,276053,2,0,P|196:76|248:64,1,121.799996282959,8|0,0:0|3:0,0:0:0:0:
40,44,276553,6,0,P|48:76|64:108,1,60.8999981414795,2|0,0:0|0:0,0:0:0:0:
224,156,276886,2,0,P|253:148|281:136,1,60.8999981414795,0|0,3:0|0:0,0:0:0:0:
237,68,277220,37,2,0:0:0:0:
116,176,277386,2,0,P|81:244|112:313,1,152.250005807877,12|0,0:0|0:0,0:0:0:0:
216,247,277886,5,2,0:0:0:0:
4,171,278053,2,0,P|67:194|118:174,1,121.799996282959,4|0,0:0|0:0,0:0:0:0:
62,101,278553,1,0,3:0:0:0:
96,269,278720,2,0,P|168:253|232:245,1,121.799996282959,8|0,0:0|0:0,0:0:0:0:
368,360,279220,38,0,P|307:351|248:337,1,121.799996282959,6|0,0:0|0:0,0:0:0:0:
96,269,279720,1,0,3:0:0:0:
64,288,280053,6,0,P|55:317|44:364,1,60.8999981414795,8|0,0:0|3:0,0:0:0:0:
201,187,280386,2,0,P|209:216|221:263,1,60.8999981414795,2|0,0:0|0:0,0:0:0:0:
0,107,280720,38,0,P|78:140|159:96,1,182.699994424439,4|0,0:0|3:0,0:0:0:0:
200,0,281386,1,8,0:0:0:0:
76,48,281553,1,4,3:0:0:0:
228,200,281720,5,2,0:0:0:0:
72,284,281886,2,0,P|133:297|204:312,1,121.799996282959
304,268,282386,1,2,0:0:0:0:
416,300,282553,1,0,0:0:0:0:
203,198,282720,38,0,P|175:258|195:314,1,121.799996282959,12|2,0:0|0:0,0:0:0:0:
272,380,283220,1,2,0:0:0:0:
392,280,283386,6,0,P|411:213|432:152,1,121.799996282959,4|0,0:0|0:0,0:0:0:0:
456,72,283886,1,0,3:0:0:0:
392,280,284053,37,8,0:0:0:0:
428,163,284220,1,4,3:0:0:0:
304,344,284386,5,2,0:0:0:0:
240,128,284553,2,0,P|255:191|272:256,1,121.799996282959,4|0,0:0|0:0,0:0:0:0:
164,360,285053,2,0,P|167:331|176:284,1,60.8999981414795,0|0,0:0|3:0,0:0:0:0:
232,104,285386,37,8,0:0:0:0:
64,180,285553,1,4,3:0:0:0:
269,246,285720,1,2,0:0:0:0:
56,328,285886,1,0,0:0:0:0:
136,124,286053,1,4,0:0:0:0:
136,124,286553,5,0,3:0:0:0:
157,255,286720,2,0,P|233:267|277:236,1,121.799996282959,8|0,0:0|3:0,0:0:0:0:
268,245,287386,37,2,0:0:0:0:
236,60,287553,1,8,0:0:0:0:
104,196,287720,1,4,0:0:0:0:
316,144,287886,1,2,0:0:0:0:
124,60,288053,5,8,0:0:0:0:
177,265,288220,1,4,3:0:0:0:
408,196,288386,2,0,L|292:176,1,91.3499972122193,2|0,0:0|0:0,0:0:0:0:
255,136,288720,22,0,B|212:205|285:231|243:298,1,167.475005110932,6|0,0:0|3:0,0:0:0:0:
158,352,289386,2,0,P|91:349|54:320,1,111.650003407288,8|4,0:0|3:0,0:0:0:0:
48,184,289886,2,0,P|94:154|149:155,1,111.650003407288,4|0,0:0|0:0,0:0:0:0:
124,260,290386,1,2,0:0:0:0:
124,260,290720,38,0,L|180:255,1,55.8250017036438,8|4,0:0|3:0,0:0:0:0:
317,180,291053,2,0,L|262:170,1,55.8250017036438,2|0,0:0|0:0,0:0:0:0:
164,336,291386,6,0,B|255:305|240:384|336:340,1,167.475005110932,4|0,0:0|3:0,0:0:0:0:
480,284,292053,2,0,P|412:292|372:268,1,111.650003407288,8|4,0:0|3:0,0:0:0:0:
316,164,292553,2,0,P|371:159|432:153,1,111.650003407288,4|0,0:0|3:0,0:0:0:0:
284,264,293053,2,0,P|240:256|208:248,1,55.8250017036438,2|0,0:0|3:0,0:0:0:0:
124,228,293386,1,8,0:0:0:0:
96,248,293720,2,0,P|68:253|41:258,1,55.8250017036438,2|2,0:0|0:0,0:0:0:0:
165,122,294053,38,0,P|241:170|328:158,1,167.475005110932,4|0,0:0|3:0,0:0:0:0:
476,112,294720,1,8,0:0:0:0:
396,32,294886,2,0,L|384:100,1,55.8250017036438,0|2,3:0|0:0,0:0:0:0:
352,240,295220,6,0,P|406:229|461:220,1,111.650003407288,4|0,0:0|0:0,0:0:0:0:
373,335,295720,2,0,P|318:325|264:316,1,111.650003407288,0|8,3:0|0:0,0:0:0:0:
352,240,296220,1,4,3:0:0:0:
188,356,296386,1,2,0:0:0:0:
188,356,296553,1,2,0:0:0:0:
20,276,296720,38,0,P|84:288|128:264,1,111.650003407288,4|0,0:0|3:0,0:0:0:0:
65,199,297220,1,0,3:0:0:0:
272,128,297386,6,0,P|221:149|168:135,1,111.650003407288,8|0,0:0|0:0,0:0:0:0:
216,59,297886,1,2,0:0:0:0:
328,224,298053,38,0,L|334:279,1,55.8250017036438,2|0,0:0|0:0,0:0:0:0:
239,291,298386,2,0,L|232:236,1,55.8250017036438,2|0,0:0|0:0,0:0:0:0:
72,120,298720,6,0,L|65:176,1,55.8250017036438,10|0,0:0|0:0,0:0:0:0:
162,191,299053,2,0,L|168:135,1,55.8250017036438,2|0,0:0|0:0,0:0:0:0:
8,320,299386,38,0,B|92:284|76:364|178:318,1,167.475005110932,4|0,0:0|3:0,0:0:0:0:
373,291,300053,2,0,L|301:275,1,55.8250017036438,8|0,0:0|0:0,0:0:0:0:
232,216,300386,1,2,0:0:0:0:
368,139,300553,6,0,P|398:242|366:298,1,167.475005110932,4|0,0:0|0:0,0:0:0:0:
264,360,301220,1,0,0:0:0:0:
300,196,301386,37,8,0:0:0:0:
168,322,301553,1,0,3:0:0:0:
48,236,301720,1,2,0:0:0:0:
22,211,302053,6,0,B|7:162|7:162|26:105,1,111.650003407288,6|0,0:0|0:0,0:0:0:0:
112,20,302553,1,0,3:0:0:0:
198,180,302720,2,0,L|87:163,1,111.650003407288,8|0,0:0|3:0,0:0:0:0:
87,163,303386,37,2,0:0:0:0:
198,180,303553,1,8,0:0:0:0:
120,312,303720,2,0,L|132:244,1,55.8250017036438,0|0,3:0|0:0,0:0:0:0:
160,72,304053,5,8,0:0:0:0:
160,72,304220,1,8,0:0:0:0:
253,188,304386,2,0,L|185:178,1,55.8250017036438,2|0,0:0|0:0,0:0:0:0:
8,152,304720,37,4,0:0:0:0:
8,152,305053,1,0,3:0:0:0:
42,246,305220,1,2,0:0:0:0:
114,177,305386,2,0,P|123:233|133:293,1,111.650003407288,8|2,0:0|0:0,0:0:0:0:
223,329,305886,1,0,0:0:0:0:
42,246,306053,37,2,0:0:0:0:
114,177,306220,1,0,0:0:0:0:
212,160,306386,1,0,3:0:0:0:
306,195,306553,1,2,0:0:0:0:
381,261,306720,37,8,0:0:0:0:
286,294,306886,1,0,0:0:0:0:
306,195,307053,1,2,0:1:0:0:
381,261,307220,1,2,0:0:0:0:
286,294,307386,5,4,3:0:0:0:
306,195,307553,1,0,0:0:0:0:
401,162,307720,1,4,3:0:0:0:
476,228,307886,1,2,0:0:0:0:
381,261,308053,37,8,0:0:0:0:
306,195,308220,1,2,0:0:0:0:
312,95,308386,1,8,0:0:0:0:
393,35,308553,1,2,0:0:0:0:
334,117,308720,5,0,0:0:0:0:
230,77,308886,1,0,0:0:0:0:
176,175,309053,1,2,0:0:0:0:
72,131,309220,1,4,3:0:0:0:
284,212,309386,37,10,0:0:0:0:
64,252,309553,1,8,0:0:0:0:
149,94,309720,1,12,3:0:0:0:
205,341,309886,1,6,0:0:0:0:
256,192,309970,12,0,314053,0:0:0:0:
