osu file format v14

[General]
AudioFilename: audio.mp3
AudioLeadIn: 0
PreviewTime: 219873
Countdown: 0
SampleSet: Normal
StackLeniency: 0.7
Mode: 0
LetterboxInBreaks: 0
WidescreenStoryboard: 1

[Editor]
Bookmarks: 128844
DistanceSpacing: 1
BeatDivisor: 4
GridSize: 32
TimelineZoom: 2.999999

[Metadata]
Title:Invisible light
TitleUnicode:Invisible light
Artist:Ayane
ArtistUnicode:彩音
Creator:iljaaz
Version:Collab Insane
Source:ひぐらしのなく頃に卒
Tags:kalibe evilelvis jounzan natteke desu deca keqing Higurashi no Naku Koro ni Sotsu when they cry cicadas anime japanese jrock rock j-rock Analogy Song Collection Ash Inoue アッシュ井上
BeatmapID:3972415
BeatmapSetID:1924175

[Difficulty]
HPDrainRate:6
CircleSize:3.8
OverallDifficulty:8
ApproachRate:8.5
SliderMultiplier:1.7
SliderTickRate:1

[Events]
//Background and Video events
0,0,"satoko.jpg",0,0
//Break Periods
2,175673,178912
2,205616,210284
2,249558,250226
//Storyboard Layer 0 (Background)
//Storyboard Layer 1 (Fail)
//Storyboard Layer 2 (Pass)
//Storyboard Layer 3 (Foreground)
//Storyboard Layer 4 (Overlay)
//Storyboard Sound Samples

[TimingPoints]
617,342.857142857143,4,2,1,70,1,0
17759,342.857142857143,4,1,1,45,1,0
17759,-111.111111111111,4,1,1,45,0,0
39701,-111.111111111111,4,1,1,65,0,0
58901,-99.9999999999999,4,1,1,65,0,1
87701,-111.111111111111,4,1,1,65,0,0
104159,-125,4,1,1,65,0,0
111016,-111.111111111111,4,1,1,65,0,0
142559,-100,4,1,1,65,0,1
169987,-100,4,1,1,65,0,0
189187,342.857142857143,3,1,1,65,1,0
189701,-142.857142857143,3,1,1,65,0,0
191930,342.857142857143,3,1,1,65,1,0
191930,-142.857142857143,3,1,1,65,0,0
194673,342.857142857143,3,1,1,65,1,0
194673,-142.857142857143,3,1,1,65,0,0
195359,-111.111111111111,3,1,1,65,0,0
197416,342.857142857143,3,1,1,65,1,0
197416,-111.111111111111,3,1,1,65,0,0
200159,342.857142857143,4,1,1,65,1,0
200159,-111.111111111111,4,1,1,65,0,0
212501,-100,4,1,1,65,0,0
220730,-200,4,1,1,65,0,0
226216,-100,4,1,1,65,0,0
250901,-133.333333333333,4,1,1,65,0,0
251587,-133.333333333333,4,1,1,25,0,0
251759,-133.333333333333,4,1,1,40,0,0
251930,-133.333333333333,4,1,1,55,0,0
252101,-133.333333333333,4,1,1,70,0,0
252273,-100,4,1,1,65,0,0

[Colours]
Combo1 : 194,143,181
Combo2 : 165,165,154
Combo3 : 150,142,157
Combo4 : 177,201,97
Combo5 : 138,196,155
Combo6 : 232,189,125
Combo7 : 223,216,64
Combo8 : 224,222,222

[HitObjects]
256,192,617,12,0,3274,2:0:0:0:
495,202,3359,6,0,B|435:214|435:214|407:248|407:248|339:263,1,170,6|2,1:0|1:2,0:0:0:0:
196,151,3874,2,0,B|190:109|190:109|213:64,1,85,8|0,1:0|0:0,0:0:0:0:
274,124,4217,1,0,3:0:0:0:
132,216,4388,2,0,L|41:235,1,85,8|0,1:0|0:0,0:0:0:0:
283,372,4731,5,0,3:0:0:0:
220,254,4902,1,0,3:0:0:0:
187,325,5074,5,2,0:1:0:0:
324,262,5245,2,0,P|291:236|232:233,1,85,8|0,1:0|0:0,0:0:0:0:
283,372,5588,5,2,3:0:0:0:
132,216,5759,2,0,L|149:118,1,85,8|2,1:0|3:0,0:0:0:0:
3,310,6102,5,4,3:0:0:0:
3,310,6274,2,0,B|86:288|74:370|194:330,1,170,2|8,3:1|1:0,0:0:0:0:
165,337,6959,5,2,3:0:0:0:
324,262,7131,1,8,1:0:0:0:
463,350,7302,1,0,1:0:0:0:
383,384,7474,6,0,B|377:343|377:343|397:298,1,85,2|2,3:1|3:1,0:0:0:0:
203,165,7817,1,0,0:0:0:0:
271,110,7988,2,0,B|288:147|288:147|281:201,1,85,8|0,1:0|0:0,0:0:0:0:
169,342,8331,5,2,3:0:0:0:
307,275,8502,2,0,L|209:255,1,85,14|0,1:0|1:0,0:0:0:0:
383,384,8845,5,6,3:2:0:0:
219,265,9017,2,0,B|303:250|259:207|378:182,1,170,0|8,3:0|1:0,0:0:0:0:
364,184,9702,5,0,3:0:0:0:
237,61,9874,2,0,P|233:101|226:146,1,85,8|0,1:0|0:0,0:0:0:0:
360,278,10217,6,0,P|426:260|484:165,1,170,2|0,3:0|0:0,0:0:0:0:
219,265,10731,2,0,P|177:255|134:250,1,85,8|0,1:0|0:0,0:0:0:0:
323,83,11074,5,2,3:0:0:0:
226,145,11245,2,0,P|221:104|208:51,1,85,8|12,1:0|3:0,0:0:0:0:
367,187,11588,6,0,B|372:221|349:257|349:257|304:290|310:356,1,170,14|0,1:0|0:0,0:0:0:0:
135,250,12102,2,0,P|180:202|289:208,1,170,8|0,1:0|3:0,0:0:0:0:
477,321,12617,6,0,P|438:333|392:336,1,85,8|0,1:0|0:0,0:0:0:0:
488,164,12959,1,6,1:0:0:0:
464,241,13131,5,2,3:1:0:0:
362,116,13302,1,0,0:0:0:0:
278,201,13474,5,8,1:0:0:0:
416,41,13645,2,0,L|324:26,1,85,0|0,0:0|3:0,0:0:0:0:
223,90,13988,5,8,0:0:0:0:
371,203,14159,1,0,1:0:0:0:
244,294,14331,5,6,3:0:0:0:
278,201,14502,5,14,1:0:0:0:
324,360,14674,1,14,1:0:0:0:
245,306,14845,5,0,3:0:0:0:
183,383,15017,5,14,1:0:0:0:
370,290,15188,1,14,1:0:0:0:
116,212,15359,6,0,B|157:207|157:207|207:231,1,85,0|14,3:0|1:0,0:0:0:0:
324,360,15702,1,14,1:0:0:0:
139,294,15874,5,0,0:0:0:0:
380,134,16045,2,0,B|336:127|336:127|280:152,1,85,14|14,1:0|1:0,0:0:0:0:
346,206,16388,5,10,1:0:0:0:
202,32,16559,1,10,1:0:0:0:
333,4,16731,5,10,1:0:0:0:
156,123,16902,1,10,1:0:0:0:
156,123,17759,6,0,P|194:131|244:138,1,76.4999976654053,4|0,0:0|0:0,0:0:0:0:
346,206,18101,1,8,3:0:0:0:
209,272,18273,6,0,P|239:234|350:219,1,152.999995330811,0|0,0:0|3:0,0:0:0:0:
479,122,18787,2,0,P|468:160|462:204,1,76.4999976654053,8|0,3:0|0:0,0:0:0:0:
495,275,19130,5,0,0:0:0:0:
312,127,19301,2,0,P|348:121|402:104,1,76.4999976654053,2|0,3:0|0:0,0:0:0:0:
337,214,19644,1,0,1:0:0:0:
479,122,19816,5,8,0:0:0:0:
314,24,19987,1,0,0:0:0:0:
314,24,20159,2,0,P|301:64|304:109,1,76.4999976654053,0|0,3:0|0:0,0:0:0:0:
182,215,20501,6,0,P|141:254|39:262,1,152.999995330811,0|0,0:0|3:0,0:0:0:0:
244,384,21016,1,0,0:0:0:0:
103,359,21187,2,0,P|139:347|185:337,1,76.4999976654053,8|0,1:0|0:0,0:0:0:0:
337,214,21530,6,0,P|302:203|259:197,1,76.4999976654053,0|0,3:0|3:0,0:0:0:0:
278,292,21873,1,8,3:0:0:0:
219,100,22044,6,0,P|164:134|178:238,1,152.999995330811,2|0,3:0|0:0,0:0:0:0:
385,369,22559,2,0,P|377:333|371:286,1,76.4999976654053,8|0,1:0|0:0,0:0:0:0:
271,312,22901,5,0,3:0:0:0:
349,193,23073,1,0,3:0:0:0:
424,235,23244,6,0,P|463:240|511:253,1,76.4999976654053,2|0,3:0|3:0,0:0:0:0:
296,131,23587,1,0,0:0:0:0:
349,193,23759,5,0,0:0:0:0:
451,140,23930,2,0,P|462:80|417:-3,1,152.999995330811,8|0,1:0|0:0,0:0:0:0:
222,278,24444,6,0,P|184:273|136:262,1,76.4999976654053
57,204,24787,1,2,3:0:0:0:
39,293,24959,5,0,0:0:0:0:
145,170,25130,1,0,0:0:0:0:
222,277,25301,6,0,P|217:240|214:201,1,76.4999976654053,8|0,0:0|3:0,0:0:0:0:
39,72,25644,2,0,P|73:84|120:93,1,76.4999976654053,8|0,3:0|0:0,0:0:0:0:
349,74,25987,6,0,P|283:109|195:118,1,152.999995330811,2|0,3:0|3:0,0:0:0:0:
57,204,26501,1,2,2:0:0:0:
125,258,26673,6,0,P|164:265|208:284,1,76.4999976654053,8|0,1:0|3:0,0:0:0:0:
346,380,27016,1,8,3:0:0:0:
305,285,27187,1,8,3:0:0:0:
305,285,27273,1,8,3:0:0:0:
305,285,27359,1,8,3:0:0:0:
227,384,27530,5,0,3:0:0:0:
403,293,27701,2,0,P|364:288|317:273,1,76.4999976654053,4|0,3:0|0:0,0:0:0:0:
479,367,28044,6,0,P|481:329|488:283,1,76.4999976654053,6|0,1:0|0:0,0:0:0:0:
213,201,28387,2,0,P|207:242|197:283,1,76.4999976654053,6|0,0:0|0:0,0:0:0:0:
357,146,28730,5,6,3:0:0:0:
437,172,28901,2,0,P|442:130|403:55,1,114.749996498108,2|0,3:0|0:0,0:0:0:0:
418,46,29244,6,0,P|378:39|337:27,1,76.4999976654053,8|0,0:0|0:0,0:0:0:0:
295,217,29587,1,8,0:0:0:0:
233,111,29759,2,0,P|196:121|158:128,1,76.4999976654053,2|0,0:3|0:0,0:0:0:0:
295,217,30101,6,0,B|371:210|362:267|452:251,1,152.999995330811,0|2,0:0|2:0,0:0:0:0:
213,370,30616,1,8,0:0:0:0:
213,370,30787,2,0,B|209:333|209:333|225:293,1,76.4999976654053,4|0,0:3|3:0,0:0:0:0:
366,271,31130,6,0,B|381:307|381:307|377:355,1,76.4999976654053,8|0,0:0|2:0,0:0:0:0:
158,213,31473,1,6,3:0:0:0:
158,213,31644,2,0,P|101:208|51:147,1,114.749996498108,2|0,0:0|0:0,0:0:0:0:
42,170,31987,2,0,P|52:134|59:85,1,76.4999976654053,8|0,0:0|0:0,0:0:0:0:
237,3,32330,5,8,0:0:0:0:
284,130,32501,1,2,3:0:0:0:
312,54,32673,1,0,0:0:0:0:
173,139,32844,2,0,P|158:175|160:221,1,76.4999976654053,0|8,0:0|0:0,0:0:0:0:
312,294,33187,5,0,0:0:0:0:
372,241,33359,2,0,P|373:202|357:165,1,76.4999976654053,8|4,1:0|3:0,0:0:0:0:
236,253,33701,5,0,0:0:0:0:
361,367,33873,2,0,P|322:371|282:381,1,76.4999976654053,10|0,1:0|0:0,0:0:0:0:
372,241,34216,5,6,3:0:0:0:
201,337,34387,2,0,P|129:331|49:299,1,152.999995330811,0|8,3:0|0:0,0:0:0:0:
54,302,35073,5,0,0:0:0:0:
225,177,35244,2,0,L|237:261,1,76.4999976654053,0|0,3:0|3:0,0:0:0:0:
285,317,35587,5,2,0:0:0:0:
117,187,35759,2,0,B|113:149|113:149|137:107,1,76.4999976654053,8|0,0:0|0:0,0:0:0:0:
281,15,36101,5,8,0:0:0:0:
225,177,36273,1,4,3:0:0:0:
174,31,36444,5,0,0:0:0:0:
348,156,36616,2,0,P|352:196|363:242,1,76.4999976654053,8|0,0:0|0:0,0:0:0:0:
394,55,36959,6,0,P|332:44|249:109,1,152.999995330811,6|8,1:2|0:0,0:0:0:0:
52,247,37473,2,0,P|89:235|132:229,1,76.4999976654053,6|0,0:2|0:0,0:0:0:0:
281,324,37816,5,8,0:0:0:0:
179,169,37987,2,0,P|216:175|267:194,1,76.4999976654053,6|0,1:2|0:0,0:0:0:0:
132,65,38330,5,8,0:0:0:0:
313,236,38501,2,0,P|353:234|404:222,1,76.4999976654053,6|0,1:2|2:0,0:0:0:0:
512,151,38844,6,0,P|488:151|472:166,1,38.2499988327027,0|0,3:0|3:0,0:0:0:0:
280,333,39016,1,8,0:0:0:0:
234,343,39101,1,8,0:0:0:0:
193,326,39187,1,0,3:0:0:0:
168,289,39273,1,0,3:0:0:0:
165,244,39359,2,0,P|173:208|180:159,1,76.4999976654053,8|0,3:0|0:0,0:0:0:0:
332,50,39701,5,6,0:0:0:0:
234,89,39873,1,0,3:0:0:0:
422,161,40044,6,0,P|385:148|334:139,1,76.4999976654053,10|0,0:0|0:0,0:0:0:0:
166,16,40387,5,10,0:0:0:0:
276,200,40559,1,2,3:1:0:0:
488,55,40901,5,0,0:0:0:0:
488,55,40987,1,0,0:0:0:0:
488,55,41073,2,0,P|451:66|395:75,1,76.4999976654053,10|0,0:0|0:0,0:0:0:0:
178,168,41416,5,10,0:0:0:0:
332,50,41587,1,0,0:0:0:0:
451,158,41759,6,0,P|469:192|466:234,1,76.4999976654053,2|2,0:0|0:0,0:0:0:0:
158,155,42101,2,0,P|156:117|174:83,1,76.4999976654053,10|2,0:0|0:0,0:0:0:0:
308,238,42444,5,6,3:0:0:0:
194,285,42616,1,0,0:0:0:0:
237,360,42787,6,0,P|274:365|315:374,1,76.4999976654053,14|0,1:0|0:0,0:0:0:0:
110,234,43130,1,14,0:0:0:0:
194,285,43301,2,0,P|141:320|51:311,1,152.999995330811
298,149,43816,6,0,P|310:185|316:233,1,76.4999976654053,12|0,0:0|3:0,0:0:0:0:
369,278,44159,1,8,3:0:0:0:
229,206,44330,6,0,P|343:247|453:253,1,229.499992996216,6|0,3:0|0:0,0:0:0:0:
450,253,45187,6,0,P|453:218|462:177,1,76.4999976654053,6|0,0:2|0:0,0:0:0:0:
311,347,45530,2,0,P|347:359|384:381,1,76.4999976654053,2|2,2:0|0:3,0:0:0:0:
229,206,45873,6,0,P|164:243|61:251,1,152.999995330811,8|0,0:0|2:0,0:0:0:0:
23,297,46387,1,0,3:0:0:0:
188,278,46559,6,0,P|206:313|208:359,1,76.4999976654053,0|0,0:0|3:0,0:0:0:0:
48,181,46901,2,0,P|55:143|61:95,1,76.4999976654053,4|2,3:0|0:3,0:0:0:0:
96,275,47244,6,0,P|59:282|19:298,1,76.4999976654053,8|0,0:0|0:0,0:0:0:0:
161,155,47587,2,0,P|230:179|319:193,1,152.999995330811,0|0,2:0|3:0,0:0:0:0:
470,299,48101,6,0,P|434:303|389:314,1,76.4999976654053,2|0,3:0|0:0,0:0:0:0:
337,363,48444,1,0,0:0:0:0:
443,219,48616,6,0,P|447:181|457:134,1,76.4999976654053,8|2,0:0|2:0,0:0:0:0:
308,192,48959,1,0,0:0:0:0:
375,151,49130,1,2,2:0:0:0:
375,151,49216,1,0,0:0:0:0:
375,151,49301,6,0,P|371:113|365:72,1,76.4999976654053,4|0,3:0|0:0,0:0:0:0:
284,274,49644,2,0,P|322:267|360:262,1,76.4999976654053,2|0,3:0|0:0,0:0:0:0:
512,42,49987,6,0,P|476:35|432:30,1,76.4999976654053,0|8,0:0|0:0,0:0:0:0:
209,128,50330,2,0,P|203:165|199:203,1,76.4999976654053
415,373,50673,6,0,P|426:295|361:253,1,152.999995330811,6|8,0:0|0:0,0:0:0:0:
209,128,51187,1,2,2:0:0:0:
121,141,51359,6,0,P|123:104|140:53,1,76.4999976654053,0|0,0:0|3:0,0:0:0:0:
335,176,51701,2,0,P|298:193|254:196,1,76.4999976654053,8|0,0:0|0:0,0:0:0:0:
39,313,52044,6,0,P|97:314|194:373,1,152.999995330811,2|8,0:3|0:0,0:0:0:0:
262,196,52559,1,2,2:0:0:0:
189,258,52730,5,0,3:0:0:0:
338,359,52901,1,2,2:0:0:0:
255,384,53073,2,0,P|259:349|272:296,1,76.4999976654053,8|0,0:0|0:0,0:0:0:0:
394,179,53416,5,2,0:3:0:0:
511,241,53587,1,0,3:0:0:0:
437,286,53759,5,8,0:0:0:0:
486,144,53930,2,0,P|450:154|402:161,1,76.4999976654053,2|0,2:0|0:0,0:0:0:0:
259,93,54273,5,4,3:0:0:0:
348,252,54444,1,8,0:0:0:0:
188,174,54616,5,0,3:0:0:0:
358,22,54787,2,0,L|341:107,1,76.4999976654053,12|0,0:0|0:0,0:0:0:0:
450,309,55130,5,12,0:0:0:0:
287,180,55301,1,0,0:0:0:0:
214,378,55473,5,8,0:0:0:0:
214,378,55559,1,0,1:0:0:0:
214,378,55644,1,0,1:0:0:0:
329,299,55816,2,0,L|336:260,2,38.2499988327027,8|0|0,0:0|3:0|3:0,0:0:0:0:
371,368,56159,5,6,0:2:0:0:
161,285,56330,2,0,L|249:270,1,76.4999976654053,8|10,0:0|0:0,0:0:0:0:
483,207,56673,6,0,B|437:193|437:193|420:167|420:167|337:147,1,152.999995330811,6|10,0:0|3:0,0:0:0:0:
148,288,57187,1,8,3:0:0:0:
277,332,57359,6,0,B|201:329|212:384|108:366,1,152.999995330811,6|0,0:0|0:0,0:0:0:0:
0,252,57873,2,0,P|39:245|81:233,1,76.4999976654053,8|0,0:2|0:0,0:0:0:0:
74,235,58130,1,8,0:0:0:0:
74,235,58216,1,0,0:0:0:0:
200,81,58387,6,0,L|207:40,2,38.2499988327027,0|0|10,0:0|0:0|2:0,0:0:0:0:
353,153,58730,5,10,0:2:0:0:
353,153,58816,1,8,0:0:0:0:
353,153,58901,2,0,P|393:163|441:169,1,85,6|0,0:0|1:2,0:0:0:0:
278,331,59244,1,8,0:0:0:0:
379,278,59416,6,0,P|384:322|394:362,1,85,2|0,0:0|0:0,0:0:0:0:
247,176,59759,2,0,P|291:170|331:161,1,85,2|8,0:2|0:0,0:0:0:0:
126,384,60101,1,2,1:3:0:0:
278,331,60273,6,0,P|237:326|189:315,1,85,4|0,0:2|0:0,0:0:0:0:
41,196,60616,1,8,0:0:0:0:
143,216,60787,5,2,0:0:0:0:
14,329,60959,1,0,0:0:0:0:
105,132,61130,5,2,2:0:0:0:
277,299,61301,2,0,P|234:306|189:317,1,85,8|2,2:1|2:0,0:0:0:0:
105,132,61644,6,0,P|175:171|278:160,1,170,4|8,0:2|0:0,0:0:0:0:
400,37,62159,1,2,0:3:0:0:
304,6,62330,2,0,P|313:46|319:91,1,85,4|0,3:0|1:0,0:0:0:0:
484,214,62673,2,0,P|450:191|399:173,1,85,10|2,0:0|0:3,0:0:0:0:
201,88,63016,5,2,0:2:0:0:
201,88,63359,5,8,0:0:0:0:
150,252,63530,1,0,0:0:0:0:
68,197,63701,5,2,3:2:0:0:
262,166,63873,1,2,2:0:0:0:
119,26,64044,6,0,B|97:62|97:62|102:104,1,85,8|8,0:0|0:0,0:0:0:0:
236,384,64387,2,0,B|243:349|243:349|230:317|230:317|245:256,1,127.5,6|0,0:0|2:2,0:0:0:0:
237,247,64730,2,0,L|338:233,1,85,10|0,0:0|0:0,0:0:0:0:
145,358,65073,6,0,B|101:362|101:362|52:340,1,85,2|0,0:2|0:0,0:0:0:0:
392,173,65416,2,0,B|411:212|411:212|409:266,1,85,10|0,0:1|0:0,0:0:0:0:
243,261,65759,5,4,1:3:0:0:
406,352,65930,1,0,0:0:0:0:
236,384,66101,6,0,P|275:374|324:368,1,85,10|0,0:0|0:0,0:0:0:0:
474,193,66444,2,0,P|434:179|379:172,1,85,2|0,0:2|0:0,0:0:0:0:
242,55,66787,2,0,P|218:89|228:143,1,85,10|0,0:0|0:0,0:0:0:0:
319,368,67130,5,8,3:0:0:0:
243,261,67301,1,0,3:0:0:0:
315,201,67473,6,0,B|236:191|247:256|146:235,1,170,8|2,0:0|0:2,0:0:0:0:
349,51,67987,1,4,0:3:0:0:
243,54,68159,2,0,P|284:48|336:35,1,85,12|2,0:0|0:3,0:0:0:0:
476,145,68501,5,10,0:0:0:0:
476,145,68587,1,0,0:0:0:0:
476,145,68673,2,0,P|470:126|461:93,1,42.5,2|0,3:0|0:0,0:0:0:0:
332,215,68844,1,8,0:0:0:0:
332,215,68930,1,0,0:0:0:0:
332,215,69016,2,0,P|326:234|317:267,1,42.5,2|0,3:0|0:0,0:0:0:0:
472,350,69187,5,12,0:0:0:0:
425,238,69359,1,12,0:2:0:0:
273,377,69530,5,8,3:2:0:0:
273,377,69616,1,8,3:2:0:0:
273,377,69701,1,8,3:2:0:0:
273,377,69787,1,8,3:0:0:0:
273,377,69873,6,0,B|327:363|306:338|390:322,1,127.5,6|0,0:0|2:0,0:0:0:0:
398,323,70216,1,8,0:0:0:0:
218,190,70387,2,0,P|230:228|236:277,1,85,6|0,0:3|3:0,0:0:0:0:
373,83,70730,2,0,P|332:98|285:106,1,85,2|8,2:0|2:1,0:0:0:0:
425,238,71073,5,2,2:0:0:0:
399,155,71244,2,0,P|440:159|485:171,1,85,4|0,0:0|2:0,0:0:0:0:
398,323,71587,5,8,0:0:0:0:
504,270,71759,1,2,2:0:0:0:
339,216,71930,5,2,1:2:0:0:
483,356,72101,1,2,2:0:0:0:
235,272,72273,6,0,P|190:277|142:290,1,85,8|2,0:0|0:3,0:0:0:0:
363,22,72616,2,0,P|402:65|396:135,1,127.5,2|0,0:0|2:0,0:0:0:0:
399,155,72959,2,0,P|358:141|308:132,1,85,8|0,0:0|0:0,0:0:0:0:
178,44,73301,5,2,0:2:0:0:
52,114,73473,1,2,0:3:0:0:
168,134,73644,5,8,0:0:0:0:
0,47,73816,1,2,0:3:0:0:
167,233,73987,6,0,P|170:190|178:148,1,85,0|4,0:0|0:3,0:0:0:0:
0,229,74330,1,8,0:0:0:0:
70,259,74501,6,0,P|119:257|217:349,1,170,2|4,0:3|3:0,0:0:0:0:
453,177,75016,2,0,P|411:186|356:194,1,85,12|0,0:0|0:0,0:0:0:0:
448,353,75359,6,0,P|438:315|429:259,1,85,6|4,0:0|0:3,0:0:0:0:
274,115,75701,2,0,P|249:152|257:204,1,85,8|4,0:0|0:3,0:0:0:0:
327,273,76044,5,2,0:2:0:0:
454,176,76216,1,4,0:3:0:0:
505,239,76387,5,8,0:0:0:0:
356,107,76559,1,4,0:3:0:0:
408,43,76730,6,0,P|449:37|495:26,1,85,2|0,2:0|0:0,0:0:0:0:
371,203,77073,2,0,P|364:163|349:115,1,85,8|0,0:0|0:0,0:0:0:0:
178,27,77416,6,0,P|218:34|278:52,1,85,2|0,2:0|0:0,0:0:0:0:
505,239,77759,2,0,P|492:279|485:321,1,85,8|0,0:0|0:0,0:0:0:0:
277,192,78101,5,6,2:2:0:0:
351,120,78273,1,0,0:0:0:0:
441,172,78444,1,10,0:0:0:0:
370,228,78616,1,2,0:0:0:0:
351,120,78787,5,2,2:0:0:0:
504,238,78959,1,2,2:0:0:0:
370,228,79130,5,2,2:0:0:0:
327,369,79301,2,0,P|275:374|193:314,1,127.5,6|0,0:0|0:0,0:0:0:0:
211,319,79644,2,0,P|166:330|108:334,1,85,2|10,0:0|0:0,0:0:0:0:
1,250,79987,1,2,0:0:0:0:
33,378,80159,5,6,3:0:0:0:
33,378,80244,1,0,3:0:0:0:
33,378,80330,2,0,L|41:324,1,42.5,0|0,3:0|3:0,0:0:0:0:
152,205,80501,1,8,0:0:0:0:
20,121,80673,5,8,0:0:0:0:
20,121,80759,1,8,0:0:0:0:
20,121,80844,2,0,L|113:143,1,85,6|0,0:0|2:0,0:0:0:0:
235,254,81187,5,10,0:0:0:0:
168,76,81359,1,4,0:3:0:0:
379,173,81530,6,0,L|275:193,1,85,8|4,0:0|0:3,0:0:0:0:
164,314,81873,5,8,0:0:0:0:
227,142,82044,1,0,3:0:0:0:
227,142,82130,1,0,3:0:0:0:
227,142,82216,2,0,B|210:182|210:182|217:230,1,85,14|6,0:0|0:3,0:0:0:0:
370,86,82559,6,0,L|274:66,1,85,8|6,0:0|0:3,0:0:0:0:
80,330,82901,2,0,L|172:312,1,85,10|0,0:0|3:0,0:0:0:0:
31,245,83244,1,8,0:2:0:0:
31,245,83330,1,8,0:2:0:0:
31,245,83416,1,8,0:2:0:0:
237,372,83587,5,12,0:0:0:0:
237,372,83759,2,0,B|252:334|252:334|246:285,1,85,2|2,0:0|2:0,0:0:0:0:
80,110,84101,5,14,0:0:0:0:
179,89,84273,2,0,L|83:108,1,85,10|2,0:0|2:0,0:0:0:0:
345,237,84616,5,14,0:0:0:0:
320,134,84787,2,0,P|361:144|422:153,1,85,10|2,0:0|2:0,0:0:0:0:
168,320,85130,5,14,0:0:0:0:
237,180,85301,2,0,P|240:220|248:269,1,85,10|2,0:0|2:0,0:0:0:0:
298,332,85644,5,12,3:0:0:0:
162,225,85816,1,0,0:0:0:0:
168,320,85987,5,2,3:0:0:0:
334,225,86159,1,2,3:0:0:0:
441,381,86330,1,6,2:0:0:0:
256,192,86416,12,0,87616,0:0:0:0:
404,160,87701,6,0,B|333:141|375:106|260:84,1,152.999995330811,6|10,0:0|0:0,0:0:0:0:
273,86,88387,6,0,P|311:80|362:66,1,76.4999976654053,6|0,2:0|0:0,0:0:0:0:
273,189,88730,2,0,P|260:229|253:270,1,76.4999976654053,8|0,0:0|0:0,0:0:0:0:
184,129,89073,6,0,P|145:103|38:91,1,152.999995330811,6|8,0:3|0:0,0:0:0:0:
144,211,89587,1,6,0:3:0:0:
81,254,89759,2,0,P|67:218|67:178,1,76.4999976654053,0|0,0:0|3:0,0:0:0:0:
244,288,90101,2,0,P|210:306|159:311,1,76.4999976654053,10|0,0:0|0:0,0:0:0:0:
273,189,90444,6,0,L|440:223,1,152.999995330811,4|8,0:2|0:0,0:0:0:0:
422,219,91130,6,0,P|429:261|438:300,1,76.4999976654053,0|8,0:0|0:2,0:0:0:0:
375,380,91473,1,8,0:0:0:0:
512,267,91644,1,8,0:0:0:0:
360,107,91816,6,0,P|341:146|346:191,1,76.4999976654053,6|0,0:0|2:0,0:0:0:0:
440,302,92159,1,8,0:0:0:0:
269,311,92330,5,6,0:0:0:0:
269,311,92501,2,0,P|306:300|350:294,1,76.4999976654053,0|6,2:0|3:0,0:0:0:0:
499,171,92844,6,0,P|460:176|420:152,1,76.4999976654053,12|0,0:0|0:0,0:0:0:0:
200,335,93187,2,0,P|250:306|374:300,1,152.999995330811,4|8,0:0|0:2,0:0:0:0:
177,123,93701,1,0,0:0:0:0:
262,184,93873,2,0,P|268:147|280:101,1,76.4999976654053,2|0,3:1|0:0,0:0:0:0:
119,223,94216,2,0,P|156:227|206:242,1,76.4999976654053,8|8,0:2|0:2,0:0:0:0:
161,101,94559,6,0,B|83:111|114:153|14:163,1,152.999995330811,6|8,0:2|0:0,0:0:0:0:
193,237,95073,1,6,0:2:0:0:
105,255,95244,5,0,2:0:0:0:
235,161,95416,1,6,3:0:0:0:
161,101,95587,5,10,0:0:0:0:
318,221,95759,1,8,0:2:0:0:
318,221,95844,1,8,0:2:0:0:
318,221,95930,1,6,0:2:0:0:
392,167,96101,2,0,P|396:132|408:86,1,76.4999976654053,6|14,0:2|0:0,0:0:0:0:
235,161,96444,5,8,0:0:0:0:
374,295,96616,2,0,P|335:301|291:312,1,76.4999976654053,14|10,0:0|0:0,0:0:0:0:
460,234,96959,5,2,3:1:0:0:
225,361,97130,2,0,P|216:328|210:276,1,76.4999976654053,10|6,1:0|0:2,0:0:0:0:
37,140,97473,5,2,0:2:0:0:
218,210,97644,2,0,P|215:252|208:299,1,76.4999976654053,8|8,0:0|0:0,0:0:0:0:
293,129,97987,5,8,0:2:0:0:
293,129,98073,1,8,0:2:0:0:
293,129,98159,1,8,0:2:0:0:
293,129,98244,1,8,0:2:0:0:
293,129,98330,2,0,P|242:106|161:109,1,114.749996498108,0|0,3:0|3:0,3:0:0:0:
175,85,98673,6,0,P|136:95|93:101,1,76.4999976654053,6|8,0:0|0:2,0:0:0:0:
40,149,99016,1,8,0:2:0:0:
134,324,99187,6,0,P|139:289|152:245,1,76.4999976654053,8|10,0:2|0:0,0:0:0:0:
114,183,99530,1,10,0:0:0:0:
225,303,99701,5,10,0:0:0:0:
74,384,99873,2,0,B|149:372|103:341|239:320,1,152.999995330811,6|0,0:0|3:0,0:0:0:0:
384,217,100387,5,10,3:1:0:0:
506,272,100559,1,8,3:2:0:0:
447,322,100730,6,0,P|408:328|361:342,1,76.4999976654053,2|0,3:0|3:0,0:0:0:0:
466,138,101073,2,0,P|428:133|391:121,1,76.4999976654053,2|0,3:0|2:0,0:0:0:0:
217,219,101416,1,4,0:0:0:0:
81,329,104159,6,0,P|55:279|70:189,1,136,14|8,3:2|3:2,0:0:0:0:
198,325,104673,2,0,P|232:331|274:342,1,68,8|0,3:2|0:0,0:0:0:0:
264,339,105187,6,0,P|268:308|280:270,1,68
444,150,105530,1,0,0:0:0:0:
511,210,105701,2,0,P|459:249|364:236,1,136
243,147,106216,2,0,P|230:115|228:74,1,68
363,24,106559,2,0,P|362:62|351:105,1,68
160,217,106901,2,0,P|106:210|46:125,1,136
266,342,107416,1,0,0:0:0:0:
262,349,107930,6,0,P|227:353|192:362,2,68
160,217,108444,2,0,P|193:225|239:232,1,68
70,332,108787,5,0,0:0:0:0:
70,332,108959,2,0,P|78:301|86:260,1,68
299,180,109301,2,0,P|308:213|315:257,1,68
195,361,109644,6,0,P|172:279|190:211,1,136
347,93,110159,1,0,0:0:0:0:
347,93,110501,5,0,0:0:0:0:
235,10,110673,2,0,P|244:42|250:76,1,68,6|0,0:3|0:0,0:0:0:0:
429,195,111016,5,8,3:0:0:0:
315,244,111187,2,0,B|390:239|374:290|471:277,1,152.999995330811,4|0,1:0|0:0,0:0:0:0:
303,157,111701,5,8,3:0:0:0:
215,293,111873,1,2,3:0:0:0:
141,214,112044,2,0,P|178:207|223:191,1,76.4999976654053,2|0,3:0|3:0,0:0:0:0:
328,359,112387,5,4,0:0:0:0:
460,278,112559,2,0,P|450:316|444:360,1,76.4999976654053,0|2,2:0|0:0,0:0:0:0:
315,244,112901,2,0,P|352:211|461:207,1,152.999995330811,8|0,0:0|0:0,0:0:0:0:
355,47,113416,1,0,0:0:0:0:
278,94,113587,2,0,P|264:56|262:13,1,76.4999976654053
475,113,113930,6,0,P|472:156|460:195,1,76.4999976654053
312,255,114273,2,0,P|274:262|232:280,1,76.4999976654053,10|0,0:0|0:0,0:0:0:0:
67,142,114616,5,2,0:0:0:0:
183,204,114787,1,8,0:0:0:0:
115,266,114959,5,0,0:0:0:0:
115,266,115130,2,0,P|101:219|130:103,1,152.999995330811,6|0,0:2|0:0,0:0:0:0:
312,255,115644,2,0,P|303:293|297:339,1,76.4999976654053,10|0,0:0|0:0,0:0:0:0:
233,372,115987,1,0,0:0:0:0:
114,265,116159,6,0,P|76:259|40:248,1,76.4999976654053
213,139,116501,1,0,0:0:0:0:
295,166,116673,6,0,P|298:128|278:82,1,76.4999976654053
144,0,117016,1,10,0:0:0:0:
54,91,117187,6,0,P|93:81|155:77,1,76.4999976654053
346,19,117530,2,0,P|308:13|267:-1,1,76.4999976654053,10|0,0:0|0:0,0:0:0:0:
296,166,117873,6,0,B|315:253|262:232|282:324,1,152.999995330811
345,352,118387,2,0,L|431:371,1,76.4999976654053,10|2,0:0|2:0,0:0:0:0:
218,199,118730,5,0,0:0:0:0:
142,251,118901,2,0,L|59:265,1,76.4999976654053,8|0,0:0|0:0,0:0:0:0:
296,166,119244,6,0,L|311:77,1,76.4999976654053,2|0,0:0|0:0,0:0:0:0:
383,241,119587,1,0,0:0:0:0:
459,196,119759,5,10,0:0:0:0:
459,196,119930,2,0,B|475:230|475:230|469:282,1,76.4999976654053
345,352,120273,2,0,L|265:367,1,76.4999976654053,8|8,0:0|0:0,0:0:0:0:
110,175,120616,6,0,P|150:216|260:218,1,152.999995330811,4|8,0:0|0:0,0:0:0:0:
81,338,121130,2,0,P|76:302|65:259,1,76.4999976654053,4|0,0:0|0:0,0:0:0:0:
269,366,121473,5,8,0:0:0:0:
197,306,121644,2,0,P|201:241|224:144,1,152.999995330811,4|8,0:0|0:0,0:0:0:0:
76,6,122159,6,0,P|107:29|158:31,1,76.4999976654053,4|0,0:0|0:0,0:0:0:0:
227,73,122501,1,8,0:0:0:0:
21,167,122673,6,0,P|54:151|99:145,1,76.4999976654053,14|0,3:0|3:0,0:0:0:0:
308,25,123016,2,0,P|312:64|320:105,1,76.4999976654053,0|0,3:0|3:0,0:0:0:0:
458,272,123359,5,4,0:0:0:0:
344,178,123530,1,0,0:0:0:0:
512,176,123701,6,0,L|429:192,1,76.4999976654053,10|0,0:0|0:0,0:0:0:0:
436,190,123959,1,0,0:0:0:0:
436,190,124044,1,10,0:0:0:0:
317,285,124216,6,0,B|278:275|278:275|258:249|258:249|177:231,1,152.999995330811,2|0,0:0|0:0,0:0:0:0:
179,231,124644,1,2,0:0:0:0:
179,231,124730,1,8,0:0:0:0:
245,382,124901,1,2,0:0:0:0:
160,332,125073,5,8,0:0:0:0:
323,198,125244,2,0,L|308:115,1,76.4999976654053,2|6,0:0|0:0,0:0:0:0:
420,217,125587,5,10,0:0:0:0:
258,57,125759,2,0,B|292:40|292:40|348:42,1,76.4999976654053,10|10,0:0|0:0,0:0:0:0:
211,150,126101,6,0,P|174:138|132:132,1,76.4999976654053,6|0,3:0|0:0,0:0:0:0:
340,350,126444,2,0,P|345:310|358:270,1,76.4999976654053,14|2,0:0|0:0,0:0:0:0:
420,217,126787,5,14,0:0:0:0:
189,321,126959,1,2,3:1:0:0:
509,381,127301,5,0,3:0:0:0:
509,381,127387,1,0,0:0:0:0:
509,381,127473,2,0,L|501:338,2,38.2499988327027,10|0|0,0:0|3:0|3:0,0:0:0:0:
355,275,127816,1,0,3:0:0:0:
327,356,127987,5,0,0:0:0:0:
463,254,128159,1,8,3:0:0:0:
463,254,128244,1,8,3:0:0:0:
463,254,128330,2,0,P|466:212|477:171,1,76.4999976654053,0|12,3:0|3:0,0:0:0:0:
252,96,128844,6,0,P|200:111|150:114,1,76.4999976654053,6|0,3:2|0:0,0:0:0:0:
121,295,129187,2,0,P|104:256|118:206,1,76.4999976654053,2|2,0:0|0:2,0:0:0:0:
177,113,129530,2,0,P|254:132|338:168,1,152.999995330811,8|2,0:0|0:2,0:0:0:0:
388,247,130044,1,0,3:0:0:0:
250,314,130216,5,0,0:0:0:0:
368,375,130387,1,0,0:0:0:0:
301,249,130559,2,0,P|288:203|284:158,1,76.4999976654053,4|2,3:0|0:2,0:0:0:0:
512,54,130901,2,0,P|477:112|397:130,1,152.999995330811,8|0,0:0|0:0,0:0:0:0:
197,104,131416,1,0,0:0:0:0:
249,41,131587,2,0,P|310:57|342:65,1,76.4999976654053,2|0,3:0|0:0,0:0:0:0:
188,207,131930,2,0,P|146:217|104:230,1,76.4999976654053,2|2,0:2|0:2,0:0:0:0:
104,17,132273,2,0,B|115:56|115:56|99:96,1,76.4999976654053,8|0,0:0|0:0,0:0:0:0:
303,241,132616,2,0,B|292:202|292:202|308:162,1,76.4999976654053,2|2,0:2|0:3,0:0:0:0:
305,168,132873,5,2,0:3:0:0:
305,168,132959,2,0,P|348:177|395:181,1,76.4999976654053,4|0,3:0|0:0,0:0:0:0:
189,289,133301,2,0,P|134:326|26:293,1,152.999995330811,6|8,0:3|0:0,0:0:0:0:
0,252,133816,1,2,0:2:0:0:
168,194,133987,1,10,0:0:0:0:
255,340,134159,1,10,0:0:0:0:
87,194,134330,2,0,P|70:142|154:86,1,152.999995330811,4|8,0:0|0:0,0:0:0:0:
317,151,134844,5,2,0:3:0:0:
383,204,135016,2,0,P|386:261|399:313,1,76.4999976654053,2|2,2:0|0:3,0:0:0:0:
466,66,135359,2,0,P|416:75|377:77,1,76.4999976654053,8|2,0:0|0:3,0:0:0:0:
143,276,135701,6,0,B|233:272|196:233|289:225,1,152.999995330811,2|8,3:1|0:0,0:0:0:0:
468,258,136216,1,0,0:0:0:0:
353,336,136387,2,0,P|315:320|269:309,1,76.4999976654053,2|2,0:2|0:3,0:0:0:0:
225,103,136730,2,0,P|197:161|200:202,1,76.4999976654053,8|2,0:0|0:3,0:0:0:0:
158,361,137073,5,6,0:2:0:0:
313,231,137244,1,0,3:0:0:0:
102,157,137416,5,8,1:0:0:0:
192,280,137587,1,2,0:2:0:0:
192,280,137673,1,0,0:0:0:0:
192,280,137759,2,0,P|138:266|94:267,1,76.4999976654053,8|2,0:0|0:2,0:0:0:0:
0,19,138101,2,0,P|32:51|147:52,1,152.999995330811,8|14,0:0|0:0,0:0:0:0:
265,156,138616,1,0,0:0:0:0:
97,177,138787,1,12,0:0:0:0:
262,63,138959,5,2,3:0:0:0:
353,235,139130,1,8,0:0:0:0:
353,235,139216,1,8,0:0:0:0:
353,235,139301,1,0,3:0:0:0:
499,143,139473,6,0,P|465:137|446:129,2,38.2499988327027,8|8|8,0:0|3:0|3:0,0:0:0:0:
447,318,139816,2,0,P|431:275|449:222,1,76.4999976654053,6|2,2:1|2:1,0:0:0:0:
381,47,140159,2,0,P|357:92|359:136,1,76.4999976654053,2|2,2:1|2:1,0:0:0:0:
202,291,140501,1,10,2:1:0:0:
340,222,140673,1,0,3:0:0:0:
296,369,140844,1,8,3:0:0:0:
187,182,141016,2,0,P|239:178|293:164,1,76.4999976654053,6|0,0:0|0:0,0:0:0:0:
385,314,141359,2,0,P|356:307|328:306,2,38.2499988327027,8|8|8,3:2|3:2|3:2,0:0:0:0:
329,50,141701,5,8,3:2:0:0:
329,50,141787,1,8,3:2:0:0:
329,50,141873,2,0,B|334:91|334:91|362:113|362:113|370:169,1,114.749996498108,6|0,0:2|2:0,0:0:0:0:
386,175,142216,2,0,P|436:161|491:149,1,76.4999976654053,2|0,0:2|2:0,0:0:0:0:
281,366,142559,5,6,0:0:0:0:
206,168,142730,1,0,0:0:0:0:
345,252,142901,1,8,1:0:0:0:
146,300,143073,2,0,P|202:284|246:280,1,85,6|0,0:3|3:0,0:0:0:0:
278,78,143416,2,0,B|298:116|298:116|285:167,1,85,4|8,0:3|0:0,0:0:0:0:
185,382,143759,5,4,0:3:0:0:
71,331,143930,2,0,P|43:272|85:183,1,170,6|8,0:2|0:0,0:0:0:0:
237,142,144444,2,0,P|189:173|145:163,1,85,6|0,0:3|0:0,0:0:0:0:
131,84,144787,1,6,0:3:0:0:
208,258,144959,1,8,0:0:0:0:
65,171,145130,1,6,0:3:0:0:
251,32,145301,6,0,P|239:95|241:139,1,85,6|4,0:2|0:3,0:0:0:0:
351,289,145644,2,0,P|363:235|357:180,1,85,8|4,0:0|0:3,0:0:0:0:
362,205,145901,1,0,0:0:0:0:
362,205,145987,1,0,3:0:0:0:
319,108,146159,1,6,0:3:0:0:
192,207,146330,2,0,P|242:199|287:196,1,85,8|6,0:0|0:3,0:0:0:0:
457,338,146673,6,0,B|379:363|381:300|277:333,1,170,6|8,1:2|0:0,0:0:0:0:
132,286,147187,1,6,0:3:0:0:
47,363,147359,2,0,P|38:327|47:269,1,85,2|6,3:2|0:3,0:0:0:0:
196,215,147701,2,0,P|220:259|218:301,1,85,8|8,3:2|3:2,0:0:0:0:
228,114,148044,6,0,P|192:177|92:172,1,170,6|8,0:0|0:0,0:0:0:0:
182,36,148559,1,6,0:3:0:0:
312,182,148730,2,0,P|363:197|417:203,1,85,2|6,0:2|0:3,0:0:0:0:
394,201,149073,2,0,P|331:215|283:231,1,85,10|4,0:0|0:3,0:0:0:0:
61,322,149416,2,0,P|156:335|173:339,1,85,2|6,0:0|0:3,0:0:0:0:
254,376,149759,2,0,P|244:339|256:280,1,85,10|4,0:0|0:3,0:0:0:0:
219,156,150101,1,2,0:2:0:0:
349,295,150273,1,6,0:3:0:0:
140,248,150444,2,0,P|173:237|204:232,2,42.5,8|0|4,0:0|0:0|0:3,0:0:0:0:
275,46,150787,6,0,P|324:39|352:143,1,170,6|8,1:2|0:0,0:0:0:0:
406,197,151301,1,4,0:3:0:0:
185,85,151473,2,0,P|177:16|168:-23,1,85
293,218,151816,1,12,0:2:0:0:
126,164,151987,1,6,3:0:0:0:
266,111,152159,5,12,1:0:0:0:
140,271,152330,1,6,3:0:0:0:
12,145,152501,1,10,0:0:0:0:
12,145,152587,1,0,0:0:0:0:
12,145,152673,2,0,P|20:95|23:46,1,85,6|8,3:0|0:0,0:0:0:0:
230,228,153016,6,0,P|236:278|244:324,1,85,14|8,0:0|0:3,0:0:0:0:
241,312,153273,1,8,0:3:0:0:
241,312,153359,1,8,0:3:0:0:
17,316,153530,2,0,P|20:264|127:226,1,170,6|8,0:0|0:0,0:0:0:0:
427,284,154044,2,0,P|377:275|333:259,1,85,6|0,0:3|3:0,0:0:0:0:
265,181,154387,1,6,0:3:0:0:
341,348,154559,1,8,0:0:0:0:
197,246,154730,1,6,0:3:0:0:
339,102,154901,6,0,P|363:147|357:194,1,85,2|4,0:0|0:3,0:0:0:0:
192,141,155244,2,0,P|135:151|88:159,1,85,8|6,1:0|0:3,0:0:0:0:
0,274,155587,2,0,B|93:281|59:329|163:324,1,170,2|8,0:2|0:0,0:0:0:0:
204,247,156101,1,4,0:3:0:0:
126,48,156273,6,0,P|115:116|101:149,1,85,2|0,0:2|0:0,0:0:0:0:
318,365,156616,2,0,P|310:302|315:251,1,85,8|6,0:0|0:3,0:0:0:0:
348,152,156959,1,0,3:0:0:0:
225,309,157130,1,6,0:3:0:0:
390,247,157301,2,0,P|448:243|492:238,1,85,8|4,0:0|0:3,0:0:0:0:
402,39,157644,6,0,B|317:74|330:11|229:38,1,170,6|8,0:2|1:0,0:0:0:0:
108,121,158159,1,6,0:3:0:0:
252,206,158330,1,2,0:0:0:0:
252,206,158416,1,0,0:0:0:0:
252,206,158501,1,6,0:3:0:0:
149,53,158673,2,0,P|149:109|161:169,1,85,12|0,1:0|0:0,0:0:0:0:
46,255,159016,6,0,P|90:230|139:218,1,85,6|4,0:2|2:3,0:0:0:0:
354,226,159359,2,0,P|325:295|217:291,1,170,8|2,0:0|0:0,0:0:0:0:
151,309,159873,1,4,0:3:0:0:
237,130,160044,2,0,P|259:178|252:224,1,85,10|4,0:0|0:3,0:0:0:0:
429,314,160387,6,0,P|485:324|519:333,1,85,2|0,0:0|0:0,0:0:0:0:
512,331,160730,2,0,P|480:288|452:240,1,85,8|4,0:0|0:3,0:0:0:0:
289,85,161073,2,0,P|342:69|378:54,1,85,2|6,0:2|0:3,0:0:0:0:
477,13,161416,2,0,P|455:75|449:118,1,85,8|6,0:0|0:3,0:0:0:0:
360,238,161759,1,6,0:2:0:0:
462,177,161930,1,6,0:3:0:0:
335,147,162101,5,8,0:0:0:0:
441,289,162273,1,4,0:3:0:0:
255,319,162444,5,2,2:0:0:0:
360,238,162616,1,6,2:3:0:0:
356,384,162787,1,10,1:0:0:0:
252,189,162959,6,0,P|245:113|230:19,1,170,2|6,0:0|0:3,0:0:0:0:
88,248,163473,2,0,P|81:285|60:339,1,85,8|4,0:0|0:3,0:0:0:0:
220,361,163816,1,8,0:0:0:0:
220,361,163901,1,0,0:0:0:0:
220,361,163987,1,0,0:0:0:0:
94,163,164159,1,8,0:0:0:0:
244,234,164330,5,8,0:0:0:0:
244,234,164416,1,8,0:0:0:0:
244,234,164501,2,0,P|185:247|144:263,1,85,6|0,0:0|3:0,0:0:0:0:
48,291,164844,1,8,1:0:0:0:
183,154,165016,1,12,3:3:0:0:
306,304,165187,5,8,0:0:0:0:
306,304,165359,1,12,3:3:0:0:
387,244,165530,2,0,P|376:197|368:147,1,85,8|8,0:0|3:0,0:0:0:0:
369,160,165787,1,8,3:0:0:0:
369,160,165873,2,0,P|424:152|467:137,1,85,8|4,0:0|3:0,0:0:0:0:
393,333,166216,2,0,P|341:337|293:357,1,85,8|6,1:0|3:3,0:0:0:0:
81,179,166559,2,0,B|128:191|128:191|148:216|148:216|208:233,1,127.5,8|2,0:0|3:0,0:0:0:0:
193,228,166901,2,0,P|186:263|183:294,2,42.5,10|0|8,0:0|0:0|3:0,0:0:0:0:
275,52,167244,5,14,0:0:0:0:
275,52,167416,2,0,P|284:107|296:155,1,85,10|6,0:0|3:0,0:0:0:0:
428,244,167759,5,14,0:0:0:0:
449,342,167930,2,0,P|434:290|425:247,1,85,10|6,0:0|3:0,0:0:0:0:
409,64,168273,5,14,0:0:0:0:
507,129,168444,2,0,P|454:141|410:141,1,85,10|6,0:0|0:3,0:0:0:0:
284,273,168787,1,14,0:0:0:0:
175,220,168959,2,0,B|241:222|220:170|301:164,1,127.5,10|0,0:0|0:0,0:0:0:0:
293,169,169301,2,0,P|288:116|288:97,2,56.6666666666667,8|8|8,3:2|3:2|3:2,0:0:0:0:
404,206,169644,2,0,P|412:278|424:319,1,85,8|0,3:2|0:0,0:0:0:0:
360,366,169987,1,6,0:0:0:0:
256,192,170073,12,8,175473,0:0:0:0:
301,72,179587,5,8,1:0:0:0:
301,72,179759,2,0,B|310:116|310:116|339:134|339:134|360:233,1,170,6|0,0:0|3:0,0:0:0:0:
110,134,180273,5,8,1:0:0:0:
91,212,180444,2,0,B|82:256|82:256|53:274|53:274|32:373,1,170,6|0,0:0|3:0,0:0:0:0:
196,358,180959,1,12,3:0:0:0:
196,358,181044,1,8,3:0:0:0:
196,358,181130,2,0,P|241:347|300:334,1,85,8|8,3:0|3:0,0:0:0:0:
436,283,181473,1,8,3:0:0:0:
436,283,181559,1,0,0:0:0:0:
436,283,181644,1,12,1:0:0:0:
303,221,181816,1,2,3:0:0:0:
369,366,181987,2,0,P|364:339|359:302,2,42.5,2|2|0,3:0|3:0|3:0,0:0:0:0:
512,132,182330,5,6,0:0:0:0:
512,132,182501,2,0,P|466:178|365:151,1,170,0|2,3:0|3:0,0:0:0:0:
271,73,183016,2,0,P|278:38|284:14,2,42.5,12|0|0,1:0|0:0|3:0,0:0:0:0:
180,208,183359,1,0,3:0:0:0:
180,208,183444,1,0,3:0:0:0:
180,208,183530,1,0,3:0:0:0:
81,125,183701,6,0,P|121:125|172:108,1,85,6|0,0:0|3:0,0:0:0:0:
277,198,184044,1,0,3:0:0:0:
146,329,184216,1,0,3:0:0:0:
146,329,184301,1,0,3:0:0:0:
146,329,184387,2,0,P|115:289|124:234,1,85,12|2,1:0|3:1,0:0:0:0:
286,65,184730,2,0,P|280:108|279:121,2,42.5,0|0|0,3:0|3:0|3:0,0:0:0:0:
330,178,185073,6,0,B|419:178|395:228|503:229,1,170,6|2,0:2|0:3,0:0:0:0:
291,279,185587,1,2,1:0:0:0:
291,279,185673,1,0,0:0:0:0:
291,279,185759,2,0,P|235:283|189:298,1,85,14|0,0:0|0:0,0:0:0:0:
120,348,186101,2,0,P|112:320|113:298,2,42.5,12|0|0,3:0|0:0|0:0,0:0:0:0:
192,202,186444,1,6,3:2:0:0:
288,358,186616,1,0,3:0:0:0:
384,271,186787,1,0,3:0:0:0:
405,364,186959,5,0,3:0:0:0:
405,364,187044,1,0,3:0:0:0:
405,364,187130,1,12,1:0:0:0:
270,232,187301,1,0,0:0:0:0:
441,154,187473,1,0,3:0:0:0:
441,154,187559,1,0,3:0:0:0:
441,154,187644,2,0,P|491:165|546:175,1,85,0|4,3:0|3:0,0:0:0:0:
322,14,187987,6,0,L|332:75,2,42.5,0|0|0,3:0|0:0|3:1,0:0:0:0:
351,223,188330,1,0,3:0:0:0:
237,57,188501,1,12,1:0:0:0:
417,141,188673,1,0,1:0:0:0:
217,179,188844,1,8,3:0:0:0:
217,179,188930,1,8,3:0:0:0:
217,179,189016,2,0,P|271:160|321:149,1,85,8|6,3:0|0:0,0:0:0:0:
236,347,189359,5,2,0:0:0:0:
107,195,189530,1,2,0:0:0:0:
318,287,189701,2,2,P|251:269|182:254,1,118.999996368408,10|0,0:0|2:0,0:0:0:0:
178,104,190216,5,6,0:0:0:0:
51,287,190387,1,2,0:0:0:0:
105,43,190559,1,2,0:0:0:0:
25,199,190730,2,0,P|79:184|161:171,1,118.999996368408,10|0,0:0|2:0,0:0:0:0:
318,46,191244,5,2,0:0:0:0:
362,196,191416,1,2,0:0:0:0:
399,79,191587,1,2,0:0:0:0:
272,226,191759,5,10,1:0:0:0:
445,146,191930,1,6,0:0:0:0:
276,100,192101,1,2,0:0:0:0:
373,298,192273,1,2,0:0:0:0:
437,196,192444,2,0,P|382:182|304:163,1,118.999996368408,8|8,0:0|0:0,0:0:0:0:
219,188,192959,5,6,0:0:0:0:
100,337,193130,1,2,0:0:0:0:
263,263,193301,1,2,0:0:0:0:
140,138,193473,2,0,P|155:228|156:283,1,118.999996368408,10|8,0:0|0:0,0:0:0:0:
396,291,193987,5,2,0:0:0:0:
302,128,194159,1,2,0:0:0:0:
469,183,194330,2,0,P|409:196|336:210,1,118.999996368408,2|6,3:1|0:0,0:0:0:0:
219,338,194844,5,2,0:0:0:0:
151,195,195016,1,14,0:0:0:0:
256,275,195187,1,4,0:3:0:0:
91,295,195359,2,0,P|137:286|170:276,1,76.4999976654053,14|0,0:0|0:0,0:0:0:0:
264,125,195701,5,6,0:2:0:0:
189,16,195873,1,2,0:0:0:0:
344,88,196044,1,14,0:0:0:0:
189,167,196216,1,0,0:0:0:0:
344,88,196387,2,0,P|381:100|431:106,1,76.4999976654053,14|0,0:0|0:0,0:0:0:0:
486,255,196730,1,10,0:0:0:0:
489,162,196901,2,0,B|432:181|432:181|412:204|412:204|342:226,1,152.999995330811,6|2,0:0|2:3,0:0:0:0:
231,338,197416,5,6,0:0:0:0:
163,176,197587,1,2,0:0:0:0:
287,281,197759,1,10,0:0:0:0:
113,239,197930,1,2,0:0:0:0:
223,128,198101,2,0,P|215:175|212:230,1,76.4999976654053,10|0,0:0|0:0,0:0:0:0:
343,164,198444,6,0,P|398:176|437:185,1,76.4999976654053,10|0,0:0|0:0,0:0:0:0:
160,316,198787,2,0,P|119:326|75:340,1,76.4999976654053,10|2,0:0|0:0,0:0:0:0:
140,137,199130,2,0,P|109:113|167:35,1,152.999995330811,10|10,0:0|0:0,0:0:0:0:
315,178,199644,2,0,P|346:202|288:280,1,152.999995330811,6|0,0:0|0:0,0:0:0:0:
244,117,200159,6,0,P|247:62|252:26,1,76.4999976654053,10|2,0:0|0:3,0:0:0:0:
194,253,200501,1,2,0:3:0:0:
128,180,200673,2,0,P|119:135|116:98,1,76.4999976654053,14|2,0:0|0:3,0:0:0:0:
194,253,201016,1,2,0:3:0:0:
311,90,201187,2,0,P|370:102|411:103,1,76.4999976654053,12|2,0:0|0:3,0:0:0:0:
386,103,201444,1,0,0:0:0:0:
386,103,201530,1,2,0:3:0:0:
106,263,201701,2,0,P|58:275|23:286,1,76.4999976654053,14|2,0:0|0:3,0:0:0:0:
32,282,201959,1,0,0:0:0:0:
32,282,202044,1,2,0:3:0:0:
287,361,202216,6,0,P|296:314|293:272,1,76.4999976654053,4|0,3:0|3:0,0:0:0:0:
166,97,202559,2,0,P|154:151|158:191,1,76.4999976654053,2|0,3:1|0:0,0:0:0:0:
360,244,202901,6,0,P|437:233|474:227,1,101.999996887207,10|2,0:0|2:3,0:0:0:0:
460,229,203359,1,4,2:3:0:0:
331,43,203587,6,0,P|254:32|217:26,1,101.999996887207,10|2,0:0|2:3,0:0:0:0:
230,28,204045,1,4,2:3:0:0:
303,257,204273,5,10,0:0:0:0:
388,132,204501,1,2,1:2:0:0:
193,194,204730,1,4,1:3:0:0:
453,218,204959,5,14,0:2:0:0:
233,106,205187,1,14,0:2:0:0:
315,362,205416,1,14,0:0:0:0:
142,121,210959,5,0,0:0:0:0:
142,121,211044,1,0,0:0:0:0:
142,121,211130,2,0,P|129:72|128:24,1,76.4999976654053,8|2,0:0|2:3,0:0:0:0:
213,40,211473,2,0,P|266:55|310:56,1,76.4999976654053,0|2,0:0|2:3,0:0:0:0:
97,223,211816,1,8,0:0:0:0:
220,157,211987,1,0,0:0:0:0:
63,119,212159,1,8,3:0:0:0:
214,261,212330,5,0,0:0:0:0:
214,261,212416,1,0,0:0:0:0:
214,261,212501,2,0,P|272:268|350:173,1,170,6|8,2:0|0:0,0:0:0:0:
446,366,213016,2,0,P|432:324|441:277,1,85,2|0,2:0|0:0,0:0:0:0:
415,97,213359,1,2,0:3:0:0:
510,195,213530,2,0,P|454:182|409:177,1,85,8|0,0:0|0:0,0:0:0:0:
339,5,213873,6,0,P|314:51|329:90,1,85,2|0,0:0|0:0,0:0:0:0:
230,217,214216,1,8,0:0:0:0:
339,169,214387,1,2,2:0:0:0:
230,128,214559,2,0,P|167:147|136:151,1,85,2|2,0:2|2:0,0:0:0:0:
159,328,214901,2,0,P|137:291|146:240,1,85,8|0,0:0|0:0,0:0:0:0:
243,26,215244,6,0,B|292:43|292:43|314:86|314:86|384:106,1,170,2|8,0:0|0:0,0:0:0:0:
349,294,215759,2,0,P|388:262|430:250,1,85,2|2,0:2|2:0,0:0:0:0:
443,44,216101,2,0,P|477:92|471:129,1,85,10|8,0:3|0:0,0:0:0:0:
460,323,216444,1,2,0:3:0:0:
373,175,216616,1,14,0:0:0:0:
512,231,216787,1,2,3:0:0:0:
293,217,216959,2,0,P|245:224|202:234,1,85,12|2,0:0|3:0,0:0:0:0:
142,309,217301,2,0,P|131:272|125:260,2,42.5,8|0|0,0:0|3:0|3:0,0:0:0:0:
192,120,217644,1,2,0:3:0:0:
192,120,217730,1,2,0:2:0:0:
192,120,217816,1,8,3:0:0:0:
45,51,217987,6,0,P|35:94|48:139,1,85,6|8,0:2|0:0,0:0:0:0:
241,253,218330,1,8,0:0:0:0:
16,264,218501,2,0,B|108:260|75:203|184:204,1,170,6|8,0:0|3:0,0:0:0:0:
337,164,219016,1,8,3:1:0:0:
230,46,219187,2,0,P|264:58|344:73,1,85,6|0,0:1|0:0,0:0:0:0:
463,223,219530,1,0,3:0:0:0:
463,223,219616,1,8,0:0:0:0:
463,223,219701,2,0,P|464:178|476:128,1,85,6|0,3:1|0:0,0:0:0:0:
472,139,219959,1,8,0:0:0:0:
472,139,220044,2,0,P|413:126|355:113,1,85,6|0,3:1|0:0,0:0:0:0:
192,192,220387,2,0,P|243:201|280:208,1,85,4|0,0:3|0:0,0:0:0:0:
420,380,220730,6,0,B|407:335|407:335|458:303|458:303|429:205,1,170,6|0,2:0|0:0,0:0:0:0:
440,242,221587,1,4,0:0:0:0:
225,0,222101,6,0,B|212:45|212:45|263:77|263:77|234:175,1,170,4|0,2:0|0:0,0:0:0:0:
245,138,222958,1,6,0:0:0:0:
108,384,223473,6,0,B|95:339|95:339|146:307|146:307|117:209,1,170,6|0,2:3|0:0,2:0:0:0:
128,247,224844,2,0,P|165:256|218:261,1,85,6|2,2:0|0:2,0:0:0:0:
302,307,225359,1,2,0:0:0:0:
302,307,225444,1,8,0:3:0:0:
302,307,225530,2,0,P|309:282|311:261,1,42.5,8|0,0:0|3:0,0:0:0:0:
288,128,225873,2,0,P|279:154|278:180,1,42.5,8|0,3:0|0:0,0:0:0:0:
378,197,226216,6,0,P|422:188|475:177,1,85,4|0,0:2|2:0,0:0:0:0:
331,45,226559,1,8,0:0:0:0:
331,45,226644,1,0,0:0:0:0:
331,45,226730,2,0,P|274:35|230:20,1,85,0|8,0:0|0:0,0:0:0:0:
156,119,227073,1,0,0:0:0:0:
247,185,227244,2,0,B|271:151|271:151|255:101,1,85,10|2,0:0|0:0,0:0:0:0:
49,190,227587,6,0,P|65:258|67:299,1,85,8|2,0:0|0:3,0:0:0:0:
66,272,227844,1,0,0:0:0:0:
66,272,227930,2,0,P|110:260|157:251,1,85,8|2,0:0|0:3,0:0:0:0:
318,348,228273,2,0,P|272:341|224:328,1,85,8|8,0:0|0:2,0:0:0:0:
247,164,228616,1,8,0:0:0:0:
247,164,228701,1,8,0:0:0:0:
247,164,228787,1,8,0:0:0:0:
247,164,228873,1,8,0:0:0:0:
247,164,228959,2,0,P|228:224|223:261,1,85,2|0,2:0|2:0,2:0:0:0:
416,194,230159,5,2,0:0:0:0:
416,194,230244,1,0,0:0:0:0:
416,194,230330,2,0,P|444:188|480:186,3,42.5,6|0|6|0,0:2|0:0|0:3|0:0,0:0:0:0:
343,264,230673,2,0,P|368:278|399:298,3,42.5,14|0|6|0,0:0|0:0|0:3|0:0,0:0:0:0:
266,317,231016,1,14,0:0:0:0:
169,140,231187,1,6,0:3:0:0:
283,207,231359,1,8,0:0:0:0:
152,245,231530,5,2,0:2:0:0:
152,245,231616,1,8,0:3:0:0:
152,245,231701,2,0,B|65:252|93:299|-13:308,1,170,6|8,0:0|0:0,0:0:0:0:
13,144,232216,2,0,P|57:161|105:173,1,85,6|0,0:3|3:0,0:0:0:0:
167,327,232559,1,2,2:0:0:0:
159,77,232730,2,0,P|186:126|173:167,1,85,8|0,0:0|0:0,0:0:0:0:
421,364,233073,5,6,0:2:0:0:
321,221,233244,1,0,2:0:0:0:
466,202,233416,1,8,0:0:0:0:
288,318,233587,2,0,P|338:300|388:292,1,85,2|2,2:0|0:2,0:0:0:0:
371,81,233930,2,0,P|395:141|384:193,1,85,2|8,0:2|1:0,0:0:0:0:
216,176,234273,5,2,0:2:0:0:
216,176,234359,1,0,0:0:0:0:
216,176,234444,2,0,B|140:201|146:164|25:193,1,170,6|8,0:2|0:0,0:0:0:0:
217,299,234959,1,2,2:2:0:0:
47,301,235130,2,0,P|87:277|145:262,1,85,2|4,0:0|0:3,0:0:0:0:
167,22,235473,2,0,P|156:77|169:120,1,85,8|6,0:0|0:3,0:0:0:0:
296,341,235816,6,0,P|337:302|293:204,1,170,6|8,0:2|0:0,0:0:0:0:
254,76,236330,2,0,P|310:70|347:62,1,85,6|2,0:3|0:0,0:0:0:0:
463,176,236673,1,4,2:3:0:0:
301,207,236844,1,12,0:0:0:0:
477,193,237016,1,0,0:0:0:0:
412,37,237187,2,0,P|393:97|406:131,1,85,6|4,0:2|0:3,0:0:0:0:
493,298,237530,2,0,P|466:280|403:292,1,85,10|4,1:0|0:3,0:0:0:0:
169,303,237873,2,0,P|213:290|260:271,1,85,6|4,0:2|0:3,0:0:0:0:
249,275,238216,2,0,P|231:326|222:376,1,85,10|4,1:0|0:3,0:0:0:0:
347,331,238559,5,2,0:0:0:0:
241,190,238730,1,0,0:0:0:0:
409,148,238901,5,8,0:0:0:0:
337,239,239073,1,6,0:3:0:0:
154,161,239244,2,0,P|215:151|327:122,1,170,2|8,2:0|0:0,0:0:0:0:
480,75,239759,5,4,2:3:0:0:
480,75,239844,1,0,0:0:0:0:
480,75,239930,2,0,P|423:63|380:47,1,85,2|2,0:0|0:3,0:0:0:0:
273,309,240273,2,0,P|261:258|288:207,1,85,8|6,0:0|0:3,0:0:0:0:
487,169,240616,1,2,2:0:0:0:
428,301,240787,1,2,2:0:0:0:
381,138,240959,1,2,2:0:0:0:
512,261,241130,6,0,B|429:229|438:291|337:250,1,170,2|2,0:0|0:0,0:0:0:0:
161,157,241644,1,8,0:0:0:0:
285,74,241816,1,6,0:3:0:0:
243,216,241987,2,0,P|191:234|139:262,1,85,8|0,0:0|0:0,0:0:0:0:
164,247,242244,1,0,0:0:0:0:
164,247,242330,1,8,0:0:0:0:
329,332,242501,5,8,0:0:0:0:
329,332,242587,1,8,0:0:0:0:
329,332,242673,2,0,P|329:264|337:222,1,85,6|0,0:0|0:0,0:0:0:0:
475,141,243016,2,0,P|471:101|455:35,1,85,10|8,0:0|3:0,0:0:0:0:
337,141,243359,1,8,0:0:0:0:
465,262,243530,1,8,3:0:0:0:
314,234,243701,2,0,P|262:245|225:264,1,85,10|8,0:0|3:0,0:0:0:0:
233,258,243959,1,8,3:0:0:0:
233,258,244044,2,0,P|200:217|201:164,1,85,10|10,0:0|3:0,0:0:0:0:
80,109,244387,6,0,P|120:79|160:56,1,85,8|10,0:0|3:0,0:0:0:0:
112,277,244730,1,10,0:0:0:0:
235,109,244901,1,0,0:0:0:0:
105,189,245073,2,0,P|53:212|10:229,1,85,8|8,0:2|3:0,0:0:0:0:
263,320,245416,5,14,0:0:0:0:
263,320,245587,2,0,P|325:334|361:348,1,85,14|2,0:0|3:0,0:0:0:0:
350,139,245930,1,14,0:0:0:0:
341,48,246101,2,0,P|318:111|345:152,1,85,14|2,0:0|3:0,0:0:0:0:
346,225,246444,1,14,0:0:0:0:
505,126,246616,2,0,P|446:117|401:104,1,85,10|8,0:0|3:2,0:0:0:0:
259,222,246959,5,10,3:1:0:0:
357,310,247130,1,8,3:0:0:0:
357,310,247216,1,0,3:0:0:0:
357,310,247301,1,10,3:0:0:0:
467,276,247473,2,0,P|457:220|452:175,1,85,8|0,0:0|3:0,0:0:0:0:
323,11,247816,5,8,3:0:0:0:
323,11,247901,1,0,3:0:0:0:
323,11,247987,1,0,3:0:0:0:
323,11,248073,1,0,3:0:0:0:
323,11,248159,2,0,P|317:69|310:110,1,85,6|0,0:0|0:0,0:0:0:0:
137,254,248673,2,0,P|140:199|149:139,1,85,6|0,0:0|0:0,0:0:0:0:
402,97,249187,2,0,P|391:154|381:194,1,85,6|0,0:0|0:0,0:0:0:0:
246,63,250901,6,0,B|302:158|199:153|258:250,1,191.250007295609,2|0,2:0|0:0,2:0:0:0:
254,243,251501,1,8,0:2:0:0:
254,243,251587,1,8,0:0:0:0:
164,182,251759,1,8,0:0:0:0:
355,236,251930,1,8,0:0:0:0:
188,340,252101,1,8,0:0:0:0:
408,305,252273,6,0,P|405:238|416:124,1,170,4|0,0:0|0:0,0:0:0:0:
475,72,252787,1,0,0:0:0:0:
475,72,252873,1,0,0:0:0:0:
475,72,252959,2,0,B|437:46|437:46|391:58,1,85,12|0,0:0|3:0,0:0:0:0:
223,147,253301,2,0,B|267:157|267:157|309:129,1,85
177,29,253644,6,0,P|127:14|85:111,1,170,6|0,2:0|0:0,0:0:0:0:
12,158,254159,1,0,0:0:0:0:
197,245,254330,2,0,P|209:200|186:149,1,85,8|0,0:0|3:0,0:0:0:0:
28,260,254673,2,0,P|78:241|117:227,1,85,0|0,0:0|2:0,0:0:0:0:
341,103,255016,5,6,2:0:0:0:
341,103,255187,2,0,P|284:90|248:78,1,85
295,243,255530,1,0,0:0:0:0:
295,243,255616,1,0,3:0:0:0:
295,243,255701,2,0,P|348:226|391:223,1,85,8|2,0:0|3:0,0:0:0:0:
451,51,256044,1,4,3:0:0:0:
451,51,256130,1,0,3:0:0:0:
451,51,256216,1,0,3:0:0:0:
451,51,256301,1,0,3:0:0:0:
451,51,256387,2,0,B|474:104|474:104|432:142|432:142|462:207,1,170,6|8,0:0|0:0,0:0:0:0:
358,384,256901,2,0,B|381:331|381:331|339:293|339:293|369:228,1,170,6|8,0:0|0:0,0:0:0:0:
359,78,257416,6,0,P|302:71|262:56,1,85,6|0,0:0|0:0,0:0:0:0:
145,227,257759,5,6,0:0:0:0:
280,151,257930,1,0,0:0:0:0:
189,104,258101,1,8,0:0:0:0:
270,262,258273,1,2,0:3:0:0:
189,104,258444,2,0,P|176:63|178:16,1,85,2|0,0:0|0:0,0:0:0:0:
60,147,258787,2,0,P|95:216|78:286,1,127.5,8|0,0:0|0:0,0:0:0:0:
89,263,259130,2,0,P|32:275|-2:284,1,85,6|0,2:2|0:0,0:0:0:0:
217,327,259473,2,0,P|275:336|319:344,1,85,12|2,0:0|0:3,0:0:0:0:
119,363,259816,1,8,3:0:0:0:
119,363,259901,1,8,0:0:0:0:
119,363,259987,1,0,0:0:0:0:
243,242,260159,1,8,0:0:0:0:
113,167,260330,5,8,0:2:0:0:
113,167,260416,1,8,0:2:0:0:
113,167,260501,2,0,B|96:207|96:207|111:250,1,85,6|12,0:2|0:0,0:0:0:0:
244,136,260844,1,10,0:0:0:0:
130,45,261016,1,0,0:0:0:0:
211,225,261187,5,12,0:0:0:0:
351,159,261359,1,6,0:0:0:0:
138,169,261530,1,2,0:3:0:0:
311,238,261701,5,8,0:0:0:0:
311,238,261787,1,0,0:0:0:0:
311,238,261873,2,0,P|382:248|423:258,1,85,8|8,0:0|0:2,0:0:0:0:
295,24,262216,2,0,P|249:36|203:43,1,85,8|2,3:0|3:1,0:0:0:0:
297,315,262559,1,8,0:0:0:0:
176,177,262730,1,8,3:0:0:0:
350,125,262901,1,8,0:0:0:0:
92,238,263244,5,6,0:0:0:0:
256,192,263330,12,0,267359,0:0:0:0:
246,206,267873,5,8,3:0:0:0:
246,206,267959,1,8,3:0:0:0:
246,206,268044,1,10,3:1:0:0:
186,74,268216,1,2,0:0:0:0:
355,188,268387,5,2,0:0:0:0:
163,272,268559,1,6,0:2:0:0:
