osu file format v14

[General]
AudioFilename: audio.mp3
AudioLeadIn: 0
PreviewTime: 219873
Countdown: 0
SampleSet: Normal
StackLeniency: 0.7
Mode: 0
LetterboxInBreaks: 0
WidescreenStoryboard: 0

[Editor]
Bookmarks: 58901,128844,180959,207016,231701,252273
DistanceSpacing: 1
BeatDivisor: 4
GridSize: 4
TimelineZoom: 2.999999

[Metadata]
Title:Invisible light
TitleUnicode:Invisible light
Artist:Ayane
ArtistUnicode:彩音
Creator:iljaaz
Version:Absolution
Source:ひぐらしのなく頃に卒
Tags:kalibe evilelvis jounzan natteke desu deca keqing Higurashi no Naku Koro ni Sotsu when they cry cicadas anime japanese jrock rock j-rock Analogy Song Collection Ash Inoue アッシュ井上
BeatmapID:3972414
BeatmapSetID:1924175

[Difficulty]
HPDrainRate:6
CircleSize:4
OverallDifficulty:8
ApproachRate:8
SliderMultiplier:1.7
SliderTickRate:1

[Events]
//Background and Video events
0,0,"satoko.jpg",0,0
//Break Periods
2,207016,210209
//Storyboard Layer 0 (Background)
//Storyboard Layer 1 (Fail)
//Storyboard Layer 2 (Pass)
//Storyboard Layer 3 (Foreground)
//Storyboard Layer 4 (Overlay)
//Storyboard Sound Samples

[TimingPoints]
617,342.857142857143,4,2,1,70,1,0
3359,-90.9090909090909,4,2,1,70,0,0
8502,-100,4,2,1,70,0,0
8845,-90.9090909090909,4,2,1,70,0,0
9874,-166.666666666667,4,2,1,70,0,0
10045,-90.9090909090909,4,2,1,70,0,0
17074,-133.333333333333,4,2,1,70,0,0
17759,342.857142857143,4,1,1,45,1,0
17759,-200,4,1,1,45,0,0
27873,-66.6666666666667,4,1,1,45,0,0
28730,-100,4,1,1,45,0,0
39701,-166.666666666667,4,1,1,65,0,0
41759,-66.6666666666667,4,1,1,65,0,0
42444,-100,4,1,1,65,0,0
42787,-166.666666666667,4,1,1,65,0,0
44330,-100,4,1,1,65,0,0
45187,-166.666666666667,4,1,1,65,0,0
50673,-100,4,1,1,65,0,0
58216,-142.857142857143,4,1,1,65,0,0
58559,-166.666666666667,4,1,1,65,0,0
58730,-100,4,1,1,65,0,0
58901,-66.6666666666667,4,1,1,65,0,0
86330,-333.333333333333,4,1,1,65,0,0
87701,-83.3333333333333,4,1,1,65,0,0
101416,-133.333333333333,4,1,1,65,0,0
110673,-333.333333333333,4,1,1,65,0,0
111187,-90.9090909090909,4,1,1,65,0,0
112387,-111.111111111111,4,1,1,65,0,0
120616,-76.9230769230769,4,1,1,65,0,0
128844,-142.857142857143,4,1,1,65,0,0
134330,-100,4,1,1,65,0,0
141016,-58.8235294117647,4,1,1,65,0,0
141359,-399.999999999997,4,1,1,65,0,0
142559,-66.6666666666667,4,1,1,65,0,0
169987,-181.818181818181,4,1,1,65,0,0
172730,-166.666666666667,4,1,1,65,0,0
176844,-1000,4,1,1,65,0,0
179587,-66.6666666666667,4,1,1,65,0,0
180959,-76.9230769230769,4,1,1,65,0,0
185073,-222.222222222221,4,1,1,65,0,0
185759,-66.6666666666667,4,1,1,65,0,0
186444,-76.9230769230769,4,1,1,65,0,0
189187,342.857142857143,3,1,1,65,1,0
189187,-76.9230769230769,3,1,1,65,0,0
189701,-66.6666666666667,3,1,1,65,0,0
191930,342.857142857143,3,1,1,65,1,0
191930,-66.6666666666667,3,1,1,65,0,0
194330,-133.333333333333,3,1,1,65,0,0
194673,342.857142857143,3,1,1,65,1,0
194673,-57.1428571428571,3,1,1,65,0,0
197416,342.857142857143,3,1,1,65,1,0
197416,-51.2820512820513,3,1,1,65,0,0
199473,-100,3,1,1,65,0,0
199644,-51.2820512820513,3,1,1,65,0,0
200159,342.857142857143,4,1,1,65,1,0
200159,-51.2820512820513,4,1,1,65,0,0
202216,-100,4,1,1,65,0,0
202559,-250,4,1,1,65,0,0
202901,-66.6666666666667,4,1,1,65,0,0
210959,-133.333333333333,4,1,1,65,0,0
211644,-100,4,1,1,65,0,0
212159,-200,4,1,1,65,0,0
212501,-100,4,1,1,65,0,0
220044,-66.6666666666667,4,1,1,65,0,0
220387,-100,4,1,1,65,0,0
221587,-76.9230769230769,4,1,1,65,0,0
221673,-100,4,1,1,65,0,0
227587,-76.9230769230769,4,1,1,65,0,0
228959,-181.818181818181,4,1,1,65,0,0
230330,-66.6666666666667,4,1,1,65,0,0
231187,-50,4,1,1,65,0,0
231359,-66.6666666666667,4,1,1,65,0,0
231530,-100,4,1,1,65,0,0
231701,-66.6666666666667,4,1,1,65,0,0
250901,-333.333333333333,4,1,1,65,0,0
251587,-333.333333333333,4,1,1,25,0,0
251759,-333.333333333333,4,1,1,40,0,0
251930,-333.333333333333,4,1,1,55,0,0
252101,-333.333333333333,4,1,1,70,0,0
252273,-83.3333333333333,4,1,1,65,0,0
253644,-111.111111111111,4,1,1,65,0,0
254159,-83.3333333333333,4,1,1,65,0,0
254330,-166.666666666667,4,1,1,65,0,0
254844,-83.3333333333333,4,1,1,65,0,0
257416,-66.6666666666667,4,1,1,65,0,0
257759,-83.3333333333333,4,1,1,65,0,0
261873,-74.0740740740741,4,1,1,65,0,0

[Colours]
Combo1 : 194,143,181
Combo2 : 165,165,154
Combo3 : 150,142,157
Combo4 : 177,201,97
Combo5 : 138,196,155
Combo6 : 232,189,125
Combo7 : 223,216,64
Combo8 : 224,222,222

[HitObjects]
241,74,617,5,2,0:0:0:0:
241,74,788,1,0,0:0:0:0:
241,74,959,1,0,0:0:0:0:
221,80,1131,5,2,0:0:0:0:
237,82,1302,1,0,0:0:0:0:
259,95,1474,1,0,0:0:0:0:
285,112,1645,101,2,0:0:0:0:
232,130,1817,1,0,0:0:0:0:
203,167,1988,1,0,0:0:0:0:
134,194,2159,5,2,0:0:0:0:
202,227,2331,1,0,0:0:0:0:
252,286,2502,1,0,0:0:0:0:
267,329,2674,101,2,0:0:0:0:
186,366,2845,1,0,0:0:0:0:
271,274,3017,5,2,0:0:0:0:
368,373,3188,1,0,1:0:0:0:
368,373,3274,1,0,1:0:0:0:
368,373,3359,1,6,1:0:0:0:
484,28,3702,5,2,1:2:0:0:
484,28,3874,2,0,L|296:39,1,187.000005706787,8|0,1:0|3:0,0:0:0:0:
119,89,4388,1,8,1:0:0:0:
113,19,4731,5,0,3:0:0:0:
113,19,4902,2,0,P|152:23|233:37,1,93.5000028533936,0|2,3:0|0:1,0:0:0:0:
64,113,5245,2,0,B|125:129|146:104|223:119,1,140.25000428009,8|0,1:0|0:0,0:0:0:0:
203,115,5588,101,2,3:0:0:0:
337,198,5759,1,8,1:0:0:0:
472,136,5931,1,2,3:0:0:0:
337,198,6102,5,4,3:0:0:0:
395,283,6274,2,0,L|361:89,2,187.000005706787,2|8|2,3:1|1:0|3:0,0:0:0:0:
381,291,7045,1,0,1:0:0:0:
387,320,7131,1,8,1:0:0:0:
474,353,7302,1,0,1:0:0:0:
307,296,7474,101,2,3:1:0:0:
182,359,7645,1,2,3:1:0:0:
259,374,7988,6,0,B|246:277|302:305|283:181,1,187.000005706787,8|2,1:0|3:0,0:0:0:0:
231,0,8502,1,14,1:0:0:0:
221,7,8588,1,0,1:0:0:0:
231,25,8674,1,0,1:0:0:0:
211,33,8759,1,0,1:0:0:0:
195,52,8845,102,0,P|220:49|297:43,1,93.5000028533936,6|0,3:2|3:0,0:0:0:0:
354,63,9188,1,2,0:0:0:0:
467,166,9359,1,8,1:0:0:0:
389,152,9531,1,2,1:2:0:0:
323,182,9702,1,0,3:0:0:0:
269,198,9874,2,0,P|255:195|201:178,1,50.9999984436036,8|0,1:0|0:0,0:0:0:0:
107,289,10217,5,2,3:0:0:0:
107,289,10388,2,0,P|151:279|203:271,1,93.5000028533936,2|0,3:1|0:0,0:0:0:0:
76,373,10731,2,0,P|164:361|275:337,1,187.000005706787,8|2,1:0|3:0,0:0:0:0:
260,340,11245,1,8,1:0:0:0:
426,199,11417,101,12,3:0:0:0:
476,199,11502,1,12,3:0:0:0:
512,226,11588,1,14,1:0:0:0:
453,272,11759,2,0,P|449:222|447:72,1,187.000005706787,2|8,3:0|1:0,0:0:0:0:
277,268,12274,2,0,P|307:263|399:254,1,93.5000028533936,2|0,0:0|3:0,0:0:0:0:
119,102,12617,2,0,P|86:106|-7:110,1,93.5000028533936,8|0,1:0|0:0,0:0:0:0:
298,124,12959,5,6,1:0:0:0:
206,331,13131,1,2,3:1:0:0:
206,331,13474,2,0,P|203:297|201:132,1,187.000005706787,8|0,1:0|3:0,0:0:0:0:
202,50,13988,101,8,0:0:0:0:
210,34,14159,1,0,1:0:0:0:
205,57,14331,1,6,3:0:0:0:
226,150,14502,69,14,1:0:0:0:
198,137,14674,1,14,1:0:0:0:
289,197,14845,5,0,3:0:0:0:
213,230,15017,101,14,1:0:0:0:
169,244,15188,1,14,1:0:0:0:
289,197,15359,5,0,3:0:0:0:
223,312,15531,101,14,1:0:0:0:
175,373,15702,1,14,1:0:0:0:
289,197,15874,5,0,0:0:0:0:
378,302,16045,101,14,1:0:0:0:
445,384,16217,1,14,1:0:0:0:
392,130,16388,53,10,1:0:0:0:
476,301,16559,1,10,1:0:0:0:
366,208,16731,1,10,1:0:0:0:
512,151,16902,1,10,1:0:0:0:
403,281,17074,2,0,B|380:167|471:157|457:37,1,255.000009727478,2|4,0:0|0:0,0:0:0:0:
191,213,18101,69,8,3:0:0:0:
191,213,18273,1,0,0:0:0:0:
191,213,18444,2,0,L|200:156,1,42.5,8|0,0:0|3:0,0:0:0:0:
117,191,18787,6,0,P|117:207|122:287,1,85,8|0,3:0|0:0,0:0:0:0:
120,275,19301,2,0,P|120:301|114:369,1,85,2|0,3:0|1:0,0:0:0:0:
197,227,19816,101,8,0:0:0:0:
240,345,19987,1,0,0:0:0:0:
234,245,20159,1,0,3:0:0:0:
198,323,20330,1,0,0:0:0:0:
306,277,20501,5,0,0:0:0:0:
351,262,20673,1,0,0:0:0:0:
414,302,20844,1,0,3:0:0:0:
381,368,21016,1,0,0:0:0:0:
307,200,21187,2,0,P|305:174|338:112,1,85,8|0,1:0|3:0,0:0:0:0:
355,100,21701,2,0,L|400:110,1,42.5,0|8,3:0|3:0,0:0:0:0:
276,8,22044,102,0,P|219:14|142:20,1,127.5,2|8,3:0|1:0,0:0:0:0:
109,139,22730,1,0,0:0:0:0:
82,32,22901,1,0,3:0:0:0:
139,104,23073,1,0,3:0:0:0:
221,55,23244,5,2,3:0:0:0:
221,55,23416,2,0,P|218:82|206:149,1,85,0|0,3:0|0:0,0:0:0:0:
262,223,23930,2,0,B|157:177|162:284|50:253,1,212.5,8|2,1:0|3:0,0:0:0:0:
0,293,25301,1,8,0:0:0:0:
94,331,25473,1,0,3:0:0:0:
175,288,25644,1,8,3:0:0:0:
220,302,25816,1,0,0:0:0:0:
294,367,25987,102,0,P|271:378|244:382,1,42.5,2|0,3:0|0:0,0:0:0:0:
361,261,26330,1,0,3:0:0:0:
395,363,26501,6,0,P|375:351|360:333,1,42.5,2|8,2:0|1:0,0:0:0:0:
294,206,26844,1,0,3:0:0:0:
297,126,27016,1,8,3:0:0:0:
350,66,27187,1,8,3:0:0:0:
384,59,27273,1,8,3:0:0:0:
419,71,27359,1,8,3:0:0:0:
472,133,27530,102,0,P|453:143|425:151,1,42.5,0|4,3:0|3:0,0:0:0:0:
240,268,27873,53,0,0:0:0:0:
196,275,27959,1,0,0:0:0:0:
155,296,28044,2,0,B|94:318|94:318|32:271,1,127.500004863739,6|0,1:0|0:0,0:0:0:0:
267,100,28387,6,0,B|359:74|359:74|454:134,1,191.250007295609,6|0,0:0|2:0,0:0:0:0:
512,197,28730,69,6,3:0:0:0:
512,197,28901,2,0,L|419:208,1,85,2|0,3:0|0:0,0:0:0:0:
345,326,29244,2,0,B|354:240|305:258|319:160,1,170,8|8,0:0|0:0,0:0:0:0:
455,283,29759,2,0,P|450:322|447:369,1,85,2|0,0:3|0:0,0:0:0:0:
238,208,30101,5,0,0:0:0:0:
367,346,30273,1,8,0:0:0:0:
310,240,30444,1,2,2:0:0:0:
177,284,30616,2,0,P|140:299|88:312,1,85,8|4,0:0|0:3,0:0:0:0:
256,383,30959,1,0,3:0:0:0:
256,383,31130,2,0,P|252:354|253:281,1,85,8|0,0:0|2:0,0:0:0:0:
224,69,31473,101,6,3:0:0:0:
254,147,31644,1,2,0:0:0:0:
162,104,31816,1,2,3:0:0:0:
292,49,31987,2,0,P|332:63|301:176,1,170,8|8,0:0|0:0,0:0:0:0:
291,235,32501,2,0,P|262:233|207:188,1,85,2|0,3:0|0:0,0:0:0:0:
10,288,32844,5,0,0:0:0:0:
133,223,33016,1,8,0:0:0:0:
46,350,33187,1,0,0:0:0:0:
89,163,33359,2,0,P|91:137|95:46,1,85,8|4,1:0|3:0,0:0:0:0:
327,167,33701,1,0,0:0:0:0:
295,245,33873,2,0,P|292:275|301:385,1,127.5,10|0,1:0|0:0,0:0:0:0:
298,371,34216,102,0,P|326:372|395:348,1,85,6|0,3:0|3:0,0:0:0:0:
435,310,34559,1,0,0:0:0:0:
396,225,34730,1,8,0:0:0:0:
512,167,34901,2,0,P|440:159|332:145,1,170,2|0,0:2|3:0,0:0:0:0:
277,161,35416,1,0,3:0:0:0:
174,254,35587,5,2,0:0:0:0:
174,254,35759,2,0,P|190:260|276:270,1,85,8|0,0:0|0:0,0:0:0:0:
144,43,36101,2,0,P|118:43|52:76,1,85,8|4,0:0|3:0,0:0:0:0:
33,134,36444,1,0,0:0:0:0:
232,195,36616,2,0,P|256:167|209:80,1,127.5,8|0,0:0|2:0,0:0:0:0:
230,88,36959,102,0,P|259:120|404:98,1,170,6|8,1:2|0:0,0:0:0:0:
497,76,37473,2,0,P|426:33|345:50,1,170,6|8,0:2|0:0,0:0:0:0:
265,207,37987,6,0,B|188:239|188:239|101:192,1,170,6|8,1:2|0:0,0:0:0:0:
351,348,38501,2,0,L|362:257,1,85,6|0,1:2|2:0,0:0:0:0:
126,217,38844,101,0,3:0:0:0:
126,217,38930,1,0,3:0:0:0:
126,217,39016,1,8,0:0:0:0:
185,239,39101,1,8,0:0:0:0:
241,231,39187,1,0,3:0:0:0:
274,238,39273,1,0,3:0:0:0:
281,244,39359,1,8,3:0:0:0:
437,336,39530,21,0,0:0:0:0:
445,344,39616,1,0,0:0:0:0:
445,344,39701,1,6,0:0:0:0:
475,267,39873,1,0,3:0:0:0:
398,276,40044,5,10,0:0:0:0:
512,333,40216,1,0,0:0:0:0:
382,178,40387,101,10,0:0:0:0:
183,240,40559,2,0,P|186:280|190:352,1,101.999996887207,2|0,3:1|0:0,0:0:0:0:
189,341,40987,1,0,0:0:0:0:
189,341,41073,5,10,0:0:0:0:
278,368,41244,1,0,0:0:0:0:
148,169,41416,101,10,0:0:0:0:
18,208,41587,1,0,0:0:0:0:
80,334,41759,6,0,L|97:265,1,63.7500024318696,2|0,0:0|2:0,0:0:0:0:
95,272,41930,102,0,L|47:317,1,63.7500024318696,2|0,0:0|2:0,0:0:0:0:
48,315,42101,6,0,L|119:299,1,63.7500024318696,10|0,0:0|2:0,0:0:0:0:
110,300,42273,102,0,L|46:270,1,63.7500024318696,2|0,0:0|2:0,0:0:0:0:
77,74,42444,6,0,B|85:114|85:114|77:167,1,85,6|0,3:0|0:0,0:0:0:0:
269,292,42787,101,14,1:0:0:0:
189,348,42959,1,0,0:0:0:0:
261,219,43130,5,14,0:0:0:0:
402,307,43301,1,0,0:0:0:0:
243,261,43473,101,2,2:0:0:0:
358,213,43644,1,0,0:0:0:0:
358,213,43730,1,0,0:0:0:0:
358,213,43816,1,12,0:0:0:0:
308,322,43987,5,0,3:0:0:0:
300,344,44073,1,0,3:0:0:0:
293,364,44159,1,8,3:0:0:0:
358,213,44330,6,0,P|217:129|10:265,1,425,6|6,3:0|0:2,0:0:0:0:
98,259,45359,5,0,0:0:0:0:
146,249,45530,1,2,2:0:0:0:
205,205,45701,1,2,0:3:0:0:
283,194,45873,2,0,P|314:198|392:222,1,101.999996887207,8|0,0:0|2:0,0:0:0:0:
502,338,46387,1,0,3:0:0:0:
456,359,46559,5,0,0:0:0:0:
411,300,46730,1,0,3:0:0:0:
448,232,46901,1,4,3:0:0:0:
512,243,47073,1,2,0:3:0:0:
437,325,47244,2,0,P|420:332|334:346,1,101.999996887207,8|0,0:0|2:0,0:0:0:0:
191,59,47930,101,0,3:0:0:0:
271,8,48101,2,0,B|277:47|255:76|261:126,1,101.999996887207,2|0,3:0|0:0,0:0:0:0:
343,232,48616,1,8,0:0:0:0:
417,159,48787,1,2,2:0:0:0:
415,228,48959,1,0,0:0:0:0:
350,148,49130,1,2,2:0:0:0:
227,203,49301,6,0,P|207:210|174:216,1,50.9999984436036,4|0,3:0|0:0,0:0:0:0:
129,128,49644,2,0,P|119:152|114:182,1,50.9999984436036,2|0,3:0|0:0,0:0:0:0:
110,251,49987,1,0,0:0:0:0:
110,251,50159,1,8,0:0:0:0:
32,228,50330,101,0,0:0:0:0:
32,228,50416,1,0,0:0:0:0:
32,228,50501,1,0,0:0:0:0:
32,228,50587,1,0,0:0:0:0:
32,228,50673,2,0,B|116:204|127:277|205:268,1,170,6|8,0:0|0:0,0:0:0:0:
224,336,51187,2,0,B|299:310|299:310|388:367,1,170,2|0,2:0|3:0,0:0:0:0:
512,264,51701,70,0,L|414:281,1,85,8|0,0:0|0:0,0:0:0:0:
275,74,52044,2,0,L|369:90,1,85,2|0,0:3|0:0,0:0:0:0:
123,217,52387,1,8,0:0:0:0:
176,148,52559,2,0,P|180:116|181:42,1,85,2|0,2:0|3:0,0:0:0:0:
332,215,52901,1,2,2:0:0:0:
184,319,53073,1,8,0:0:0:0:
253,231,53244,1,0,0:0:0:0:
330,342,53416,38,0,P|297:341|260:296,1,85,2|0,0:3|3:0,0:0:0:0:
134,169,53759,1,8,0:0:0:0:
195,99,53930,2,0,P|82:94|34:163,1,170,2|4,2:0|3:0,0:0:0:0:
22,202,54444,1,8,0:0:0:0:
22,202,54616,1,0,3:0:0:0:
208,237,54787,69,12,0:0:0:0:
317,281,54959,1,0,0:0:0:0:
301,212,55130,1,12,0:0:0:0:
190,306,55301,1,0,0:0:0:0:
404,355,55473,5,8,0:0:0:0:
419,357,55559,1,0,1:0:0:0:
424,367,55644,1,0,1:0:0:0:
437,368,55730,1,0,1:0:0:0:
428,336,55816,101,8,0:0:0:0:
382,341,55901,1,0,3:0:0:0:
343,355,55987,1,0,3:0:0:0:
300,359,56073,1,0,3:0:0:0:
237,381,56159,6,0,L|224:288,2,85,6|8|10,0:2|0:0|0:0,0:0:0:0:
138,350,56673,2,0,B|143:293|143:293|107:255|107:255|113:183,1,170,6|10,0:0|3:0,0:0:0:0:
2,167,57187,1,8,3:0:0:0:
36,87,57359,6,0,L|220:105,1,170,6|0,0:0|0:0,0:0:0:0:
232,98,57787,1,0,0:0:0:0:
265,102,57873,1,8,0:2:0:0:
415,322,58130,1,8,0:0:0:0:
415,322,58216,2,0,L|526:315,1,89.2499972763062
504,316,58559,6,0,L|469:303,1,25.4999992218018,10|0,2:0|0:0,0:0:0:0:
415,322,58730,6,0,L|469:336,1,42.5,10|8,0:2|0:0,0:0:0:0:
272,296,58901,70,0,B|168:254|176:353|45:320,1,191.250007295609,6|0,0:0|2:0,0:0:0:0:
72,362,59244,1,8,0:0:0:0:
284,222,59416,2,0,B|326:176|326:176|294:109,1,127.500004863739,2|0,0:0|0:0,0:0:0:0:
180,381,59759,21,2,0:2:0:0:
212,286,59930,1,8,0:0:0:0:
154,227,60101,1,2,1:3:0:0:
297,117,60273,86,0,P|409:126|481:202,1,191.250007295609,4|0,0:2|2:0,0:0:0:0:
480,210,60616,1,8,0:0:0:0:
165,112,60787,2,0,P|216:61|209:7,1,127.500004863739,2|0,0:0|0:0,0:0:0:0:
425,271,61130,21,2,2:0:0:0:
248,194,61301,1,8,2:1:0:0:
79,272,61473,1,2,2:0:0:0:
144,314,61644,86,0,P|161:239|163:177,1,127.500004863739,4|0,0:2|0:0,0:0:0:0:
202,361,61987,1,8,0:0:0:0:
92,193,62159,1,2,0:3:0:0:
204,68,62330,21,4,3:0:0:0:
143,117,62501,1,0,1:0:0:0:
304,93,62673,1,10,0:0:0:0:
243,142,62844,1,2,0:3:0:0:
0,18,63016,86,0,L|135:53,1,127.500004863739,2|0,0:2|0:0,0:0:0:0:
304,93,63359,1,8,0:0:0:0:
257,294,63530,1,0,0:0:0:0:
256,287,63616,1,0,0:0:0:0:
249,286,63701,1,2,3:2:0:0:
237,289,63787,1,2,2:0:0:0:
236,282,63873,1,2,2:0:0:0:
229,282,63959,1,2,2:0:0:0:
266,257,64044,1,8,0:0:0:0:
308,270,64130,1,8,0:0:0:0:
339,238,64216,1,8,0:0:0:0:
382,247,64301,1,8,0:0:0:0:
417,219,64387,22,0,L|256:186,1,127.500004863739,6|0,0:0|0:0,0:0:0:0:
495,146,64730,2,0,L|334:113,1,127.500004863739,10|0,0:0|0:0,0:0:0:0:
165,346,65073,86,0,L|326:313,1,127.500004863739,2|0,0:2|0:0,0:0:0:0:
87,273,65416,2,0,L|248:240,1,127.500004863739,10|0,0:1|0:0,0:0:0:0:
163,117,65759,22,0,L|324:84,1,127.500004863739,4|0,1:3|0:0,0:0:0:0:
85,44,66102,2,0,L|246:11,1,127.500004863739,10|0,0:0|0:0,0:0:0:0:
415,244,66445,86,0,L|254:211,1,127.500004863739,2|0,0:2|0:0,0:0:0:0:
493,171,66788,2,0,L|332:138,1,127.500004863739,10|0,0:0|0:0,0:0:0:0:
478,290,67130,21,8,3:0:0:0:
330,369,67301,1,8,3:0:0:0:
218,243,67473,1,8,0:0:0:0:
368,148,67644,1,8,3:0:0:0:
373,141,67730,1,8,3:0:0:0:
366,136,67816,1,2,0:2:0:0:
484,215,67987,1,4,0:3:0:0:
411,328,68159,1,12,0:0:0:0:
290,265,68330,1,2,0:3:0:0:
484,215,68501,85,10,0:0:0:0:
284,77,68673,1,2,3:0:0:0:
372,47,68844,21,8,0:0:0:0:
290,265,69016,1,2,3:0:0:0:
211,200,69187,85,12,0:0:0:0:
344,119,69359,1,12,0:2:0:0:
512,132,69530,1,8,3:2:0:0:
496,143,69616,1,8,3:2:0:0:
482,130,69701,1,8,3:2:0:0:
466,141,69787,1,8,3:0:0:0:
487,136,69873,22,0,B|379:97|436:246|296:212,1,191.250007295609,6|0,0:0|2:0,0:0:0:0:
295,205,70216,1,8,0:0:0:0:
433,353,70387,2,0,B|492:323|492:323|473:227,1,127.500004863739,6|0,0:3|3:0,0:0:0:0:
228,88,70730,85,2,2:0:0:0:
291,44,70901,1,8,2:1:0:0:
296,119,71073,1,2,2:0:0:0:
77,209,71244,22,0,L|243:173,1,127.500004863739,4|0,0:0|2:0,0:0:0:0:
383,132,71587,1,8,0:0:0:0:
210,285,71759,85,2,2:0:0:0:
296,119,71930,1,2,2:0:0:0:
225,25,72101,1,2,2:0:0:0:
299,37,72273,1,8,0:0:0:0:
196,97,72444,1,2,0:3:0:0:
413,307,72616,22,0,P|434:196|481:125,1,191.250007295609,2|0,0:0|2:0,0:0:0:0:
505,95,72959,1,8,0:0:0:0:
317,211,73130,1,0,0:0:0:0:
326,205,73216,1,0,0:0:0:0:
321,194,73301,1,2,0:2:0:0:
491,300,73473,1,2,0:3:0:0:
391,142,73644,1,8,0:0:0:0:
413,329,73816,1,2,0:3:0:0:
167,342,73987,86,0,B|237:352|237:352|300:285,1,127.500004863739,0|4,0:0|0:3,0:0:0:0:
484,174,74330,1,8,0:0:0:0:
337,64,74501,1,2,0:3:0:0:
326,58,74587,1,2,0:3:0:0:
338,49,74673,1,2,0:0:0:0:
404,16,74844,1,4,3:0:0:0:
358,325,75016,1,12,0:0:0:0:
358,325,75359,22,0,L|327:182,1,127.500004863739,6|4,0:0|0:3,0:0:0:0:
441,238,75701,2,0,L|413:113,1,127.500004863739,8|4,0:0|0:3,0:0:0:0:
145,0,76044,86,0,L|117:124,1,127.500004863739,2|4,0:2|0:3,0:0:0:0:
228,87,76386,2,0,L|200:211,1,127.500004863739,8|4,0:0|0:3,0:0:0:0:
11,316,76730,22,0,P|119:328|219:375,1,191.250007295609,2|0,2:0|0:0,0:0:0:0:
239,365,77073,1,8,0:0:0:0:
364,269,77244,1,0,0:0:0:0:
512,239,77416,2,0,L|386:193,1,127.500004863739,2|0,2:0|0:0,0:0:0:0:
512,127,77759,2,0,L|386:81,1,127.500004863739,8|0,0:0|0:0,0:0:0:0:
225,252,78101,86,0,P|253:172|260:110,1,127.500004863739,6|0,2:2|0:0,0:0:0:0:
291,284,78444,1,10,0:0:0:0:
166,124,78616,1,2,0:0:0:0:
258,1,78787,21,2,2:0:0:0:
300,67,78959,1,2,2:0:0:0:
363,29,79130,1,2,2:0:0:0:
225,252,79301,86,0,P|132:271|53:362,1,191.250007295609,6|0,0:0|0:0,0:0:0:0:
53,372,79644,1,2,0:0:0:0:
91,212,79816,1,10,0:0:0:0:
66,84,79987,1,2,0:0:0:0:
9,147,80159,21,6,3:0:0:0:
15,153,80244,1,0,3:0:0:0:
16,147,80330,1,0,3:0:0:0:
23,151,80416,1,0,3:0:0:0:
57,188,80501,1,8,0:0:0:0:
107,194,80587,1,8,0:0:0:0:
142,156,80673,1,8,0:0:0:0:
193,158,80759,1,8,0:0:0:0:
232,190,80844,86,0,B|277:150|277:150|251:66,1,127.500004863739,6|0,0:0|2:0,0:0:0:0:
512,27,81187,1,10,0:0:0:0:
412,6,81359,1,4,0:3:0:0:
311,22,81530,1,8,0:0:0:0:
209,34,81701,1,4,0:3:0:0:
108,14,81873,1,8,0:0:0:0:
9,39,82044,1,0,3:0:0:0:
14,44,82130,1,0,3:0:0:0:
11,49,82216,21,14,0:0:0:0:
224,105,82387,1,6,0:3:0:0:
284,56,82559,1,8,0:0:0:0:
498,116,82730,1,6,0:3:0:0:
412,291,82901,2,0,B|398:230|398:230|459:189,1,127.500004863739,10|0,0:0|3:0,0:0:0:0:
467,200,83159,1,0,3:0:0:0:
444,216,83244,1,8,0:2:0:0:
398,210,83330,1,8,0:2:0:0:
357,173,83416,1,8,0:2:0:0:
337,129,83501,1,8,0:2:0:0:
337,129,83587,86,0,L|361:35,1,63.7500024318696,12|0,0:0|0:0,0:0:0:0:
308,333,83759,1,2,0:0:0:0:
308,333,83930,1,2,2:0:0:0:
152,252,84101,22,0,L|128:346,1,63.7500024318696,14|0,0:0|0:0,0:0:0:0:
180,51,84273,1,10,0:0:0:0:
180,51,84444,1,2,2:0:0:0:
360,252,84616,86,0,L|384:346,1,63.7500024318696,14|0,0:0|0:0,0:0:0:0:
332,51,84788,1,10,0:0:0:0:
332,51,84959,1,2,2:0:0:0:
176,132,85130,22,0,L|152:38,1,63.7500024318696,14|0,0:0|0:0,0:0:0:0:
209,333,85302,1,10,0:0:0:0:
209,333,85473,1,2,2:0:0:0:
30,252,85644,85,12,3:0:0:0:
482,132,85987,1,2,3:0:0:0:
420,94,86159,1,2,3:0:0:0:
416,168,86330,2,0,P|416:207|421:248,1,76.4999976654053,6|0,2:0|2:0,0:0:0:0:
425,254,86930,1,2,3:0:0:0:
434,230,87016,1,8,2:0:0:0:
429,178,87101,1,8,2:0:0:0:
402,122,87187,1,8,2:0:0:0:
341,108,87273,1,8,2:0:0:0:
332,112,87359,6,8,L|339:89,1,12.7499996109009
237,9,87530,2,8,L|230:32,1,12.7499996109009
145,125,87701,54,0,L|268:107,1,101.999996887207,6|0,0:0|2:0,0:0:0:0:
32,41,88044,1,10,0:0:0:0:
106,56,88216,1,8,0:0:0:0:
376,205,88387,2,0,B|287:181|308:254|218:231,1,152.999995330811,6|0,2:0|0:0,0:0:0:0:
207,217,88730,2,0,B|179:263|179:263|219:318,1,101.999996887207,8|0,0:0|0:0,0:0:0:0:
489,205,89073,6,0,P|482:119|476:0,1,203.999993774414,6|8,0:3|0:0,0:0:0:0:
207,301,89587,2,0,P|202:199|194:97,1,203.999993774414,6|0,0:3|3:0,0:0:0:0:
339,204,90101,2,0,P|394:172|349:131,1,101.999996887207,10|0,0:0|0:0,0:0:0:0:
95,287,90444,102,0,P|86:245|66:170,1,101.999996887207,4|0,0:2|2:0,0:0:0:0:
215,301,90787,1,8,0:0:0:0:
176,13,90959,2,0,P|161:79|82:114,1,152.999995330811,2|0,3:1|2:0,0:0:0:0:
53,100,91301,1,8,0:2:0:0:
209,176,91473,1,8,0:0:0:0:
148,346,91644,1,8,0:0:0:0:
1,267,91816,6,0,B|42:234|42:234|96:261,1,101.999996887207,6|0,0:0|2:0,0:0:0:0:
2,168,92159,1,8,0:0:0:0:
365,255,92330,2,0,B|324:288|324:288|270:261,1,101.999996887207,6|0,0:0|2:0,0:0:0:0:
364,354,92673,1,6,3:0:0:0:
169,46,92844,101,12,0:0:0:0:
169,46,93187,2,0,P|173:148|193:238,1,152.999995330811,4|0,0:0|0:0,0:0:0:0:
179,231,93530,2,0,L|280:174,1,101.999996887207,8|0,0:2|0:0,0:0:0:0:
390,105,93873,2,0,P|404:173|412:331,1,203.999993774414,2|8,3:1|0:2,0:0:0:0:
493,305,94387,1,8,0:2:0:0:
230,362,94559,6,0,P|285:339|299:275,1,101.999996887207,6|0,0:2|2:0,0:0:0:0:
322,196,94901,1,8,0:0:0:0:
94,274,95073,102,0,P|152:294|196:277,1,101.999996887207,6|0,0:2|2:0,0:0:0:0:
322,196,95416,1,6,3:0:0:0:
34,123,95587,5,10,0:0:0:0:
49,166,95673,1,8,0:2:0:0:
88,190,95759,1,8,0:2:0:0:
133,188,95844,1,8,0:2:0:0:
166,155,95930,101,6,0:2:0:0:
62,32,96101,1,6,0:2:0:0:
207,81,96273,1,14,0:0:0:0:
207,81,96444,1,8,0:0:0:0:
18,209,96616,5,14,0:0:0:0:
168,314,96787,1,10,0:0:0:0:
99,345,96959,1,2,3:1:0:0:
84,172,97130,1,10,1:0:0:0:
262,206,97301,101,6,0:2:0:0:
327,334,97473,1,2,0:2:0:0:
262,291,97644,1,8,0:0:0:0:
262,291,97816,1,8,0:0:0:0:
346,173,97987,5,8,0:2:0:0:
372,157,98073,1,8,0:2:0:0:
368,121,98159,1,8,0:2:0:0:
393,104,98244,1,8,0:2:0:0:
393,104,98330,2,0,L|369:36,1,50.9999984436036,0|0,3:0|3:0,3:0:0:0:
490,99,98501,2,0,L|466:31,1,50.9999984436036,0|0,3:0|3:0,3:0:0:0:
264,16,98673,5,6,0:0:0:0:
232,115,98844,1,8,0:2:0:0:
284,221,99016,1,8,0:2:0:0:
284,221,99187,1,8,0:2:0:0:
226,352,99359,5,10,0:0:0:0:
353,152,99530,1,10,0:0:0:0:
155,41,99701,1,10,0:0:0:0:
0,209,99873,2,0,B|90:229|90:229|113:259|113:259|210:278,1,203.999993774414,6|0,0:0|3:0,0:0:0:0:
283,171,100387,1,10,3:1:0:0:
235,34,100559,1,8,3:2:0:0:
121,145,100730,2,0,B|174:159|174:159|226:117,1,101.999996887207,2|0,3:0|3:0,0:0:0:0:
396,60,101073,2,0,B|343:46|343:46|291:88,1,101.999996887207,2|0,3:0|2:0,0:0:0:0:
299,276,101416,6,0,P|311:316|319:351,1,63.7500024318696,4|0,0:0|2:0,0:0:0:0:
391,319,101759,1,0,0:0:0:0:
467,170,101930,1,0,0:0:0:0:
500,242,102273,1,0,0:0:0:0:
359,240,102444,1,0,0:0:0:0:
390,170,102787,1,0,0:0:0:0:
468,338,102959,1,0,0:0:0:0:
404,309,103130,1,0,0:0:0:0:
434,238,103301,1,0,0:0:0:0:
124,325,103473,102,0,L|50:362,1,63.7500024318696,8|8,0:0|3:2,0:0:0:0:
388,59,103816,2,0,L|462:22,1,63.7500024318696,6|8,0:0|0:0,0:0:0:0:
240,29,104159,37,14,3:2:0:0:
304,128,104330,1,8,3:2:0:0:
239,247,104501,1,8,3:2:0:0:
313,346,104673,1,8,3:2:0:0:
313,346,105187,2,0,P|320:305|329:284,1,63.7500024318696
400,256,105530,1,0,0:0:0:0:
188,76,105701,2,0,P|181:117|172:138,2,63.7500024318696
238,18,106216,1,0,0:0:0:0:
277,199,106387,1,0,0:0:0:0:
120,261,106559,1,0,0:0:0:0:
60,101,106730,1,0,0:0:0:0:
277,199,106901,6,0,P|287:262|291:328,1,127.500004863739
444,251,107416,2,0,P|434:188|430:122,1,127.500004863739
469,360,107930,2,0,P|442:339|409:339,1,63.7500024318696
364,274,108273,1,0,0:0:0:0:
150,342,108444,102,0,B|184:345|184:345|213:312,1,63.7500024318696
274,183,108787,1,0,0:0:0:0:
230,98,108959,1,0,0:0:0:0:
259,24,109130,1,0,0:0:0:0:
111,95,109301,1,0,0:0:0:0:
111,95,109644,6,0,L|141:152,1,63.7500024318696
191,214,109987,1,0,0:0:0:0:
129,339,110159,2,0,L|169:266,1,63.7500024318696
191,214,110501,1,0,0:0:0:0:
458,172,110673,102,0,P|424:179|412:183,1,38.2499988327027,6|0,0:3|2:0,0:0:0:0:
483,145,111016,69,8,3:0:0:0:
191,214,111187,2,0,P|300:231|376:301,1,187.000005706787,4|0,1:0|0:0,0:0:0:0:
203,331,111701,1,8,3:0:0:0:
157,148,111873,1,2,3:0:0:0:
340,116,112044,1,2,3:0:0:0:
340,116,112216,1,0,3:0:0:0:
96,346,112387,70,0,B|125:320|125:320|111:269,1,76.4999976654053,4|0,0:0|2:0,0:0:0:0:
49,256,112730,1,2,0:0:0:0:
26,329,112901,1,8,0:0:0:0:
100,351,113073,1,2,2:0:0:0:
255,179,113244,2,0,P|221:108|130:114,1,152.999995330811
96,8,113759,6,0,P|87:51|76:81,1,76.4999976654053
7,111,114101,1,0,0:0:0:0:
205,246,114273,2,0,P|214:290|230:339,1,76.4999976654053,10|0,0:0|0:0,0:0:0:0:
376,328,114616,2,0,P|367:284|351:235,1,76.4999976654053,2|8,0:0|0:0,0:0:0:0:
456,344,114959,1,0,0:0:0:0:
251,201,115130,102,0,B|226:174|226:174|234:128,1,76.4999976654053,6|0,0:2|0:0,0:0:0:0:
371,36,115473,1,0,0:0:0:0:
479,115,115644,1,10,0:0:0:0:
386,128,115816,1,0,0:0:0:0:
457,23,115987,1,0,0:0:0:0:
439,202,116159,1,0,0:0:0:0:
297,106,116330,1,0,0:0:0:0:
197,301,116501,6,0,L|284:281,1,76.4999976654053
309,348,116844,1,0,0:0:0:0:
11,189,117016,2,0,P|84:194|153:260,1,152.999995330811,10|0,0:0|0:0,0:0:0:0:
143,243,117530,2,0,P|149:200|161:169,1,76.4999976654053,10|0,0:0|0:0,0:0:0:0:
289,46,117873,101,0,0:0:0:0:
213,10,118044,1,0,0:0:0:0:
202,14,118130,1,0,0:0:0:0:
208,23,118216,1,0,0:0:0:0:
275,174,118387,1,10,0:0:0:0:
163,172,118559,2,0,L|183:256,1,76.4999976654053,2|0,2:0|0:0,0:0:0:0:
177,346,118901,1,8,0:0:0:0:
258,310,119073,1,0,0:0:0:0:
11,323,119244,6,0,B|37:293|37:293|89:309,1,76.4999976654053,2|0,0:0|0:0,0:0:0:0:
177,346,119587,1,0,0:0:0:0:
254,62,119759,2,0,P|179:68|95:119,1,152.999995330811,10|0,0:0|0:0,0:0:0:0:
46,137,120273,1,8,0:0:0:0:
5,72,120444,1,8,0:0:0:0:
305,220,120616,102,0,B|371:255|371:255|372:260|372:260|463:310,1,165.749992412568,4|0,0:0|0:0,0:0:0:0:
444,311,120959,2,0,L|387:276,1,55.2499974708558,8|0,0:0|0:0,0:0:0:0:
125,368,121130,6,0,B|161:302|161:302|166:301|166:301|217:211,1,165.749992412568,4|0,0:0|0:0,0:0:0:0:
218,230,121473,2,0,L|182:286,1,55.2499974708558,8|0,0:0|0:0,0:0:0:0:
59,63,121644,102,0,B|125:98|125:98|126:103|126:103|217:153,1,165.749992412568,4|0,0:0|0:0,0:0:0:0:
198,154,121987,2,0,L|141:119,1,55.2499974708558,8|0,0:0|0:0,0:0:0:0:
380,0,122158,6,0,B|343:65|343:65|338:66|338:66|287:156,1,165.749992412568,4|0,0:0|0:0,0:0:0:0:
287,138,122501,2,0,L|322:81,1,55.2499974708558,8|0,0:0|0:0,0:0:0:0:
270,302,122673,101,14,3:0:0:0:
113,214,122844,1,0,3:0:0:0:
218,60,123016,1,0,3:0:0:0:
384,180,123187,1,0,3:0:0:0:
143,327,123359,21,4,0:0:0:0:
222,197,123530,1,0,0:0:0:0:
256,262,123701,1,10,0:0:0:0:
103,266,123873,1,0,0:0:0:0:
245,355,124044,5,10,0:0:0:0:
90,130,124216,2,0,B|60:152|60:152|28:367,1,220.999989883423,2|0,0:0|0:0,0:0:0:0:
38,346,124644,1,2,0:0:0:0:
50,332,124730,101,8,0:0:0:0:
235,167,124901,1,2,0:0:0:0:
395,230,125073,5,8,0:0:0:0:
210,65,125244,1,2,0:0:0:0:
442,9,125416,102,0,L|400:79,1,55.2499974708558,6|0,0:0|0:0,0:0:0:0:
387,65,125587,2,0,L|326:49,1,55.2499974708558,10|0,0:0|0:0,0:0:0:0:
336,58,125759,6,0,L|364:10,1,55.2499974708558,10|0,0:0|0:0,0:0:0:0:
391,2,125930,2,0,L|444:16,1,55.2499974708558,10|0,0:0|0:0,0:0:0:0:
425,161,126101,101,6,3:0:0:0:
250,253,126273,1,0,0:0:0:0:
383,288,126444,1,14,0:0:0:0:
289,120,126616,1,2,0:0:0:0:
460,242,126787,5,14,0:0:0:0:
35,165,126959,2,0,B|66:120|66:120|257:180,1,220.999989883423,2|0,3:1|3:0,0:0:0:0:
317,208,127473,1,10,0:0:0:0:
351,224,127559,1,0,3:0:0:0:
323,244,127644,1,0,3:0:0:0:
336,250,127730,1,8,3:0:0:0:
332,261,127816,1,0,3:0:0:0:
332,261,127901,1,0,0:0:0:0:
356,293,127987,101,0,0:0:0:0:
294,270,128073,1,8,3:0:0:0:
250,292,128159,1,8,3:0:0:0:
246,341,128244,1,8,3:0:0:0:
272,369,128330,1,0,3:0:0:0:
308,372,128416,1,0,3:0:0:0:
322,362,128501,1,12,3:0:0:0:
452,141,128844,21,6,3:2:0:0:
452,141,129016,1,0,0:0:0:0:
494,116,129187,2,0,P|466:107|425:83,1,59.4999981842042,2|2,0:0|0:2,0:0:0:0:
329,184,129530,2,0,P|351:154|369:68,1,118.999996368408,8|2,0:0|0:2,0:0:0:0:
490,195,130044,1,0,3:0:0:0:
395,256,130216,6,0,P|400:227|434:182,1,59.4999981842042
329,286,130559,2,0,P|311:309|285:323,1,59.4999981842042,4|2,3:0|0:2,0:0:0:0:
391,331,130901,2,0,P|418:338|506:381,1,118.999996368408,8|0,0:0|0:0,0:0:0:0:
273,209,131587,101,2,3:0:0:0:
211,189,131759,1,0,0:0:0:0:
137,199,131930,1,2,0:2:0:0:
62,223,132101,1,2,0:2:0:0:
12,209,132273,2,0,P|10:180|27:91,1,118.999996368408,8|2,0:0|0:2,0:0:0:0:
110,38,132787,5,2,0:3:0:0:
132,43,132873,1,2,0:3:0:0:
153,47,132959,1,4,3:0:0:0:
274,209,133301,1,6,0:3:0:0:
445,99,133644,1,8,0:0:0:0:
485,54,133816,1,2,0:2:0:0:
409,40,133987,1,10,0:0:0:0:
512,138,134159,1,10,0:0:0:0:
323,90,134330,70,0,B|221:61|249:111|140:83,1,170,4|8,0:0|0:0,0:0:0:0:
70,57,134844,1,2,0:3:0:0:
185,188,135016,2,0,P|223:175|293:173,1,85,2|2,2:0|0:3,0:0:0:0:
75,287,135359,2,0,P|68:256|70:197,1,85,8|2,0:0|0:3,0:0:0:0:
325,275,135701,38,0,P|276:256|176:314,1,170,2|8,3:1|0:0,0:0:0:0:
179,384,136216,1,0,0:0:0:0:
242,351,136387,1,2,0:2:0:0:
100,280,136559,1,2,0:3:0:0:
109,351,136730,1,8,0:0:0:0:
252,242,136901,1,2,0:3:0:0:
232,233,136987,1,2,0:3:0:0:
209,223,137073,69,6,0:2:0:0:
144,193,137244,1,0,3:0:0:0:
207,132,137416,37,8,1:0:0:0:
288,170,137587,1,2,0:2:0:0:
324,267,137759,69,8,0:0:0:0:
218,306,137930,1,2,0:2:0:0:
365,202,138101,37,8,0:0:0:0:
509,264,138273,1,2,0:3:0:0:
324,267,138444,70,0,L|312:97,1,170,14|12,0:0|0:0,0:0:0:0:
412,14,138959,1,2,3:0:0:0:
317,26,139130,5,8,0:0:0:0:
271,32,139216,1,8,0:0:0:0:
232,45,139301,1,0,3:0:0:0:
189,50,139387,1,0,3:0:0:0:
173,46,139473,101,8,0:0:0:0:
151,56,139559,1,8,3:0:0:0:
136,53,139644,1,8,3:0:0:0:
128,58,139730,1,8,3:0:0:0:
119,53,139816,37,6,2:1:0:0:
46,77,139987,1,2,2:1:0:0:
35,150,140159,1,2,2:1:0:0:
103,176,140330,1,2,2:1:0:0:
143,243,140501,1,10,2:1:0:0:
105,302,140673,1,0,3:0:0:0:
60,315,140759,1,0,3:0:0:0:
24,283,140844,1,8,3:0:0:0:
200,311,141016,70,0,B|305:277|305:277|390:366,1,216.750004134178,6|0,0:0|0:0,0:0:0:0:
398,374,141359,5,8,3:2:0:0:
450,363,141444,1,8,3:2:0:0:
502,353,141530,1,8,3:2:0:0:
506,235,141701,5,8,3:2:0:0:
459,227,141787,1,8,3:2:0:0:
480,209,141873,22,0,L|517:214,1,31.875,6|0,0:2|2:0,0:0:0:0:
439,277,142216,6,0,L|415:280,1,21.25,2|0,0:2|2:0,0:0:0:0:
439,277,142559,54,0,P|441:242|425:66,1,191.250007295609,6|0,0:0|2:0,0:0:0:0:
407,49,142901,1,8,1:0:0:0:
189,117,143073,2,0,P|173:174|176:261,1,127.500004863739,6|0,0:3|3:0,0:0:0:0:
295,365,143416,21,4,0:3:0:0:
249,301,143587,1,8,0:0:0:0:
192,352,143759,1,4,0:3:0:0:
389,347,143930,86,0,P|419:354|531:393,1,127.500004863739,6|4,0:2|0:3,0:0:0:0:
378,276,144273,1,8,0:0:0:0:
512,151,144444,2,0,B|427:110|427:110|321:191,1,191.250007295609,6|0,0:3|0:0,0:0:0:0:
299,196,144787,21,6,0:3:0:0:
157,302,144959,1,8,0:0:0:0:
1,215,145130,1,6,0:3:0:0:
223,329,145301,86,0,L|52:354,1,127.500004863739,6|4,0:2|0:3,0:0:0:0:
1,292,145644,1,8,0:0:0:0:
97,257,145816,1,4,0:3:0:0:
272,258,145987,21,0,3:0:0:0:
337,361,146159,1,6,0:3:0:0:
200,245,146330,85,8,0:0:0:0:
373,169,146501,1,6,0:3:0:0:
247,16,146673,22,0,P|247:70|260:155,1,127.500004863739,6|4,1:2|0:3,0:0:0:0:
317,350,147016,1,8,0:0:0:0:
337,272,147187,1,6,0:3:0:0:
263,293,147359,1,2,3:2:0:0:
317,350,147530,1,6,0:3:0:0:
469,240,147701,85,8,3:2:0:0:
461,170,147787,1,8,3:2:0:0:
457,119,147873,1,8,3:2:0:0:
453,76,147959,1,8,3:2:0:0:
461,62,148044,22,0,P|425:55|248:127,1,191.250007295609,6|0,0:0|2:0,0:0:0:0:
268,112,148387,2,0,P|275:166|356:169,1,127.500004863739,8|6,0:0|0:3,0:0:0:0:
24,186,148730,86,0,P|54:190|166:231,1,127.500004863739,2|6,0:2|0:3,0:0:0:0:
280,315,149073,2,0,P|266:361|189:368,1,127.500004863739,10|4,0:0|0:3,0:0:0:0:
486,255,149416,22,0,P|451:257|359:282,1,127.500004863739,2|6,0:0|0:3,0:0:0:0:
200,342,149759,2,0,P|231:375|319:355,1,127.500004863739,10|4,0:0|0:3,0:0:0:0:
254,66,150101,86,0,L|267:206,1,127.500004863739,2|6,0:2|0:3,0:0:0:0:
254,198,150444,2,0,L|266:66,1,127.500004863739,8|4,0:0|0:3,0:0:0:0:
304,3,150787,21,6,1:2:0:0:
346,173,150959,1,6,0:3:0:0:
224,4,151130,1,8,0:0:0:0:
416,136,151301,1,4,0:3:0:0:
204,240,151473,1,0,0:0:0:0:
204,240,151559,1,8,0:0:0:0:
186,162,151730,1,2,3:0:0:0:
186,162,151816,1,12,0:2:0:0:
209,84,151987,1,6,3:0:0:0:
124,224,152159,85,12,1:0:0:0:
344,181,152330,1,6,3:0:0:0:
247,315,152501,21,10,0:0:0:0:
85,285,152673,1,6,3:0:0:0:
264,384,152844,85,8,0:0:0:0:
387,294,153016,1,14,0:0:0:0:
510,370,153187,1,8,0:3:0:0:
479,380,153273,1,8,0:3:0:0:
463,359,153359,1,8,0:3:0:0:
438,365,153444,1,8,0:3:0:0:
384,384,153530,22,0,B|340:293|499:309|398:177,1,191.250007295609,6|0,0:0|2:0,0:0:0:0:
373,184,153873,1,8,0:0:0:0:
512,63,154044,2,0,B|468:17|468:17|389:52,1,127.500004863739,6|0,0:3|3:0,0:0:0:0:
120,108,154387,85,6,0:3:0:0:
189,120,154559,1,8,0:0:0:0:
267,131,154730,1,6,0:3:0:0:
19,239,154901,22,0,P|87:212|148:184,1,127.500004863739,2|4,0:0|0:3,0:0:0:0:
289,57,155244,1,8,1:0:0:0:
389,262,155416,85,6,0:3:0:0:
288,203,155587,1,2,0:2:0:0:
231,113,155759,1,6,0:3:0:0:
194,46,155930,1,8,0:0:0:0:
147,27,156101,1,4,0:3:0:0:
354,157,156273,22,0,P|364:242|270:295,1,191.250007295609,2|0,0:2|2:0,0:0:0:0:
237,290,156616,1,8,0:0:0:0:
167,265,156787,1,6,0:3:0:0:
94,288,156959,1,0,3:0:0:0:
227,369,157130,1,6,0:3:0:0:
285,212,157301,1,8,0:0:0:0:
131,120,157473,1,4,0:3:0:0:
14,240,157644,86,0,B|72:254|72:254|141:187,1,127.500004863739,6|4,0:2|2:3,0:0:0:0:
314,102,157987,1,8,1:0:0:0:
459,188,158159,1,6,0:3:0:0:
506,114,158330,1,2,0:0:0:0:
428,78,158501,1,6,0:3:0:0:
355,333,158673,1,12,1:0:0:0:
355,333,159016,22,0,P|411:356|516:385,1,127.500004863739,6|4,0:2|2:3,0:0:0:0:
200,127,159359,2,0,P|144:104|39:75,1,127.500004863739,8|4,0:0|2:3,0:0:0:0:
376,259,159701,86,0,P|373:216|351:86,1,127.500004863739,2|4,0:0|0:3,0:0:0:0:
167,195,160044,2,0,P|169:237|192:368,1,127.500004863739,10|4,0:0|0:3,0:0:0:0:
265,237,160387,22,0,B|277:193|268:156|268:156|260:150|260:150|248:107|269:44,1,191.250007295609,2|0,0:0|2:0,0:0:0:0:
288,11,160730,1,8,0:0:0:0:
338,112,160901,1,4,0:3:0:0:
512,49,161073,2,0,B|455:23|455:23|389:89,1,127.500004863739,2|6,0:2|0:3,0:0:0:0:
370,245,161416,2,0,L|505:265,1,127.500004863739,8|6,0:0|0:3,0:0:0:0:
175,162,161759,86,0,P|119:170|42:186,1,127.500004863739,6|6,0:2|0:3,0:0:0:0:
0,233,162101,1,8,0:0:0:0:
122,333,162273,1,4,0:3:0:0:
49,311,162444,21,2,2:0:0:0:
168,268,162616,85,6,2:3:0:0:
377,251,162787,21,10,1:0:0:0:
512,344,162959,86,0,B|415:297|396:397|307:374,1,191.250007295609,2|0,0:0|2:0,0:0:0:0:
315,372,163301,1,6,0:3:0:0:
289,308,163473,1,8,0:0:0:0:
326,237,163644,1,4,0:3:0:0:
347,159,163816,21,8,0:0:0:0:
343,135,163901,1,0,0:0:0:0:
312,126,163987,1,0,0:0:0:0:
294,140,164073,1,0,0:0:0:0:
303,157,164159,1,8,0:0:0:0:
332,129,164244,1,8,0:0:0:0:
375,114,164330,1,8,0:0:0:0:
420,79,164416,1,8,0:0:0:0:
451,26,164501,86,0,L|281:6,1,127.500004863739,6|0,0:0|3:0,0:0:0:0:
51,49,164844,21,8,1:0:0:0:
100,27,165016,1,12,3:3:0:0:
57,120,165187,1,8,0:0:0:0:
160,70,165359,1,12,3:3:0:0:
53,196,165530,1,8,0:0:0:0:
195,319,165701,85,8,3:0:0:0:
221,324,165787,1,8,3:0:0:0:
247,329,165873,1,8,0:0:0:0:
325,301,166044,1,4,3:0:0:0:
305,216,166216,21,8,1:0:0:0:
442,259,166387,1,6,3:3:0:0:
360,151,166559,85,8,0:0:0:0:
427,346,166730,1,2,3:0:0:0:
427,346,166816,1,2,3:0:0:0:
427,346,166901,1,10,0:0:0:0:
360,151,167073,1,8,3:0:0:0:
462,112,167244,22,0,P|465:140|453:205,1,63.7500024318696,14|0,0:0|0:0,0:0:0:0:
426,236,167416,1,10,0:0:0:0:
426,236,167587,1,6,3:0:0:0:
166,50,167759,86,0,P|195:38|227:33,1,63.7500024318696,14|0,0:0|0:0,0:0:0:0:
301,53,167930,1,10,0:0:0:0:
301,53,168101,1,6,3:0:0:0:
426,236,168273,22,0,P|399:250|345:261,1,63.7500024318696,14|0,0:0|0:0,0:0:0:0:
294,265,168444,1,10,0:0:0:0:
294,265,168616,1,6,0:3:0:0:
379,15,168787,86,0,P|395:40|414:101,1,63.7500024318696,14|0,0:0|0:0,0:0:0:0:
384,146,168959,1,10,0:0:0:0:
384,146,169130,1,6,0:3:0:0:
219,232,169301,37,8,3:2:0:0:
210,222,169416,5,8,3:2:0:0:
200,232,169530,21,8,3:2:0:0:
147,213,169644,101,8,3:2:0:0:
77,242,169759,37,8,3:2:0:0:
1,220,169873,101,8,3:2:0:0:
0,130,169987,38,0,B|100:1|320:125|155:192|365:324|475:247,1,561.000017120362,6|2,0:0|2:0,2:0:0:0:
473,248,172730,2,0,B|373:377|153:253|318:186|108:54|-2:131,1,561.000017120362,6|2,0:0|2:0,2:0:0:0:
110,316,174787,85,8,0:0:0:0:
158,355,174901,21,8,3:2:0:0:
227,351,175016,69,8,3:2:0:0:
286,298,175130,5,8,3:2:0:0:
312,254,175244,21,8,0:0:0:0:
375,222,175359,69,8,0:0:0:0:
438,245,175473,5,8,0:0:0:0:
260,62,176844,5,8,0:0:0:0:
210,37,177016,2,0,L|212:54,1,17,0|0,3:0|2:0,0:0:0:0:
254,321,177530,21,8,0:0:0:0:
298,348,177701,2,0,L|304:330,1,17,0|0,3:0|0:0,0:0:0:0:
256,187,178216,86,0,L|250:189,14,4.25,2|0|2|0|2|0|2|0|4|0|2|0|2|0|2,2:0|2:0|2:3|2:0|2:3|2:0|2:0|2:0|1:3|1:0|1:2|1:0|1:3|1:0|1:3,2:0:0:0:
289,161,179587,85,8,1:0:0:0:
134,288,179759,2,0,B|238:364|238:364|370:308,1,255.000009727478,6|0,0:0|3:0,0:0:0:0:
215,211,180273,5,8,1:0:0:0:
384,66,180444,2,0,B|280:-10|280:-10|163:39,1,255.000009727478,6|0,0:0|3:0,0:0:0:0:
0,208,180959,101,12,3:0:0:0:
0,208,181044,1,8,3:0:0:0:
0,208,181130,1,8,3:0:0:0:
90,102,181301,2,0,L|211:116,1,110.499994941712,8|8,3:0|3:0,0:0:0:0:
210,128,181530,2,0,L|217:175,2,36.8333316472372,0|0|12,3:0|3:0|1:0,3:0:0:0:
110,173,181816,1,2,3:0:0:0:
238,250,181987,1,2,3:0:0:0:
238,250,182073,1,2,3:0:0:0:
238,250,182159,1,0,3:0:0:0:
353,157,182330,53,6,0:0:0:0:
308,215,182501,1,0,3:0:0:0:
378,256,182673,1,0,3:0:0:0:
378,256,182844,1,2,3:0:0:0:
245,166,183016,53,12,1:0:0:0:
245,166,183101,1,0,0:0:0:0:
245,166,183187,1,0,3:0:0:0:
190,326,183359,1,0,3:0:0:0:
190,326,183444,1,0,3:0:0:0:
190,326,183530,1,0,3:0:0:0:
407,326,183701,53,6,0:0:0:0:
378,256,183873,1,0,3:0:0:0:
319,306,184044,1,0,3:0:0:0:
460,270,184216,1,0,3:0:0:0:
460,270,184301,1,0,3:0:0:0:
460,270,184387,1,12,1:0:0:0:
359,184,184559,1,2,3:1:0:0:
415,339,184730,1,0,3:0:0:0:
415,339,184816,1,0,3:0:0:0:
415,339,184901,1,0,3:0:0:0:
437,150,185073,6,0,P|440:133|459:93,1,57.374998249054,6|0,0:2|2:0,0:0:0:0:
472,83,185416,1,2,0:3:0:0:
512,10,185587,1,2,1:0:0:0:
437,150,185759,38,0,P|385:32|266:61,1,255.000009727478,14|12,0:0|3:0,0:0:0:0:
278,47,186444,53,6,3:2:0:0:
189,71,186616,1,0,3:0:0:0:
110,111,186787,1,0,3:0:0:0:
30,136,186959,1,0,3:0:0:0:
30,136,187044,1,0,3:0:0:0:
30,136,187130,1,12,1:0:0:0:
120,154,187301,1,0,0:0:0:0:
204,205,187473,1,0,3:0:0:0:
204,205,187559,1,0,3:0:0:0:
204,205,187644,1,0,3:0:0:0:
367,285,187816,53,4,3:0:0:0:
290,230,187987,1,0,3:0:0:0:
250,301,188159,53,0,3:1:0:0:
367,209,188330,1,0,3:0:0:0:
190,252,188501,53,12,1:0:0:0:
190,252,188587,1,0,1:0:0:0:
190,252,188673,1,0,1:0:0:0:
363,371,188844,1,8,3:0:0:0:
363,371,188930,1,8,3:0:0:0:
363,371,189016,1,8,3:0:0:0:
512,263,189187,5,6,0:0:0:0:
418,162,189359,1,2,0:0:0:0:
269,294,189530,1,2,0:0:0:0:
328,218,189701,2,2,B|194:136|192:276|61:239,1,255.000009727478,10|0,0:0|2:0,0:0:0:0:
24,226,190216,101,6,0:0:0:0:
153,331,190387,1,2,0:0:0:0:
259,166,190559,1,2,0:0:0:0:
176,97,190730,2,0,B|307:17|310:175|431:143,1,255.000009727478,10|0,0:0|2:0,0:0:0:0:
471,113,191244,5,2,0:0:0:0:
386,229,191416,1,2,0:0:0:0:
260,111,191587,1,2,0:0:0:0:
391,158,191759,1,10,1:0:0:0:
290,221,191930,101,6,0:0:0:0:
260,231,192016,1,2,0:0:0:0:
230,241,192101,1,2,0:0:0:0:
329,292,192273,1,2,0:0:0:0:
465,193,192444,2,0,B|355:129|355:129|245:211,1,255.000009727478,8|8,0:0|0:0,0:0:0:0:
45,261,192959,5,6,0:0:0:0:
159,188,193130,1,2,0:0:0:0:
114,276,193301,1,2,0:0:0:0:
30,107,193473,2,0,B|140:43|140:43|250:125,1,255.000009727478,10|8,0:0|0:0,0:0:0:0:
386,208,193987,102,0,L|314:196,1,63.7500024318696,2|0,0:0|2:0,0:0:0:0:
193,175,194159,2,0,L|113:184,1,63.7500024318696,2|0,0:0|2:0,0:0:0:0:
30,107,194330,54,0,P|31:123|21:206,1,95.6250036478044,2|0,3:1|2:0,0:0:0:0:
0,264,194673,69,6,0:0:0:0:
30,349,194844,1,2,0:0:0:0:
186,205,195016,101,14,0:0:0:0:
136,346,195187,1,4,0:3:0:0:
246,162,195359,2,0,P|276:150|478:193,1,223.125002127886,14|0,0:0|0:0,0:0:0:0:
512,236,195701,5,6,0:2:0:0:
424,276,195873,1,2,0:0:0:0:
296,222,196044,101,14,0:0:0:0:
430,348,196216,1,0,0:0:0:0:
220,230,196387,2,0,P|184:222|7:284,1,223.125002127886,14|0,0:0|0:0,0:0:0:0:
23,303,196730,6,0,P|29:327|102:323,1,74.3750007092953,10|0,0:0|0:0,0:0:0:0:
290,303,196901,2,0,P|303:261|348:77,1,223.125002127886,6|0,0:0|0:0,0:0:0:0:
381,22,197244,22,2,B|415:20|415:20|432:79,1,74.3750007092953,2|2,2:3|2:3,2:3:0:0:
512,320,197416,70,0,P|476:306|391:214,1,165.750000632286,6|2,0:0|0:0,0:0:0:0:
284,51,197759,1,10,0:0:0:0:
463,182,197930,1,2,0:0:0:0:
206,96,198101,2,0,P|180:119|-6:236,1,248.625000948429,10|0,0:0|0:0,0:0:0:0:
7,82,198444,6,0,P|14:110|106:216,1,165.750000632286,10|0,0:0|0:0,0:0:0:0:
343,340,198787,1,10,0:0:0:0:
158,161,198959,1,2,0:0:0:0:
287,380,199130,2,0,P|310:335|154:262,1,248.625000948429,10|0,0:0|2:0,0:0:0:0:
94,309,199473,38,0,P|112:317|140:318,1,42.5,10|0,0:0|2:0,0:0:0:0:
283,81,199644,54,0,P|205:39|68:272,1,414.375001580715,6|0,0:0|2:0,0:0:0:0:
111,335,200159,21,10,0:0:0:0:
172,372,200330,1,2,0:3:0:0:
172,303,200501,1,2,0:3:0:0:
134,375,200673,101,14,0:0:0:0:
248,309,200844,1,2,0:3:0:0:
130,237,201016,1,2,0:3:0:0:
407,227,201187,5,12,0:0:0:0:
343,276,201359,1,2,0:3:0:0:
337,196,201530,1,2,0:3:0:0:
397,279,201701,101,14,0:0:0:0:
252,205,201873,1,2,0:3:0:0:
388,117,202044,1,2,0:3:0:0:
491,306,202216,38,0,P|493:323|419:354,1,85,4|0,3:0|3:0,0:0:0:0:
40,325,202559,6,0,P|60:317|93:316,1,51,2|0,3:1|2:0,0:0:0:0:
118,294,202901,6,0,B|145:354|145:354|258:329,1,127.500004863739,10|0,0:0|2:0,0:0:0:0:
277,230,203130,6,0,B|214:206|214:206|180:278,1,127.500004863739,2|0,2:3|2:0,0:0:0:0:
266,383,203359,102,0,B|323:356|323:356|286:280,1,127.500004863739,4|0,2:3|2:0,0:0:0:0:
172,241,203587,22,0,B|137:286|137:286|214:333,1,127.500004863739,10|0,0:0|2:0,0:0:0:0:
343,211,203816,6,0,B|324:163|324:163|232:213,1,127.500004863739,2|0,2:3|2:0,0:0:0:0:
342,361,204044,102,0,B|406:385|406:385|396:299,1,127.500004863739,4|0,2:3|2:0,0:0:0:0:
492,316,204273,6,0,L|358:342,1,127.500004863739,10|0,0:0|2:0,0:0:0:0:
368,248,204501,22,0,L|242:226,1,127.500004863739,2|0,1:2|2:0,0:0:0:0:
152,352,204730,86,0,L|7:373,1,127.500004863739,4|0,1:3|2:0,0:0:0:0:
152,352,204959,102,0,L|208:364,1,42.5000016212464,14|0,0:2|2:0,0:0:0:0:
368,248,205187,38,0,L|444:264,1,42.5000016212464,14|0,0:2|2:0,0:0:0:0:
0,197,205416,86,2,B|60:213|60:213|62:210|62:210|94:231|94:231|96:228|96:228|168:248,1,170.000006484986,14|0,0:0|2:0,1:0:0:0:
349,40,210959,5,0,0:0:0:0:
349,40,211044,1,0,0:0:0:0:
349,40,211130,2,0,L|438:33,1,63.7500024318696,8|2,0:0|2:3,0:0:0:0:
47,116,211644,22,0,L|144:110,1,85,2|8,2:3|0:0,0:0:0:0:
202,162,211987,1,0,0:0:0:0:
34,128,212159,6,0,L|125:121,1,85,8|6,3:0|2:0,0:0:0:0:
422,292,212844,85,8,0:0:0:0:
502,206,213016,2,0,P|466:219|365:133,1,170,2|2,2:0|0:3,0:0:0:0:
262,17,213530,2,0,P|276:25|344:53,1,85,8|0,0:0|0:0,0:0:0:0:
183,57,213873,70,0,P|182:80|147:196,1,127.5,2|0,0:0|2:0,0:0:0:0:
119,199,214216,1,8,0:0:0:0:
189,244,214387,1,2,2:0:0:0:
135,311,214559,1,2,0:2:0:0:
252,280,214730,1,2,2:0:0:0:
356,348,214901,2,0,P|333:352|265:383,1,85,8|0,0:0|0:0,0:0:0:0:
15,339,215244,37,2,0:0:0:0:
122,246,215416,1,2,0:3:0:0:
6,183,215587,1,8,0:0:0:0:
50,266,215759,2,0,P|48:240|68:167,1,85,2|2,0:2|2:0,0:0:0:0:
168,87,216101,2,0,L|257:71,1,85,10|8,0:3|0:0,0:0:0:0:
446,116,216444,70,0,L|378:103,1,42.5,2|8,0:3|0:0,0:0:0:0:
427,124,216616,37,14,0:0:0:0:
470,212,216787,1,2,3:0:0:0:
331,136,216959,69,12,0:0:0:0:
291,268,217130,1,2,3:0:0:0:
119,181,217301,37,8,0:0:0:0:
165,158,217387,1,0,3:0:0:0:
210,166,217473,1,0,3:0:0:0:
235,192,217559,1,0,3:0:0:0:
225,221,217644,2,0,L|164:235,2,42.5,2|2|8,0:3|0:2|3:0,0:0:0:0:
392,187,217987,85,6,0:2:0:0:
310,357,218159,1,8,0:0:0:0:
444,262,218330,1,8,0:0:0:0:
218,178,218501,2,0,B|208:228|208:228|245:275|245:275|234:342,1,170,6|8,0:0|3:0,0:0:0:0:
105,375,219016,1,8,3:1:0:0:
322,262,219187,6,0,L|310:79,1,170,6|0,0:1|3:0,0:0:0:0:
327,34,219616,1,8,0:0:0:0:
325,11,219701,1,6,3:1:0:0:
0,41,219959,101,8,0:0:0:0:
0,41,220044,2,0,B|29:46|68:50|68:50|73:52|73:52|106:129|106:129|113:133|113:133|151:134|215:145,1,255.000009727478,6|4,3:1|0:3,0:0:0:0:
502,224,220730,5,6,2:0:0:0:
502,224,221587,2,0,B|369:142|368:314|243:265,1,276.249987354279,4|0,0:0|2:0,0:0:0:0:
58,314,222101,21,4,2:0:0:0:
58,314,222959,1,6,0:0:0:0:
231,285,223130,1,2,2:0:0:0:
349,257,223301,1,2,2:0:0:0:
504,319,223473,6,0,P|509:328|514:346,1,21.25,6|0,2:3|2:0,2:0:0:0:
6,154,224844,102,0,P|1:123|7:-1,1,127.5,6|0,2:0|2:0,0:0:0:0:
71,13,225187,1,2,0:2:0:0:
90,33,225273,1,0,0:0:0:0:
84,19,225359,1,2,0:0:0:0:
76,27,225444,1,8,0:3:0:0:
91,23,225530,1,8,0:0:0:0:
74,146,225701,1,0,3:0:0:0:
42,244,225873,1,8,3:0:0:0:
42,244,226216,6,0,L|151:232,1,85,4|0,0:2|2:0,0:0:0:0:
140,306,226559,2,0,L|237:289,1,85,8|0,0:0|0:0,0:0:0:0:
242,320,226816,1,0,0:0:0:0:
265,339,226901,2,0,L|365:313,1,85,8|0,0:0|0:0,0:0:0:0:
384,298,227159,1,0,0:0:0:0:
414,295,227244,2,0,L|435:338,1,42.5,10|0,0:0|0:0,0:0:0:0:
494,371,227416,2,0,L|519:319,1,42.5,2|0,0:0|0:0,0:0:0:0:
491,203,227587,69,8,0:0:0:0:
491,203,227673,1,0,0:0:0:0:
491,203,227759,2,0,B|497:221|497:221|502:219|502:219|515:263,1,55.2499974708558,2|0,0:3|0:0,0:0:0:0:
433,84,227930,1,8,0:0:0:0:
433,84,228016,1,0,0:0:0:0:
433,84,228101,2,0,B|433:100|433:100|438:101|438:101|447:151,1,55.2499974708558,2|0,0:3|0:0,0:0:0:0:
433,268,228273,5,8,0:0:0:0:
433,268,228359,1,8,0:2:0:0:
433,268,228444,1,8,0:2:0:0:
389,242,228530,1,8,0:2:0:0:
341,246,228616,1,8,0:0:0:0:
295,274,228701,1,8,0:0:0:0:
238,302,228787,1,8,0:0:0:0:
168,286,228873,1,8,0:0:0:0:
103,239,228959,6,0,L|81:246,3,23.3750007133484,2|0|0|0,2:0|2:0|2:0|2:0,2:0:0:0:
66,182,229301,2,0,L|44:177,3,23.3750007133484,2|0|0|0,2:0|2:0|2:0|2:0,2:0:0:0:
63,107,229644,2,0,L|37:91,3,23.3750007133484,2|0|0|0,2:0|2:0|2:0|2:0,2:0:0:0:
96,23,229987,70,0,B|102:36|102:36|91:32,1,23.3750007133484,2|0,0:0|2:0,0:0:0:0:
96,23,230159,22,0,B|93:10|93:10|105:16,1,23.3750007133484,2|0,0:0|0:0,0:0:0:0:
355,36,230330,85,6,0:2:0:0:
355,36,230416,1,0,0:0:0:0:
355,36,230501,2,0,P|331:48|266:60,1,63.7500024318696,6|0,0:3|0:0,0:0:0:0:
144,177,230673,21,14,0:0:0:0:
144,177,230759,1,0,0:0:0:0:
144,177,230844,2,0,P|155:185|255:189,1,63.7500024318696,6|0,0:3|0:0,0:0:0:0:
378,342,231016,1,14,0:0:0:0:
378,342,231187,86,0,P|349:323|284:310,1,85,6|0,0:3|2:3,0:0:0:0:
178,274,231359,22,0,P|184:292|225:340,1,63.7500024318696,8|8,0:0|0:3,0:0:0:0:
305,382,231530,6,0,P|317:363|330:321,1,42.5,2|8,0:2|0:3,0:0:0:0:
510,189,231701,70,0,P|390:123|313:180,1,191.250007295609,6|0,0:0|2:0,0:0:0:0:
289,179,232044,1,8,0:0:0:0:
115,92,232216,2,0,P|81:77|-13:22,1,127.500004863739,6|0,0:3|3:0,0:0:0:0:
299,34,232559,21,2,2:0:0:0:
213,229,232730,1,8,0:0:0:0:
181,163,232901,1,0,0:0:0:0:
370,99,233073,86,0,P|375:119|431:249,1,127.500004863739,6|0,0:2|2:0,0:0:0:0:
512,361,233416,1,8,0:0:0:0:
319,193,233587,21,2,2:0:0:0:
246,231,233759,1,2,0:2:0:0:
164,242,233930,1,2,0:2:0:0:
52,298,234101,1,8,1:0:0:0:
0,380,234273,1,2,0:2:0:0:
190,173,234444,86,0,P|72:102|1:150,1,191.250007295609,6|0,0:2|2:0,0:0:0:0:
0,180,234787,1,8,0:0:0:0:
247,108,234959,21,2,2:2:0:0:
0,180,235130,85,2,0:0:0:0:
127,264,235301,1,4,0:3:0:0:
267,213,235473,1,8,0:0:0:0:
326,285,235644,1,6,0:3:0:0:
500,261,235816,22,0,B|442:238|442:238|389:293,1,127.500004863739,6|4,0:2|2:3,0:0:0:0:
157,353,236159,1,8,0:0:0:0:
257,384,236330,1,6,0:3:0:0:
88,237,236501,2,0,P|78:261|25:361,1,127.500004863739,2|4,0:0|2:3,0:0:0:0:
189,86,236844,1,12,0:0:0:0:
189,86,237187,86,0,L|26:62,1,127.500004863739,6|4,0:2|0:3,0:0:0:0:
289,19,237530,2,0,L|415:37,1,127.500004863739,10|4,1:0|0:3,0:0:0:0:
169,92,237873,22,0,L|6:68,1,127.500004863739,6|4,0:2|0:3,0:0:0:0:
315,14,238216,2,0,L|441:32,1,127.500004863739,10|4,1:0|0:3,0:0:0:0:
512,277,238559,86,0,P|449:282|340:359,1,191.250007295609,2|0,0:0|0:0,0:0:0:0:
305,367,238901,1,8,0:0:0:0:
167,274,239073,1,6,0:3:0:0:
0,340,239244,2,0,P|26:342|132:397,1,127.500004863739,2|4,2:0|2:3,0:0:0:0:
249,239,239587,2,0,P|266:209|193:191,1,127.500004863739,8|4,0:0|2:3,0:0:0:0:
410,373,239930,22,0,P|412:342|452:218,1,127.500004863739,2|2,0:0|0:3,0:0:0:0:
512,75,240273,1,8,0:0:0:0:
470,130,240444,1,6,0:3:0:0:
198,15,240616,85,2,2:0:0:0:
268,73,240787,1,2,2:0:0:0:
328,11,240959,1,2,2:0:0:0:
9,92,241130,22,0,P|36:92|180:179,1,191.250007295609,2|0,0:0|2:0,0:0:0:0:
201,202,241473,1,2,0:0:0:0:
300,309,241644,1,8,0:0:0:0:
409,376,241816,1,6,0:3:0:0:
502,339,241987,85,8,0:0:0:0:
493,336,242073,1,0,0:0:0:0:
489,342,242159,1,0,0:0:0:0:
479,340,242244,1,0,0:0:0:0:
438,310,242330,1,8,0:0:0:0:
387,292,242416,1,8,0:0:0:0:
339,304,242501,1,8,0:0:0:0:
296,344,242587,1,8,0:0:0:0:
240,372,242673,22,0,L|82:350,1,127.500004863739,6|0,0:0|0:0,0:0:0:0:
24,89,243016,1,10,0:0:0:0:
58,157,243187,1,8,3:0:0:0:
231,252,243359,1,8,0:0:0:0:
159,225,243530,1,8,3:0:0:0:
0,340,243701,1,10,0:0:0:0:
64,293,243873,1,8,3:0:0:0:
59,289,243959,1,8,3:0:0:0:
66,287,244044,85,10,0:0:0:0:
240,370,244216,1,10,3:0:0:0:
285,308,244387,1,8,0:0:0:0:
469,251,244559,1,10,3:0:0:0:
188,219,244730,22,0,B|243:194|243:194|304:234,1,127.500004863739,10|0,0:0|0:0,0:0:0:0:
318,236,244987,1,8,3:0:0:0:
308,194,245073,1,8,0:2:0:0:
323,169,245159,1,8,0:2:0:0:
311,116,245244,1,8,3:0:0:0:
328,60,245330,1,8,3:0:0:0:
300,42,245416,86,0,L|368:32,1,63.7500024318696,14|0,0:0|0:0,0:0:0:0:
137,151,245587,1,14,0:0:0:0:
137,151,245759,1,2,3:0:0:0:
370,107,245930,22,0,L|438:97,1,63.7500024318696,14|0,0:0|0:0,0:0:0:0:
196,254,246101,1,14,0:0:0:0:
196,254,246273,1,2,3:0:0:0:
449,172,246444,86,0,L|517:162,1,63.7500024318696,14|0,0:0|0:0,0:0:0:0:
303,360,246615,1,10,0:0:0:0:
426,357,246787,21,8,3:2:0:0:
426,357,246873,1,8,0:2:0:0:
426,357,246959,2,0,L|332:346,1,63.7500024318696,10|0,3:1|3:0,3:0:0:0:
303,360,247130,2,0,L|216:351,1,63.7500024318696,8|0,3:0|3:0,3:0:0:0:
172,373,247301,2,0,L|70:360,1,63.7500024318696,10|0,3:0|3:0,3:0:0:0:
112,253,247473,85,8,0:0:0:0:
176,217,247559,1,0,3:0:0:0:
247,222,247644,1,0,3:0:0:0:
294,250,247730,1,0,3:0:0:0:
318,292,247816,1,8,3:0:0:0:
320,333,247901,1,0,3:0:0:0:
300,368,247987,1,0,3:0:0:0:
267,379,248073,1,0,3:0:0:0:
205,342,248159,22,0,L|212:306,1,31.8750012159348,6|0,0:0|0:0,0:0:0:0:
476,188,248673,86,0,L|470:140,1,31.8750012159348,6|0,0:0|0:0,0:0:0:0:
40,68,249187,22,0,L|47:22,1,31.8750012159348,6|0,0:0|0:0,0:0:0:0:
249,13,250901,86,0,P|254:37|256:104,1,89.2499972763062,2|8,2:0|0:2,2:0:0:0:
221,142,251587,1,8,0:0:0:0:
315,189,251759,1,8,0:0:0:0:
127,269,251930,1,8,0:0:0:0:
382,353,252101,1,8,0:0:0:0:
94,366,252273,69,4,0:0:0:0:
94,366,252444,2,0,L|322:347,1,203.999993774414,2|0,0:3|0:0,0:0:0:0:
332,361,252873,1,0,0:0:0:0:
382,353,252959,1,12,0:0:0:0:
478,384,253130,1,0,3:0:0:0:
157,266,253473,5,0,0:0:0:0:
128,277,253559,1,0,0:0:0:0:
100,272,253644,2,0,P|88:248|68:196,1,76.4999976654053,6|0,2:0|0:0,0:0:0:0:
8,304,253987,1,0,0:0:0:0:
176,188,254159,102,0,P|198:187|281:220,1,101.999996887207,0|8,0:0|0:0,0:0:0:0:
421,323,254501,6,0,P|439:343|519:383,1,101.999996887207,0|0,3:0|2:0,0:0:0:0:
344,379,255016,101,6,2:0:0:0:
344,379,255187,2,0,P|367:347|427:183,1,203.999993774414
435,178,255616,1,0,3:0:0:0:
423,168,255701,2,0,P|403:154|382:124,1,50.9999984436036,8|0,0:0|0:0,0:0:0:0:
322,165,255873,2,0,P|306:139|295:73,1,50.9999984436036,2|0,3:0|0:0,0:0:0:0:
426,28,256044,1,4,3:0:0:0:
450,22,256130,1,0,3:0:0:0:
473,25,256216,1,0,3:0:0:0:
489,21,256301,1,0,3:0:0:0:
512,53,256387,6,0,P|475:56|311:9,1,203.999993774414,6|8,0:0|0:0,0:0:0:0:
4,130,256901,6,0,P|30:130|207:77,1,203.999993774414,6|8,0:0|0:0,0:0:0:0:
477,204,257416,6,0,P|446:200|306:94,1,191.250007295609,6|0,0:0|2:0,0:0:0:0:
209,8,257759,70,0,P|218:46|219:181,1,152.999995330811,6|0,0:0|0:0,0:0:0:0:
260,186,258101,2,0,L|140:250,1,101.999996887207,8|2,0:0|0:3,0:0:0:0:
0,322,258444,2,0,P|54:319|208:351,1,203.999993774414,2|8,0:0|0:0,0:0:0:0:
296,384,258959,1,0,0:0:0:0:
512,258,259130,6,0,P|474:258|424:322,1,101.999996887207,6|0,2:2|0:0,0:0:0:0:
296,384,259473,1,12,0:0:0:0:
185,232,259644,102,0,P|114:199|63:216,1,101.999996887207,2|8,0:3|3:0,0:0:0:0:
0,244,259901,2,0,P|30:259|154:304,1,152.999995330811,8|8,0:0|0:0,0:0:0:0:
296,384,260330,1,8,0:2:0:0:
296,384,260416,1,8,0:2:0:0:
296,384,260501,5,6,0:2:0:0:
264,311,260673,1,12,0:0:0:0:
211,370,260844,1,10,0:0:0:0:
211,370,261016,1,0,0:0:0:0:
332,249,261187,101,12,0:0:0:0:
265,88,261359,1,6,0:0:0:0:
199,132,261530,1,2,0:3:0:0:
387,190,261701,1,8,0:0:0:0:
512,66,261873,5,8,0:0:0:0:
467,52,261959,1,8,0:2:0:0:
422,38,262044,1,8,0:2:0:0:
384,33,262130,1,8,0:2:0:0:
384,33,262216,2,0,B|388:49|388:49|391:50|391:50|408:96,1,57.3750002188683,8|0,3:0|3:0,0:0:0:0:
387,190,262387,2,0,B|371:186|371:186|370:183|370:183|319:160,1,57.3750002188683,2|0,3:1|3:0,0:0:0:0:
172,104,262559,1,8,0:0:0:0:
172,104,262644,1,0,3:0:0:0:
172,104,262730,2,0,B|162:118|162:118|165:124|165:124|133:178,1,57.3750002188683,8|0,3:0|3:0,0:0:0:0:
34,312,262901,1,8,0:0:0:0:
34,312,263244,1,6,0:0:0:0:
256,192,263330,12,0,267701,2:0:0:0:
47,312,267873,53,8,3:0:0:0:
47,312,267959,1,8,3:0:0:0:
47,312,268044,1,10,3:1:0:0:
165,327,268216,69,2,0:0:0:0:
254,362,268387,5,2,0:0:0:0:
282,384,268559,5,6,0:2:0:0:
