osu file format v14

[General]
AudioFilename: audio.mp3
AudioLeadIn: 0
PreviewTime: 63817
Countdown: 0
SampleSet: Soft
StackLeniency: 0.4
Mode: 0
LetterboxInBreaks: 0
WidescreenStoryboard: 1

[Editor]
Bookmarks: 89215,138304
DistanceSpacing: 0.3
BeatDivisor: 4
GridSize: 4
TimelineZoom: 2.4

[Metadata]
Title:Genjutsu no Crossroad
TitleUnicode:幻術のクロスロード
Artist:Ayane
ArtistUnicode:彩音
Creator:Bellicose
Version:Mariko Sakuragi's Extra
Source:Disorder6
Tags:video game galgame visual novel vn 5pb japanese rock opening full version Mariko Sakuragi HakaseShinonome Mindlessness
BeatmapID:2428598
BeatmapSetID:1155162

[Difficulty]
HPDrainRate:5
CircleSize:5
OverallDifficulty:8
ApproachRate:8
SliderMultiplier:1.9
SliderTickRate:1

[Events]
//Background and Video events
0,0,"bg3453454353453453453.jpg",0,0
//Break Periods
//Storyboard Layer 0 (Background)
//Storyboard Layer 1 (Fail)
//Storyboard Layer 2 (Pass)
//Storyboard Layer 3 (Foreground)
//Storyboard Layer 4 (Overlay)
//Storyboard Sound Samples

[TimingPoints]
604,340.909090909091,4,2,1,50,1,0
604,-133.333333333333,4,2,1,50,0,0
4865,361.44578313253,4,2,1,50,1,0
4865,-133.333333333333,4,2,1,50,0,0
5355,340.909090909091,4,2,1,50,1,0
5355,-100,4,2,1,50,0,0
6036,340.909090909091,4,2,1,60,1,0
6036,-83.3333333333333,4,2,1,50,0,0
17797,-200,4,2,1,50,0,0
18308,-133.333333333333,4,2,1,50,0,0
23422,-100,4,2,1,60,0,0
23763,-100,4,2,1,60,0,0
29217,-133.333333333333,4,2,1,50,0,0
29388,-133.333333333333,4,2,1,50,0,0
34672,-100,4,2,1,60,0,0
40126,-100,4,2,60,60,0,0
40297,-100,4,2,1,50,0,0
40808,-133.333333333333,4,2,1,50,0,0
45581,-100,4,2,1,60,0,0
51036,-100,4,2,1,50,0,0
51717,-133.333333333333,4,2,1,50,0,0
56490,-100,4,2,60,65,0,0
56831,-100,4,2,1,65,0,0
57001,-100,4,2,1,65,0,0
57854,-100,4,2,1,65,0,0
58195,-100,4,2,1,65,0,0
59217,-100,4,2,1,65,0,0
59558,-100,4,2,1,65,0,0
61604,-100,4,2,1,65,0,0
63308,-200,4,2,1,65,0,0
63990,-100,4,2,1,65,0,0
64672,-76.9230769230769,4,2,1,75,0,1
65013,-76.9230769230769,4,2,1,75,0,1
65354,-76.9230769230769,4,2,1,75,0,1
67399,-76.9230769230769,4,2,1,75,0,1
67570,-76.9230769230769,4,2,1,75,0,1
69957,-76.9230769230769,4,2,1,75,0,1
70298,-76.9230769230769,4,2,1,75,0,1
72854,-76.9230769230769,4,2,60,75,0,1
73024,-76.9230769230769,4,2,1,75,0,1
74047,-76.9230769230769,4,2,1,70,0,1
75581,-76.9230769230769,4,2,1,75,0,1
75922,-76.9230769230769,4,2,1,75,0,1
78308,-76.9230769230769,4,2,60,75,0,1
78649,-76.9230769230769,4,2,1,75,0,1
80865,-76.9230769230769,4,2,1,75,0,1
81206,-76.9230769230769,4,2,1,75,0,1
82229,-76.9230769230769,4,2,60,75,0,1
82570,-76.9230769230769,4,2,1,75,0,1
83763,-100,4,2,1,75,0,1
86490,-133.333333333333,4,2,1,75,0,0
88536,-100,4,2,1,75,0,0
89217,-100,4,2,1,60,0,0
91945,-100,4,2,1,55,0,0
97399,-100,4,2,1,60,0,0
102854,-100,4,2,1,55,0,0
108308,-100,4,2,1,60,0,0
113763,-100,4,2,60,60,0,0
113933,-100,4,2,1,50,0,0
114445,-133.333333333333,4,2,1,50,0,0
119217,-100,4,2,1,60,0,0
124672,-100,4,2,1,50,0,0
125354,-133.333333333333,4,2,1,50,0,0
130126,-100,4,2,60,65,0,0
130467,-100,4,2,1,65,0,0
130638,-100,4,2,1,65,0,0
131490,-100,4,2,1,65,0,0
131831,-100,4,2,1,65,0,0
132854,-100,4,2,1,65,0,0
133195,-100,4,2,1,65,0,0
135240,-100,4,2,1,65,0,0
136945,-200,4,2,1,65,0,0
137626,-100,4,2,1,65,0,0
138308,-76.9230769230769,4,2,1,75,0,1
138649,-76.9230769230769,4,2,1,75,0,1
141036,-76.9230769230769,4,2,1,75,0,1
141206,-76.9230769230769,4,2,1,75,0,1
143592,-76.9230769230769,4,2,1,75,0,1
143933,-76.9230769230769,4,2,1,75,0,1
146490,-76.9230769230769,4,2,60,75,0,1
146661,-76.9230769230769,4,2,1,75,0,1
147683,-76.9230769230769,4,2,1,70,0,1
149217,-76.9230769230769,4,2,1,75,0,1
149558,-76.9230769230769,4,2,1,75,0,1
151945,-76.9230769230769,4,2,60,75,0,1
152286,-76.9230769230769,4,2,1,75,0,1
154501,-76.9230769230769,4,2,1,75,0,1
154842,-76.9230769230769,4,2,1,75,0,1
155865,-76.9230769230769,4,2,60,75,0,1
156206,-76.9230769230769,4,2,1,75,0,1
157399,-100,4,2,1,75,0,1
160126,-133.333333333333,4,2,1,75,0,0
162172,-100,4,2,1,65,0,0
162854,-100,4,2,1,65,0,0
163536,-100,4,2,1,65,0,0
163876,-100,4,2,1,65,0,0
166263,-100,4,2,1,65,0,0
166604,-100,4,2,1,65,0,0
168308,-133.333333333333,4,2,1,65,0,0
168990,-133.333333333333,4,2,1,65,0,0
169331,-133.333333333333,4,2,1,65,0,0
171717,-133.333333333333,4,2,1,65,0,0
172058,-100,4,2,1,65,0,0
173763,-83.3333333333333,4,2,60,70,0,0
174104,-83.3333333333333,4,2,1,70,0,0
175126,-83.3333333333333,4,2,60,70,0,0
175467,-83.3333333333333,4,2,1,70,0,0
176490,-83.3333333333333,4,2,60,70,0,0
176831,-83.3333333333333,4,2,1,70,0,0
177854,-83.3333333333333,4,2,60,70,0,0
178195,-83.3333333333333,4,2,1,70,0,0
178365,-83.3333333333333,4,2,1,70,0,0
179217,-133.333333333333,4,2,1,65,0,0
184501,-200,4,2,60,65,0,0
186036,-200,4,2,1,50,0,0
191320,340.909090909091,4,2,1,50,1,0
191320,-200,4,2,1,50,0,0
195410,-100,4,2,1,75,0,0
196945,340.909090909091,4,2,1,65,1,0
196945,-200,4,2,1,65,0,0
198308,-100,4,2,1,65,0,0
199672,-76.9230769230769,4,2,1,75,0,1
200183,-76.9230769230769,4,2,1,75,0,1
202399,-76.9230769230769,4,2,1,75,0,1
202740,-76.9230769230769,4,2,1,75,0,1
204956,-76.9230769230769,4,2,1,75,0,1
205297,-76.9230769230769,4,2,1,75,0,1
207854,-76.9230769230769,4,2,60,75,0,1
208195,-76.9230769230769,4,2,1,75,0,1
209047,-76.9230769230769,4,2,1,70,0,1
210581,-76.9230769230769,4,2,1,75,0,1
211092,-76.9230769230769,4,2,1,75,0,1
213308,-76.9230769230769,4,2,60,75,0,1
213649,-76.9230769230769,4,2,1,75,0,1
215865,-76.9230769230769,4,2,1,75,0,1
216206,-76.9230769230769,4,2,1,75,0,1
217229,-76.9230769230769,4,2,60,75,0,1
217570,-76.9230769230769,4,2,1,75,0,1
218763,-100,4,2,1,75,0,1
221490,-133.333333333333,4,2,1,75,0,0
222513,-100,4,2,1,50,0,0
224217,-83.3333333333333,4,2,1,60,0,0
239047,-83.3333333333333,4,2,1,5,0,0
239217,-83.3333333333333,4,2,1,60,0,0
246035,-83.3333333333333,4,2,1,5,0,0

[Colours]
Combo1 : 224,189,253
Combo2 : 191,228,251
Combo3 : 223,213,236
Combo4 : 142,203,253

[HitObjects]
408,300,604,5,2,0:0:0:0:
408,228,774,1,2,0:0:0:0:
332,300,944,1,0,0:0:0:0:
332,228,1115,1,2,0:0:0:0:
256,300,1285,1,0,0:0:0:0:
256,228,1456,2,0,L|256:140,1,71.2500027179719,2|0,0:0|0:0,0:0:0:0:
256,84,1797,6,0,B|184:84|184:84|184:176,1,142.500005435944,0|2,0:0|0:0,0:0:0:0:
184,228,2308,1,2,0:0:0:0:
184,300,2479,1,0,0:0:0:0:
108,228,2649,1,2,0:0:0:0:
108,300,2819,2,0,L|108:384,1,71.2500027179719,0|2,0:0|0:0,0:0:0:0:
108,371,3160,1,0,0:0:0:0:
256,300,3331,5,2,0:0:0:0:
256,228,3501,1,2,0:0:0:0:
160,192,3672,1,0,0:0:0:0:
224,160,3842,1,2,0:0:0:0:
360,192,4013,1,0,0:0:0:0:
296,160,4183,2,0,L|296:72,1,71.2500027179719,2|0,0:0|0:0,0:0:0:0:
404,16,4524,6,0,L|404:108,1,71.2500027179719,0|0,0:0|0:0,0:0:0:0:
404,87,4865,1,2,0:0:0:0:
428,156,5045,1,2,0:0:0:0:
492,184,5226,1,0,0:0:0:0:
492,312,5355,5,8,0:0:0:0:
452,284,5440,1,8,0:0:0:0:
412,260,5525,2,0,L|348:260,1,47.5,4|0,1:3|1:3,0:0:0:0:
288,260,5695,6,0,L|288:224,4,31.6666666666667,0|8|8|0|4,1:0|0:3|0:3|1:0|0:3,0:0:0:0:
288,328,6036,6,0,B|240:328|240:328|216:344|216:344|160:344,1,113.999996520996,4|0,1:1|0:0,0:0:0:0:
64,344,6376,1,0,1:0:0:0:
20,240,6547,1,0,1:0:0:0:
176,140,6717,1,8,0:0:0:0:
228,200,6888,2,0,L|360:200,1,113.999996520996,0|0,3:0|1:0,0:0:0:0:
179,262,7229,6,0,P|100:211|200:151,1,227.999993041992,2|0,1:3|3:0,0:0:0:0:
342,200,7740,2,0,L|226:200,1,113.999996520996,0|2,3:0|0:3,0:0:0:0:
20,240,8081,1,8,0:0:0:0:
32,128,8251,1,0,3:0:0:0:
163,27,8422,1,8,0:0:0:0:
175,139,8592,1,0,3:0:0:0:
200,340,8763,6,0,B|248:340|248:340|272:356|272:356|328:356,1,113.999996520996,4|0,1:2|0:0,0:0:0:0:
424,356,9103,1,0,1:0:0:0:
468,252,9274,1,0,1:0:0:0:
336,92,9445,1,8,0:0:0:0:
384,152,9615,2,0,L|384:288,1,113.999996520996,0|0,3:0|1:0,0:0:0:0:
309,356,9956,6,0,B|253:356|253:356|221:316|221:316|160:296,1,170.999994781494,2|0,1:3|0:0,0:0:0:0:
104,280,10297,1,8,0:0:0:0:
296,268,10467,2,0,L|296:148,1,113.999996520996,0|2,3:0|0:3,0:0:0:0:
220,68,10808,1,0,1:0:0:0:
408,168,10979,1,8,0:0:0:0:
220,68,11149,1,8,0:0:0:0:
408,168,11320,1,8,0:0:0:0:
408,224,11405,1,8,0:0:0:0:
408,280,11490,5,4,1:2:0:0:
472,328,11661,1,0,3:0:0:0:
296,240,11831,1,0,1:0:0:0:
232,288,12002,1,0,1:0:0:0:
32,320,12172,1,8,0:0:0:0:
84,264,12342,2,0,L|84:132,1,113.999996520996,0|0,3:0|1:0,0:0:0:0:
204,88,12683,6,0,L|204:328,1,227.999993041992,2|8,1:3|0:0,0:0:0:0:
388,368,13195,2,0,B|368:312|368:312|304:284,1,113.999996520996,0|2,3:0|0:3,0:0:0:0:
204,316,13536,1,0,1:0:0:0:
368,204,13706,1,8,0:0:0:0:
292,380,13876,1,8,0:0:0:0:
368,204,14047,1,8,0:0:0:0:
368,148,14132,1,8,0:0:0:0:
368,92,14217,5,4,1:2:0:0:
208,92,14388,1,0,3:0:0:0:
288,92,14558,1,0,1:0:0:0:
128,92,14729,1,0,1:0:0:0:
368,92,14899,1,8,0:0:0:0:
288,92,15070,2,0,L|288:216,1,113.999996520996,0|0,3:0|1:0,0:0:0:0:
124,268,15411,6,0,B|212:268|212:268|256:300|256:300|364:300,1,227.999993041992,2|8,1:3|0:0,0:0:0:0:
456,300,15922,2,0,B|456:260|456:260|440:228|440:228|440:172,1,113.999996520996,0|2,3:0|0:3,0:0:0:0:
444,76,16263,1,0,1:0:0:0:
288,206,16433,1,8,0:0:0:0:
444,76,16604,1,8,1:3:0:0:
288,206,16774,1,8,1:2:0:0:
256,192,16945,12,0,17626,0:0:0:0:
108,192,17797,6,0,L|236:192,1,118.75,2|0,0:3|0:0,0:0:0:0:
256,192,18308,5,6,1:1:0:0:
256,192,18820,1,2,0:0:0:0:
312,192,18990,2,0,P|380:172|416:92,1,142.500005435944,2|0,0:0|0:0,0:0:0:0:
420,56,19501,1,2,1:2:0:0:
364,56,19672,6,0,P|296:76|260:156,1,142.500005435944,2|0,1:2|0:0,0:0:0:0:
256,192,20183,1,2,0:0:0:0:
212,228,20354,1,2,0:0:0:0:
156,228,20524,1,2,0:0:0:0:
108,196,20695,1,10,0:0:0:0:
104,140,20865,1,2,0:0:0:0:
4,304,21036,6,0,B|114:257|109:353|237:288,1,213.750008153916,2|0,1:2|0:0,0:0:0:0:
419,223,21717,2,0,B|308:269|313:173|185:238,1,213.750008153916,2|0,0:0|1:0,0:0:0:0:
60,376,22399,5,10,0:0:0:0:
41,337,22484,1,8,0:0:0:0:
46,294,22570,1,0,1:0:0:0:
79,267,22655,5,8,0:3:0:0:
90,253,22740,1,0,1:0:0:0:
98,237,22825,1,4,0:3:0:0:
102,219,22911,1,8,0:3:0:0:
102,201,22996,1,4,0:3:0:0:
86,161,23081,6,0,P|84:134|99:107,1,35.625001358986,2|8,1:2|0:3,0:0:0:0:
172,88,23251,1,0,1:0:0:0:
172,88,23337,1,4,0:3:0:0:
148,24,23422,5,8,0:0:0:0:
368,140,23763,6,0,L|368:264,1,95,6|0,1:2|0:0,0:0:0:0:
288,288,24104,2,0,L|288:172,1,95,10|0,0:0|0:0,0:0:0:0:
288,96,24445,1,2,1:2:0:0:
212,36,24615,1,0,1:0:0:0:
120,52,24786,1,10,0:0:0:0:
60,128,24956,6,0,B|44:176|44:176|60:236,1,95,2|2,0:0|1:2,0:0:0:0:
132,344,25297,2,0,B|148:296|148:296|132:236,1,95,2|8,0:0|0:0,0:0:0:0:
56,296,25638,1,2,1:2:0:0:
208,384,25808,1,0,3:0:0:0:
304,384,25979,1,0,1:0:0:0:
208,384,26149,1,8,0:0:0:0:
304,384,26320,2,0,L|376:384,1,47.5,2|0,0:0|0:0,0:0:0:0:
428,384,26490,6,0,B|428:336|388:316|388:316|388:280,1,95,2|0,1:2|0:0,0:0:0:0:
404,148,26831,2,0,B|404:196|444:216|444:216|444:252,1,95,10|0,0:0|0:0,0:0:0:0:
388,304,27172,1,2,1:2:0:0:
308,356,27342,1,0,1:0:0:0:
220,324,27513,1,10,0:0:0:0:
124,324,27683,6,0,L|124:204,1,95,2|2,0:0|1:2,0:0:0:0:
208,180,28024,2,0,L|208:60,1,95,2|8,0:0|0:0,0:0:0:0:
24,176,28365,2,0,L|24:366,1,190,2|0,1:2|1:0,0:0:0:0:
124,324,28876,1,8,0:0:0:0:
124,229,29047,1,8,0:0:0:0:
212,368,29217,5,6,1:1:0:0:
212,368,29388,2,0,P|264:332|352:332,1,142.500005435944,0|2,1:0|1:2,0:0:0:0:
396,344,29899,2,0,P|432:292|432:204,1,142.500005435944,10|0,0:0|1:0,0:0:0:0:
408,164,30411,1,10,0:0:0:0:
352,164,30581,6,0,P|281:162|222:124,1,142.500005435944,2|0,1:0|0:0,0:0:0:0:
192,76,31092,1,2,1:2:0:0:
136,60,31263,1,10,0:0:0:0:
80,68,31433,1,2,0:0:0:0:
44,112,31604,1,2,1:2:0:0:
40,168,31774,1,10,0:0:0:0:
44,196,31859,1,8,0:0:0:0:
60,220,31945,5,6,1:2:0:0:
60,220,32115,1,0,1:0:0:0:
156,280,32456,1,0,1:0:0:0:
200,244,32626,2,0,P|240:252|292:232,1,71.2500027179719,10|0,0:0|0:0,0:0:0:0:
312,208,32967,1,0,1:0:0:0:
368,240,33138,1,8,0:0:0:0:
368,240,33223,1,0,0:0:0:0:
368,240,33308,2,0,P|371:263|368:296,1,35.625001358986,10|8,0:0|0:0,0:0:0:0:
372,304,33479,2,0,P|353:318|323:332,1,35.625001358986,2|0,1:2|1:0,0:0:0:0:
280,356,33649,1,8,0:3:0:0:
280,356,33734,1,8,0:3:0:0:
280,356,33820,1,8,0:0:0:0:
280,356,33905,1,8,0:0:0:0:
280,356,33990,6,0,L|232:356,1,35.625001358986,2|0,1:2|1:0,0:0:0:0:
176,356,34161,2,0,L|128:356,1,35.625001358986,8|8,0:3|0:3,0:0:0:0:
72,356,34331,1,8,0:0:0:0:
56,324,34416,1,8,0:0:0:0:
72,292,34501,1,8,0:0:0:0:
56,260,34587,1,8,0:0:0:0:
72,228,34672,6,0,L|72:124,1,95,6|0,1:2|0:0,0:0:0:0:
160,36,35013,2,0,L|160:140,1,95,10|0,0:0|0:0,0:0:0:0:
160,228,35354,1,2,1:2:0:0:
232,288,35524,1,0,1:0:0:0:
328,288,35695,1,10,0:0:0:0:
488,216,35865,6,0,P|444:204|388:216,1,95,2|2,0:0|1:2,0:0:0:0:
232,312,36206,2,0,P|276:324|332:312,1,95,2|8,0:0|0:0,0:0:0:0:
400,372,36547,1,2,1:2:0:0:
440,288,36717,1,0,3:0:0:0:
368,224,36888,1,0,1:0:0:0:
408,140,37058,1,8,0:0:0:0:
336,76,37229,1,2,0:0:0:0:
336,76,37314,1,2,0:0:0:0:
336,76,37399,6,0,B|288:88|288:88|224:64,1,95,2|0,1:2|0:0,0:0:0:0:
168,16,37740,2,0,B|120:4|120:4|56:28,1,95,10|0,0:0|0:0,0:0:0:0:
28,100,38081,1,2,1:2:0:0:
28,196,38251,1,0,1:0:0:0:
112,240,38422,1,10,0:0:0:0:
196,196,38592,1,2,0:0:0:0:
196,196,38763,6,0,L|308:196,1,95,2|0,1:2|0:0,0:0:0:0:
388,196,39104,1,8,0:0:0:0:
464,252,39274,1,0,1:0:0:0:
512,88,39445,5,2,0:0:0:0:
416,88,39615,1,0,1:0:0:0:
320,88,39786,1,8,0:0:0:0:
224,88,39956,1,8,0:0:0:0:
176,88,40041,1,8,0:0:0:0:
128,88,40126,5,4,1:0:0:0:
128,88,40297,1,0,1:0:0:0:
0,300,40808,1,8,0:0:0:0:
0,300,40979,1,2,0:0:0:0:
48,332,41149,1,2,1:2:0:0:
104,328,41320,1,10,0:0:0:0:
148,292,41490,6,0,B|196:312|196:312|308:288,1,142.500005435944,2|2,1:2|0:0,0:0:0:0:
340,280,42001,1,0,1:0:0:0:
388,308,42172,1,8,0:0:0:0:
444,304,42342,1,2,0:0:0:0:
484,264,42513,1,8,0:0:0:0:
484,208,42683,1,8,0:0:0:0:
476,180,42768,1,8,0:0:0:0:
459,156,42854,5,4,1:2:0:0:
459,156,43024,1,0,1:0:0:0:
360,96,43365,1,0,1:0:0:0:
312,124,43536,2,0,P|272:132|232:116,1,71.2500027179719,8|2,0:0|0:0,0:0:0:0:
204,80,43876,1,2,1:2:0:0:
148,64,44047,1,10,0:0:0:0:
96,84,44217,6,0,B|64:120|64:120|64:216,1,142.500005435944,2|2,1:2|0:0,0:0:0:0:
64,272,44729,2,0,P|100:312|148:320,1,71.2500027179719,2|8,1:2|0:0,0:0:0:0:
168,300,45070,1,2,0:0:0:0:
220,324,45240,1,8,0:0:0:0:
272,300,45411,1,8,0:0:0:0:
272,300,45496,1,8,0:0:0:0:
272,300,45581,6,0,L|480:300,1,190,6|8,1:2|0:0,0:0:0:0:
512,220,46092,1,2,0:0:0:0:
512,124,46263,1,0,1:0:0:0:
428,80,46433,1,0,1:0:0:0:
308,164,46604,6,0,P|214:169|131:124,1,190,10|0,0:0|1:0,0:0:0:0:
95,260,47115,2,0,P|188:254|271:299,1,190,2|0,0:0|1:0,0:0:0:0:
392,376,47626,2,0,L|392:272,1,95,2|0,0:0|1:0,0:0:0:0:
392,184,47967,1,10,0:0:0:0:
308,68,48138,1,8,0:0:0:0:
308,116,48223,1,8,0:0:0:0:
308,164,48308,6,0,B|260:176|260:176|216:161,1,95,6|0,1:2|0:0,0:0:0:0:
308,164,48649,1,8,0:0:0:0:
348,272,48820,2,0,B|395:285|395:285|456:267,1,95,2|0,0:0|1:0,0:0:0:0:
348,272,49161,1,0,1:0:0:0:
304,368,49331,6,0,L|92:368,1,190,10|0,0:0|1:0,0:0:0:0:
0,220,49842,2,0,L|212:220,1,190,2|0,0:0|1:0,0:0:0:0:
284,220,50354,1,2,0:0:0:0:
356,156,50524,1,0,1:0:0:0:
292,16,50695,1,10,0:0:0:0:
208,64,50865,1,8,0:0:0:0:
160,64,50950,1,8,0:0:0:0:
112,64,51036,5,4,1:0:0:0:
112,64,51206,1,0,1:0:0:0:
256,312,51717,1,8,0:0:0:0:
256,312,51888,1,2,0:0:0:0:
312,300,52058,1,2,1:2:0:0:
360,332,52229,1,10,0:0:0:0:
416,316,52399,6,0,P|448:260|424:172,1,142.500005435944,2|2,1:2|0:0,0:0:0:0:
380,164,52911,2,0,P|372:124|396:72,1,71.2500027179719,2|8,1:2|0:0,0:0:0:0:
416,52,53251,1,2,0:0:0:0:
376,12,53422,1,10,0:0:0:0:
320,12,53592,1,8,0:0:0:0:
292,20,53678,1,8,0:0:0:0:
272,40,53763,5,4,1:2:0:0:
272,40,53933,1,0,1:0:0:0:
132,72,54274,1,0,1:0:0:0:
180,104,54445,2,0,L|180:196,1,71.2500027179719,8|2,0:0|0:0,0:0:0:0:
180,232,54786,1,2,1:2:0:0:
220,272,54956,1,10,0:0:0:0:
276,264,55126,6,0,P|340:256|424:288,1,142.500005435944,2|2,1:2|0:0,0:0:0:0:
468,300,55638,2,0,B|492:272|492:272|492:220,1,71.2500027179719,2|8,1:2|0:0,0:0:0:0:
492,180,55979,1,2,0:0:0:0:
492,180,56149,2,0,B|468:152|468:152|468:100,1,71.2500027179719,8|0,0:0|0:0,0:0:0:0:
468,40,56405,1,8,0:0:0:0:
468,40,56490,6,0,B|396:40|396:40|352:20|352:20|256:20,2,190,4|8|2,1:2|0:0|1:2,0:0:0:0:
336,116,57342,1,0,1:0:0:0:
336,116,57513,2,0,P|324:164|348:220,1,95,10|2,0:0|1:3,0:0:0:0:
512,288,57854,6,0,B|436:260|360:312|360:312|328:304,1,190,2|8,3:2|0:0,0:0:0:0:
244,268,58365,1,0,1:0:0:0:
152,296,58536,2,0,B|120:260|120:260|120:200,1,95,2|0,0:0|1:0,0:0:0:0:
120,164,58791,1,0,1:0:0:0:
120,164,58876,1,8,0:0:0:0:
176,88,59047,1,2,0:3:0:0:
176,88,59132,1,2,0:3:0:0:
176,88,59217,6,0,P|272:100|384:72,2,190,6|8|0,1:2|0:0|1:0,0:0:0:0:
116,12,60070,1,2,1:2:0:0:
24,24,60240,1,10,0:0:0:0:
0,116,60411,1,6,0:0:0:0:
100,172,60581,6,0,B|88:220|88:220|112:284,1,95,2|0,3:2|0:0,0:0:0:0:
168,336,60922,1,10,0:0:0:0:
256,300,61092,1,2,1:2:0:0:
332,360,61263,1,2,0:0:0:0:
380,360,61348,1,8,0:0:0:0:
428,360,61433,1,2,1:2:0:0:
508,212,61604,5,8,0:0:0:0:
487,254,61689,1,8,0:0:0:0:
443,275,61774,2,0,L|395:275,2,31.6666666666667,2|0|0,1:2|1:0|1:0,0:0:0:0:
354,249,61945,5,2,1:3:0:0:
256,192,62115,1,6,0:3:0:0:
256,192,62456,1,10,0:3:0:0:
256,78,62626,1,10,0:3:0:0:
354,135,62797,1,6,0:3:0:0:
354,249,62967,1,10,0:3:0:0:
256,305,63138,1,6,0:3:0:0:
157,248,63308,6,0,B|108:232|40:248|40:248|88:208,1,166.25,6|0,1:2|0:0,0:0:0:0:
136,168,63990,1,10,0:0:0:0:
156,124,64075,1,0,1:0:0:0:
136,80,64161,1,2,1:2:0:0:
28,124,64331,6,0,L|84:124,1,47.5,10|8,0:0|0:3,0:0:0:0:
184,124,64501,1,10,0:0:0:0:
232,124,64587,1,0,1:0:0:0:
280,124,64672,6,0,B|384:124|400:36|400:36|464:48|468:104,1,246.999988693238,6|8,1:1|0:0,0:0:0:0:
464,272,65183,1,0,1:0:0:0:
452,300,65268,1,0,1:0:0:0:
424,312,65354,2,0,L|360:312,1,61.7499971733095,0|0,1:0|0:0,0:0:0:0:
292,312,65524,2,0,L|224:312,1,61.7499971733095,0|0,1:0|0:0,0:0:0:0:
160,312,65695,2,0,P|136:256|176:196,1,123.499994346619,10|2,0:0|0:0,0:0:0:0:
216,168,65950,1,2,0:0:0:0:
216,168,66036,5,2,1:2:0:0:
324,228,66206,1,2,1:2:0:0:
432,168,66376,1,8,0:0:0:0:
432,44,66547,1,2,1:2:0:0:
392,8,66632,1,0,1:0:0:0:
338,6,66717,1,0,1:0:0:0:
224,88,66888,2,0,P|284:108|344:88,1,123.499994346619,2|8,1:2|0:0,0:0:0:0:
132,16,67229,1,2,0:0:0:0:
132,16,67399,6,0,B|132:40|140:48|140:48|140:64|120:88|120:88|172:128|84:172|144:268,1,246.999988693238,2|8,1:3|0:0,0:0:0:0:
216,340,67911,1,0,1:0:0:0:
244,356,67996,1,0,1:0:0:0:
276,360,68081,2,0,L|352:360,1,61.7499971733095,0|0,1:0|0:0,0:0:0:0:
444,271,68251,2,0,L|376:271,1,61.7499971733095,0|0,1:0|0:0,0:0:0:0:
444,271,68422,2,0,L|444:147,1,123.499994346619,10|2,0:0|0:0,0:0:0:0:
348,12,68763,5,12,0:0:0:0:
332,32,68848,2,0,P|345:70|372:96,1,61.7499971733095,0|0,3:0|0:0,0:0:0:0:
288,120,69018,1,8,0:0:0:0:
284,145,69103,2,0,P|314:171|350:180,1,61.7499971733095,0|0,3:0|0:0,0:0:0:0:
444,147,69274,1,8,0:0:0:0:
444,147,69359,2,0,L|444:223,1,61.7499971733095,8|0,0:3|0:0,0:0:0:0:
444,280,69530,1,8,0:0:0:0:
336,336,69700,1,8,0:0:0:0:
336,336,69786,2,0,L|336:260,1,61.7499971733095,8|8,0:0|0:3,0:0:0:0:
240,232,69956,6,0,P|168:144|252:60,1,246.999988693238,6|2,1:2|0:0,0:0:0:0:
444,148,70467,2,0,L|316:148,1,123.499994346619,10|2,0:0|1:2,0:0:0:0:
253,147,70723,1,0,1:0:0:0:
253,147,70808,1,2,1:2:0:0:
72,192,70979,1,2,1:2:0:0:
152,100,71149,1,8,0:0:0:0:
240,232,71320,6,0,B|256:292|256:292|232:352,1,123.499994346619,6|0,1:2|0:0,0:0:0:0:
233,349,71661,1,0,1:0:0:0:
19,314,71831,2,0,P|77:279|153:287,1,123.499994346619,8|0,0:0|0:0,0:0:0:0:
233,349,72087,1,0,1:0:0:0:
233,349,72172,2,0,L|301:349,1,61.7499971733095,2|8,1:2|0:0,0:0:0:0:
375,349,72342,1,2,1:2:0:0:
496,320,72513,1,10,0:0:0:0:
489,183,72683,1,2,0:0:0:0:
489,183,72768,1,2,0:0:0:0:
489,183,72854,6,0,P|405:231|228:224,1,246.999988693238,4|8,1:2|0:0,0:0:0:0:
160,160,73365,1,0,1:0:0:0:
129,203,73450,1,0,1:0:0:0:
136,256,73536,1,0,1:0:0:0:
228,336,73706,1,2,1:2:0:0:
352,336,73876,1,10,0:0:0:0:
420,136,74047,1,6,1:2:0:0:
423,139,74388,5,2,1:3:0:0:
423,139,74558,1,8,0:0:0:0:
363,29,74729,1,10,0:0:0:0:
247,5,74899,1,2,1:2:0:0:
199,29,74984,1,0,1:0:0:0:
147,17,75070,2,0,L|79:17,1,61.7499971733095,10|0,0:0|0:0,0:0:0:0:
64,92,75240,2,0,L|-4:92,1,61.7499971733095,10|8,0:0|0:0,0:0:0:0:
116,164,75411,1,2,1:2:0:0:
116,164,75496,1,4,0:3:0:0:
116,164,75581,6,0,B|272:184|196:96|360:104,1,246.999988693238,6|8,1:1|0:0,0:0:0:0:
464,148,76092,1,0,1:0:0:0:
484,172,76178,1,0,1:0:0:0:
504,196,76263,2,0,L|504:276,1,61.7499971733095,0|0,1:0|0:0,0:0:0:0:
420,360,76433,2,0,L|420:288,1,61.7499971733095,0|0,1:0|0:0,0:0:0:0:
420,220,76604,2,0,P|356:240|340:304,1,123.499994346619,10|2,0:0|0:0,0:0:0:0:
336,360,76859,1,2,0:0:0:0:
336,360,76945,5,2,1:2:0:0:
212,376,77115,1,2,0:0:0:0:
120,292,77286,1,8,0:0:0:0:
132,168,77456,1,2,1:2:0:0:
168,128,77541,1,0,1:0:0:0:
220,116,77626,1,0,1:0:0:0:
348,212,77797,2,0,P|288:228|220:200,1,123.499994346619,2|8,1:2|0:0,0:0:0:0:
112,52,78138,1,2,0:0:0:0:
112,52,78308,6,0,B|40:28|-8:84|-8:84|52:116|48:188,1,246.999988693238,6|8,1:2|0:0,0:0:0:0:
28,308,78820,1,0,1:0:0:0:
52,328,78905,1,0,1:0:0:0:
84,328,78990,2,0,L|152:328,1,61.7499971733095,2|0,1:2|0:0,0:0:0:0:
280,328,79161,1,0,1:0:0:0:
268,328,79246,1,0,1:0:0:0:
256,328,79331,2,0,B|296:268|225:256|284:184,1,123.499994346619,10|2,0:0|0:3,0:0:0:0:
304,8,79672,6,0,B|236:136|388:136|335:250,1,246.999988693238,2|8,1:2|0:0,0:0:0:0:
169,328,80183,1,2,1:2:0:0:
168,296,80268,1,0,1:0:0:0:
184,268,80354,2,0,L|184:196,1,61.7499971733095,0|0,1:0|0:0,0:0:0:0:
168,136,80524,2,0,L|168:64,1,61.7499971733095,0|0,1:0|0:0,0:0:0:0:
408,12,80695,1,8,0:0:0:0:
428,64,80780,1,8,0:0:0:0:
401,112,80865,6,0,B|308:76|228:144|228:144|161:135,1,246.999988693238,6|0,1:2|1:0,0:0:0:0:
72,56,81376,2,0,P|32:116|48:180,1,123.499994346619,10|0,0:0|0:0,0:0:0:0:
68,212,81632,1,0,1:0:0:0:
120,224,81717,1,6,1:2:0:0:
232,172,81888,1,2,1:2:0:0:
200,52,82058,1,8,0:0:0:0:
401,112,82229,6,0,B|433:152|433:152|409:184|409:184|409:284,1,185.249991519928,6|0,1:2|0:0,0:0:0:0:
408,348,82570,1,2,1:2:0:0:
288,384,82740,1,10,0:0:0:0:
192,304,82911,1,2,1:2:0:0:
164,292,82996,1,0,1:0:0:0:
136,304,83081,2,0,B|104:304|104:304|64:284,1,61.7499971733095,2|0,1:2|0:0,0:0:0:0:
24,244,83251,1,2,1:2:0:0:
120,100,83422,2,0,L|120:236,1,123.499994346619,8|0,0:0|0:0,0:0:0:0:
281,383,83763,5,4,1:2:0:0:
281,383,83933,1,0,1:0:0:0:
333,328,84104,5,2,0:0:0:0:
307,257,84274,1,2,1:2:0:0:
360,203,84445,1,10,0:0:0:0:
334,132,84615,1,2,0:0:0:0:
386,78,84786,1,0,1:0:0:0:
256,132,84956,2,0,L|208:132,1,47.5,10|0,0:0|0:0,0:0:0:0:
136,132,85126,5,8,0:0:0:0:
136,84,85212,1,8,0:0:0:0:
136,36,85297,1,8,0:0:0:0:
40,228,85467,1,8,0:3:0:0:
56,244,85553,1,8,0:3:0:0:
72,260,85638,2,0,L|131:260,1,47.5,2|4,1:2|0:3,0:0:0:0:
232,261,85808,1,2,1:2:0:0:
256,261,85893,1,0,1:0:0:0:
280,261,85979,1,2,1:2:0:0:
304,261,86064,1,4,0:3:0:0:
328,261,86149,5,10,0:0:0:0:
328,213,86234,1,8,0:0:0:0:
328,165,86320,1,8,0:0:0:0:
328,117,86405,1,8,0:0:0:0:
328,69,86490,6,0,P|241:129|129:129,1,213.750008153916,6|0,1:2|1:0,0:0:0:0:
0,16,87172,2,0,P|72:16|152:60,1,142.500005435944,10|2,0:0|0:0,0:0:0:0:
256,236,87683,2,0,L|416:236,2,142.500005435944,6|0|0,1:2|1:0|1:0,0:0:0:0:
160,324,88536,6,0,L|255:324,1,95,8|0,0:0|0:0,0:0:0:0:
368,156,88876,1,8,0:0:0:0:
336,324,89047,1,8,0:0:0:0:
284,136,89217,5,4,1:1:0:0:
224,92,89388,1,2,0:3:0:0:
100,184,89558,1,2,1:3:0:0:
176,184,89729,1,2,1:3:0:0:
28,96,89899,1,10,0:3:0:0:
76,184,90070,2,0,L|76:304,1,95,0|0,3:0|1:0,0:0:0:0:
176,332,90411,6,0,L|176:124,1,190,2|8,1:3|0:3,0:0:0:0:
256,18,90922,1,2,0:3:0:0:
256,114,91092,1,2,0:3:0:0:
364,114,91263,1,0,1:0:0:0:
148,114,91433,1,8,0:0:0:0:
364,114,91604,1,8,0:0:0:0:
148,114,91774,1,8,0:0:0:0:
44,216,91945,6,0,B|127:210|148:114|148:114|191:144,1,190,6|8,1:1|0:0,0:0:0:0:
255,192,92456,1,2,0:0:0:0:
337,132,92626,2,0,B|364:114|364:114|385:210|468:216,1,190,2|8,1:2|0:0,0:0:0:0:
464,120,93138,1,2,0:0:0:0:
328,232,93308,6,0,B|304:253|304:253|394:294|382:376,1,190,2|8,1:2|0:0,0:0:0:0:
292,352,93820,1,2,0:0:0:0:
200,372,93990,1,2,1:2:0:0:
226,279,94161,1,2,1:2:0:0:
159,212,94331,1,10,0:0:0:0:
134,304,94502,1,2,0:0:0:0:
64,120,94672,6,0,L|276:120,1,190,2|8,1:2|0:0,0:0:0:0:
512,279,95354,1,2,1:2:0:0:
416,279,95524,1,0,1:0:0:0:
320,279,95695,2,0,L|212:279,1,95,8|0,0:0|0:0,0:0:0:0:
132,168,96036,6,0,B|116:120|116:120|140:60,1,95,2|0,1:2|0:0,0:0:0:0:
225,189,96376,2,0,B|241:237|241:237|217:297,1,95,8|0,0:0|0:0,0:0:0:0:
140,320,96717,1,2,1:2:0:0:
224,368,96888,1,0,1:0:0:0:
48,344,97058,1,8,0:0:0:0:
48,296,97143,1,8,0:0:0:0:
48,248,97229,1,8,0:0:0:0:
48,200,97314,1,8,0:0:0:0:
48,152,97399,6,0,B|48:104|48:104|104:124,1,95,6|0,1:2|0:0,0:0:0:0:
156,192,97740,2,0,L|280:192,1,95,10|0,0:0|0:0,0:0:0:0:
348,192,98081,1,2,1:2:0:0:
400,116,98251,1,0,1:0:0:0:
348,36,98422,1,10,0:0:0:0:
504,68,98592,6,0,L|504:176,1,95,2|0,0:0|1:0,0:0:0:0:
432,288,98933,2,0,L|432:180,1,95,2|8,0:0|0:0,0:0:0:0:
376,116,99274,1,2,0:0:0:0:
320,192,99445,1,0,1:0:0:0:
224,192,99615,1,0,1:0:0:0:
168,268,99786,1,8,0:0:0:0:
264,268,99956,1,2,0:0:0:0:
168,116,100126,6,0,B|96:116|96:116|0:32,1,190,6|10,1:2|0:0,0:0:0:0:
36,192,100638,1,0,0:0:0:0:
36,192,100808,2,0,L|36:300,1,95,2|0,1:2|1:0,0:0:0:0:
112,344,101149,1,10,0:0:0:0:
208,320,101320,1,2,0:0:0:0:
208,320,101490,6,0,L|276:320,1,47.5,2|0,3:3|0:0,0:0:0:0:
376,236,101661,2,0,L|328:236,1,47.5,2|0,1:2|1:0,0:0:0:0:
256,232,101831,1,8,0:0:0:0:
364,80,102001,1,10,0:0:0:0:
256,116,102172,1,8,0:0:0:0:
192,32,102342,1,8,0:3:0:0:
104,72,102513,1,8,0:3:0:0:
80,72,102598,1,8,0:3:0:0:
56,72,102683,1,0,1:0:0:0:
32,72,102768,1,0,1:0:0:0:
8,72,102854,6,0,B|28:128|28:128|5:256,1,190,6|8,1:1|0:0,0:0:0:0:
96,292,103365,1,2,0:0:0:0:
184,256,103536,2,0,B|161:127|161:127|181:71,1,190,2|8,1:2|0:0,0:0:0:0:
256,12,104047,1,2,0:0:0:0:
328,72,104217,6,0,B|384:92|384:92|512:69,1,190,2|8,1:2|0:0,0:0:0:0:
480,160,104729,1,2,1:2:0:0:
396,204,104899,1,2,0:0:0:0:
396,300,105070,1,2,1:2:0:0:
476,352,105240,1,10,0:0:0:0:
476,256,105411,1,2,0:0:0:0:
304,300,105581,6,0,B|244:300|244:300|204:332|136:320|136:320|164:288,1,190,2|8,1:2|0:0,0:0:0:0:
316,8,106263,1,2,1:2:0:0:
380,76,106433,1,0,1:0:0:0:
476,80,106604,2,0,L|476:204,1,95,8|0,0:0|1:0,0:0:0:0:
476,272,106945,5,2,3:2:0:0:
392,224,107115,1,0,1:0:0:0:
308,272,107286,1,8,0:0:0:0:
392,320,107456,1,0,1:0:0:0:
308,176,107626,5,2,3:2:0:0:
204,176,107797,1,0,1:0:0:0:
380,100,107967,1,8,0:0:0:0:
204,176,108308,6,0,L|204:284,1,95,6|0,1:2|0:0,0:0:0:0:
284,176,108649,2,0,L|284:68,1,95,10|0,0:0|0:0,0:0:0:0:
216,16,108990,1,0,1:0:0:0:
128,52,109161,1,0,1:0:0:0:
40,16,109331,1,10,0:0:0:0:
128,52,109501,6,0,B|144:100|144:100|124:160,1,95,2|0,0:0|1:0,0:0:0:0:
48,192,109842,2,0,B|32:240|32:240|52:300,1,95,2|8,1:2|0:0,0:0:0:0:
124,336,110183,1,2,1:2:0:0:
204,284,110354,1,0,3:0:0:0:
120,240,110524,1,0,1:0:0:0:
200,188,110695,1,8,0:0:0:0:
284,232,110865,2,0,B|308:224|308:224|336:232,1,47.5,2|0,1:2|0:0,0:0:0:0:
396,252,111036,6,0,P|436:216|440:160,1,95,6|0,1:2|0:0,0:0:0:0:
412,72,111376,2,0,P|372:108|368:164,1,95,10|0,0:0|0:0,0:0:0:0:
500,280,111717,1,2,1:2:0:0:
448,360,111888,1,0,1:0:0:0:
352,348,112058,1,8,0:0:0:0:
284,232,112229,1,2,0:0:0:0:
284,232,112399,6,0,L|208:232,1,47.5,0|0,1:0|0:0,0:0:0:0:
168,232,112570,2,0,L|92:232,1,47.5,0|0,1:0|0:0,0:0:0:0:
52,228,112740,1,12,0:0:0:0:
52,228,112825,1,8,0:0:0:0:
52,228,112911,1,0,1:0:0:0:
168,156,113081,1,10,0:0:0:0:
168,108,113166,1,8,0:0:0:0:
168,60,113251,1,8,1:3:0:0:
284,136,113422,1,8,0:3:0:0:
284,184,113507,1,8,0:3:0:0:
284,232,113592,1,4,0:3:0:0:
284,376,113763,5,4,1:0:0:0:
284,376,113933,1,0,1:0:0:0:
476,192,114445,1,8,0:0:0:0:
476,192,114615,1,2,0:0:0:0:
468,136,114786,1,2,1:2:0:0:
420,108,114956,1,10,0:0:0:0:
364,120,115126,6,0,B|312:132|312:132|200:104,1,142.500005435944,2|2,1:2|0:0,0:0:0:0:
172,92,115638,2,0,P|138:118|126:162,1,71.2500027179719,0|8,1:0|0:0,0:0:0:0:
116,200,115979,1,2,0:0:0:0:
128,256,116149,1,8,0:0:0:0:
176,288,116320,1,8,0:0:0:0:
204,292,116405,1,8,0:0:0:0:
232,288,116490,5,4,1:2:0:0:
232,288,116661,1,0,1:0:0:0:
336,192,117001,1,0,1:0:0:0:
288,160,117172,2,0,L|288:80,1,71.2500027179719,8|2,0:0|0:0,0:0:0:0:
288,32,117513,1,2,1:2:0:0:
236,4,117683,1,10,0:0:0:0:
184,24,117854,6,0,B|160:32|160:32|136:32|136:32|108:80|48:72,1,142.500005435944,2|2,1:2|0:0,0:0:0:0:
0,72,118365,2,0,B|-8:112|-8:112|4:156,1,71.2500027179719,2|8,1:2|0:0,0:0:0:0:
16,196,118706,1,2,0:0:0:0:
64,228,118876,1,8,0:0:0:0:
120,220,119047,1,8,0:0:0:0:
120,220,119132,1,8,0:0:0:0:
120,220,119217,6,0,B|168:192|168:192|304:192,1,190,6|8,1:2|0:0,0:0:0:0:
400,192,119729,1,2,0:0:0:0:
488,232,119899,1,0,1:0:0:0:
488,328,120070,1,0,1:0:0:0:
324,288,120240,6,0,P|304:192|340:84,1,190,10|0,0:0|1:0,0:0:0:0:
188,288,120751,2,0,P|208:192|172:84,1,190,2|0,0:0|1:0,0:0:0:0:
112,44,121263,2,0,P|156:16|228:24,1,95,2|0,0:0|1:0,0:0:0:0:
96,140,121604,1,10,0:0:0:0:
23,84,121774,1,8,0:0:0:0:
116,232,121945,6,0,B|176:232|176:232|240:260|240:260|312:260,1,190,6|8,1:2|0:0,0:0:0:0:
396,152,122456,2,0,B|336:152|336:152|272:124|272:124|211:124,1,190,2|0,0:0|1:0,0:0:0:0:
116,232,122967,6,0,B|136:292|116:376|116:376|160:320,1,190,10|0,0:0|1:0,0:0:0:0:
392,316,123479,2,0,P|312:280|200:288,1,190,2|0,0:0|1:0,0:0:0:0:
316,376,123990,5,2,1:2:0:0:
380,216,124161,1,8,1:2:0:0:
444,56,124331,5,8,0:3:0:0:
492,148,124501,1,8,1:3:0:0:
256,96,124672,5,4,1:0:0:0:
256,96,124842,1,0,1:0:0:0:
256,96,125354,2,0,L|256:192,1,71.2500027179719,8|2,0:0|0:0,0:0:0:0:
256,224,125695,1,2,1:2:0:0:
220,268,125865,1,10,0:0:0:0:
164,264,126036,6,0,B|96:256|52:312|52:312|32:296,1,142.500005435944,2|2,1:2|0:0,0:0:0:0:
16,252,126547,2,0,L|16:172,1,71.2500027179719,2|8,1:2|0:0,0:0:0:0:
16,124,126888,1,2,0:0:0:0:
40,72,127058,1,10,0:0:0:0:
92,48,127229,1,8,0:0:0:0:
120,48,127314,1,8,0:0:0:0:
146,58,127399,5,4,1:2:0:0:
146,58,127570,1,0,1:0:0:0:
256,148,127911,1,0,1:0:0:0:
308,128,128081,2,0,P|348:136|396:124,1,71.2500027179719,8|2,0:0|0:0,0:0:0:0:
428,104,128422,1,2,1:2:0:0:
480,128,128592,1,10,0:0:0:0:
504,180,128763,6,0,L|504:340,1,142.500005435944,2|2,1:2|0:0,0:0:0:0:
468,368,129274,2,0,B|432:356|432:356|384:372,1,71.2500027179719,2|8,1:2|0:0,0:0:0:0:
344,368,129615,1,2,0:0:0:0:
344,368,129786,2,0,B|308:380|308:380|260:364,1,71.2500027179719,8|0,0:0|0:0,0:0:0:0:
224,316,130041,1,8,0:0:0:0:
224,316,130126,6,0,B|132:288|132:288|36:320,2,190,4|8|2,1:2|0:0|1:2,0:0:0:0:
312,276,130979,1,0,1:0:0:0:
312,276,131149,2,0,L|312:160,1,95,10|2,0:0|1:3,0:0:0:0:
224,16,131490,6,0,L|224:208,1,190,2|8,0:0|0:0,0:0:0:0:
224,300,132001,1,0,1:0:0:0:
144,252,132172,2,0,B|96:264|96:264|32:244,1,95,2|0,3:2|1:0,0:0:0:0:
12,224,132428,1,0,1:0:0:0:
12,224,132513,1,8,0:0:0:0:
52,140,132683,1,10,0:0:0:0:
52,140,132768,1,10,0:0:0:0:
52,140,132854,6,0,B|56:96|24:52|24:52|80:68|140:48,2,190,6|8|0,1:2|0:0|1:0,0:0:0:0:
144,172,133706,1,2,1:2:0:0:
236,148,133876,1,10,0:0:0:0:
256,56,134047,1,6,0:0:0:0:
328,120,134217,6,0,B|380:132|380:132|432:116,1,95,2|0,3:2|0:0,0:0:0:0:
500,56,134558,2,0,L|500:120,1,47.5,10|0,0:0|0:0,0:0:0:0:
500,168,134729,1,2,1:2:0:0:
500,268,134899,1,10,0:0:0:0:
476,308,134984,1,8,0:0:0:0:
432,324,135070,1,2,1:2:0:0:
300,216,135240,5,8,0:0:0:0:
344,200,135325,1,8,0:0:0:0:
388,216,135411,2,0,L|432:236,2,31.6666666666667,2|0|0,1:2|1:0|1:0,0:0:0:0:
432,296,135581,5,2,1:3:0:0:
432,160,135751,1,6,0:3:0:0:
432,160,136092,1,10,0:3:0:0:
364,67,136263,1,10,0:3:0:0:
256,32,136433,1,6,0:3:0:0:
148,67,136604,1,10,0:3:0:0:
81,160,136774,1,6,0:3:0:0:
81,274,136945,6,0,B|80:332|128:352|128:352|156:324|204:328,1,166.25,6|0,1:2|0:0,0:0:0:0:
268,328,137626,1,10,0:0:0:0:
316,328,137712,1,0,1:0:0:0:
359,347,137797,6,0,L|420:348,1,47.5,2|8,1:2|0:3,0:0:0:0:
512,264,137967,2,0,L|452:264,1,47.5,10|8,0:0|0:3,0:0:0:0:
360,264,138138,1,10,0:0:0:0:
344,220,138223,1,0,1:0:0:0:
360,176,138308,6,0,B|408:96|344:16|344:16|320:52|272:80,1,246.999988693238,6|8,1:1|0:0,0:0:0:0:
82,218,138820,1,0,1:0:0:0:
70,246,138905,1,0,1:0:0:0:
81,274,138990,2,0,L|152:274,1,61.7499971733095,0|0,1:0|0:0,0:0:0:0:
213,274,139161,2,0,L|281:274,1,61.7499971733095,0|0,1:0|0:0,0:0:0:0:
344,272,139331,2,0,P|408:260|448:200,1,123.499994346619,10|2,0:0|0:0,0:0:0:0:
448,148,139587,1,2,0:0:0:0:
448,148,139672,5,2,1:2:0:0:
448,24,139842,1,2,1:2:0:0:
336,80,140013,1,8,0:0:0:0:
220,36,140183,1,2,1:2:0:0:
165,38,140268,1,0,1:0:0:0:
125,75,140354,1,0,1:0:0:0:
260,216,140524,2,0,P|247:154|187:105,1,123.499994346619,2|8,1:2|0:0,0:0:0:0:
116,300,140865,1,2,0:0:0:0:
116,300,141036,6,0,B|156:292|180:312|180:312|204:272|260:344|272:296|340:300|340:300|376:300,1,246.999988693238,2|8,1:3|0:0,0:0:0:0:
460,240,141547,1,0,1:0:0:0:
476,212,141632,1,0,1:0:0:0:
480,180,141717,2,0,P|480:136|468:104,1,61.7499971733095,0|0,1:0|0:0,0:0:0:0:
384,32,141888,2,0,P|384:76|396:108,1,61.7499971733095,0|0,1:0|0:0,0:0:0:0:
384,32,142058,2,0,L|228:32,1,123.499994346619,10|2,0:0|0:0,0:0:0:0:
136,32,142399,5,12,0:0:0:0:
112,48,142484,2,0,B|104:76|104:76|112:112,1,61.7499971733095,0|0,3:0|0:0,0:0:0:0:
184,136,142655,1,8,0:0:0:0:
208,152,142740,2,0,B|216:180|216:180|208:216,1,61.7499971733095,0|0,3:0|0:0,0:0:0:0:
152,268,142911,1,8,0:0:0:0:
152,268,142996,2,0,L|88:268,1,61.7499971733095,8|0,0:3|0:0,0:0:0:0:
20,268,143166,1,8,0:0:0:0:
152,352,143337,1,8,0:0:0:0:
152,352,143422,2,0,L|228:352,1,61.7499971733095,8|8,0:0|0:3,0:0:0:0:
292,384,143592,6,0,B|316:244|168:304|220:124,1,246.999988693238,6|2,1:2|0:0,0:0:0:0:
416,76,144104,2,0,P|399:135|343:186,1,123.499994346619,10|2,0:0|0:0,0:0:0:0:
292,200,144359,1,0,1:0:0:0:
292,200,144445,1,2,1:2:0:0:
124,136,144615,1,2,1:2:0:0:
236,84,144786,1,8,0:0:0:0:
184,224,144956,6,0,B|124:244|124:244|64:224,1,123.499994346619,6|0,1:2|0:0,0:0:0:0:
66,224,145297,1,0,1:0:0:0:
264,160,145467,2,0,L|264:296,1,123.499994346619,8|0,0:0|0:0,0:0:0:0:
264,364,145723,1,0,1:0:0:0:
264,364,145808,2,0,L|336:364,1,61.7499971733095,2|0,1:2|0:0,0:0:0:0:
396,364,145979,1,2,1:2:0:0:
496,296,146149,1,10,0:0:0:0:
464,180,146320,1,2,0:0:0:0:
464,180,146405,1,2,0:0:0:0:
464,180,146490,6,0,B|424:184|396:196|396:196|346:120|211:136,1,246.999988693238,4|8,1:2|0:0,0:0:0:0:
124,176,147001,1,0,1:0:0:0:
107,227,147087,1,0,1:0:0:0:
123,278,147172,1,0,1:0:0:0:
232,336,147342,1,2,1:2:0:0:
340,276,147513,1,10,0:0:0:0:
420,104,147683,1,6,1:2:0:0:
423,107,148024,5,2,1:3:0:0:
423,107,148195,1,8,0:0:0:0:
296,104,148365,1,10,0:0:0:0:
248,220,148536,1,2,1:2:0:0:
260,272,148621,1,0,1:0:0:0:
304,304,148706,2,0,L|372:304,1,61.7499971733095,10|0,0:0|0:0,0:0:0:0:
476,220,148876,2,0,L|404:220,1,61.7499971733095,10|8,0:0|0:3,0:0:0:0:
280,220,149047,1,2,1:2:0:0:
280,220,149132,1,4,0:3:0:0:
280,220,149217,6,0,B|169:231|157:126|157:126|215:63,1,246.999988693238,6|8,1:1|0:0,0:0:0:0:
352,0,149729,1,0,1:0:0:0:
384,0,149814,1,0,1:0:0:0:
416,0,149899,2,0,B|452:0|452:0|492:24,1,61.7499971733095,0|0,1:0|0:0,0:0:0:0:
480,88,150070,2,0,B|457:101|457:101|421:101,1,61.7499971733095,0|0,1:0|0:0,0:0:0:0:
352,100,150240,2,0,L|352:240,1,123.499994346619,10|2,0:0|0:0,0:0:0:0:
352,292,150496,1,2,0:0:0:0:
352,292,150581,5,2,1:2:0:0:
244,348,150751,1,2,0:0:0:0:
132,292,150922,1,8,0:0:0:0:
132,168,151092,1,2,1:2:0:0:
164,124,151178,1,0,1:0:0:0:
216,112,151263,1,0,1:0:0:0:
56,228,151433,2,0,P|36:168|68:96,1,123.499994346619,2|8,1:2|0:0,0:0:0:0:
232,228,151774,1,2,0:0:0:0:
232,228,151945,6,0,B|328:200|420:224|420:224|368:160,1,246.999988693238,6|8,1:2|0:0,0:0:0:0:
280,40,152456,1,0,1:0:0:0:
301,16,152541,1,0,1:0:0:0:
330,4,152626,2,0,L|412:4,1,61.7499971733095,2|0,1:2|0:0,0:0:0:0:
464,4,152797,1,0,1:0:0:0:
512,152,152967,1,10,0:0:0:0:
512,152,153308,6,0,B|480:216|512:272|512:272|468:320|376:292,1,246.999988693238,2|8,1:2|0:0,0:0:0:0:
256,220,153820,1,2,1:2:0:0:
224,220,153905,1,0,1:0:0:0:
192,220,153990,2,0,L|116:220,1,61.7499971733095,0|0,1:0|0:0,0:0:0:0:
32,296,154161,2,0,L|93:296,1,61.7499971733095,8|0,0:0|0:0,0:0:0:0:
164,132,154331,1,8,0:0:0:0:
213,111,154416,1,8,0:0:0:0:
266,111,154501,6,0,P|354:111|494:27,1,246.999988693238,6|0,1:2|1:0,0:0:0:0:
472,156,155013,2,0,L|472:292,1,123.499994346619,10|0,0:0|0:0,0:0:0:0:
472,336,155268,1,0,1:0:0:0:
416,336,155354,1,6,1:2:0:0:
292,336,155524,1,2,1:2:0:0:
176,384,155695,1,8,0:0:0:0:
60,296,155865,6,0,B|88:208|60:112|60:112|112:156,1,246.999988693238,6|2,1:2|1:2,0:0:0:0:
204,228,156376,1,10,0:0:0:0:
324,208,156547,1,2,1:2:0:0:
352,195,156632,1,0,1:0:0:0:
372,172,156717,2,0,P|386:136|384:108,1,61.7499971733095,2|0,1:2|0:0,0:0:0:0:
312,12,156888,1,10,0:0:0:0:
152,12,157058,1,8,0:0:0:0:
276,116,157229,1,8,0:3:0:0:
404,16,157399,5,4,1:2:0:0:
404,16,157570,1,0,1:0:0:0:
468,56,157740,5,2,0:0:0:0:
468,132,157911,1,2,1:2:0:0:
404,172,158081,1,10,0:0:0:0:
404,248,158252,1,2,0:0:0:0:
468,288,158422,1,0,1:0:0:0:
372,352,158592,2,0,L|320:352,1,47.5,10|0,0:0|0:0,0:0:0:0:
256,352,158763,5,8,0:0:0:0:
256,304,158848,1,8,0:0:0:0:
256,256,158933,1,8,0:0:0:0:
256,108,159104,5,8,0:3:0:0:
236,124,159189,1,8,0:3:0:0:
216,136,159274,2,0,L|152:136,1,47.5,2|4,1:2|0:3,0:0:0:0:
56,136,159445,1,2,1:2:0:0:
60,160,159530,1,0,1:0:0:0:
60,184,159615,1,2,1:2:0:0:
56,208,159700,1,4,0:3:0:0:
20,240,159786,5,10,0:0:0:0:
68,236,159871,1,8,0:0:0:0:
112,256,159956,1,8,0:0:0:0:
140,296,160041,1,8,0:0:0:0:
144,344,160126,6,0,B|208:320|208:320|376:344,1,213.750008153916,6|0,1:2|1:0,0:0:0:0:
512,244,160808,2,0,B|464:224|464:224|372:244,1,142.500005435944,10|2,0:0|0:0,0:0:0:0:
268,192,161320,2,0,L|268:32,2,142.500005435944,6|0|0,1:2|1:0|1:0,0:0:0:0:
148,272,162172,6,0,L|148:204,1,47.5,8|0,0:0|0:0,0:0:0:0:
148,156,162342,1,4,0:3:0:0:
148,108,162428,1,4,0:3:0:0:
148,60,162513,1,8,0:0:0:0:
44,8,162683,1,8,0:3:0:0:
148,156,162854,5,4,1:1:0:0:
148,156,163024,2,0,B|204:140|204:140|308:160,1,142.5,2|0,1:2|0:0,0:0:0:0:
356,176,163365,2,0,P|408:132|400:40,1,142.5,2|0,1:2|0:0,0:0:0:0:
356,16,163706,2,0,B|304:16|304:16|268:28|268:28|196:28,1,142.5,2|0,0:0|0:0,0:0:0:0:
145,20,164047,2,0,B|125:88|125:88|153:172,1,142.5,2|0,1:2|0:0,0:0:0:0:
172,224,164388,2,0,B|112:240|76:180|76:180|52:224,1,142.5,10|0,0:0|0:0,0:0:0:0:
76,276,164729,2,0,B|92:336|76:384|76:384|92:372|132:368,1,142.5,2|0,0:0|0:0,0:0:0:0:
164,320,165070,1,8,0:0:0:0:
268,368,165240,1,8,1:3:0:0:
360,300,165411,1,8,0:0:0:0:
380,256,165496,1,8,0:0:0:0:
360,212,165581,5,4,1:2:0:0:
360,212,165751,2,0,P|340:140|380:64,1,142.5,2|0,1:2|0:0,0:0:0:0:
420,36,166092,2,0,P|344:56|244:32,1,142.5,2|0,1:2|0:0,0:0:0:0:
220,8,166433,2,0,B|204:52|204:52|220:88|220:88|220:160,1,142.5,2|0,0:0|0:0,0:0:0:0:
220,216,166774,2,0,B|164:216|164:216|72:288,1,142.5,2|0,1:2|0:0,0:0:0:0:
24,272,167115,2,0,L|24:124,1,142.5,10|0,0:0|0:0,0:0:0:0:
24,56,167456,2,0,B|88:56|112:4|112:4|172:4,1,142.5,2|2,0:0|0:0,0:0:0:0:
216,4,167797,1,8,0:0:0:0:
328,4,167967,1,8,1:3:0:0:
408,84,168138,1,8,0:0:0:0:
428,128,168223,1,8,0:0:0:0:
408,172,168308,5,4,1:2:0:0:
408,172,168479,1,0,1:0:0:0:
408,172,168820,1,0,1:0:0:0:
408,172,168990,2,0,B|360:172|360:172|320:200|320:200|256:200,1,142.500005435944,8|0,0:0|1:0,0:0:0:0:
204,200,169501,1,0,1:0:0:0:
132,200,169672,5,0,1:0:0:0:
204,200,169842,1,8,0:0:0:0:
204,200,170183,2,0,L|204:268,1,35.625001358986,2|2,0:3|0:3,0:0:0:0:
204,304,170354,1,2,1:3:0:0:
288,308,170524,1,8,0:0:0:0:
356,256,170695,1,8,0:0:0:0:
356,172,170865,1,8,0:0:0:0:
356,128,170950,1,8,0:0:0:0:
356,84,171036,5,4,1:2:0:0:
356,84,171206,1,0,1:0:0:0:
356,84,171547,1,0,1:0:0:0:
356,84,171717,2,0,B|272:84,1,71.2500027179719,8|0,0:0|0:0,0:0:0:0:
212,84,172058,1,0,1:0:0:0:
140,84,172229,1,0,1:0:0:0:
68,84,172399,5,0,1:0:0:0:
212,84,172570,1,8,0:0:0:0:
140,84,172740,1,0,3:0:0:0:
284,84,172911,1,8,0:0:0:0:
428,84,173081,1,0,1:0:0:0:
284,84,173251,1,8,0:0:0:0:
212,208,173422,1,8,0:0:0:0:
228,240,173507,1,4,0:3:0:0:
212,272,173592,1,8,0:3:0:0:
228,304,173678,1,4,0:3:0:0:
212,336,173763,5,4,1:2:0:0:
212,336,173933,2,0,B|152:336|152:336|76:376,1,113.999996520996,2|8,0:0|0:0,0:0:0:0:
12,292,174274,1,0,1:0:0:0:
12,264,174359,1,0,1:0:0:0:
12,236,174445,2,0,L|12:168,2,56.9999982604981,0|0|0,1:0|0:0|1:0,0:0:0:0:
124,264,174786,1,8,0:0:0:0:
200,180,174956,6,0,L|200:44,1,113.999996520996,0|4,3:0|1:2,0:0:0:0:
300,12,175297,2,0,L|300:140,1,113.999996520996,2|8,0:0|0:0,0:0:0:0:
300,240,175638,1,0,1:0:0:0:
328,240,175723,1,0,1:0:0:0:
356,240,175808,2,0,L|416:240,2,56.9999982604981,0|0|0,1:0|0:0|1:0,0:0:0:0:
284,328,176149,1,8,0:0:0:0:
172,300,176320,1,2,0:0:0:0:
140,192,176490,5,6,1:2:0:0:
140,192,176661,2,0,B|140:128|140:128|192:76,1,113.999996520996,2|8,0:0|0:0,0:0:0:0:
276,144,177001,1,0,1:0:0:0:
304,144,177087,1,0,1:0:0:0:
332,144,177172,2,0,L|396:144,2,56.9999982604981,0|0|0,1:0|0:0|1:0,0:0:0:0:
392,240,177513,1,8,0:0:0:0:
476,164,177683,6,0,B|476:104|476:104|432:60,1,113.999996520996,0|4,3:0|1:2,0:0:0:0:
324,44,178024,1,2,0:0:0:0:
240,124,178195,1,14,0:1:0:0:
140,80,178365,1,2,0:0:0:0:
140,80,178450,2,0,L|56:80,1,56.9999982604981,0|0,1:0|1:0,0:0:0:0:
20,172,178621,1,8,0:0:0:0:
40,192,178706,2,0,B|104:192,1,56.9999982604981,8|0,0:3|0:0,0:0:0:0:
176,192,178876,1,8,0:0:0:0:
224,192,178962,1,8,0:3:0:0:
268,192,179047,1,8,0:3:0:0:
312,192,179132,1,4,0:3:0:0:
356,192,179217,5,4,1:1:0:0:
356,192,179388,1,0,1:0:0:0:
356,192,179729,1,0,1:0:0:0:
424,168,179899,2,0,B|424:120|424:120|476:32,1,142.500005435944,8|2,0:0|1:2,0:0:0:0:
412,0,180411,1,0,1:0:0:0:
328,56,180581,5,4,1:2:0:0:
256,56,180751,1,8,0:0:0:0:
256,56,181092,2,0,L|200:56,1,35.625001358986,2|2,0:3|0:3,0:0:0:0:
152,56,181263,1,0,1:0:0:0:
76,92,181433,1,10,0:0:0:0:
36,168,181604,1,4,1:3:0:0:
48,252,181774,1,8,0:0:0:0:
64,276,181859,1,8,0:0:0:0:
88,292,181945,5,4,1:2:0:0:
88,292,182115,1,2,1:2:0:0:
88,292,182456,1,0,1:0:0:0:
148,332,182626,2,0,B|196:316|196:316|304:336,1,142.500005435944,10|0,0:0|1:0,0:0:0:0:
356,352,183138,1,0,1:0:0:0:
424,328,183308,5,4,1:2:0:0:
484,268,183479,1,8,0:0:0:0:
480,184,183649,1,2,0:0:0:0:
436,108,183820,1,2,0:0:0:0:
352,72,183990,1,0,1:0:0:0:
236,72,184161,1,8,0:0:0:0:
112,144,184331,1,8,0:0:0:0:
64,284,184501,6,0,B|92:360|208:392|296:320|296:320|264:264|192:292,1,380,6|0,1:2|0:0,0:0:0:0:
136,248,186036,6,0,L|136:140,1,95,2|2,1:2|0:0,0:0:0:0:
136,104,186547,1,2,0:0:0:0:
136,104,186888,1,2,0:0:0:0:
156,60,187058,1,2,0:0:0:0:
200,44,187229,2,0,P|264:56|304:48,1,95,2|0,0:0|0:0,0:0:0:0:
332,20,187740,1,2,0:0:0:0:
444,80,187911,1,2,1:2:0:0:
492,136,188081,2,0,P|424:148|376:100,1,142.5,0|0,1:0|0:0,0:0:0:0:
332,88,188763,6,0,L|332:192,1,95,2|2,0:0|0:0,0:0:0:0:
332,232,189274,1,2,0:0:0:0:
332,232,189615,1,2,0:0:0:0:
296,264,189786,1,2,0:0:0:0:
248,252,189956,1,2,0:0:0:0:
208,276,190126,6,0,P|164:264|108:284,1,95,2|0,0:0|0:0,0:0:0:0:
24,364,190638,1,0,1:0:0:0:
44,292,190808,2,0,B|32:248|32:248|48:188,1,95,0|0,3:0|0:0,0:0:0:0:
124,144,191320,5,2,0:0:0:0:
256,192,191831,1,2,0:0:0:0:
344,156,192172,1,2,0:0:0:0:
436,192,192513,1,2,0:0:0:0:
436,192,192683,5,2,0:0:0:0:
416,100,193024,1,2,0:0:0:0:
332,56,193365,5,2,1:2:0:0:
248,100,193535,1,0,1:0:0:0:
164,56,193706,1,2,0:0:0:0:
116,56,193876,1,2,0:0:0:0:
80,88,194047,5,2,0:0:0:0:
80,88,194217,2,0,L|80:192,1,95,2|0,0:3|0:0,0:0:0:0:
80,232,194729,1,0,0:0:0:0:
108,272,194899,1,2,0:3:0:0:
152,288,195070,1,0,0:0:0:0:
200,284,195240,1,2,0:0:0:0:
344,192,195410,5,6,1:2:0:0:
168,192,195751,1,2,1:2:0:0:
344,192,195922,1,10,0:0:0:0:
168,192,196092,2,0,L|72:192,1,95,2|0,1:2|0:0,0:0:0:0:
73,192,196945,6,0,B|44:120|100:68|100:68|44:60|8:84|8:84|16:20|80:0,1,332.5,6|0,1:2|0:0,0:0:0:0:
168,0,198308,5,2,3:3:0:0:
232,72,198479,1,0,1:0:0:0:
328,64,198649,1,10,0:0:0:0:
420,116,198820,1,2,0:0:0:0:
420,116,198905,1,2,0:0:0:0:
420,116,198990,2,0,L|420:184,1,47.5,2|8,1:2|0:3,0:0:0:0:
420,264,199160,1,10,0:0:0:0:
376,244,199246,1,8,0:0:0:0:
328,244,199331,2,0,B|304:248|304:248|256:236,1,47.5,10|8,0:0|0:0,0:0:0:0:
188,192,199501,1,10,0:0:0:0:
188,192,199587,1,8,0:0:0:0:
188,192,199672,6,0,B|160:164|164:124|164:124|100:128|64:184|64:184|32:168|40:124,1,246.999988693238,6|8,1:1|0:0,0:0:0:0:
168,4,200183,1,0,1:0:0:0:
200,4,200268,1,0,1:0:0:0:
228,20,200354,2,0,L|308:20,1,61.7499971733095,0|0,1:0|0:0,0:0:0:0:
360,20,200524,2,0,L|432:20,1,61.7499971733095,0|0,1:0|0:0,0:0:0:0:
496,20,200695,2,0,B|496:80|432:96|432:96|432:124,1,123.499994346619,10|2,0:0|0:0,0:0:0:0:
432,180,200950,1,2,0:0:0:0:
432,180,201035,5,2,1:2:0:0:
364,284,201206,1,2,1:2:0:0:
240,276,201376,1,8,0:0:0:0:
144,356,201547,1,2,1:2:0:0:
92,368,201632,1,0,1:0:0:0:
40,352,201717,1,0,1:0:0:0:
132,200,201888,2,0,P|180:177|251:204,1,123.499994346619,2|8,1:2|0:0,0:0:0:0:
364,352,202229,1,2,0:0:0:0:
364,352,202399,6,0,B|328:368|296:340|296:340|224:380|160:348|192:248,1,246.999988693238,2|8,1:3|0:0,0:0:0:0:
232,108,202910,1,0,1:0:0:0:
252,84,202996,1,0,1:0:0:0:
280,72,203081,2,0,P|312:64|352:80,1,61.7499971733095,0|0,1:0|0:0,0:0:0:0:
452,156,203251,2,0,P|420:164|380:148,1,61.7499971733095,0|0,1:0|0:0,0:0:0:0:
452,156,203422,2,0,L|452:284,1,123.499994346619,10|2,0:0|0:0,0:0:0:0:
356,360,203763,5,12,0:0:0:0:
328,348,203848,2,0,P|312:320|312:272,1,61.7499971733095,0|0,3:0|0:0,0:0:0:0:
232,292,204019,1,8,0:0:0:0:
228,261,204104,2,0,P|244:233|285:209,1,61.7499971733095,0|0,3:0|0:0,0:0:0:0:
352,220,204274,1,8,0:0:0:0:
352,220,204359,2,0,L|352:140,1,61.7499971733095,8|0,0:3|0:0,0:0:0:0:
352,88,204530,1,8,0:0:0:0:
256,16,204700,1,8,0:0:0:0:
256,16,204785,2,0,L|256:92,1,61.7499971733095,8|8,0:0|0:3,0:0:0:0:
256,192,204956,6,0,B|172:196|140:108|140:108|116:160|52:168,1,246.999988693238,6|2,1:2|0:0,0:0:0:0:
16,340,205467,2,0,P|79:335|128:280,1,123.499994346619,10|2,0:0|1:2,0:0:0:0:
128,228,205723,1,0,1:0:0:0:
128,228,205808,1,2,1:2:0:0:
64,84,205979,1,2,1:2:0:0:
4,192,206149,1,8,0:0:0:0:
232,108,206320,6,0,B|280:108|280:108|316:128|316:128|372:128,1,123.499994346619,6|0,1:2|0:0,0:0:0:0:
350,128,206660,1,0,1:0:0:0:
456,192,206831,2,0,B|474:132|474:132|454:72,1,123.499994346619,8|0,0:0|0:0,0:0:0:0:
416,16,207087,1,0,1:0:0:0:
416,16,207172,2,0,L|336:16,1,61.7499971733095,2|0,1:2|0:0,0:0:0:0:
284,16,207342,1,2,1:2:0:0:
160,16,207513,1,10,0:0:0:0:
96,120,207683,1,2,0:0:0:0:
96,120,207768,1,2,0:0:0:0:
96,120,207854,6,0,B|136:204|92:324|92:324|160:292,1,246.999988693238,4|8,1:2|0:0,0:0:0:0:
244,272,208365,1,0,1:0:0:0:
296,265,208450,1,0,1:0:0:0:
347,282,208535,1,0,1:0:0:0:
428,376,208706,1,2,1:2:0:0:
508,284,208876,1,10,0:0:0:0:
285,349,209047,1,6,1:2:0:0:
288,352,209388,5,2,1:3:0:0:
288,352,209558,1,8,0:0:0:0:
168,316,209729,1,10,0:0:0:0:
240,192,209899,1,2,1:2:0:0:
252,192,209956,1,0,1:0:0:0:
264,192,210013,1,0,1:0:0:0:
276,192,210070,2,0,L|337:192,1,61.7499971733095,10|0,0:0|0:0,0:0:0:0:
448,40,210240,1,10,0:0:0:0:
392,40,210325,1,8,0:3:0:0:
336,40,210410,2,0,L|264:40,1,61.7499971733095,2|4,1:2|0:3,0:0:0:0:
204,40,210581,6,0,P|96:80|64:200,1,246.999988693238,6|8,1:1|0:0,0:0:0:0:
200,336,211092,1,0,1:0:0:0:
228,348,211177,1,0,1:0:0:0:
256,360,211263,2,0,L|340:360,1,61.7499971733095,0|0,1:0|0:0,0:0:0:0:
388,360,211433,2,0,L|456:360,1,61.7499971733095,0|0,1:0|0:0,0:0:0:0:
496,228,211604,2,0,P|448:264|360:264,1,123.499994346619,10|2,0:0|0:0,0:0:0:0:
320,268,211859,1,2,0:0:0:0:
320,268,211945,5,2,1:2:0:0:
216,204,212115,1,2,0:0:0:0:
256,88,212285,1,8,0:0:0:0:
156,16,212456,1,2,1:2:0:0:
104,28,212541,1,0,1:0:0:0:
80,76,212626,1,0,1:0:0:0:
80,216,212797,2,0,P|104:272|179:297,1,123.499994346619,2|8,1:2|0:0,0:0:0:0:
388,224,213138,1,2,0:0:0:0:
388,224,213308,6,0,B|342:223|335:190|335:190|290:183|254:215|254:215|222:191|144:220,1,246.999988693238,6|8,1:2|0:0,0:0:0:0:
24,332,213820,1,0,1:0:0:0:
4,308,213905,1,0,1:0:0:0:
0,276,213990,2,0,L|0:204,1,61.7499971733095,2|0,1:2|0:0,0:0:0:0:
0,92,214160,1,0,1:0:0:0:
0,104,214246,1,0,1:0:0:0:
0,116,214331,2,0,P|60:120|128:172,1,123.499994346619,10|2,0:0|0:3,0:0:0:0:
256,304,214672,6,0,B|260:268|272:268|272:268|248:236|248:236|300:176|228:136|260:64,1,246.999988693238,2|8,1:2|0:0,0:0:0:0:
452,0,215183,1,2,1:2:0:0:
456,29,215268,1,0,1:0:0:0:
443,58,215354,2,0,P|416:79|376:84,1,61.7499971733095,0|0,1:0|0:0,0:0:0:0:
314,81,215524,2,0,P|281:71|242:83,1,61.7499971733095,8|0,0:0|0:0,0:0:0:0:
124,192,215695,1,8,0:0:0:0:
172,168,215780,1,8,0:0:0:0:
224,180,215865,6,0,B|268:168|308:180|308:180|384:156|384:156|428:172|480:172,1,246.999988693238,6|0,1:2|1:0,0:0:0:0:
384,244,216376,2,0,B|400:308|400:308|372:372,1,123.499994346619,10|0,0:0|0:0,0:0:0:0:
324,384,216632,1,0,1:0:0:0:
272,368,216717,1,6,1:2:0:0:
196,268,216888,1,2,1:2:0:0:
280,176,217058,1,8,0:0:0:0:
476,236,217229,6,0,B|468:176|418:158|418:158|396:113|429:57,1,185.249991519928,6|0,1:2|0:0,0:0:0:0:
448,16,217570,1,2,1:2:0:0:
332,60,217740,1,10,0:0:0:0:
208,56,217910,1,2,1:2:0:0:
176,56,217996,1,0,1:0:0:0:
144,56,218081,2,0,B|136:88|136:88|144:132,1,61.7499971733095,2|0,1:2|0:0,0:0:0:0:
184,172,218251,1,2,1:2:0:0:
344,176,218422,2,0,P|296:128|232:124,1,123.499994346619,8|0,0:0|0:0,0:0:0:0:
56,256,218763,5,4,1:2:0:0:
56,256,218933,1,0,1:0:0:0:
120,296,219104,5,2,0:0:0:0:
184,256,219274,1,2,1:2:0:0:
248,296,219445,1,10,0:0:0:0:
312,256,219615,1,2,0:0:0:0:
376,296,219785,1,0,1:0:0:0:
464,192,219956,2,0,L|392:192,1,47.5,10|0,0:0|0:0,0:0:0:0:
348,192,220126,5,8,0:0:0:0:
348,144,220212,1,8,0:0:0:0:
348,96,220297,1,8,0:0:0:0:
216,8,220467,1,8,0:3:0:0:
236,20,220552,1,8,0:3:0:0:
256,32,220638,2,0,L|256:100,1,47.5,2|4,1:2|0:3,0:0:0:0:
256,192,220808,1,2,1:2:0:0:
256,216,220893,1,0,1:0:0:0:
256,240,220979,1,2,1:2:0:0:
256,264,221064,1,4,0:3:0:0:
256,312,221149,5,10,0:0:0:0:
208,312,221234,1,8,0:0:0:0:
160,312,221320,1,8,0:0:0:0:
112,312,221405,1,8,0:0:0:0:
64,312,221490,6,0,B|20:340|20:340|68:260|24:176,1,213.750008153916,6|0,1:2|1:0,0:0:0:0:
0,28,222172,2,0,P|60:72|152:76,1,142.500005435944,10|10,0:0|0:0,0:0:0:0:
176,24,222598,1,8,0:0:0:0:
176,24,222683,2,0,L|236:24,1,47.5,10|8,0:0|0:0,0:0:0:0:
296,24,222854,5,8,0:0:0:0:
296,52,222939,1,8,0:3:0:0:
296,80,223024,1,8,0:3:0:0:
296,108,223109,1,8,0:3:0:0:
316,128,223195,5,8,0:0:0:0:
316,152,223280,1,8,0:3:0:0:
316,176,223365,1,8,0:3:0:0:
316,200,223450,1,8,0:3:0:0:
332,224,223535,5,8,0:0:0:0:
332,244,223621,1,0,1:0:0:0:
332,264,223706,1,0,1:0:0:0:
332,284,223791,1,0,1:0:0:0:
352,304,223876,5,4,0:3:0:0:
352,320,223962,1,4,0:3:0:0:
352,336,224047,1,4,0:3:0:0:
352,352,224132,1,4,0:3:0:0:
376,368,224217,6,0,L|248:368,1,113.999996520996,4|0,1:1|0:0,0:0:0:0:
148,368,224558,1,0,1:0:0:0:
80,276,224729,1,0,1:0:0:0:
224,168,224899,1,8,0:0:0:0:
156,128,225070,2,0,L|156:-12,1,113.999996520996,0|0,3:0|1:0,0:0:0:0:
96,192,225410,6,0,B|204:256|208:136|356:232,1,227.999993041992,2|0,1:3|3:0,0:0:0:0:
352,320,225922,2,0,P|292:312|252:264,1,113.999996520996,0|2,3:0|0:3,0:0:0:0:
256,68,226263,1,8,0:0:0:0:
156,128,226433,1,0,3:0:0:0:
156,334,226604,1,8,0:0:0:0:
256,274,226774,1,0,3:0:0:0:
424,320,226945,6,0,B|424:276|424:276|408:252|408:252|408:188,1,113.999996520996,4|0,1:2|0:0,0:0:0:0:
408,96,227285,1,0,1:0:0:0:
312,36,227456,1,0,1:0:0:0:
200,192,227626,1,8,0:0:0:0:
156,128,227797,2,0,L|42:128,1,113.999996520996,0|0,3:0|1:0,0:0:0:0:
200,64,228138,6,0,B|240:52|264:64|264:64|288:60|312:36|312:36|376:72,1,170.999994781494,2|0,1:3|0:0,0:0:0:0:
408,96,228479,1,8,0:0:0:0:
316,244,228649,2,0,L|316:128,1,113.999996520996,0|2,3:0|0:3,0:0:0:0:
200,64,228990,1,0,1:0:0:0:
316,244,229160,1,8,0:0:0:0:
200,64,229331,1,8,0:0:0:0:
316,244,229501,1,8,0:0:0:0:
372,244,229587,1,8,0:0:0:0:
428,244,229672,5,4,1:2:0:0:
480,184,229842,1,0,3:0:0:0:
424,376,230013,1,0,1:0:0:0:
372,316,230183,1,0,1:0:0:0:
184,340,230354,1,8,0:0:0:0:
248,292,230524,2,0,B|232:236|232:236|268:168,1,113.999996520996,0|0,3:0|1:0,0:0:0:0:
428,64,230865,6,0,L|184:64,1,227.999993041992,2|0,1:3|3:0,0:0:0:0:
52,148,231376,2,0,L|192:148,1,113.999996520996,0|2,3:0|0:3,0:0:0:0:
316,244,231717,1,8,0:0:0:0:
380,148,231888,1,0,3:0:0:0:
200,64,232058,1,8,0:0:0:0:
264,160,232229,1,0,3:0:0:0:
168,276,232399,6,0,B|112:292|112:292|40:268,1,113.999996520996,4|0,1:2|0:0,0:0:0:0:
12,172,232740,1,0,1:0:0:0:
116,128,232910,1,0,1:0:0:0:
264,252,233081,1,8,0:0:0:0:
200,204,233251,2,0,L|200:68,1,113.999996520996,0|0,3:0|1:0,0:0:0:0:
304,48,233592,1,2,1:3:0:0:
200,0,233763,5,2,1:3:0:0:
328,160,233933,2,0,L|448:160,1,113.999996520996,8|0,0:0|0:0,0:0:0:0:
442,160,234274,1,2,0:3:0:0:
500,256,234445,1,0,1:0:0:0:
328,160,234615,1,8,0:0:0:0:
500,256,234785,1,8,1:3:0:0:
368,288,234956,5,4,1:2:0:0:
256,192,235041,12,0,239047,0:0:0:0:
256,192,239217,12,0,246035,0:0:0:0:
