osu file format v14

[General]
AudioFilename: audio.mp3
AudioLeadIn: 0
PreviewTime: 63817
Countdown: 0
SampleSet: Soft
StackLeniency: 0.7
Mode: 0
LetterboxInBreaks: 0
WidescreenStoryboard: 0

[Editor]
Bookmarks: 89215,138304
DistanceSpacing: 0.3
BeatDivisor: 4
GridSize: 32
TimelineZoom: 2.699999

[Metadata]
Title:Genjutsu no Crossroad
TitleUnicode:幻術のクロスロード
Artist:Ayane
ArtistUnicode:彩音
Creator:Bellicose
Version:Hard
Source:Disorder6
Tags:video game galgame visual novel vn 5pb japanese rock opening full version Mariko Sakuragi HakaseShinonome Mindlessness
BeatmapID:2427280
BeatmapSetID:1155162

[Difficulty]
HPDrainRate:5
CircleSize:3.8
OverallDifficulty:6.4
ApproachRate:8
SliderMultiplier:1.4
SliderTickRate:1

[Events]
//Background and Video events
0,0,"bg982982.jpg",0,0
//Break Periods
2,89417,91195
2,163054,173013
2,186236,194660
//Storyboard Layer 0 (Background)
//Storyboard Layer 1 (Fail)
//Storyboard Layer 2 (Pass)
//Storyboard Layer 3 (Foreground)
//Storyboard Layer 4 (Overlay)
//Storyboard Sound Samples

[TimingPoints]
604,340.909090909091,4,2,1,50,1,0
604,-100,4,2,1,50,0,0
4865,361.44578313253,4,2,1,50,1,0
5355,340.909090909091,4,2,1,50,1,0
5355,-100,4,2,1,50,0,0
6036,340.909090909091,4,2,1,50,1,0
6036,-100,4,2,1,60,0,0
18308,-111.111111111111,4,2,1,50,0,0
23422,-111.111111111111,4,2,1,60,0,0
23763,-105.263157894737,4,2,1,60,0,0
29388,-111.111111111111,4,2,1,50,0,0
34672,-105.263157894737,4,2,1,60,0,0
40126,-105.263157894737,4,2,60,60,0,0
40297,-111.111111111111,4,2,1,50,0,0
45581,-105.263157894737,4,2,1,60,0,0
51036,-111.111111111111,4,2,1,50,0,0
56490,-100,4,2,60,65,0,0
56831,-100,4,2,1,65,0,0
57001,-100,4,2,1,65,0,0
57854,-100,4,2,1,65,0,0
58195,-100,4,2,1,65,0,0
59217,-100,4,2,1,65,0,0
59558,-100,4,2,1,65,0,0
61604,-100,4,2,1,65,0,0
63990,-100,4,2,1,65,0,0
64672,-95.2380952380952,4,2,1,75,0,1
65013,-95.2380952380952,4,2,1,75,0,1
67399,-95.2380952380952,4,2,1,75,0,1
67570,-95.2380952380952,4,2,1,75,0,1
69957,-95.2380952380952,4,2,1,75,0,1
70298,-95.2380952380952,4,2,1,75,0,1
72854,-95.2380952380952,4,2,60,75,0,1
73024,-95.2380952380952,4,2,1,75,0,1
74047,-100,4,2,1,70,0,0
75581,-95.2380952380952,4,2,1,75,0,1
75922,-95.2380952380952,4,2,1,75,0,1
78308,-95.2380952380952,4,2,60,75,0,1
78649,-95.2380952380952,4,2,1,75,0,1
80865,-95.2380952380952,4,2,1,75,0,1
81206,-95.2380952380952,4,2,1,75,0,1
82229,-95.2380952380952,4,2,60,75,0,1
82570,-95.2380952380952,4,2,1,75,0,1
83763,-95.2380952380952,4,2,1,75,0,1
86490,-95.2380952380952,4,2,1,75,0,1
89217,-100,4,2,1,60,0,0
91945,-105.263157894737,4,2,1,55,0,0
97399,-105.263157894737,4,2,1,60,0,0
102854,-105.263157894737,4,2,1,55,0,0
108308,-105.263157894737,4,2,1,60,0,0
113763,-105.263157894737,4,2,60,60,0,0
113933,-111.111111111111,4,2,1,50,0,0
119217,-105.263157894737,4,2,1,60,0,0
124672,-111.111111111111,4,2,1,50,0,0
130126,-100,4,2,60,65,0,0
130467,-100,4,2,1,65,0,0
130638,-100,4,2,1,65,0,0
131490,-100,4,2,1,65,0,0
131831,-100,4,2,1,65,0,0
132854,-100,4,2,1,65,0,0
133195,-100,4,2,1,65,0,0
135240,-100,4,2,1,65,0,0
138308,-95.2380952380952,4,2,1,75,0,1
138649,-95.2380952380952,4,2,1,75,0,1
141036,-95.2380952380952,4,2,1,75,0,1
141206,-95.2380952380952,4,2,1,75,0,1
143592,-95.2380952380952,4,2,1,75,0,1
143933,-95.2380952380952,4,2,1,75,0,1
146490,-95.2380952380952,4,2,60,75,0,1
146661,-95.2380952380952,4,2,1,75,0,1
147683,-100,4,2,1,70,0,0
149217,-95.2380952380952,4,2,1,75,0,1
149558,-95.2380952380952,4,2,1,75,0,1
151945,-95.2380952380952,4,2,60,75,0,1
152286,-95.2380952380952,4,2,1,75,0,1
154501,-95.2380952380952,4,2,1,75,0,1
154842,-95.2380952380952,4,2,1,75,0,1
155865,-95.2380952380952,4,2,60,75,0,1
156206,-95.2380952380952,4,2,1,75,0,1
157399,-95.2380952380952,4,2,1,75,0,1
160126,-95.2380952380952,4,2,1,75,0,1
162854,-100,4,2,1,65,0,0
163536,-100,4,2,1,65,0,0
163876,-100,4,2,1,65,0,0
166263,-100,4,2,1,65,0,0
166604,-100,4,2,1,65,0,0
168990,-100,4,2,1,65,0,0
169331,-100,4,2,1,65,0,0
171717,-100,4,2,1,65,0,0
172058,-100,4,2,1,65,0,0
173763,-95.2380952380952,4,2,60,70,0,0
174104,-95.2380952380952,4,2,1,70,0,0
175126,-95.2380952380952,4,2,60,70,0,0
175467,-95.2380952380952,4,2,1,70,0,0
176490,-95.2380952380952,4,2,60,70,0,0
176831,-95.2380952380952,4,2,1,70,0,0
177854,-95.2380952380952,4,2,60,70,0,0
178195,-95.2380952380952,4,2,1,70,0,0
178365,-95.2380952380952,4,2,1,70,0,0
179217,-95.2380952380952,4,2,1,65,0,0
184501,-95.2380952380952,4,2,60,65,0,0
186036,-100,4,2,1,50,0,0
191320,340.909090909091,4,2,1,50,1,0
191320,-100,4,2,1,50,0,0
195410,-100,4,2,1,75,0,0
196945,340.909090909091,4,2,1,50,1,0
196945,-111.111111111111,4,2,1,65,0,0
198308,-100,4,2,1,65,0,0
199672,-95.2380952380952,4,2,1,75,0,1
200183,-95.2380952380952,4,2,1,75,0,1
202399,-95.2380952380952,4,2,1,75,0,1
202740,-95.2380952380952,4,2,1,75,0,1
204956,-95.2380952380952,4,2,1,75,0,1
205297,-95.2380952380952,4,2,1,75,0,1
207854,-95.2380952380952,4,2,60,75,0,1
208195,-95.2380952380952,4,2,1,75,0,1
209047,-100,4,2,1,70,0,0
210581,-95.2380952380952,4,2,1,75,0,1
211092,-95.2380952380952,4,2,1,75,0,1
213308,-95.2380952380952,4,2,60,75,0,1
213649,-95.2380952380952,4,2,1,75,0,1
215865,-95.2380952380952,4,2,1,75,0,1
216206,-95.2380952380952,4,2,1,75,0,1
217229,-95.2380952380952,4,2,60,75,0,1
217570,-95.2380952380952,4,2,1,75,0,1
218763,-95.2380952380952,4,2,1,75,0,1
221490,-95.2380952380952,4,2,1,75,0,1
224217,-100,4,2,1,60,0,0
238876,-100,4,2,1,5,0,0
239217,-100,4,2,1,60,0,0
246035,-100,4,2,1,5,0,0

[Colours]
Combo1 : 224,189,253
Combo2 : 191,228,251
Combo3 : 223,213,236
Combo4 : 142,203,253

[HitObjects]
47,131,5355,5,8,0:0:0:0:
47,131,5440,1,8,0:0:0:0:
47,131,5525,2,0,L|60:79,1,35,4|0,1:3|1:3,0:0:0:0:
69,57,5695,2,0,L|115:70,3,35,0|0|0|0,1:0|1:0|1:0|1:0,0:0:0:0:
174,92,6036,6,0,P|243:112|318:76,1,140,4|0,1:1|1:0,0:0:0:0:
384,61,6547,1,0,1:0:0:0:
467,62,6717,2,0,B|458:112|458:112|439:131|439:131|426:215,1,140,8|0,0:0|1:0,0:0:0:0:
488,260,7229,1,2,1:3:0:0:
488,260,7399,6,0,P|417:248|355:303,1,140,2|0,1:3|0:0,0:0:0:0:
330,363,7911,1,2,0:3:0:0:
330,363,8081,2,0,L|165:342,1,140,8|8,0:0|0:0,0:0:0:0:
24,368,8763,6,0,B|77:349|77:349|100:245,1,140,4|0,1:2|1:0,0:0:0:0:
74,185,9274,1,0,1:0:0:0:
128,120,9445,2,0,P|182:105|249:169,1,140,8|0,0:0|1:0,0:0:0:0:
261,235,9956,1,2,1:3:0:0:
261,235,10126,5,2,1:3:0:0:
192,284,10297,2,0,L|346:299,1,140,8|0,0:0|0:0,0:0:0:0:
410,326,10808,1,0,1:0:0:0:
470,266,10979,2,0,L|460:182,1,70,8|8,0:0|0:0,0:0:0:0:
459,81,11320,1,8,0:0:0:0:
459,81,11405,1,8,0:0:0:0:
459,81,11490,6,0,B|405:93|405:93|393:116|393:116|334:134,1,140,4|0,1:2|1:0,0:0:0:0:
264,79,12001,1,0,1:0:0:0:
211,145,12172,2,0,P|145:152|101:87,1,140,8|0,0:0|1:0,0:0:0:0:
77,18,12683,1,2,1:3:0:0:
77,18,12854,5,2,1:3:0:0:
1,55,13024,2,0,L|28:219,1,140,8|0,0:0|0:0,0:0:0:0:
48,274,13536,1,0,1:0:0:0:
23,354,13706,2,0,L|108:340,1,70,8|8,0:0|0:0,0:0:0:0:
194,303,14047,1,8,0:0:0:0:
194,303,14132,1,8,0:0:0:0:
194,303,14217,6,0,B|232:243|232:243|183:172,1,140,4|0,1:2|1:0,0:0:0:0:
117,142,14729,1,0,1:0:0:0:
116,58,14899,2,0,P|156:6|229:16,1,140,8|0,0:0|1:0,0:0:0:0:
294,69,15411,1,2,1:3:0:0:
294,69,15581,5,2,1:3:0:0:
274,150,15751,2,0,L|433:167,1,140,8|0,0:0|0:0,0:0:0:0:
490,129,16263,1,0,1:0:0:0:
494,212,16433,1,8,0:0:0:0:
422,256,16604,1,8,1:3:0:0:
430,366,16774,1,8,1:2:0:0:
256,192,16945,12,2,17797,0:3:0:0:
406,342,18308,6,0,P|472:304|431:208,1,188.999994232178,6|2,1:1|0:0,0:0:0:0:
374,174,18990,2,0,L|158:208,1,188.999994232178,2|2,0:0|1:2,0:0:0:0:
113,184,19672,2,0,P|76:104|147:53,1,188.999994232178,2|2,1:2|0:0,0:0:0:0:
223,53,20354,2,0,L|237:120,1,62.9999980773926,2|2,0:0|0:0,0:0:0:0:
280,175,20695,2,0,L|266:242,1,62.9999980773926,10|2,0:0|0:0,0:0:0:0:
313,316,21036,6,0,B|286:370|286:370|147:332,1,188.999994232178,2|0,1:2|0:0,0:0:0:0:
89,360,21717,2,0,P|18:341|53:235,1,188.999994232178,2|0,0:0|1:0,0:0:0:0:
95,201,22399,5,10,0:0:0:0:
95,201,22484,1,8,0:0:0:0:
95,201,22570,2,0,L|153:211,1,31.4999990386963,0|8,1:0|0:3,0:0:0:0:
160,220,22740,2,0,L|191:214,3,31.4999990386963,0|4|8|4,1:0|0:3|0:3|0:3,0:0:0:0:
227,203,23081,2,0,L|258:208,3,31.4999990386963,2|8|0|4,1:2|0:3|1:0|0:3,0:0:0:0:
293,223,23422,1,8,0:0:0:0:
439,160,23763,6,0,B|472:96|472:96|437:34,2,132.999996448517,6|10|2,1:2|0:0|1:2,0:0:0:0:
401,230,24615,1,0,1:0:0:0:
373,305,24786,2,0,L|385:381,1,66.4999982242585,10|2,0:0|0:0,0:0:0:0:
284,369,25126,6,0,L|263:211,1,132.999996448517,2|8,1:2|0:0,0:0:0:0:
251,158,25638,2,0,P|193:139|137:204,1,132.999996448517,2|0,1:2|1:0,0:0:0:0:
111,255,26149,1,8,0:0:0:0:
41,291,26320,1,2,0:0:0:0:
41,291,26490,6,0,B|-4:261|-4:261|17:183,2,132.999996448517,2|10|2,1:2|0:0|1:2,0:0:0:0:
109,332,27342,1,0,1:0:0:0:
178,371,27513,2,0,L|253:359,1,66.4999982242585,10|2,0:0|0:0,0:0:0:0:
338,296,27854,6,0,P|365:345|454:319,1,132.999996448517,2|8,1:2|0:0,0:0:0:0:
491,286,28365,2,0,L|465:139,1,132.999996448517,2|0,1:2|1:0,0:0:0:0:
494,79,28876,1,8,0:0:0:0:
433,26,29047,1,8,0:0:0:0:
340,65,29217,5,6,1:1:0:0:
340,65,29388,2,0,B|258:73|319:116|222:132,1,125.999996154785,0|2,1:0|1:2,0:0:0:0:
166,152,29899,2,0,L|137:4,1,125.999996154785,10|0,0:0|1:0,0:0:0:0:
65,24,30411,1,10,0:0:0:0:
9,75,30581,5,2,1:0:0:0:
9,75,30751,2,0,L|33:198,1,125.999996154785,0|2,1:0|1:2,0:0:0:0:
10,271,31263,2,0,L|28:356,1,62.9999980773926,10|2,0:0|0:0,0:0:0:0:
79,382,31604,1,2,1:2:0:0:
150,346,31774,1,8,0:0:0:0:
150,346,31859,1,8,0:0:0:0:
150,346,31945,5,6,1:2:0:0:
243,371,32115,2,0,P|273:316|243:258,1,125.999996154785,0|0,1:0|1:0,0:0:0:0:
173,244,32626,2,0,B|136:207|136:207|171:142,1,125.999996154785,10|0,0:0|1:0,0:0:0:0:
239,108,33138,1,8,0:0:0:0:
310,157,33308,5,10,0:0:0:0:
310,157,33393,1,8,0:0:0:0:
310,157,33479,2,0,L|358:156,1,31.4999990386963,2|0,1:2|1:0,0:0:0:0:
376,169,33649,2,0,L|433:158,3,31.4999990386963,8|8|8|8,0:3|0:3|0:0|0:0,0:0:0:0:
444,171,33990,2,0,L|464:126,3,31.4999990386963,2|0|8|8,1:2|1:0|0:3|0:3,0:0:0:0:
479,111,34331,1,8,0:0:0:0:
479,111,34416,1,8,0:0:0:0:
479,111,34501,2,0,L|466:56,1,31.4999990386963,8|8,0:0|0:0,0:0:0:0:
462,6,34672,5,6,1:2:0:0:
309,19,35013,2,0,B|262:41|262:41|250:68|250:68|189:99,1,132.999996448517,10|2,0:0|1:2,0:0:0:0:
124,87,35524,1,0,1:0:0:0:
72,148,35695,2,0,L|88:240,1,66.4999982242585,10|2,0:0|0:0,0:0:0:0:
14,286,36036,6,0,P|45:342|117:330,1,132.999996448517,2|8,1:2|0:0,0:0:0:0:
169,287,36547,2,0,L|328:302,1,132.999996448517,2|0,1:2|1:0,0:0:0:0:
361,246,37058,1,8,0:0:0:0:
442,268,37229,1,2,0:0:0:0:
442,268,37399,6,0,B|488:299|488:299|448:365,2,132.999996448517,2|10|2,1:2|0:0|1:2,0:0:0:0:
381,320,38251,1,0,1:0:0:0:
316,367,38422,2,0,L|248:360,1,66.4999982242585,10|2,0:0|0:0,0:0:0:0:
147,353,38763,6,0,P|125:281|170:242,1,132.999996448517,2|8,1:2|0:0,0:0:0:0:
238,225,39274,2,0,L|222:82,1,132.999996448517,0|0,1:0|1:0,0:0:0:0:
206,14,39786,1,8,0:0:0:0:
126,5,39956,1,8,0:0:0:0:
41,61,40126,5,4,1:0:0:0:
41,61,40297,2,0,B|-11:94|-11:94|140:118,1,188.999994232178,0|8,1:0|0:0,0:0:0:0:
175,159,40979,2,0,L|266:149,1,62.9999980773926,2|2,0:0|1:2,0:0:0:0:
303,190,41320,1,10,0:0:0:0:
402,171,41490,5,2,1:2:0:0:
402,171,41661,2,0,P|450:129|433:64,1,125.999996154785,0|0,1:0|1:0,0:0:0:0:
378,23,42172,2,0,L|240:36,1,125.999996154785,8|8,0:0|0:0,0:0:0:0:
183,20,42683,1,8,0:0:0:0:
183,20,42768,1,8,0:0:0:0:
183,20,42854,5,4,1:2:0:0:
150,120,43024,2,0,L|176:258,1,125.999996154785,0|0,1:0|1:0,0:0:0:0:
215,307,43536,1,8,0:0:0:0:
166,364,43706,2,0,L|88:376,1,62.9999980773926,2|2,0:0|1:2,0:0:0:0:
32,348,44047,1,10,0:0:0:0:
4,248,44217,5,2,1:2:0:0:
4,248,44388,2,0,P|-5:176|59:145,1,125.999996154785,0|2,1:0|1:2,0:0:0:0:
106,172,44899,2,0,L|258:197,1,125.999996154785,8|8,0:0|0:0,0:0:0:0:
380,247,45581,6,0,B|346:310|346:310|372:366,2,132.999996448517,6|8|0,1:2|0:0|1:0,0:0:0:0:
439,193,46433,1,0,1:0:0:0:
488,129,46604,2,0,P|521:69|494:9,2,132.999996448517,10|0|8,0:0|1:0|0:0,0:0:0:0:
408,119,47456,2,0,L|264:97,1,132.999996448517,0|0,1:0|1:0,0:0:0:0:
201,70,47967,1,10,0:0:0:0:
127,101,48138,1,8,0:0:0:0:
114,204,48308,6,0,P|79:243|1:215,2,132.999996448517,6|8|0,1:2|0:0|1:0,0:0:0:0:
190,178,49161,1,0,1:0:0:0:
250,230,49331,2,0,L|227:377,2,132.999996448517,10|0|8,0:0|1:0|0:0,0:0:0:0:
326,205,50183,2,0,B|359:144|359:144|313:80,1,132.999996448517,0|0,1:0|1:0,0:0:0:0:
243,109,50695,1,10,0:0:0:0:
170,75,50865,1,8,0:0:0:0:
70,92,51036,5,4,1:0:0:0:
70,92,51206,2,0,B|43:160|43:160|66:195|66:195|38:274,1,188.999994232178,0|8,1:0|0:0,0:0:0:0:
32,343,51888,2,0,L|109:360,1,62.9999980773926,2|2,0:0|1:2,0:0:0:0:
167,372,52229,1,10,0:0:0:0:
247,317,52399,5,2,1:2:0:0:
247,317,52570,2,0,P|280:254|250:203,1,125.999996154785,0|2,1:0|1:2,0:0:0:0:
184,186,53081,2,0,L|212:55,1,125.999996154785,8|10,0:0|0:0,0:0:0:0:
277,22,53592,1,8,0:0:0:0:
277,22,53678,1,8,0:0:0:0:
277,22,53763,5,4,1:2:0:0:
373,34,53933,2,0,P|439:48|468:108,1,125.999996154785,0|0,1:0|1:0,0:0:0:0:
462,170,54445,1,8,0:0:0:0:
434,240,54615,2,0,L|361:236,1,62.9999980773926,2|2,0:0|1:2,0:0:0:0:
299,261,54956,1,10,0:0:0:0:
270,347,55126,5,2,1:2:0:0:
270,347,55297,2,0,L|409:354,1,125.999996154785,0|2,1:0|1:2,0:0:0:0:
473,358,55808,2,0,B|514:316|514:316|477:233,1,125.999996154785,8|8,0:0|0:0,0:0:0:0:
482,86,56490,6,0,B|425:100|425:100|407:123|407:123|332:145,1,140,4|8,1:2|0:0,0:0:0:0:
275,158,57001,1,0,0:0:0:0:
275,158,57172,2,0,L|191:140,1,70,2|0,1:2|1:0,0:0:0:0:
125,121,57513,1,10,0:0:0:0:
86,25,57683,1,2,1:3:0:0:
86,25,57854,6,0,L|243:58,1,140,2|8,3:2|0:0,0:0:0:0:
275,158,58365,1,0,1:0:0:0:
275,158,58536,2,0,L|247:252,1,70,2|0,0:0|1:0,0:0:0:0:
241,307,58876,2,0,L|163:286,1,70,8|2,0:0|0:3,0:0:0:0:
62,246,59217,6,0,P|7:272|21:366,2,140,6|8|0,1:2|0:0|1:0,0:0:0:0:
143,205,60070,2,0,L|153:121,2,70,2|10|6,1:2|0:0|0:0,0:0:0:0:
208,258,60581,2,0,L|359:291,1,140,2|10,3:2|0:0,0:0:0:0:
404,347,61092,1,2,1:2:0:0:
486,362,61263,2,0,L|499:284,1,70,2|2,0:0|1:2,0:0:0:0:
489,209,61604,1,8,0:0:0:0:
489,209,61689,1,8,0:0:0:0:
489,209,61774,2,0,L|478:155,1,35,2|0,1:2|0:0,0:0:0:0:
477,132,61945,5,2,1:3:0:0:
477,132,62115,1,6,0:3:0:0:
350,20,62456,6,0,L|335:105,1,70,10|10,0:3|0:3,0:0:0:0:
267,135,62797,2,0,L|279:203,1,70,6|10,0:3|0:3,0:0:0:0:
294,286,63138,1,6,0:3:0:0:
210,350,63308,6,0,P|123:368|40:287,1,210,6|2,1:2|0:0,0:0:0:0:
27,204,63990,1,10,0:0:0:0:
90,146,64161,1,2,1:2:0:0:
90,146,64246,1,8,0:3:0:0:
90,146,64331,2,0,L|152:136,1,35,10|8,0:0|0:3,0:0:0:0:
164,153,64501,2,0,L|215:161,1,35,10|0,0:0|1:0,0:0:0:0:
274,189,64672,6,0,B|307:136|307:136|257:35,2,146.999995513916,6|8|0,1:1|0:0|1:0,0:0:0:0:
193,233,65524,1,0,1:0:0:0:
143,306,65695,2,0,L|238:323,1,73.4999977569581,10|2,0:0|0:0,0:0:0:0:
298,361,66036,5,2,1:2:0:0:
298,361,66206,2,0,L|384:372,1,73.4999977569581,2|8,1:2|0:0,0:0:0:0:
458,361,66547,2,0,L|479:286,1,73.4999977569581,2|0,0:0|1:0,0:0:0:0:
500,204,66888,2,0,L|479:129,1,73.4999977569581,2|8,1:2|0:0,0:0:0:0:
457,47,67229,1,2,0:0:0:0:
376,117,67399,6,0,B|286:102|341:54|241:36,2,146.999995513916,2|8|0,1:3|0:0|1:0,0:0:0:0:
403,200,68251,1,0,1:0:0:0:
335,256,68422,2,0,L|248:244,1,73.4999977569581,10|2,0:0|0:0,0:0:0:0:
157,182,68763,6,0,L|168:272,1,73.4999977569581,12|2,0:0|0:3,0:0:0:0:
168,298,69018,2,0,P|157:360|101:372,1,110.249996635437,8|8,0:0|0:0,0:0:0:0:
74,382,69359,2,0,L|63:299,1,73.4999977569581,8|8,0:3|0:0,0:0:0:0:
4,243,69700,1,8,0:0:0:0:
10,233,69786,2,0,L|22:176,1,36.749998878479,8|8,0:0|0:3,0:0:0:0:
17,118,69956,6,0,B|-17:69|-17:69|39:-4,1,146.999995513916,6|2,1:2|0:0,0:0:0:0:
129,13,70467,2,0,L|212:29,1,73.4999977569581,10|2,0:0|1:2,0:0:0:0:
274,85,70808,1,2,1:2:0:0:
274,85,70979,2,0,L|346:71,1,73.4999977569581,2|8,1:2|0:0,0:0:0:0:
465,27,71320,6,0,P|524:70|499:137,1,146.999995513916,6|0,1:2|1:0,0:0:0:0:
437,187,71831,1,8,0:0:0:0:
308,204,72087,1,0,1:0:0:0:
304,193,72172,2,0,L|289:144,2,36.749998878479,2|8|2,1:2|0:0|1:2,0:0:0:0:
380,254,72513,2,0,L|400:349,1,73.4999977569581,10|2,0:0|0:0,0:0:0:0:
305,326,72854,6,0,P|274:367|177:351,2,146.999995513916,4|8|0,1:2|0:0|1:0,0:0:0:0:
272,243,73706,1,2,1:2:0:0:
185,228,73876,1,10,0:0:0:0:
118,280,74047,2,0,B|13:260|13:260|57:222,1,140,6|2,1:2|1:3,0:0:0:0:
105,188,74558,1,8,0:0:0:0:
174,139,74729,2,0,L|190:58,1,70,10|2,0:0|1:2,0:0:0:0:
111,34,75070,2,0,L|97:102,1,70,10|10,0:0|0:0,0:0:0:0:
21,141,75411,1,2,1:2:0:0:
0,249,75581,6,0,P|30:281|140:267,2,146.999995513916,6|8|0,1:1|0:0|1:0,0:0:0:0:
77,206,76433,1,0,1:0:0:0:
125,131,76604,2,0,L|142:46,1,73.4999977569581,10|2,0:0|0:0,0:0:0:0:
218,37,76945,5,2,1:2:0:0:
218,37,77115,2,0,L|316:52,1,73.4999977569581,2|8,0:0|0:0,0:0:0:0:
378,35,77456,2,0,L|366:121,1,73.4999977569581,2|0,0:0|1:0,0:0:0:0:
299,164,77797,2,0,L|311:250,1,73.4999977569581,2|8,1:2|0:0,0:0:0:0:
362,307,78138,1,2,0:0:0:0:
260,364,78308,6,0,B|191:382|191:382|111:338,2,146.999995513916,6|8|2,1:2|0:0|1:2,0:0:0:0:
336,318,79161,1,0,1:0:0:0:
416,352,79331,2,0,L|434:278,1,73.4999977569581,10|2,0:0|0:3,0:0:0:0:
490,193,79672,6,0,P|509:145|450:77,1,146.999995513916,2|8,1:2|0:0,0:0:0:0:
368,102,80183,2,0,L|270:88,1,73.4999977569581,2|0,1:2|1:0,0:0:0:0:
216,131,80524,1,0,1:0:0:0:
125,74,80695,1,8,0:0:0:0:
125,74,80780,1,8,0:0:0:0:
125,74,80865,6,0,B|105:124|105:124|120:155|120:155|99:223,1,146.999995513916,6|0,1:2|1:0,0:0:0:0:
58,287,81376,2,0,L|70:364,1,73.4999977569581,10|0,0:0|0:0,0:0:0:0:
158,364,81717,1,6,1:2:0:0:
206,290,81888,2,0,L|278:301,1,73.4999977569581,2|8,1:2|0:0,0:0:0:0:
392,373,82229,6,0,B|429:308|429:308|393:239,1,146.999995513916,6|2,1:2|1:2,0:0:0:0:
343,172,82740,2,0,L|375:70,1,73.4999977569581,10|2,0:0|0:0,0:0:0:0:
389,22,83081,1,2,1:2:0:0:
476,25,83251,1,2,1:2:0:0:
489,112,83422,2,0,L|466:182,1,73.4999977569581,8|0,0:0|0:0,0:0:0:0:
488,301,83763,5,4,1:2:0:0:
488,301,83933,1,0,1:0:0:0:
412,353,84104,2,0,L|320:336,1,73.4999977569581,2|2,0:0|1:2,0:0:0:0:
263,294,84445,1,10,0:0:0:0:
263,294,84615,2,0,L|190:307,1,73.4999977569581,2|0,0:0|1:0,0:0:0:0:
115,354,84956,1,10,0:0:0:0:
41,305,85126,6,0,L|20:347,2,36.749998878479,8|8|8,0:0|0:0|0:0,0:0:0:0:
46,216,85467,2,0,L|19:162,3,36.749998878479,8|8|2|4,0:3|0:3|1:2|0:3,0:0:0:0:
22,139,85808,2,0,L|48:87,3,36.749998878479,2|0|2|4,1:2|1:0|1:2|0:3,0:0:0:0:
66,71,86149,1,10,0:0:0:0:
66,71,86234,1,8,0:0:0:0:
66,71,86320,2,0,L|115:74,1,36.749998878479,8|8,0:0|0:0,0:0:0:0:
183,78,86490,6,0,B|319:106|215:156|378:190,1,220.499993270874,6|0,1:2|1:0,0:0:0:0:
436,239,87172,2,0,L|477:75,1,146.999995513916,10|2,0:0|0:0,0:0:0:0:
391,5,87683,2,0,P|327:-15|269:41,2,146.999995513916,6|0|0,1:2|1:0|1:0,0:0:0:0:
471,96,88536,2,0,B|504:158|504:158|469:234,1,146.999995513916,8|8,0:0|0:0,0:0:0:0:
403,309,89047,1,8,0:0:0:0:
305,284,89217,5,4,1:1:0:0:
89,362,91945,6,0,P|140:378|206:330,2,132.999996448517,6|8|2,1:1|0:0|1:2,0:0:0:0:
46,294,92797,1,0,1:0:0:0:
43,214,92967,2,0,L|71:121,1,66.4999982242585,8|2,0:0|0:0,0:0:0:0:
124,100,93308,2,0,B|104:63|104:63|14:77,2,132.999996448517,2|8|2,1:2|0:0|1:2,0:0:0:0:
165,168,94161,1,2,1:2:0:0:
244,165,94331,2,0,L|338:154,1,66.4999982242585,10|2,0:0|0:0,0:0:0:0:
330,258,94672,6,0,P|304:319|347:372,1,132.999996448517,2|8,1:2|0:0,0:0:0:0:
476,271,95354,1,2,1:2:0:0:
476,271,95524,1,0,1:0:0:0:
499,194,95695,2,0,L|483:109,1,66.4999982242585,8|0,0:0|0:0,0:0:0:0:
415,92,96036,2,0,P|448:53|526:59,2,132.999996448517,2|8|2,1:2|0:0|1:2,0:0:0:0:
389,167,96888,1,0,1:0:0:0:
315,196,97058,1,8,0:0:0:0:
311,186,97143,1,8,0:0:0:0:
228,217,97314,1,8,0:0:0:0:
220,209,97399,6,0,L|245:59,2,132.999996448517,6|10|2,1:2|0:0|1:2,0:0:0:0:
278,263,98251,1,0,1:0:0:0:
281,338,98422,2,0,P|262:373|227:387,1,66.4999982242585,10|2,0:0|0:0,0:0:0:0:
135,354,98763,6,0,L|-21:335,2,132.999996448517,0|8|0,1:0|0:0|1:0,0:0:0:0:
211,376,99615,1,0,1:0:0:0:
281,338,99786,2,0,L|268:248,1,66.4999982242585,8|2,0:0|0:0,0:0:0:0:
363,209,100126,6,0,P|424:240|484:218,2,132.999996448517,6|10|2,1:2|0:0|1:2,0:0:0:0:
324,140,100979,1,0,1:0:0:0:
277,75,101149,2,0,L|194:89,1,66.4999982242585,10|2,0:0|0:0,0:0:0:0:
140,155,101490,5,2,3:3:0:0:
77,113,101661,1,2,1:2:0:0:
77,113,101746,1,0,1:0:0:0:
77,113,101831,1,8,0:0:0:0:
30,176,102001,2,0,L|42:268,1,66.4999982242585,10|8,0:0|0:0,0:0:0:0:
11,317,102342,1,8,0:3:0:0:
82,352,102513,2,0,L|72:396,2,33.2499991121292,8|8|0,0:3|0:3|1:0,0:0:0:0:
171,305,102854,6,0,B|217:333|217:333|307:308,2,132.999996448517,6|8|2,1:1|0:0|1:2,0:0:0:0:
129,238,103706,1,0,1:0:0:0:
171,170,103876,2,0,L|245:177,1,66.4999982242585,8|2,0:0|0:0,0:0:0:0:
320,190,104217,1,2,1:2:0:0:
320,190,104388,1,0,1:0:0:0:
388,149,104558,2,0,L|377:60,1,66.4999982242585,8|2,0:0|1:2,0:0:0:0:
327,29,104899,1,2,0:0:0:0:
327,29,105070,1,2,1:2:0:0:
249,12,105240,2,0,L|175:19,1,66.4999982242585,10|2,0:0|0:0,0:0:0:0:
123,104,105581,6,0,P|157:160|124:229,2,132.999996448517,2|8|2,1:2|0:0|1:2,0:0:0:0:
58,60,106433,1,0,1:0:0:0:
9,123,106604,2,0,L|27:208,1,66.4999982242585,8|0,0:0|1:0,0:0:0:0:
12,270,106945,1,2,3:2:0:0:
12,270,107115,1,0,1:0:0:0:
33,347,107286,2,0,L|109:329,1,66.4999982242585,8|0,0:0|1:0,0:0:0:0:
173,306,107626,2,0,L|237:321,1,66.4999982242585,2|0,3:2|1:0,0:0:0:0:
310,354,107967,1,8,0:0:0:0:
415,234,108308,6,0,P|389:277|395:359,2,132.999996448517,6|10|0,1:2|0:0|1:0,0:0:0:0:
479,185,109161,1,0,1:0:0:0:
499,108,109331,2,0,L|477:22,1,66.4999982242585,10|2,0:0|0:0,0:0:0:0:
410,21,109672,1,0,1:0:0:0:
410,21,109842,1,2,1:2:0:0:
333,28,110013,1,8,0:0:0:0:
333,28,110183,2,0,L|370:179,1,132.999996448517,2|0,1:2|1:0,0:0:0:0:
377,236,110695,1,8,0:0:0:0:
308,277,110865,1,2,1:2:0:0:
218,224,111036,6,0,P|148:221|103:270,2,132.999996448517,6|10|2,1:2|0:0|1:2,0:0:0:0:
279,275,111888,1,0,1:0:0:0:
306,349,112058,2,0,L|401:351,1,66.4999982242585,8|2,0:0|0:0,0:0:0:0:
451,341,112399,1,0,1:0:0:0:
451,341,112570,1,0,1:0:0:0:
509,255,112740,2,0,L|496:173,1,66.4999982242585,12|0,0:0|1:0,0:0:0:0:
471,118,113081,1,10,0:0:0:0:
471,118,113166,1,8,0:0:0:0:
471,118,113251,1,8,1:3:0:0:
411,56,113422,2,0,L|424:9,2,33.2499991121292,8|8|4,0:3|0:3|0:3,0:0:0:0:
343,133,113763,5,4,1:0:0:0:
343,133,113933,2,0,B|217:119|296:64|155:49,1,188.999994232178,0|8,1:0|0:0,0:0:0:0:
103,42,114615,2,0,L|115:125,1,62.9999980773926,2|2,0:0|1:2,0:0:0:0:
160,162,114956,1,10,0:0:0:0:
129,252,115126,5,2,1:2:0:0:
129,252,115297,2,0,P|81:295|17:270,1,125.999996154785,0|0,1:0|1:0,0:0:0:0:
6,208,115808,2,0,L|33:76,1,125.999996154785,8|8,0:0|0:0,0:0:0:0:
76,25,116320,1,8,0:0:0:0:
76,25,116405,1,8,0:0:0:0:
76,25,116490,5,4,1:2:0:0:
176,59,116661,2,0,P|233:38|274:85,1,125.999996154785,0|0,1:0|1:0,0:0:0:0:
255,155,117172,1,8,0:0:0:0:
195,201,117342,2,0,L|207:275,1,62.9999980773926,2|2,0:0|1:2,0:0:0:0:
159,323,117683,1,10,0:0:0:0:
237,379,117854,5,2,1:2:0:0:
237,379,118024,2,0,L|387:351,1,125.999996154785,0|2,1:0|1:2,0:0:0:0:
437,358,118536,2,0,B|427:311|427:311|407:295|407:295|395:235,1,125.999996154785,8|8,0:0|0:0,0:0:0:0:
437,89,119217,6,0,B|487:117|487:117|463:202,2,132.999996448517,6|8|0,1:2|0:0|1:0,0:0:0:0:
365,52,120070,1,0,1:0:0:0:
291,22,120240,2,0,P|231:15|185:73,2,132.999996448517,10|0|8,0:0|1:0|0:0,0:0:0:0:
365,52,121092,2,0,L|338:198,1,132.999996448517,0|0,1:0|1:0,0:0:0:0:
330,262,121604,1,10,0:0:0:0:
264,216,121774,1,8,0:0:0:0:
165,275,121945,6,0,P|198:314|154:392,2,132.999996448517,6|8|0,1:2|0:0|1:0,0:0:0:0:
89,302,122797,1,0,1:0:0:0:
16,269,122967,2,0,L|33:194,1,66.4999982242585,10|0,0:0|0:0,0:0:0:0:
8,127,123308,2,0,P|26:79|108:73,1,132.999996448517,0|8,1:0|0:0,0:0:0:0:
155,123,123820,2,0,L|293:136,1,132.999996448517,0|8,1:0|1:2,0:0:0:0:
360,102,124331,1,8,0:3:0:0:
415,158,124501,1,8,1:3:0:0:
507,110,124672,5,4,1:0:0:0:
507,110,124842,2,0,P|491:42|386:29,1,188.999994232178,0|8,1:0|0:0,0:0:0:0:
360,102,125524,2,0,L|369:181,1,62.9999980773926,2|2,0:0|1:2,0:0:0:0:
390,236,125865,1,10,0:0:0:0:
383,335,126036,5,2,1:2:0:0:
383,335,126206,2,0,L|245:317,1,125.999996154785,0|2,1:0|1:2,0:0:0:0:
181,321,126717,2,0,B|127:350|127:350|59:329,1,125.999996154785,8|10,0:0|0:0,0:0:0:0:
0,293,127229,1,8,0:0:0:0:
0,293,127314,1,8,0:0:0:0:
0,293,127399,5,4,1:2:0:0:
25,189,127570,2,0,B|1:148|1:148|55:58,1,125.999996154785,0|0,1:0|1:0,0:0:0:0:
93,25,128081,1,8,0:0:0:0:
158,68,128251,2,0,L|247:79,1,62.9999980773926,2|2,0:0|1:2,0:0:0:0:
286,39,128592,1,10,0:0:0:0:
366,96,128763,5,2,1:2:0:0:
366,96,128933,2,0,P|394:152|355:202,1,125.999996154785,0|2,1:0|1:2,0:0:0:0:
286,223,129445,2,0,B|296:272|296:272|317:286|317:286|333:351,1,125.999996154785,8|8,0:0|0:0,0:0:0:0:
470,244,130126,6,0,B|510:204|510:204|478:94,1,140,4|8,1:2|0:0,0:0:0:0:
470,40,130638,1,0,0:0:0:0:
470,40,130808,2,0,L|387:55,1,70,2|0,1:2|1:0,0:0:0:0:
318,67,131149,1,10,0:0:0:0:
223,9,131320,1,2,1:3:0:0:
223,9,131490,6,0,L|248:162,1,140,2|8,0:0|0:0,0:0:0:0:
267,263,132001,1,0,1:0:0:0:
267,263,132172,2,0,L|170:285,1,70,2|0,3:2|1:0,0:0:0:0:
115,290,132513,2,0,L|102:211,1,70,8|10,0:0|0:0,0:0:0:0:
101,102,132854,6,0,P|36:95|1:166,2,140,6|8|0,1:2|0:0|1:0,0:0:0:0:
123,183,133706,2,0,L|110:252,2,70,2|10|6,1:2|0:0|0:0,0:0:0:0:
208,182,134217,2,0,L|374:204,1,140,2|10,3:2|0:0,0:0:0:0:
416,248,134729,1,2,1:2:0:0:
412,331,134899,2,0,L|457:345,2,35,2|8|2,0:0|0:0|1:2,0:0:0:0:
338,363,135240,1,8,0:0:0:0:
338,363,135325,1,8,0:0:0:0:
338,363,135411,2,0,L|289:347,1,35,2|0,1:2|0:0,0:0:0:0:
266,359,135581,5,2,1:3:0:0:
266,359,135751,1,6,0:3:0:0:
102,318,136092,6,0,L|118:235,1,70,10|10,0:3|0:3,0:0:0:0:
169,184,136433,2,0,L|153:101,1,70,6|10,0:3|0:3,0:0:0:0:
141,32,136774,1,6,0:3:0:0:
49,58,136945,6,0,B|-20:135|-20:135|175:112,1,280,6|10,1:2|0:0,0:0:0:0:
229,75,137797,1,2,1:2:0:0:
302,133,137967,1,10,0:0:0:0:
302,133,138053,1,8,0:3:0:0:
302,133,138138,2,0,L|357:122,1,35,10|0,0:0|1:0,0:0:0:0:
410,127,138308,6,0,P|391:54|451:7,2,146.999995513916,6|8|0,1:1|0:0|1:0,0:0:0:0:
493,158,139161,1,0,1:0:0:0:
495,246,139331,2,0,L|476:347,1,73.4999977569581,10|2,0:0|0:0,0:0:0:0:
408,368,139672,5,2,1:2:0:0:
408,368,139842,2,0,L|335:354,1,73.4999977569581,2|8,1:2|0:0,0:0:0:0:
247,362,140183,2,0,L|260:289,1,73.4999977569581,2|0,0:0|1:0,0:0:0:0:
273,202,140524,2,0,L|200:215,1,73.4999977569581,2|8,1:2|0:0,0:0:0:0:
113,198,140865,1,2,0:0:0:0:
0,206,141036,6,0,B|16:260|16:260|38:271|38:271|63:355,2,146.999995513916,2|8|0,1:3|0:0|1:0,0:0:0:0:
37,121,141888,1,0,1:0:0:0:
1,40,142058,2,0,L|81:23,1,73.4999977569581,10|2,0:0|0:0,0:0:0:0:
161,97,142399,6,0,L|232:112,1,73.4999977569581,12|2,0:0|0:3,0:0:0:0:
269,138,142655,2,0,P|316:89|377:99,1,110.249996635437,8|8,0:0|0:0,0:0:0:0:
395,107,142996,2,0,L|381:196,1,73.4999977569581,8|8,0:3|0:0,0:0:0:0:
320,268,143337,1,8,0:0:0:0:
323,278,143422,1,8,0:0:0:0:
406,352,143592,6,0,P|472:365|504:303,1,146.999995513916,6|2,1:2|0:0,0:0:0:0:
504,208,144104,2,0,L|489:105,1,73.4999977569581,10|2,0:0|0:0,0:0:0:0:
487,51,144445,1,2,1:2:0:0:
487,51,144615,2,0,L|384:66,1,73.4999977569581,2|8,1:2|0:0,0:0:0:0:
323,117,144956,6,0,B|240:112|277:61|182:55,1,146.999995513916,6|0,1:2|1:0,0:0:0:0:
110,84,145467,1,8,0:0:0:0:
191,213,145723,1,0,1:0:0:0:
200,207,145808,2,0,L|181:309,1,73.4999977569581,2|2,1:2|1:2,0:0:0:0:
157,371,146149,2,0,L|84:357,1,73.4999977569581,10|2,0:0|0:0,0:0:0:0:
6,279,146490,6,0,P|-9:216|50:164,2,146.999995513916,4|8|0,1:2|0:0|1:0,0:0:0:0:
93,267,147342,1,2,1:2:0:0:
177,285,147513,1,10,0:0:0:0:
242,337,147683,2,0,B|312:365|312:365|388:332,1,140,6|2,1:2|1:3,0:0:0:0:
446,299,148195,1,8,0:0:0:0:
436,215,148365,2,0,L|448:140,1,70,10|2,0:0|1:2,0:0:0:0:
364,128,148706,2,0,L|352:197,1,70,10|10,0:0|0:0,0:0:0:0:
302,264,149047,1,2,1:2:0:0:
186,239,149217,6,0,P|177:291|87:309,2,146.999995513916,6|8|0,1:1|0:0|1:0,0:0:0:0:
168,151,150070,1,0,1:0:0:0:
105,88,150240,2,0,L|25:106,1,73.4999977569581,10|2,0:0|0:0,0:0:0:0:
16,193,150581,5,2,1:2:0:0:
16,193,150751,2,0,L|87:176,1,73.4999977569581,2|8,0:0|0:0,0:0:0:0:
168,151,151092,2,0,L|184:222,1,73.4999977569581,2|0,0:0|1:0,0:0:0:0:
196,310,151433,2,0,L|267:293,1,73.4999977569581,2|8,1:2|0:0,0:0:0:0:
344,337,151774,1,2,0:0:0:0:
454,296,151945,6,0,B|493:234|493:234|453:149,2,146.999995513916,6|8|2,1:2|0:0|1:2,0:0:0:0:
375,336,152797,1,0,1:0:0:0:
298,292,152967,2,0,L|225:298,1,73.4999977569581,10|2,0:0|0:3,0:0:0:0:
117,350,153308,6,0,P|89:287|136:210,1,146.999995513916,2|8,1:2|0:0,0:0:0:0:
207,178,153820,2,0,L|193:82,1,73.4999977569581,2|0,1:2|1:0,0:0:0:0:
180,18,154161,1,8,0:0:0:0:
75,42,154331,1,8,0:0:0:0:
75,42,154416,1,8,0:0:0:0:
75,42,154501,6,0,B|22:67|22:67|53:183,1,146.999995513916,6|0,1:2|1:0,0:0:0:0:
69,237,155013,2,0,L|155:208,1,73.4999977569581,10|0,0:0|0:0,0:0:0:0:
226,226,155354,1,6,1:2:0:0:
292,283,155524,2,0,L|278:361,1,73.4999977569581,2|8,1:2|0:0,0:0:0:0:
164,384,155865,6,0,B|104:371|104:371|88:345|88:345|5:325,1,146.999995513916,6|2,1:2|1:2,0:0:0:0:
2,240,156376,2,0,L|14:167,1,73.4999977569581,10|2,0:0|0:0,0:0:0:0:
7,79,156717,1,2,1:2:0:0:
82,32,156888,1,10,0:0:0:0:
160,71,157058,2,0,L|250:55,1,73.4999977569581,8|8,0:0|0:3,0:0:0:0:
335,130,157399,5,4,1:2:0:0:
335,130,157570,1,0,1:0:0:0:
248,166,157740,2,0,L|175:178,1,73.4999977569581,2|2,0:0|1:2,0:0:0:0:
173,270,158081,1,10,0:0:0:0:
173,270,158251,2,0,L|245:282,1,73.4999977569581,2|0,0:0|1:0,0:0:0:0:
329,256,158592,1,10,0:0:0:0:
400,307,158763,6,0,L|394:358,2,36.749998878479,8|8|8,0:0|0:0|0:0,0:0:0:0:
449,233,159104,2,0,L|502:220,3,36.749998878479,8|8|2|4,0:3|0:3|1:2|0:3,0:0:0:0:
503,184,159445,2,0,L|489:123,3,36.749998878479,2|0|2|4,1:2|1:0|1:2|0:3,0:0:0:0:
488,113,159786,1,10,0:0:0:0:
488,113,159871,1,8,0:0:0:0:
488,113,159956,2,0,L|438:120,1,36.749998878479,8|8,0:0|0:0,0:0:0:0:
376,114,160126,6,0,B|249:79|333:33|174:-3,1,220.499993270874,6|0,1:2|1:0,0:0:0:0:
104,6,160808,2,0,L|133:177,1,146.999995513916,10|2,0:0|0:0,0:0:0:0:
133,273,161320,2,0,P|89:328|9:296,2,146.999995513916,6|0|0,1:2|1:0|1:0,0:0:0:0:
239,210,162172,2,0,B|290:228|290:228|304:256|304:256|381:285,1,146.999995513916,8|8,0:0|0:0,0:0:0:0:
439,353,162683,1,8,0:3:0:0:
512,280,162854,5,4,1:1:0:0:
388,40,173763,6,0,B|328:53|328:53|314:76|314:76|242:91,1,146.999995513916,4|8,1:2|0:0,0:0:0:0:
143,19,174359,1,0,1:0:0:0:
152,14,174445,2,0,L|163:108,1,73.4999977569581,0|0,1:0|1:0,0:0:0:0:
206,166,174786,2,0,L|195:260,1,73.4999977569581,8|0,0:0|0:0,0:0:0:0:
175,337,175126,6,0,P|141:371|46:336,1,146.999995513916,4|8,1:2|0:0,0:0:0:0:
34,216,175723,1,0,1:0:0:0:
34,205,175808,2,0,L|119:221,1,73.4999977569581,0|0,1:0|1:0,0:0:0:0:
197,239,176149,2,0,L|269:225,1,73.4999977569581,8|0,0:0|0:0,0:0:0:0:
379,244,176490,6,0,B|344:312|344:312|391:392,1,146.999995513916,6|8,1:2|0:0,0:0:0:0:
498,312,177087,1,0,1:0:0:0:
505,304,177172,2,0,L|490:218,1,73.4999977569581,0|0,1:0|1:0,0:0:0:0:
433,165,177513,2,0,L|448:79,1,73.4999977569581,8|0,0:0|0:0,0:0:0:0:
385,7,177854,6,0,B|307:13|343:60|254:69,1,146.999995513916,4|14,1:2|0:1,0:0:0:0:
89,78,178450,1,0,1:0:0:0:
87,66,178536,2,0,L|76:1,2,36.749998878479,0|8|8,1:0|0:0|0:3,0:0:0:0:
60,155,178876,1,8,0:0:0:0:
60,155,178962,1,8,0:3:0:0:
60,155,179047,2,0,L|70:218,1,36.749998878479,8|4,0:3|0:3,0:0:0:0:
112,268,179217,5,4,1:1:0:0:
112,268,179388,2,0,P|73:298|117:383,1,146.999995513916,0|0,1:0|1:0,0:0:0:0:
189,368,179899,2,0,L|337:349,1,146.999995513916,8|2,0:0|1:2,0:0:0:0:
414,306,180411,1,0,1:0:0:0:
414,306,180581,5,4,1:2:0:0:
369,229,180751,2,0,L|223:247,1,146.999995513916,8|0,0:0|0:0,0:0:0:0:
149,197,181263,1,0,1:0:0:0:
67,229,181433,1,10,0:0:0:0:
6,164,181604,1,4,1:3:0:0:
40,82,181774,2,0,L|91:92,1,36.749998878479,8|8,0:0|0:0,0:0:0:0:
119,98,181945,5,4,1:2:0:0:
119,98,182115,2,0,B|176:86|176:86|190:60|190:60|272:45,1,146.999995513916,2|0,1:2|1:0,0:0:0:0:
335,33,182626,2,0,L|313:190,1,146.999995513916,10|0,0:0|1:0,0:0:0:0:
249,238,183138,1,0,1:0:0:0:
249,238,183308,5,4,1:2:0:0:
273,323,183479,2,0,L|418:302,1,146.999995513916,8|0,0:0|0:0,0:0:0:0:
496,260,183990,1,0,1:0:0:0:
490,171,184161,1,8,0:0:0:0:
404,152,184331,1,8,0:0:0:0:
357,226,184501,5,6,1:2:0:0:
256,192,184672,12,0,186036,1:0:0:0:
190,58,195410,6,0,L|107:69,1,70,6|0,1:2|0:0,0:0:0:0:
56,122,195751,1,2,1:2:0:0:
91,198,195922,1,10,0:0:0:0:
42,266,196092,2,0,L|60:364,1,70,2|0,1:2|0:0,0:0:0:0:
359,343,196945,6,0,B|448:317|485:224|447:142|447:142|379:113|379:113|319:161|319:161|333:212,1,440.999986541748,6|0,1:2|0:0,0:0:0:0:
275,263,198308,6,0,L|195:251,1,70,2|0,3:3|1:0,0:0:0:0:
121,253,198649,2,0,L|133:173,1,70,10|2,0:0|0:0,0:0:0:0:
93,108,198990,2,0,L|44:115,2,35,2|8|10,1:2|0:3|0:0,0:0:0:0:
145,44,199331,1,10,0:0:0:0:
145,44,199416,1,8,0:0:0:0:
145,44,199501,2,0,L|206:37,1,35,10|8,0:0|0:0,0:0:0:0:
266,105,199672,6,0,B|330:135|330:135|423:108,2,146.999995513916,6|8|0,1:1|0:0|1:0,0:0:0:0:
174,117,200524,1,0,1:0:0:0:
125,190,200695,2,0,L|142:272,1,73.4999977569581,10|2,0:0|0:0,0:0:0:0:
158,352,201035,5,2,1:2:0:0:
158,352,201206,2,0,L|86:366,1,73.4999977569581,2|8,1:2|0:0,0:0:0:0:
28,299,201547,2,0,L|42:227,1,73.4999977569581,2|0,0:0|1:0,0:0:0:0:
125,190,201888,2,0,L|110:118,1,73.4999977569581,2|8,1:2|0:0,0:0:0:0:
49,53,202229,1,2,0:0:0:0:
153,3,202399,6,0,B|250:13|185:58|303:60,2,146.999995513916,2|8|0,1:3|0:0|1:0,0:0:0:0:
70,34,203251,1,0,1:0:0:0:
16,104,203422,2,0,L|36:183,1,73.4999977569581,10|2,0:0|0:0,0:0:0:0:
6,289,203763,6,0,P|38:319|91:295,1,73.4999977569581,12|2,0:0|0:3,0:0:0:0:
105,300,204018,2,0,L|229:316,1,110.249996635437,8|8,0:0|0:0,0:0:0:0:
249,341,204359,2,0,L|345:333,1,73.4999977569581,8|8,0:3|0:0,0:0:0:0:
410,365,204700,1,8,0:0:0:0:
417,356,204785,2,0,L|428:291,1,36.749998878479,8|8,0:0|0:3,0:0:0:0:
475,259,204956,6,0,P|519:217|468:134,1,146.999995513916,6|2,1:2|0:0,0:0:0:0:
405,154,205467,2,0,L|423:65,1,73.4999977569581,10|2,0:0|1:2,0:0:0:0:
355,29,205808,1,2,1:2:0:0:
355,29,205979,2,0,L|282:43,1,73.4999977569581,2|8,1:2|0:0,0:0:0:0:
172,40,206320,6,0,B|183:91|183:91|211:112|211:112|227:186,1,146.999995513916,6|0,1:2|1:0,0:0:0:0:
222,258,206831,1,8,0:0:0:0:
129,352,207087,1,0,1:0:0:0:
121,360,207172,2,0,P|82:377|30:357,1,73.4999977569581,2|2,1:2|1:2,0:0:0:0:
2,299,207513,2,0,L|18:216,1,73.4999977569581,10|2,0:0|0:0,0:0:0:0:
75,137,207854,6,0,P|48:81|108:28,2,146.999995513916,4|8|0,1:2|0:0|1:0,0:0:0:0:
129,206,208706,1,2,1:2:0:0:
213,182,208876,1,10,0:0:0:0:
286,223,209047,2,0,L|264:387,1,140,6|2,1:2|1:3,0:0:0:0:
349,378,209558,1,8,0:0:0:0:
392,306,209729,1,10,0:0:0:0:
474,320,209899,2,0,L|485:235,1,70,2|10,1:2|0:0,0:0:0:0:
477,166,210240,2,0,L|531:177,2,35,10|8|2,0:0|0:3|1:2,0:0:0:0:
363,134,210581,6,0,B|395:65|395:65|367:0,2,146.999995513916,6|8|0,1:1|0:0|1:0,0:0:0:0:
323,212,211433,1,0,1:0:0:0:
234,206,211604,2,0,L|218:121,1,73.4999977569581,10|2,0:0|0:0,0:0:0:0:
219,49,211945,5,2,1:2:0:0:
219,49,212115,2,0,L|134:65,1,73.4999977569581,2|8,0:0|0:0,0:0:0:0:
58,55,212456,2,0,L|71:127,1,73.4999977569581,2|0,0:0|1:0,0:0:0:0:
71,215,212797,2,0,L|143:201,1,73.4999977569581,2|8,1:2|0:0,0:0:0:0:
222,241,213138,1,2,0:0:0:0:
256,342,213308,6,0,P|305:353|372:292,2,146.999995513916,6|8|2,1:2|0:0|1:2,0:0:0:0:
172,312,214160,1,0,1:0:0:0:
98,360,214331,2,0,L|12:342,1,73.4999977569581,10|2,0:0|0:3,0:0:0:0:
8,245,214672,6,0,B|23:186|23:186|48:170|48:170|65:107,1,146.999995513916,2|8,1:2|0:0,0:0:0:0:
62,27,215183,2,0,L|147:40,1,73.4999977569581,2|0,1:2|1:0,0:0:0:0:
207,88,215524,1,8,0:0:0:0:
309,45,215695,1,8,0:0:0:0:
309,45,215780,1,8,0:0:0:0:
309,45,215865,6,0,B|357:81|357:81|317:167,1,146.999995513916,6|0,1:2|1:0,0:0:0:0:
248,222,216376,2,0,L|268:325,1,73.4999977569581,10|0,0:0|0:0,0:0:0:0:
323,357,216717,1,6,1:2:0:0:
409,373,216888,2,0,L|425:291,1,73.4999977569581,2|8,1:2|0:0,0:0:0:0:
487,193,217229,6,0,P|519:137|458:66,1,146.999995513916,6|2,1:2|1:2,0:0:0:0:
386,78,217740,2,0,L|297:90,1,73.4999977569581,10|2,0:0|0:0,0:0:0:0:
229,57,218081,1,2,1:2:0:0:
193,137,218251,1,2,1:2:0:0:
274,171,218422,2,0,L|290:262,1,73.4999977569581,8|0,0:0|0:0,0:0:0:0:
260,356,218763,5,4,1:2:0:0:
260,356,218933,1,0,1:0:0:0:
170,346,219104,2,0,L|89:339,1,73.4999977569581,2|2,0:0|1:2,0:0:0:0:
13,360,219445,1,10,0:0:0:0:
13,360,219615,2,0,L|20:279,1,73.4999977569581,2|0,0:0|1:0,0:0:0:0:
60,208,219956,1,10,0:0:0:0:
36,123,220126,6,0,L|-9:112,2,36.749998878479,8|8|8,0:0|0:0|0:0,0:0:0:0:
79,46,220467,2,0,L|128:58,3,36.749998878479,8|8|2|4,0:3|0:3|1:2|0:3,0:0:0:0:
149,82,220808,2,0,L|135:150,3,36.749998878479,2|0|2|4,1:2|1:0|1:2|0:3,0:0:0:0:
131,166,221149,1,10,0:0:0:0:
131,166,221234,1,8,0:0:0:0:
131,166,221320,2,0,L|183:177,1,36.749998878479,8|8,0:0|0:0,0:0:0:0:
234,208,221490,6,0,B|367:189|286:130|460:109,1,220.499993270874,6|0,1:2|1:0,0:0:0:0:
512,91,222172,2,0,L|483:269,1,146.999995513916,10|10,0:0|0:0,0:0:0:0:
472,349,222683,1,10,0:0:0:0:
472,349,222768,1,8,0:0:0:0:
472,349,222854,6,0,L|406:334,3,36.749998878479,8|8|8|8,0:0|0:3|0:3|0:3,0:0:0:0:
393,328,223195,2,0,L|357:336,3,36.749998878479,8|8|8|8,0:0|0:3|0:3|0:3,0:0:0:0:
315,350,223535,2,0,L|249:335,3,36.749998878479,8|0|0|0,0:0|1:0|1:0|1:0,0:0:0:0:
236,329,223876,2,0,L|200:337,3,36.749998878479,4|4|4|4,0:3|0:3|0:3|0:3,0:0:0:0:
110,315,224217,6,0,P|148:244|97:185,1,140,4|0,1:1|1:0,0:0:0:0:
35,208,224729,1,0,1:0:0:0:
5,129,224899,2,0,L|160:107,1,140,8|0,0:0|1:0,0:0:0:0:
226,83,225410,1,2,1:3:0:0:
226,83,225581,6,0,B|237:135|237:135|218:161|218:161|232:242,1,140,2|0,1:3|0:0,0:0:0:0:
194,294,226092,1,2,0:3:0:0:
194,294,226263,2,0,B|246:339|246:339|329:306,1,140,8|8,0:0|0:0,0:0:0:0:
471,367,226945,6,0,B|423:348|423:348|459:239,1,140,4|0,1:2|1:0,0:0:0:0:
505,199,227456,1,0,1:0:0:0:
481,118,227626,2,0,L|331:135,1,140,8|0,0:0|1:0,0:0:0:0:
274,183,228138,1,2,1:3:0:0:
274,183,228308,5,2,1:3:0:0:
199,143,228479,2,0,B|235:79|235:79|192:1,1,140,8|0,0:0|0:0,0:0:0:0:
118,16,228990,1,0,1:0:0:0:
51,67,229160,2,0,L|68:152,1,70,8|8,0:0|0:0,0:0:0:0:
89,254,229501,1,8,0:0:0:0:
89,254,229587,1,8,0:0:0:0:
89,254,229672,6,0,P|61:317|109:364,1,140,4|0,1:2|1:0,0:0:0:0:
188,354,230183,1,0,1:0:0:0:
269,375,230354,2,0,L|281:218,1,140,8|0,0:0|1:0,0:0:0:0:
289,155,230865,1,2,1:3:0:0:
289,155,231035,6,0,B|372:175|323:213|423:226,1,140,2|0,1:3|0:0,0:0:0:0:
489,196,231547,1,2,0:3:0:0:
489,196,231717,2,0,L|469:51,1,140,8|8,0:0|0:0,0:0:0:0:
308,8,232399,6,0,P|238:21|235:102,1,140,4|0,1:2|1:0,0:0:0:0:
289,132,232910,1,0,1:0:0:0:
372,118,233081,2,0,L|352:274,1,140,8|0,0:0|1:0,0:0:0:0:
345,340,233592,1,2,1:3:0:0:
345,340,233763,5,2,1:3:0:0:
263,321,233933,2,0,B|208:364|208:364|123:335,1,140,8|0,0:0|0:0,0:0:0:0:
63,309,234445,1,0,1:0:0:0:
112,241,234615,1,8,0:0:0:0:
190,269,234785,1,8,1:3:0:0:
259,178,234956,1,4,1:2:0:0:
256,192,235126,12,0,238876,0:0:0:0:
256,192,239217,12,0,246035,0:0:0:0:
