osu file format v14

[General]
AudioFilename: audio.mp3
AudioLeadIn: 0
PreviewTime: 53078
Countdown: 1
SampleSet: Soft
StackLeniency: 0.7
Mode: 0
LetterboxInBreaks: 0
WidescreenStoryboard: 0

[Editor]
DistanceSpacing: 1.1
BeatDivisor: 4
GridSize: 4
TimelineZoom: 1

[Metadata]
Title:FaV -F*** and Vanguard-
TitleUnicode:FaV -F*** and Vanguard-
Artist:Ayane
ArtistUnicode:彩音
Creator:lit120
Version:Summer Time 2016
Source:ラムネーション!
Tags:OP LAMUNATION! eroge visual novel dating sim whitepowder cittan kepposhi studiokpc -Hakurei-
BeatmapID:1925259
BeatmapSetID:921929

[Difficulty]
HPDrainRate:6
CircleSize:4
OverallDifficulty:8.5
ApproachRate:9.6
SliderMultiplier:2
SliderTickRate:1

[Events]
//Background and Video events
0,0,"eroge wwww.jpg",0,0
//Break Periods
//Storyboard Layer 0 (Background)
//Storyboard Layer 1 (Fail)
//Storyboard Layer 2 (Pass)
//Storyboard Layer 3 (Foreground)
//Storyboard Sound Samples

[TimingPoints]
105,315.789473684211,4,2,0,100,1,0
105,-133.333333333333,4,2,0,100,0,0
10210,-100,4,2,0,100,0,0
22841,-133.333333333333,4,2,0,100,0,0
30420,-100,4,2,0,100,0,0
42973,-100,4,2,0,5,0,0
43052,-133.333333333333,4,2,0,100,0,0
53157,-100,4,2,0,100,0,1
66894,-100,4,2,0,100,0,0
68315,-100,4,2,0,100,0,1
73368,-100,4,2,0,100,0,0
83473,-100,4,2,0,100,0,1
92157,-100,4,2,0,100,0,0
98631,-100,4,2,0,5,0,0

[Colours]
Combo1 : 247,102,102
Combo2 : 18,142,235
Combo3 : 116,241,73

[HitObjects]
197,150,105,6,0,P|178:221|207:288,1,150.000005722046
293,211,578,1,0,0:0:0:0:
198,60,736,2,0,B|170:59|149:69|129:82|115:111|115:111|105:162,1,150.000005722046
119,302,1210,1,0,0:0:0:0:
293,211,1368,6,0,P|346:207|431:255,2,150.000005722046
324,349,2157,1,0,0:0:0:0:
428,252,2315,1,0,0:0:0:0:
231,88,2631,6,0,P|171:72|91:103,1,150.000005722046
172,196,3105,1,0,0:0:0:0:
113,305,3262,2,0,P|185:320|252:290,1,150.000005722046
172,196,3736,1,0,0:0:0:0:
348,160,3894,6,0,P|421:159|486:219,2,150.000005722046
253,290,4683,1,0,0:0:0:0:
348,160,4841,1,0,0:0:0:0:
414,308,4999,1,0,0:0:0:0:
348,160,5157,6,0,P|299:101|226:88,1,150.000005722046
79,125,5631,1,0,0:0:0:0:
186,235,5789,2,0,P|206:291|142:376,1,150.000005722046
109,209,6262,1,0,0:0:0:0:
270,236,6420,6,0,P|307:243|344:238,1,75.0000028610231
203,90,6736,2,0,P|196:126|201:163,1,75.0000028610231
350,22,7052,2,0,P|313:15|276:20,1,75.0000028610231
418,169,7368,2,0,P|424:132|419:95,1,75.0000028610231
310,129,7683,5,0,0:0:0:0:
256,192,7762,12,0,8789,0:0:0:0:
143,322,8947,6,0,L|153:286,1,37.5000014305115
272,127,9105,2,0,L|243:152,1,37.5000014305115
53,211,9262,2,0,L|91:210,1,37.5000014305115
279,271,9420,2,0,L|247:251,1,37.5000014305115
131,89,9578,1,0,0:0:0:0:
133,90,10210,6,0,P|104:166|155:293,1,200
355,373,10683,2,0,P|384:297|333:170,1,200
133,90,11157,5,0,0:0:0:0:
226,277,11315,1,0,0:0:0:0:
297,73,11473,1,0,0:0:0:0:
97,205,11631,5,0,0:0:0:0:
313,272,11789,1,0,0:0:0:0:
207,80,11947,1,0,0:0:0:0:
145,317,12105,6,0,P|192:303|228:268,1,100
367,67,12420,2,0,P|319:80|283:115,1,100
400,327,12736,6,0,P|431:254|404:135,1,200
179,72,13210,2,0,B|108:62|47:96|47:96|89:156,1,200
245,314,13683,5,0,0:0:0:0:
281,99,13841,1,0,0:0:0:0:
110,231,13999,1,0,0:0:0:0:
355,216,14157,5,0,0:0:0:0:
179,72,14315,1,0,0:0:0:0:
143,297,14473,1,0,0:0:0:0:
373,318,14631,6,0,P|417:296|447:256,1,100
311,67,14947,2,0,P|267:89|237:129,1,100
213,362,15262,6,0,P|179:323|193:181,1,200
371,38,15736,2,0,P|405:77|391:219,1,200
213,362,16210,5,0,0:0:0:0:
260,147,16368,1,0,0:0:0:0:
343,358,16526,1,0,0:0:0:0:
154,187,16683,5,0,0:0:0:0:
393,215,16841,1,0,0:0:0:0:
177,299,16999,1,0,0:0:0:0:
431,311,17157,6,0,P|469:281|491:236,1,100
349,43,17473,2,0,P|310:72|288:117,1,100
256,344,17789,6,0,P|308:368|379:256,1,200
205,130,18262,2,0,B|213:191|213:191|311:290,1,200
332,53,18736,1,0,0:0:0:0:
116,153,18894,6,0,P|87:207|195:289,1,200
398,217,19368,1,0,0:0:0:0:
217,58,19526,1,0,0:0:0:0:
217,58,19605,1,0,0:0:0:0:
217,58,19683,6,0,P|203:105|211:154,1,100
295,326,19999,2,0,P|308:278|300:229,1,100
114,83,20315,5,0,0:0:0:0:
163,309,20473,1,0,0:0:0:0:
303,105,20631,5,0,0:0:0:0:
91,219,20789,1,0,0:0:0:0:
323,313,20947,5,0,0:0:0:0:
215,98,21105,1,0,0:0:0:0:
479,157,21262,5,0,0:0:0:0:
226,257,21420,1,0,0:0:0:0:
226,257,21736,5,0,0:0:0:0:
479,157,21894,1,0,0:0:0:0:
256,192,21973,12,0,22683,0:0:0:0:
58,131,22841,5,0,0:0:0:0:
153,269,22999,1,0,0:0:0:0:
225,118,23157,1,0,0:0:0:0:
319,255,23315,1,0,0:0:0:0:
391,104,23473,2,0,P|427:100|463:111,1,75.0000028610231
474,288,23789,2,0,P|437:292|401:281,1,75.0000028610231
254,189,24105,6,0,P|195:179|118:246,1,150.000005722046
210,277,24578,2,0,L|160:114,1,150.000005722046
121,306,25052,2,0,P|138:338|168:360,1,75.0000028610231
327,289,25368,5,0,0:0:0:0:
268,129,25526,1,0,0:0:0:0:
247,338,25683,2,0,P|271:365|305:380,1,75.0000028610231
324,195,25999,2,0,P|287:202|257:224,1,75.0000028610231
409,333,26315,2,0,P|420:297|416:260,1,75.0000028610231
341,98,26631,6,0,P|297:66|200:83,1,150.000005722046
185,220,27105,2,0,P|229:252|326:235,1,150.000005722046
405,78,27578,1,0,0:0:0:0:
263,159,27736,1,0,0:0:0:0:
439,191,27894,5,0,0:0:0:0:
324,328,28052,1,0,0:0:0:0:
262,158,28210,2,0,P|231:139|194:134,1,75.0000028610231
72,247,28526,1,0,0:0:0:0:
242,235,28683,1,0,0:0:0:0:
109,100,28841,2,0,P|101:136|110:172,1,75.0000028610231
224,318,29157,6,0,P|288:317|351:257,1,150.000005722046
272,119,29631,2,0,P|208:120|145:180,1,150.000005722046
99,372,30105,1,0,0:0:0:0:
0,221,30262,1,0,0:0:0:0:
224,318,30420,6,0,P|321:308|383:233,1,200
268,13,30894,2,0,P|228:102|262:194,1,200
510,203,31368,2,0,P|452:123|356:107,1,200
141,222,31841,5,0,0:0:0:0:
350,351,31999,1,0,0:0:0:0:
357,106,32157,1,0,0:0:0:0:
208,346,32315,5,0,0:0:0:0:
178,357,32393,1,0,0:0:0:0:
147,360,32472,1,0,0:0:0:0:
116,356,32551,1,0,0:0:0:0:
87,346,32630,1,0,0:0:0:0:
61,329,32709,1,0,0:0:0:0:
39,306,32788,1,0,0:0:0:0:
23,280,32867,1,0,0:0:0:0:
14,250,32946,5,0,0:0:0:0:
215,224,33105,1,0,0:0:0:0:
39,63,33262,1,0,0:0:0:0:
105,264,33420,1,0,0:0:0:0:
222,86,33578,1,0,0:0:0:0:
295,294,33736,1,0,0:0:0:0:
98,153,33894,1,0,0:0:0:0:
147,360,34052,1,0,0:0:0:0:
264,173,34210,6,0,P|357:141|455:157,1,200
338,344,34683,2,0,P|244:375|147:360,1,200
34,156,35157,1,0,0:0:0:0:
218,241,35315,1,0,0:0:0:0:
19,339,35473,5,0,0:0:0:0:
114,140,35631,2,0,P|178:114|318:151,1,200
213,330,36105,2,0,P|164:341|116:329,1,100
323,247,36420,2,0,P|371:235|419:247,1,100
301,57,36736,6,0,P|244:43|107:88,1,200
290,218,37210,2,0,P|345:139|299:56,1,200
146,227,37683,2,0,P|134:275|146:323,1,100
256,135,37999,5,0,0:0:0:0:
38,137,38157,1,0,0:0:0:0:
233,275,38315,1,0,0:0:0:0:
23,276,38473,1,0,0:0:0:0:
127,93,38631,2,0,P|171:72|221:74,1,100
327,256,38947,2,0,P|283:277|233:275,1,100
313,65,39262,6,0,P|345:158|326:255,1,200
146,128,39736,2,0,P|215:60|312:64,1,200
232,274,40210,1,0,0:0:0:0:
434,211,40368,1,0,0:0:0:0:
224,109,40526,5,0,0:0:0:0:
316,314,40683,1,0,0:0:0:0:
383,93,40841,1,0,0:0:0:0:
159,204,40999,5,0,0:0:0:0:
382,264,41157,1,0,0:0:0:0:
166,341,41315,1,0,0:0:0:0:
305,124,41473,5,0,0:0:0:0:
371,368,41631,1,0,0:0:0:0:
371,368,41710,1,0,0:0:0:0:
371,368,41789,5,0,0:0:0:0:
477,194,41947,1,0,0:0:0:0:
269,259,42105,1,0,0:0:0:0:
420,67,42262,1,0,0:0:0:0:
177,108,42420,2,0,P|174:248|285:162,1,350
209,178,43052,6,0,P|157:238|163:315,1,150.000005722046
232,370,43526,1,0,0:0:0:0:
327,350,43683,2,0,P|379:290|373:213,1,150.000005722046
304,159,44157,1,0,0:0:0:0:
209,178,44315,6,0,P|155:171|104:89,2,150.000005722046
197,86,45105,1,0,0:0:0:0:
88,214,45262,2,0,L|66:244,3,37.5000014305115
4,202,45578,6,0,P|-1:274|55:317,1,150.000005722046
163,322,46052,1,0,0:0:0:0:
210,169,46210,2,0,P|183:193|168:227,1,75.0000028610231
247,365,46526,2,0,P|274:341|289:307,1,75.0000028610231
284,141,46841,6,0,P|258:93|170:71,1,150.000005722046
32,133,47315,1,0,0:0:0:0:
156,222,47473,1,0,0:0:0:0:
170,70,47631,1,0,0:0:0:0:
156,222,47789,1,0,0:0:0:0:
32,133,47947,1,0,0:0:0:0:
206,149,48105,6,0,P|271:183|294:252,1,150.000005722046
227,347,48578,1,0,0:0:0:0:
156,222,48736,2,0,P|90:190|25:222,1,150.000005722046
91,278,49210,1,0,0:0:0:0:
206,149,49368,6,0,P|275:134|363:153,2,150.000005722046
91,278,50157,1,0,0:0:0:0:
261,312,50315,1,0,0:0:0:0:
36,115,50631,5,0,0:0:0:0:
256,192,50710,12,0,51578,0:0:0:0:
343,112,51894,6,0,L|324:144,1,37.5000014305115
170,269,52052,2,0,L|204:252,1,37.5000014305115
403,241,52209,2,0,L|366:232,1,37.5000014305115
198,128,52367,2,0,L|223:155,1,37.5000014305115
298,340,52525,1,0,0:0:0:0:
298,340,53157,6,0,P|333:275|308:153,1,200
138,43,53631,1,0,0:0:0:0:
203,251,53789,2,0,P|218:205|207:157,1,100
5,47,54105,2,0,P|-10:93|0:141,1,100
134,328,54420,6,0,P|195:351|343:310,1,200
363,125,54894,2,0,P|302:102|154:143,1,200
40,316,55368,1,0,0:0:0:0:
235,241,55526,1,0,0:0:0:0:
49,131,55683,5,0,0:0:0:0:
134,328,55841,1,0,0:0:0:0:
245,130,55999,2,0,P|291:114|339:125,1,100
238,323,56315,2,0,P|200:290|186:243,1,100
409,233,56631,2,0,P|399:281|365:317,1,100
245,130,56947,6,0,P|311:113|446:148,1,200
295,313,57420,2,0,P|229:330|94:295,1,200
43,71,57894,1,0,0:0:0:0:
182,230,58052,1,0,0:0:0:0:
252,18,58210,5,0,0:0:0:0:
367,198,58368,1,0,0:0:0:0:
142,120,58526,1,0,0:0:0:0:
179,334,58683,1,0,0:0:0:0:
311,131,58841,2,0,P|404:119|452:200,1,200
301,329,59315,1,0,0:0:0:0:
215,109,59473,6,0,P|191:173|230:308,1,200
303,99,59947,2,0,P|246:24|153:42,1,200
127,281,60420,2,0,P|172:302|221:297,1,100
55,171,60736,5,0,0:0:0:0:
28,377,60894,1,0,0:0:0:0:
189,209,61052,2,0,P|236:194|284:206,1,100
429,362,61368,2,0,P|486:283|443:178,1,200
305,61,61841,1,0,0:0:0:0:
190,264,61999,6,0,P|285:291|381:266,1,200
191,120,62473,1,0,0:0:0:0:
191,120,62552,1,0,0:0:0:0:
191,120,62631,1,0,0:0:0:0:
143,330,62789,1,0,0:0:0:0:
323,188,62947,1,0,0:0:0:0:
87,203,63105,1,0,0:0:0:0:
235,379,63262,5,0,0:0:0:0:
235,379,63420,2,0,P|276:328|238:207,1,200
5,271,63894,2,0,P|88:321|181:292,1,200
336,162,64368,1,0,0:0:0:0:
103,204,64526,5,0,0:0:0:0:
303,302,64683,1,0,0:0:0:0:
279,83,64841,1,0,0:0:0:0:
140,285,64999,6,0,P|185:306|234:301,1,100
372,99,65315,2,0,P|327:78|278:83,1,100
81,228,65631,1,0,0:0:0:0:
81,228,65710,1,0,0:0:0:0:
81,228,65789,6,0,P|127:135|215:79,1,200
431,156,66262,2,0,P|385:249|297:305,1,200
65,312,66736,1,0,0:0:0:0:
256,192,66894,5,0,0:0:0:0:
256,192,66973,12,0,67999,0:0:0:0:
141,71,68315,6,0,P|123:169|162:286,1,200
371,313,68789,2,0,P|389:215|350:98,1,200
233,320,69262,1,0,0:0:0:0:
134,146,69420,1,0,0:0:0:0:
343,238,69578,6,0,P|403:235|446:110,1,200
255,29,70052,2,0,P|205:29|163:55,1,100
157,269,70368,2,0,P|206:268|248:242,1,100
333,49,70683,1,0,0:0:0:0:
112,124,70841,5,0,0:0:0:0:
87,152,70919,1,0,0:0:0:0:
72,186,70998,1,0,0:0:0:0:
67,223,71077,1,0,0:0:0:0:
72,260,71157,2,0,L|114:310,1,50
298,364,71315,5,0,0:0:0:0:
332,349,71393,1,0,0:0:0:0:
359,323,71472,1,0,0:0:0:0:
374,290,71551,1,0,0:0:0:0:
377,252,71631,2,0,L|344:194,1,50
219,49,71789,5,0,0:0:0:0:
72,260,71947,1,0,0:0:0:0:
72,260,72026,1,0,0:0:0:0:
72,260,72105,6,0,P|99:320|237:353,1,200
394,343,72578,1,0,0:0:0:0:
440,124,72736,2,0,P|413:64|275:31,1,200
118,41,73210,1,0,0:0:0:0:
219,265,73368,6,0,P|247:213|217:77,1,200
125,294,73841,2,0,P|197:361|292:331,1,200
360,103,74315,5,0,0:0:0:0:
156,198,74473,1,0,0:0:0:0:
372,265,74631,1,0,0:0:0:0:
220,80,74789,5,0,0:0:0:0:
182,303,74947,1,0,0:0:0:0:
31,145,75105,1,0,0:0:0:0:
257,212,75262,6,0,P|305:207|348:180,1,100
168,28,75578,2,0,P|119:32|76:59,1,100
20,298,75894,6,0,P|69:353|191:352,1,200
319,149,76368,2,0,P|346:208|260:335,1,200
170,115,76841,5,0,0:0:0:0:
74,308,76999,1,0,0:0:0:0:
283,234,77157,1,0,0:0:0:0:
42,176,77315,5,0,0:0:0:0:
188,353,77473,1,0,0:0:0:0:
242,145,77631,1,0,0:0:0:0:
391,334,77789,6,0,P|406:287|399:237,1,100
164,185,78105,2,0,P|148:231|155:281,1,100
269,59,78420,6,0,P|164:20|66:54,1,200
61,281,78894,2,0,P|166:320|264:286,1,200
370,95,79368,5,0,0:0:0:0:
426,304,79526,1,0,0:0:0:0:
219,218,79683,1,0,0:0:0:0:
462,184,79841,5,0,0:0:0:0:
304,345,79999,1,0,0:0:0:0:
239,142,80157,1,0,0:0:0:0:
76,324,80315,6,0,P|123:339|172:332,1,100
386,216,80631,2,0,P|338:200|289:207,1,100
475,379,80947,6,0,P|501:318|469:184,1,200
267,68,81420,2,0,P|170:62|76:133,1,200
64,359,81894,1,0,0:0:0:0:
285,257,82052,6,0,P|323:181|228:154,1,200
34,285,82526,1,0,0:0:0:0:
266,357,82683,1,0,0:0:0:0:
266,357,82762,1,0,0:0:0:0:
266,357,82841,6,0,P|357:328|383:236,1,200
171,139,83315,1,0,0:0:0:0:
171,139,83394,1,0,0:0:0:0:
171,139,83473,5,0,0:0:0:0:
399,63,83631,1,0,0:0:0:0:
261,271,83789,5,0,0:0:0:0:
189,37,83947,1,0,0:0:0:0:
62,247,84105,5,0,0:0:0:0:
297,173,84262,1,0,0:0:0:0:
126,357,84420,5,0,0:0:0:0:
80,130,84578,1,0,0:0:0:0:
266,299,84736,5,0,0:0:0:0:
260,54,84894,1,0,0:0:0:0:
127,267,85052,5,0,0:0:0:0:
369,198,85210,1,0,0:0:0:0:
147,62,85368,6,0,P|105:87|80:130,1,100
266,299,85683,2,0,P|308:273|333:231,1,100
74,278,85999,5,0,0:0:0:0:
262,117,86157,1,0,0:0:0:0:
223,370,86315,5,0,0:0:0:0:
109,155,86473,1,0,0:0:0:0:
356,223,86631,5,0,0:0:0:0:
131,344,86789,1,0,0:0:0:0:
182,85,86947,5,0,0:0:0:0:
311,306,87105,1,0,0:0:0:0:
311,306,87183,1,0,0:0:0:0:
311,306,87262,5,0,0:0:0:0:
361,56,87420,1,0,0:0:0:0:
182,248,87578,5,0,0:0:0:0:
435,204,87736,1,0,0:0:0:0:
435,204,87815,1,0,0:0:0:0:
435,204,87894,6,0,P|409:161|367:136,1,100
186,311,88210,2,0,P|211:353|253:378,1,100
253,112,88526,5,0,0:0:0:0:
71,274,88683,1,0,0:0:0:0:
123,23,88841,5,0,0:0:0:0:
238,250,88999,1,0,0:0:0:0:
9,127,89157,5,0,0:0:0:0:
265,109,89315,1,0,0:0:0:0:
43,258,89473,5,0,0:0:0:0:
309,234,89631,1,0,0:0:0:0:
309,234,89710,1,0,0:0:0:0:
309,234,89789,5,0,0:0:0:0:
106,81,89947,1,0,0:0:0:0:
187,332,90105,5,0,0:0:0:0:
294,96,90262,2,0,L|251:122,1,50
42,258,90420,1,0,0:0:0:0:
35,298,90498,1,0,0:0:0:0:
48,337,90577,1,0,0:0:0:0:
79,365,90656,1,0,0:0:0:0:
119,374,90735,1,0,0:0:0:0:
159,362,90814,1,0,0:0:0:0:
187,332,90893,1,0,0:0:0:0:
206,69,91052,5,0,0:0:0:0:
42,258,91210,1,0,0:0:0:0:
42,258,91289,1,0,0:0:0:0:
42,258,91368,1,0,0:0:0:0:
308,233,91526,5,0,0:0:0:0:
102,93,91683,1,0,0:0:0:0:
102,93,91762,1,0,0:0:0:0:
102,93,91841,1,0,0:0:0:0:
79,365,91999,5,0,0:0:0:0:
318,146,92157,1,0,0:0:0:0:
256,192,92236,12,0,98631,0:0:0:0:
