osu file format v14

[General]
AudioFilename: audio.mp3
AudioLeadIn: 0
PreviewTime: 53023
Countdown: 0
SampleSet: None
StackLeniency: 0.7
Mode: 0
LetterboxInBreaks: 0
WidescreenStoryboard: 0

[Editor]
Bookmarks: 30207,48681
DistanceSpacing: 1.1
BeatDivisor: 4
GridSize: 32
TimelineZoom: 1.8

[Metadata]
Title:FaV -F*** and Vanguard-
TitleUnicode:FaV -F*** and Vanguard-
Artist:Ayane
ArtistUnicode:彩音
Creator:Xexxar
Version:Normal
Source:LAMUNATION!
Tags:OP ラムネーション! eroge visual novel dating sim whitepowder cittan kepposhi studiokpc anxient
BeatmapID:972293
BeatmapSetID:452690

[Difficulty]
HPDrainRate:3
CircleSize:2.5
OverallDifficulty:3
ApproachRate:4
SliderMultiplier:0.8
SliderTickRate:1

[Events]
//Background and Video events
Video,-120,"these cute girls are drinks.avi"
0,0,"bg_ev15.jpg",0,0
//Break Periods
//Storyboard Layer 0 (Background)
//Storyboard Layer 1 (Fail)
//Storyboard Layer 2 (Pass)
//Storyboard Layer 3 (Foreground)
//Storyboard Sound Samples

[TimingPoints]
105,315.789473684211,4,2,1,75,1,0
105,-100,4,2,1,75,0,0
341,-100,4,2,1,5,0,0
420,-100,4,2,1,75,0,0
1605,-100,4,2,1,5,0,0
1683,-100,4,2,1,75,0,0
2631,-100,4,2,1,75,0,0
2868,-100,4,2,1,75,0,0
7368,-100,4,2,1,75,0,0
7683,-100,4,2,1,75,0,0
10210,-90.9090909090909,4,1,1,75,0,1
10526,-90.9090909090909,4,1,1,75,0,0
15262,-90.9090909090909,4,1,1,75,0,0
15578,-90.9090909090909,4,1,1,75,0,0
20315,-100,4,1,1,75,0,0
22841,-100,4,3,1,75,0,0
30420,-90.9090909090909,4,1,1,75,0,0
30736,-90.9090909090909,4,1,1,75,0,0
32947,-90.9090909090909,4,1,1,75,0,0
42420,-100,4,1,1,75,0,0
42973,-100,4,1,1,5,0,0
43052,-111.111111111111,4,2,1,75,0,0
44947,-111.111111111111,4,2,1,75,0,0
45578,-111.111111111111,4,2,1,75,0,0
46841,-111.111111111111,4,2,1,75,0,0
51894,-100,4,2,1,75,0,0
53157,-90.9090909090909,4,1,1,75,0,1
63105,-90.9090909090909,4,1,1,75,0,0
63262,-90.9090909090909,4,1,1,75,0,1
63420,-90.9090909090909,4,1,1,75,0,1
66894,-90.9090909090909,4,1,1,75,0,0
68315,-90.9090909090909,4,1,1,75,0,1
68631,-90.9090909090909,4,1,1,75,0,1
72105,-100,4,1,1,75,0,0
73368,-90.9090909090909,4,1,1,75,0,1
73683,-90.9090909090909,4,1,1,75,0,0
83473,-84.7457627118644,4,1,1,75,0,1
83631,-84.7457627118644,4,1,1,75,0,1
91999,-90.9090909090909,4,1,1,75,0,0
98631,-100,4,1,1,5,0,0

[Colours]
Combo1 : 255,60,157
Combo2 : 247,230,106
Combo3 : 34,145,255
Combo4 : 176,255,255

[HitObjects]
40,279,105,6,0,L|131:283,1,80,2|2,0:0|0:0,0:0:0:0:
196,239,736,2,0,P|219:201|220:151,1,80,0|2,0:0|0:0,0:0:0:0:
258,85,1368,2,0,P|293:71|351:80,1,80,2|2,0:0|0:0,0:0:0:0:
385,145,1999,2,0,L|397:322,2,160,2|0|0,0:0|0:0|0:0,0:0:0:0:
425,66,3578,1,2,0:0:0:0:
335,73,3894,2,0,P|304:105|299:156,1,80,2|2,0:0|0:0,0:0:0:0:
300,226,4526,1,2,0:0:0:0:
213,239,4841,1,2,0:0:0:0:
126,256,5157,6,0,P|111:302|121:347,1,80,10|8,0:0|0:0,0:0:0:0:
196,366,5789,2,0,L|280:354,1,80,2|8,0:0|0:0,0:0:0:0:
359,328,6420,1,8,0:0:0:0:
337,242,6736,2,0,P|335:192|349:152,2,80,8|2|8,0:0|0:0|0:0,0:0:0:0:
359,328,7683,1,2,0:3:0:0:
46,367,8947,6,0,L|-2:373,4,40,0|0|0|0|0,3:0|3:0|3:0|3:0|3:0,0:0:0:0:
151,237,10210,6,0,B|173:195|173:195|164:97,1,132.00000402832,14|8,0:0|0:0,0:0:0:0:
267,26,11157,2,0,P|322:11|410:25,1,132.00000402832,8|8,0:0|0:0,0:0:0:0:
399,154,12105,1,8,0:0:0:0:
415,240,12420,1,8,0:0:0:0:
331,213,12736,6,0,L|192:258,1,132.00000402832,12|8,0:0|0:0,0:0:0:0:
108,164,13683,1,8,0:0:0:0:
156,90,13999,1,2,0:0:0:0:
83,40,14315,1,2,0:0:0:0:
30,116,14631,2,0,P|18:171|30:214,1,88.000002685547,8|8,0:0|0:0,0:0:0:0:
89,260,15262,6,0,L|232:280,1,132.00000402832,14|8,0:0|0:0,0:0:0:0:
329,204,16210,2,0,P|350:158|337:64,1,132.00000402832,8|8,0:0|0:0,0:0:0:0:
221,28,17157,2,0,B|178:16|178:16|125:29,1,88.000002685547,10|10,0:0|0:0,0:0:0:0:
177,104,17789,6,0,P|192:137|180:239,1,132.00000402832,12|12,0:0|0:0,0:0:0:0:
274,326,18736,2,0,L|328:335,1,44.0000013427735,8|6,0:0|0:0,0:0:0:0:
398,298,19210,2,0,L|452:307,1,44.0000013427735,8|0,0:0|0:0,0:0:0:0:
434,217,19683,2,0,P|437:157|454:126,1,88.000002685547,0|0,0:0|2:0,0:0:0:0:
501,61,20315,1,0,3:0:0:0:
256,192,20473,12,8,21894,3:0:0:0:
225,327,22841,6,0,L|128:339,1,80,4|8,1:0|0:1,0:0:0:0:
72,287,23473,2,0,P|56:229|63:200,1,80,8|8,0:3|0:1,0:0:0:0:
86,126,24105,2,0,P|92:103|90:86,2,40,12|0|8,0:0|0:0|0:1,0:0:0:0:
59,210,24736,2,0,L|9:216,2,40,8|0|8,0:0|0:0|0:1,0:0:0:0:
145,191,25368,6,0,P|189:190|235:201,1,80,8|8,0:0|0:1,0:0:0:0:
291,253,25999,2,0,P|288:294|306:345,1,80,8|8,0:0|0:1,0:0:0:0:
369,383,26631,2,0,L|460:379,1,80,12|8,0:0|0:1,0:0:0:0:
507,313,27262,2,0,P|511:268|503:221,1,80,8|8,0:0|0:1,0:0:0:0:
510,145,27894,5,12,0:0:0:0:
423,164,28210,1,8,0:1:0:0:
339,136,28526,2,0,P|328:120|321:95,2,40,8|0|8,0:0|0:0|0:1,0:0:0:0:
357,221,29157,1,8,0:0:0:0:
284,270,29473,1,8,0:1:0:0:
197,252,29789,2,0,L|179:216,2,40,8|0|8,0:0|0:0|0:1,0:0:0:0:
158,340,30420,6,0,B|120:361|120:361|58:362,1,88.000002685547,14|8,0:0|0:3,0:0:0:0:
37,338,30894,2,0,B|20:296|20:296|28:247,1,88.000002685547,12|8,0:0|0:3,0:0:0:0:
41,211,31368,2,0,B|53:167|53:167|39:125,1,88.000002685547,12|8,0:0|0:3,0:0:0:0:
58,87,31841,2,0,B|100:73|100:73|153:82,1,88.000002685547,8|8,0:0|0:3,0:0:0:0:
186,86,32315,2,0,B|232:77|266:51|266:51|303:69|364:63,1,176.000005371094,8|6,3:0|1:1,0:0:0:0:
413,127,33262,6,0,P|428:175|413:221,1,88.000002685547,8|8,0:0|0:3,0:0:0:0:
366,281,33894,1,8,0:0:0:0:
280,258,34210,2,0,L|227:263,2,44.0000013427735,12|8|8,0:3|3:0|0:0,0:0:0:0:
265,344,34841,2,0,L|178:352,1,88.000002685547,12|8,0:3|0:0,0:0:0:0:
94,320,35473,5,6,0:0:0:0:
113,234,35789,1,8,0:0:0:0:
64,160,36105,2,0,L|11:155,2,44.0000013427735,8|0|8,0:3|0:0|0:0,0:0:0:0:
139,114,36736,1,12,0:3:0:0:
191,184,37052,2,0,P|234:190|280:182,1,88.000002685547,8|0,0:0|0:0,0:0:0:0:
330,111,37683,1,8,0:0:0:0:
279,38,37999,6,0,P|236:32|186:39,1,88.000002685547,6|8,0:0|0:0,0:0:0:0:
116,83,38631,2,0,P|83:89|65:89,2,44.0000013427735,12|8|8,0:3|0:3|0:0,0:0:0:0:
193,125,39262,2,0,P|212:161|210:216,1,88.000002685547,2|8,0:0|0:0,0:0:0:0:
169,284,39894,2,0,L|73:297,1,88.000002685547,0|8,0:0|0:0,0:0:0:0:
23,229,40526,6,0,B|9:187|9:187|19:131,1,88.000002685547,6|8,0:0|0:3,0:0:0:0:
42,108,40999,2,0,B|84:95|84:95|136:100,1,88.000002685547,12|8,0:0|0:3,0:0:0:0:
159,129,41473,2,0,B|202:133|202:133|244:120,1,88.000002685547,12|0,0:0|0:0,0:0:0:0:
354,47,42262,2,0,L|405:43,1,44.0000013427735,8|4,0:0|1:1,0:0:0:0:
272,142,43052,6,0,P|347:239|353:160,2,287.999991210938,4|0|0,0:0|0:0|0:0,0:0:0:0:
153,60,46210,2,0,L|70:72,1,71.9999978027344,2|0,0:0|0:0,0:0:0:0:
25,136,46841,2,0,P|16:187|26:222,1,71.9999978027344,0|0,0:0|0:0,0:0:0:0:
33,247,47315,1,0,0:0:0:0:
87,313,47631,2,0,L|173:321,1,71.9999978027344,2|0,0:0|0:0,0:0:0:0:
201,324,48105,2,0,B|259:323|298:352|298:352|335:340|335:340|411:367|481:345,2,287.999991210938,2|2|2,0:0|0:0|0:0,0:0:0:0:
184,43,51894,6,0,L|236:36,4,40,0|0|0|0|0,3:0|3:0|3:0|3:0|3:0,0:0:0:0:
54,167,53157,6,0,P|45:211|59:264,1,88.000002685547,14|8,0:0|0:0,0:0:0:0:
133,307,53789,2,0,L|189:312,2,44.0000013427735,8|8|8,0:3|0:3|0:0,0:0:0:0:
145,210,54420,2,0,P|155:167|144:119,1,88.000002685547,12|8,0:3|0:0,0:0:0:0:
124,80,54894,1,2,0:2:0:0:
205,28,55210,2,0,L|249:25,1,44.0000013427735,2|8,0:2|0:0,0:0:0:0:
345,17,55683,1,4,0:1:0:0:
414,84,55999,6,0,P|431:149|421:183,1,88.000002685547,8|8,0:0|0:3,0:0:0:0:
386,256,56631,1,8,0:0:0:0:
319,185,56947,2,0,L|328:129,2,44.0000013427735,12|8|8,0:0|0:3|0:0,0:0:0:0:
283,218,57420,2,0,P|236:232|188:230,1,88.000002685547,8|10,0:0|0:3,0:0:0:0:
149,220,57894,1,8,0:0:0:0:
69,275,58210,6,0,P|62:318|71:360,1,88.000002685547,6|8,0:0|0:0,0:0:0:0:
166,380,58841,1,8,0:3:0:0:
248,329,59157,2,0,P|280:322|305:321,1,44.0000013427735,8|0,0:0|0:0,0:0:0:0:
339,320,59473,1,12,0:3:0:0:
407,251,59789,2,0,L|424:194,1,44.0000013427735,8|2,0:0|0:0,0:0:0:0:
361,131,60262,2,0,L|378:74,1,44.0000013427735,8|8,0:3|0:0,0:0:0:0:
450,29,60736,1,6,0:0:0:0:
465,124,61052,6,0,P|459:167|425:214,1,88.000002685547,8|8,0:0|0:3,0:0:0:0:
342,230,61683,1,8,0:0:0:0:
248,203,61999,2,0,B|204:199|204:199|156:218,1,88.000002685547,4|8,0:0|0:0,0:0:0:0:
119,235,62473,2,0,B|77:238|77:238|25:216,1,88.000002685547,12|8,0:0|0:3,0:0:0:0:
13,176,62947,2,0,L|4:118,2,44.0000013427735,12|2|12,0:0|0:2|0:3,0:0:0:0:
103,142,63578,6,0,L|148:133,1,44.0000013427735,8|8,0:3|0:0,0:0:0:0:
189,124,63894,1,0,0:3:0:0:
228,212,64210,1,2,0:2:0:0:
285,134,64526,2,0,P|331:147|387:139,1,88.000002685547,8|0,0:0|0:0,0:0:0:0:
407,175,64999,2,0,P|453:163|509:170,1,88.000002685547,6|2,0:2|0:2,0:0:0:0:
461,263,65631,1,8,0:3:0:0:
461,263,65789,6,0,B|468:332|468:332|429:380,1,132.00000402832,12|6,0:0|0:1,0:0:0:0:
335,351,66578,2,0,P|287:342|240:355,1,88.000002685547,10|2,0:0|2:0,0:0:0:0:
48,212,67999,6,0,B|32:172|32:172|40:125,1,88.000002685547,2|14,2:0|0:0,0:0:0:0:
111,62,68631,1,8,0:0:0:0:
111,62,68789,2,0,L|250:50,1,132.00000402832,2|8,0:2|0:0,0:0:0:0:
326,98,69578,2,0,P|345:153|340:196,1,88.000002685547,12|8,0:1|0:0,0:0:0:0:
334,229,70052,1,2,0:2:0:0:
385,310,70368,2,0,B|429:320|429:320|482:304,1,88.000002685547,2|8,0:2|0:3,0:0:0:0:
501,270,70841,6,0,B|512:233|512:233|453:151|453:151|504:104|485:26,1,264.000008056641,12|12,0:0|0:0,0:0:0:0:
366,63,72105,1,14,0:0:0:0:
379,264,72736,1,12,0:0:0:0:
242,108,73368,6,0,B|204:90|204:90|104:107,1,132.00000402832,14|8,0:0|0:0,0:0:0:0:
45,217,74315,2,0,P|40:279|68:341,1,132.00000402832,8|8,0:0|0:0,0:0:0:0:
199,324,75262,1,10,0:0:0:0:
216,237,75578,1,8,0:0:0:0:
282,294,75894,2,0,P|330:309|428:295,1,132.00000402832,14|8,0:0|0:0,0:0:0:0:
448,175,76841,2,0,L|460:80,2,88.000002685547,10|6|0,0:0|0:0|0:0,0:0:0:0:
372,221,77789,1,12,0:0:0:0:
291,185,78105,1,8,0:0:0:0:
219,236,78420,6,0,B|169:256|169:256|77:260,1,132.00000402832,14|8,0:0|0:0,0:0:0:0:
5,158,79368,2,0,P|1:99|38:30,1,132.00000402832,8|8,0:0|0:0,0:0:0:0:
72,16,79999,2,0,B|112:34|112:34|169:31,1,88.000002685547,2|8,0:0|0:0,0:0:0:0:
244,27,80631,1,8,0:0:0:0:
204,105,80947,6,0,P|191:135|200:237,1,132.00000402832,6|8,0:0|0:0,0:0:0:0:
318,285,81894,2,0,L|363:289,1,44.0000013427735,8|12,0:0|0:0,0:0:0:0:
419,221,82368,2,0,L|464:225,1,44.0000013427735,8|0,0:0|0:0,0:0:0:0:
500,135,82841,1,2,0:0:0:0:
460,46,83157,1,2,0:0:0:0:
398,129,83473,6,0,L|288:143,1,94.3999966870118,14|8,0:0|0:0,0:0:0:0:
252,147,83947,2,0,B|205:155|205:155|163:192,1,94.3999966870118,2|8,0:0|0:3,0:0:0:0:
118,183,84420,2,0,P|80:153|65:92,1,94.3999966870118,8|12,0:0|0:0,0:0:0:0:
73,59,84894,2,0,B|113:34|113:34|165:31,1,94.3999966870118,0|8,0:0|0:3,0:0:0:0:
212,32,85368,2,0,P|303:60|392:32,1,188.799993374024,10|14,0:0|0:0,0:0:0:0:
443,122,86315,6,0,L|441:182,2,47.1999983435059,8|2|8,0:0|0:0|0:0,0:0:0:0:
344,156,86947,2,0,P|353:217|378:247,1,94.3999966870118,10|12,0:0|0:0,0:0:0:0:
315,329,87578,2,0,L|213:343,1,94.3999966870118,8|12,0:0|0:0,0:0:0:0:
125,382,88210,1,8,0:0:0:0:
139,279,88526,6,0,B|117:237|117:237|116:181,1,94.3999966870118,14|8,0:0|0:0,0:0:0:0:
127,139,88999,2,0,B|140:96|140:96|182:60,1,94.3999966870118,2|8,0:0|0:3,0:0:0:0:
229,59,89473,2,0,L|331:73,1,94.3999966870118,8|12,0:0|0:0,0:0:0:0:
423,46,90105,1,8,0:0:0:0:
396,146,90420,2,0,P|398:174|411:199,2,47.1999983435059,8|0|8,0:0|0:0|0:0,0:0:0:0:
322,71,91052,6,0,B|266:63|266:63|235:72|235:72|165:61,2,141.599995030518,12|12|8,0:0|0:0|0:0,0:0:0:0:
369,81,92157,1,4,0:0:0:0:
256,192,92315,12,0,98631,0:0:0:0:
