osu file format v14

[General]
AudioFilename: audio.mp3
AudioLeadIn: 0
PreviewTime: 53023
Countdown: 0
SampleSet: Normal
StackLeniency: 0.7
Mode: 0
LetterboxInBreaks: 0
WidescreenStoryboard: 0

[Editor]
Bookmarks: 997,4786,30207,48681
DistanceSpacing: 0.6
BeatDivisor: 4
GridSize: 32
TimelineZoom: 1

[Metadata]
Title:FaV -F*** and Vanguard-
TitleUnicode:FaV -F*** and Vanguard-
Artist:Ayane
ArtistUnicode:彩音
Creator:Xexxar
Version:Extra
Source:LAMUNATION!
Tags:OP ラムネーション! eroge visual novel dating sim whitepowder cittan kepposhi studiokpc anxient
BeatmapID:970985
BeatmapSetID:452690

[Difficulty]
HPDrainRate:4.8
CircleSize:4
OverallDifficulty:8.7
ApproachRate:9.2
SliderMultiplier:1.5
SliderTickRate:1

[Events]
//Background and Video events
Video,-120,"these cute girls are drinks.avi"
0,0,"bg_ev13.jpg",0,0
//Break Periods
//Storyboard Layer 0 (Background)
//Storyboard Layer 1 (Fail)
//Storyboard Layer 2 (Pass)
//Storyboard Layer 3 (Foreground)
//Storyboard Sound Samples

[TimingPoints]
105,315.789473684211,4,2,1,75,1,0
105,-100,4,2,1,75,0,0
341,-100,4,2,1,5,0,0
420,-100,4,2,1,75,0,0
1605,-100,4,2,1,5,0,0
1683,-100,4,2,1,75,0,0
2631,-100,4,2,1,75,0,0
2868,-100,4,2,1,75,0,0
7368,-100,4,2,1,75,0,0
7683,-100,4,2,1,75,0,0
10210,-83.3333333333333,4,1,1,75,0,1
10526,-83.3333333333333,4,1,1,75,0,0
15262,-83.3333333333333,4,1,1,75,0,0
15578,-83.3333333333333,4,1,1,75,0,0
20315,-100,4,1,1,75,0,0
21973,-100,4,1,1,41,0,0
22841,-100,4,3,1,75,0,0
30420,-83.3333333333333,4,1,1,75,0,0
30736,-83.3333333333333,4,1,1,75,0,0
32947,-83.3333333333333,4,1,1,75,0,0
35394,-83.3333333333333,4,1,1,5,0,0
35473,-83.3333333333333,4,1,1,75,0,0
39499,-83.3333333333333,4,1,1,5,0,0
39578,-83.3333333333333,4,1,1,75,0,0
42420,-100,4,1,1,75,0,0
42973,-100,4,1,1,5,0,0
43052,-166.666666666667,4,2,1,75,0,0
44947,-125,4,2,1,75,0,0
45578,-166.666666666667,4,2,1,75,0,0
46841,-125,4,2,1,75,0,0
51894,-100,4,2,1,75,0,0
53157,-83.3333333333333,4,1,1,75,0,1
63105,-83.3333333333333,4,1,1,75,0,0
63262,-83.3333333333333,4,1,1,75,0,1
63420,-83.3333333333333,4,1,1,75,0,1
66894,-83.3333333333333,4,1,1,75,0,0
67210,-100,4,1,1,25,0,0
68315,-83.3333333333333,4,1,1,75,0,1
68631,-83.3333333333333,4,1,1,75,0,1
72105,-100,4,1,1,75,0,0
73368,-83.3333333333333,4,1,1,75,0,1
73683,-83.3333333333333,4,1,1,75,0,0
83473,-78.7401574803149,4,1,1,75,0,1
83631,-78.7401574803149,4,1,1,75,0,1
91999,-83.3333333333333,4,1,1,75,0,0
98631,-100,4,1,1,5,0,0

[Colours]
Combo1 : 255,60,157
Combo2 : 247,230,106
Combo3 : 34,145,255
Combo4 : 176,255,255

[HitObjects]
356,70,105,6,0,L|353:214,1,112.5,2|0,0:0|0:0,0:0:0:0:
353,201,420,1,2,0:0:0:0:
271,152,578,1,2,0:0:0:0:
305,281,736,2,0,L|407:294,1,75,2|0,0:0|0:0,0:0:0:0:
233,347,1052,2,0,L|131:360,1,75,2|0,0:0|0:0,0:0:0:0:
41,302,1368,6,0,B|17:250|17:250|20:175,1,112.5,2|0,0:0|0:0,0:0:0:0:
21,176,1683,1,2,0:0:0:0:
102,233,1841,1,0,0:0:0:0:
95,110,1999,1,2,0:0:0:0:
211,98,2157,1,2,0:0:0:0:
77,104,2315,1,2,0:0:0:0:
105,14,2473,1,0,0:0:0:0:
193,191,2631,6,0,L|321:198,1,112.5,2|0,0:0|0:0,0:0:0:0:
324,198,2947,1,2,0:0:0:0:
383,79,3105,1,0,0:0:0:0:
374,283,3262,2,0,P|379:324|402:360,1,75,2|0,0:0|0:0,0:0:0:0:
271,285,3578,2,0,P|232:276|188:285,1,75,2|0,0:0|0:0,0:0:0:0:
54,375,3894,6,0,L|47:204,1,150,2|2,0:0|0:0,0:0:0:0:
47,223,4526,1,2,0:0:0:0:
81,136,4683,1,0,0:0:0:0:
146,255,4841,1,2,0:0:0:0:
152,348,4998,1,0,0:0:0:0:
172,164,5157,6,0,P|214:144|265:151,1,75,10|0,0:0|0:0,0:0:0:0:
391,196,5473,2,0,L|296:211,1,75,8|0,0:0|0:0,0:0:0:0:
150,158,5789,2,0,P|120:103|125:74,1,75,2|0,0:0|0:0,0:0:0:0:
78,247,6105,2,0,L|67:333,1,75,8|0,0:0|0:0,0:0:0:0:
183,372,6420,6,0,B|235:358|235:358|321:369,1,112.5,8|0,0:0|0:0,0:0:0:0:
311,368,6736,1,8,0:0:0:0:
293,272,6894,1,0,0:0:0:0:
383,134,7052,1,2,0:0:0:0:
256,134,7210,1,2,0:0:0:0:
397,220,7368,1,8,0:0:0:0:
417,49,7526,1,0,0:0:0:0:
419,233,7683,1,2,0:3:0:0:
388,57,8947,5,0,3:0:0:0:
369,89,9025,1,0,3:0:0:0:
355,124,9104,1,0,3:0:0:0:
345,160,9183,1,0,3:0:0:0:
342,198,9262,1,0,3:0:0:0:
344,235,9341,1,0,3:0:0:0:
351,272,9420,1,0,3:0:0:0:
363,307,9499,1,0,3:0:0:0:
381,340,9578,1,0,3:0:0:0:
410,28,10210,6,0,L|400:145,1,89.9999972534181,14|0,0:0|0:0,0:0:0:0:
381,340,10526,1,8,0:3:0:0:
239,266,10683,2,0,P|195:261|129:277,1,89.9999972534181,8|8,0:0|0:3,0:0:0:0:
18,354,10999,1,0,0:0:0:0:
81,204,11157,2,0,P|84:149|69:109,1,89.9999972534181,8|0,0:0|0:0,0:0:0:0:
0,9,11473,5,0,0:0:0:0:
89,208,11631,2,0,L|193:217,1,89.9999972534181,8|0,0:0|0:0,0:0:0:0:
264,122,11947,1,0,0:0:0:0:
389,272,12105,1,8,0:0:0:0:
206,307,12262,1,8,0:3:0:0:
384,179,12420,2,0,P|402:130|385:78,1,89.9999972534181,8|8,0:0|0:3,0:0:0:0:
219,23,12736,6,0,L|129:15,1,89.9999972534181,12|0,0:0|0:0,0:0:0:0:
9,87,13052,1,8,0:3:0:0:
159,176,13210,2,0,P|173:227|157:275,1,89.9999972534181,8|0,0:0|0:0,0:0:0:0:
57,347,13526,1,8,0:3:0:0:
7,225,13683,1,8,0:0:0:0:
169,284,13841,1,0,0:0:0:0:
67,127,13999,6,0,L|58:29,1,89.9999972534181,2|8,0:0|0:0,0:0:0:0:
159,176,14315,1,2,0:0:0:0:
30,285,14473,1,8,0:3:0:0:
252,343,14631,5,8,0:0:0:0:
55,292,14789,1,2,0:0:0:0:
163,153,14947,1,8,0:0:0:0:
111,369,15105,1,0,0:0:0:0:
265,228,15262,6,0,L|370:254,1,89.9999972534181,14|0,0:0|0:0,0:0:0:0:
478,287,15578,1,8,0:3:0:0:
329,150,15736,2,0,P|314:102|327:53,1,89.9999972534181,8|0,0:0|0:0,0:0:0:0:
448,15,16052,1,8,0:3:0:0:
396,225,16210,2,0,L|291:251,1,89.9999972534181,8|0,0:0|0:0,0:0:0:0:
152,289,16526,1,0,0:0:0:0:
373,344,16683,1,8,0:0:0:0:
236,262,16841,5,2,0:0:0:0:
228,351,16998,1,8,0:3:0:0:
54,201,17157,5,10,0:0:0:0:
62,290,17314,1,8,0:3:0:0:
244,173,17473,5,2,0:0:0:0:
236,262,17630,1,8,0:3:0:0:
115,75,17789,6,0,L|13:63,1,89.9999972534181,12|0,0:0|0:0,0:0:0:0:
218,21,18105,1,8,0:3:0:0:
143,234,18262,2,0,L|131:336,1,89.9999972534181,12|8,0:0|0:3,0:0:0:0:
58,172,18578,1,0,0:0:0:0:
241,97,18736,1,8,0:0:0:0:
266,292,18894,2,0,P|316:315|366:314,1,89.9999972534181,6|0,0:0|0:0,0:0:0:0:
455,154,19210,5,8,0:0:0:0:
431,337,19368,1,0,0:0:0:0:
382,190,19526,1,0,0:0:0:0:
382,190,19605,1,0,0:0:0:0:
382,190,19683,1,0,0:0:0:0:
388,102,19999,5,0,2:0:0:0:
474,68,20315,5,0,3:0:0:0:
474,68,20473,1,0,3:0:0:0:
309,50,20631,1,8,3:3:0:0:
445,159,20789,5,0,3:0:0:0:
279,155,20947,1,8,3:0:0:0:
446,254,21105,5,0,3:0:0:0:
281,265,21263,1,8,3:0:0:0:
485,342,21420,5,0,0:0:0:0:
485,342,21736,5,0,3:0:0:0:
324,348,21894,2,0,L|239:354,1,75,8|0,3:0|3:0,0:0:0:0:
61,322,22210,2,0,L|19:324,3,37.5,0|0|0|0,3:0|3:0|3:0|3:0,0:0:0:0:
137,255,22526,2,0,L|183:253,3,37.5,0|0|0|0,3:0|3:0|3:0|3:0,0:0:0:0:
57,198,22841,5,4,1:0:0:0:
57,198,22999,2,0,P|57:153|78:113,1,75,0|8,0:0|0:1,0:0:0:0:
135,50,23315,1,0,0:0:0:0:
137,175,23473,1,8,0:3:0:0:
137,175,23631,1,0,0:0:0:0:
244,103,23789,1,8,0:1:0:0:
223,220,23947,1,0,0:0:0:0:
351,152,24105,6,0,L|441:161,1,75,8|0,0:0|0:0,0:0:0:0:
483,79,24420,1,8,0:1:0:0:
469,239,24578,2,0,L|459:336,1,75,2|8,0:2|0:0,0:0:0:0:
329,360,24894,1,0,0:0:0:0:
356,159,25052,1,8,0:1:0:0:
356,159,25368,5,8,0:0:0:0:
314,65,25526,1,0,0:0:0:0:
282,230,25683,1,8,0:1:0:0:
282,230,25841,1,0,0:0:0:0:
231,135,25999,1,8,0:0:0:0:
231,135,26157,1,0,0:0:0:0:
109,279,26315,1,8,0:1:0:0:
197,229,26473,1,0,0:1:0:0:
244,316,26631,6,0,P|285:331|334:321,1,75,8|0,0:0|0:0,0:0:0:0:
209,233,26947,1,8,0:1:0:0:
370,189,27105,2,0,P|388:151|390:111,1,75,2|8,0:2|0:0,0:0:0:0:
365,22,27420,1,0,0:0:0:0:
464,181,27578,1,8,0:1:0:0:
464,181,27894,5,12,0:0:0:0:
431,307,28052,1,8,0:0:0:0:
370,189,28210,1,8,0:1:0:0:
401,97,28368,1,0,0:0:0:0:
293,213,28526,1,8,0:0:0:0:
293,52,28683,1,0,0:0:0:0:
293,233,28841,1,8,0:1:0:0:
214,181,28999,1,0,0:0:0:0:
134,319,29157,5,8,0:0:0:0:
106,160,29314,1,8,0:0:0:0:
137,338,29472,1,8,0:1:0:0:
36,209,29631,2,0,P|22:170|30:126,1,75,2|8,0:2|0:0,0:0:0:0:
93,63,29947,1,0,0:0:0:0:
120,240,30105,1,8,0:1:0:0:
208,8,30420,6,0,L|225:120,1,89.9999972534181,14|0,0:0|2:0,0:0:0:0:
245,241,30736,1,8,0:3:0:0:
379,147,30894,2,0,P|425:130|472:144,1,89.9999972534181,12|0,0:0|0:0,0:0:0:0:
329,66,31210,5,8,0:3:0:0:
499,237,31368,2,0,L|516:349,1,89.9999972534181,12|0,0:0|0:0,0:0:0:0:
359,384,31683,5,8,0:3:0:0:
226,228,31841,2,0,P|240:172|267:144,1,89.9999972534181,8|8,0:0|0:0,0:0:0:0:
398,164,32157,1,8,0:3:0:0:
314,61,32315,2,0,P|314:38|319:13,1,44.999998626709,8|0,3:0|3:0,0:0:0:0:
475,148,32473,2,0,P|475:171|470:196,1,44.999998626709,0|0,3:0|3:0,0:0:0:0:
329,92,32631,2,0,P|329:69|334:44,1,44.999998626709,0|0,3:0|3:0,0:0:0:0:
490,179,32789,2,0,P|490:202|485:227,1,44.999998626709,0|0,3:0|3:0,0:0:0:0:
367,341,32947,6,0,L|268:351,1,89.9999972534181,6|8,1:1|0:3,0:0:0:0:
171,194,33262,1,8,0:0:0:0:
189,384,33420,1,0,0:0:0:0:
94,241,33578,2,0,P|81:189|95:146,1,89.9999972534181,8|0,0:3|0:0,0:0:0:0:
240,88,33894,1,8,0:0:0:0:
123,38,34052,1,0,0:0:0:0:
273,199,34210,6,0,L|387:208,1,89.9999972534181,12|8,0:3|3:0,0:0:0:0:
459,111,34526,1,8,0:0:0:0:
436,282,34683,2,0,P|444:334|462:366,1,89.9999972534181,0|12,0:0|0:3,0:0:0:0:
512,229,34999,1,8,0:3:0:0:
357,114,35157,2,0,L|213:102,1,134.999995880127,8|0,0:0|0:0,0:0:0:0:
195,99,35473,5,6,0:0:0:0:
70,32,35631,1,8,0:3:0:0:
180,194,35789,1,8,0:0:0:0:
43,107,35947,1,0,0:0:0:0:
180,12,36105,1,8,0:3:0:0:
179,207,36262,1,0,0:0:0:0:
303,207,36420,1,8,0:0:0:0:
151,206,36578,1,0,0:0:0:0:
263,349,36736,6,0,P|313:357|362:346,1,89.9999972534181,12|0,0:3|0:0,0:0:0:0:
303,207,37052,1,8,0:0:0:0:
180,330,37210,2,0,L|83:341,1,89.9999972534181,12|0,0:3|0:0,0:0:0:0:
9,233,37526,1,12,0:3:0:0:
135,321,37683,1,8,0:0:0:0:
452,288,37999,6,0,L|355:277,1,89.9999972534181,6|0,0:0|0:0,0:0:0:0:
220,149,38315,2,0,P|211:100|225:61,1,89.9999972534181,8|0,0:0|0:0,0:0:0:0:
439,85,38631,1,12,0:3:0:0:
293,109,38789,1,8,0:3:0:0:
464,80,38947,1,8,0:0:0:0:
300,25,39105,1,0,0:0:0:0:
390,209,39262,6,0,P|400:256|369:349,1,134.999995880127,2|0,0:0|0:0,0:0:0:0:
363,362,39578,1,8,0:0:0:0:
349,142,39736,2,0,P|407:132|440:146,1,89.9999972534181,0|0,0:0|0:0,0:0:0:0:
270,320,40052,1,8,0:3:0:0:
149,159,40210,2,0,P|142:101|160:61,1,89.9999972534181,8|0,0:0|0:0,0:0:0:0:
260,23,40526,6,0,L|367:39,1,89.9999972534181,6|0,0:0|0:0,0:0:0:0:
161,65,40841,1,8,0:3:0:0:
417,105,40999,6,0,P|431:153|421:196,1,89.9999972534181,12|0,0:0|0:0,0:0:0:0:
360,38,41315,1,8,0:3:0:0:
394,276,41473,6,0,L|364:372,1,89.9999972534181,12|0,0:0|0:0,0:0:0:0:
366,366,41710,1,0,0:0:0:0:
365,370,41789,1,0,0:0:0:0:
424,206,41947,1,4,0:0:0:0:
424,206,42262,5,8,0:0:0:0:
237,338,42420,2,0,B|177:376|114:357|114:357|136:297|124:261|124:261|122:251|98:214|122:162,1,300,4|4,1:1|0:0,0:0:0:0:
136,112,43368,1,0,0:0:0:0:
79,53,43683,1,0,0:0:0:0:
157,34,43999,1,0,0:0:0:0:
223,225,44315,5,0,0:0:0:0:
301,244,44631,1,0,0:0:0:0:
278,168,44947,2,0,P|273:125|280:103,1,60,2|2,0:0|0:0,0:0:0:0:
345,45,45262,1,2,0:0:0:0:
359,42,45341,1,0,0:0:0:0:
373,41,45420,1,0,0:0:0:0:
387,42,45499,1,0,0:0:0:0:
397,44,45578,5,0,0:0:0:0:
372,130,45894,1,0,0:0:0:0:
374,220,46210,2,0,L|377:323,1,89.9999972534181,2|0,0:0|0:0,0:0:0:0:
228,368,46841,2,0,P|168:377|113:369,1,90,0|0,0:0|0:0,0:0:0:0:
112,372,47157,1,0,0:0:0:0:
52,297,47315,2,0,B|44:240|44:240|58:172,1,120,0|2,0:0|0:0,0:0:0:0:
202,43,47947,1,0,0:0:0:0:
197,177,48105,6,0,P|191:215|171:242,1,60,2|0,0:0|0:0,0:0:0:0:
251,299,48420,2,0,L|330:309,1,60,2|0,0:0|0:0,0:0:0:0:
389,249,48736,2,0,P|399:215|394:180,1,60,2|0,0:0|0:0,0:0:0:0:
343,110,49052,2,0,P|341:80|351:51,1,60,2|0,0:0|0:0,0:0:0:0:
443,25,49368,2,0,L|506:34,1,60,2|2,0:0|0:0,0:0:0:0:
343,110,49683,2,0,L|280:101,1,60,0|2,0:0|0:0,0:0:0:0:
124,83,49999,5,2,0:0:0:0:
183,229,50157,1,2,0:0:0:0:
32,263,50315,1,2,0:0:0:0:
196,203,50473,1,0,0:0:0:0:
170,372,50631,1,2,0:0:0:0:
124,57,51894,5,0,3:0:0:0:
143,89,51972,1,0,3:0:0:0:
157,124,52051,1,0,3:0:0:0:
167,160,52130,1,0,3:0:0:0:
170,198,52209,1,0,3:0:0:0:
168,235,52288,1,0,3:0:0:0:
161,272,52367,1,0,3:0:0:0:
149,307,52446,1,0,3:0:0:0:
131,340,52525,1,0,3:0:0:0:
101,28,53157,6,0,L|110:134,1,89.9999972534181,14|0,0:0|0:0,0:0:0:0:
131,340,53473,2,0,P|178:361|236:358,1,89.9999972534181,8|0,0:0|0:0,0:0:0:0:
298,159,53789,1,8,0:3:0:0:
320,346,53947,1,8,0:3:0:0:
437,201,54105,1,8,0:0:0:0:
226,227,54262,1,2,0:2:0:0:
447,186,54420,6,0,P|462:139|454:88,1,89.9999972534181,12|0,0:3|0:0,0:0:0:0:
361,13,54736,1,8,0:0:0:0:
309,256,54894,2,0,L|323:378,1,89.9999972534181,2|0,0:2|0:0,0:0:0:0:
370,199,55210,1,2,0:2:0:0:
181,353,55368,2,0,P|132:365|70:348,1,89.9999972534181,8|0,0:0|0:0,0:0:0:0:
8,222,55683,6,0,B|0:177|0:177|19:98,1,89.9999972534181,4|0,0:1|0:0,0:0:0:0:
118,27,55999,2,0,P|195:21|258:44,1,134.999995880127,8|0,0:0|0:0,0:0:0:0:
268,50,56315,1,8,0:3:0:0:
19,114,56473,1,8,0:3:0:0:
198,276,56631,2,0,L|356:287,1,134.999995880127,8|0,0:0|2:0,0:0:0:0:
356,287,56947,5,12,0:0:0:0:
169,163,57105,1,8,0:3:0:0:
351,310,57262,1,8,0:0:0:0:
389,121,57420,2,0,L|409:20,1,89.9999972534181,8|0,0:0|0:0,0:0:0:0:
458,181,57736,1,10,0:3:0:0:
356,287,57894,1,8,0:0:0:0:
208,296,58052,1,2,0:2:0:0:
434,359,58210,6,0,L|529:370,1,89.9999972534181,6|8,0:0|0:3,0:0:0:0:
356,287,58526,1,8,0:0:0:0:
512,248,58683,1,2,0:2:0:0:
315,135,58841,2,0,P|299:77|306:37,1,89.9999972534181,8|8,0:3|0:3,0:0:0:0:
428,11,59157,1,8,0:0:0:0:
388,178,59315,1,0,0:0:0:0:
196,107,59473,6,0,L|97:100,1,89.9999972534181,12|0,0:3|0:0,0:0:0:0:
0,24,59789,1,8,0:0:0:0:
146,190,59947,2,0,P|161:236|128:339,1,134.999995880127,2|0,0:0|2:0,0:0:0:0:
126,342,60262,1,8,0:3:0:0:
275,216,60420,2,0,L|383:225,1,89.9999972534181,8|0,0:0|0:0,0:0:0:0:
453,366,60736,6,0,B|480:328|480:328|486:265|486:265,1,89.9999972534181,6|0,0:0|0:0,0:0:0:0:
408,132,61052,2,0,P|402:82|431:32,1,89.9999972534181,8|0,0:0|0:0,0:0:0:0:
488,187,61368,1,8,0:3:0:0:
318,243,61526,1,0,0:0:0:0:
287,44,61683,1,8,0:0:0:0:
344,132,61841,1,2,0:2:0:0:
158,39,61999,6,0,L|52:29,1,89.9999972534181,4|8,0:0|0:3,0:0:0:0:
220,95,62315,1,8,0:0:0:0:
60,249,62473,1,12,0:0:0:0:
56,275,62552,1,0,0:0:0:0:
52,301,62631,1,0,0:0:0:0:
0,76,62789,1,8,0:3:0:0:
280,178,62947,1,12,0:0:0:0:
0,191,63105,1,2,0:2:0:0:
269,61,63262,6,0,L|369:75,1,89.9999972534181,12|0,0:3|0:0,0:0:0:0:
512,95,63578,1,0,0:3:0:0:
299,179,63736,2,0,P|288:233|297:282,1,89.9999972534181,8|8,0:3|0:0,0:0:0:0:
435,363,64052,1,0,0:0:0:0:
504,161,64210,2,0,L|517:63,1,89.9999972534181,2|0,0:2|0:0,0:0:0:0:
476,347,64526,5,8,0:0:0:0:
500,188,64683,1,0,0:3:0:0:
388,302,64841,1,0,0:0:0:0:
412,132,64999,2,0,L|425:34,1,89.9999972534181,6|8,0:2|0:3,0:0:0:0:
385,325,65315,2,0,P|337:344|279:335,1,89.9999972534181,2|0,0:2|0:0,0:0:0:0:
99,237,65631,1,8,0:3:0:0:
80,217,65710,1,8,0:3:0:0:
62,196,65789,6,0,B|38:158|38:158|30:92,1,89.9999972534181,12|0,0:0|0:0,0:0:0:0:
164,330,66105,1,10,0:0:0:0:
201,137,66262,1,6,0:1:0:0:
168,305,66420,1,0,0:0:0:0:
314,197,66578,1,10,0:0:0:0:
145,56,66736,1,8,0:0:0:0:
291,323,66894,5,2,2:0:0:0:
355,105,67210,6,0,L|440:111,1,75,0|0,2:0|2:0,0:0:0:0:
214,39,67526,2,0,L|129:33,1,75,0|0,2:0|2:0,0:0:0:0:
47,69,67841,1,0,2:0:0:0:
125,183,67999,2,0,P|135:233|127:284,1,75,0|0,2:0|2:0,0:0:0:0:
24,374,68315,6,0,L|215:359,1,179.999994506836,14|8,0:0|0:0,0:0:0:0:
365,293,68789,2,0,P|379:347|369:405,1,89.9999972534181,2|0,0:2|0:0,0:0:0:0:
224,357,69105,1,0,0:0:0:0:
389,207,69262,1,8,0:0:0:0:
141,156,69420,1,8,0:3:0:0:
377,54,69578,6,0,L|468:72,1,89.9999972534181,12|0,0:1|0:0,0:0:0:0:
274,94,69894,1,8,0:0:0:0:
390,224,70052,2,0,P|394:278|375:321,1,89.9999972534181,2|0,0:2|0:0,0:0:0:0:
157,366,70368,2,0,L|41:363,1,89.9999972534181,2|8,0:2|0:0,0:0:0:0:
23,201,70683,1,8,0:3:0:0:
207,294,70841,5,4,1:0:0:0:
233,295,70920,1,0,1:0:0:0:
259,291,70999,1,0,3:0:0:0:
284,282,71078,1,0,3:0:0:0:
305,265,71157,2,0,P|321:247|332:217,1,44.999998626709,8|0,3:0|3:0,0:0:0:0:
347,80,71315,2,0,L|353:126,1,44.999998626709,12|0,0:0|0:0,0:0:0:0:
370,304,71473,1,0,0:0:0:0:
371,317,71552,1,0,3:0:0:0:
372,330,71631,1,0,0:0:0:0:
374,343,71710,1,0,0:0:0:0:
376,356,71789,5,8,0:0:0:0:
443,234,71947,1,8,0:0:0:0:
445,220,72026,1,8,0:0:0:0:
445,208,72105,2,0,P|446:155|427:105,1,75,14|0,0:0|0:0,0:0:0:0:
104,59,72578,5,8,0:3:0:0:
335,72,72736,1,12,0:0:0:0:
42,159,73368,6,0,P|28:203|41:277,1,89.9999972534181,14|0,0:0|0:0,0:0:0:0:
86,367,73683,1,8,0:3:0:0:
114,107,73841,2,0,P|83:82|28:72,1,89.9999972534181,8|0,0:0|0:0,0:0:0:0:
138,220,74157,1,0,0:0:0:0:
235,49,74315,2,0,L|333:46,1,89.9999972534181,8|0,0:0|0:3,0:0:0:0:
459,43,74631,5,12,0:3:0:0:
358,204,74789,2,0,P|353:254|366:301,1,89.9999972534181,8|0,0:0|0:0,0:0:0:0:
459,377,75105,1,0,0:0:0:0:
264,256,75262,5,10,0:0:0:0:
447,244,75420,1,0,0:0:0:0:
281,115,75578,5,8,0:0:0:0:
450,131,75736,1,0,0:0:0:0:
237,261,75894,6,0,L|130:272,1,89.9999972534181,14|8,0:0|0:3,0:0:0:0:
29,335,76210,1,8,0:3:0:0:
77,171,76368,2,0,P|81:121|64:76,1,89.9999972534181,8|0,0:0|0:0,0:0:0:0:
0,237,76683,1,8,0:3:0:0:
174,138,76841,1,10,0:0:0:0:
147,270,76999,1,0,0:0:0:0:
263,75,77157,5,6,0:0:0:0:
273,269,77315,1,8,0:0:0:0:
174,138,77473,1,0,0:0:0:0:
337,129,77631,1,8,0:0:0:0:
241,342,77789,1,12,0:0:0:0:
392,229,77947,1,8,0:3:0:0:
253,103,78105,2,0,P|243:57|265:12,1,89.9999972534181,8|8,0:0|0:3,0:0:0:0:
488,197,78420,6,0,B|498:241|498:241|476:288,1,89.9999972534181,14|0,0:0|0:0,0:0:0:0:
342,363,78736,1,8,0:3:0:0:
195,246,78894,2,0,P|149:238|80:248,1,89.9999972534181,8|0,0:0|0:0,0:0:0:0:
144,366,79210,1,0,0:0:0:0:
294,204,79368,2,0,L|307:103,1,89.9999972534181,8|0,0:0|0:0,0:0:0:0:
228,8,79683,1,12,0:3:0:0:
200,190,79841,1,8,0:0:0:0:
13,174,79999,5,2,0:0:0:0:
30,273,80157,1,8,0:3:0:0:
88,70,80315,5,8,0:0:0:0:
184,175,80473,1,8,0:3:0:0:
15,182,80631,5,2,0:0:0:0:
32,281,80789,1,8,0:3:0:0:
187,75,80947,6,0,L|310:59,1,89.9999972534181,6|0,0:0|0:0,0:0:0:0:
407,43,81262,1,0,0:0:0:0:
299,196,81420,2,0,P|289:279|335:373,1,179.999994506836,8|0,0:0|0:0,0:0:0:0:
504,372,81894,1,8,0:0:0:0:
191,359,82052,2,0,P|172:310|179:246,1,89.9999972534181,12|0,0:0|0:0,0:0:0:0:
241,52,82368,5,8,0:0:0:0:
94,205,82526,1,0,0:0:0:0:
329,169,82683,1,0,0:0:0:0:
329,169,82762,1,0,0:0:0:0:
329,169,82841,2,0,L|437:178,1,89.9999972534181,2|0,0:0|0:0,0:0:0:0:
111,74,83157,1,2,0:0:0:0:
225,261,83315,1,0,0:0:0:0:
222,287,83394,1,0,0:0:0:0:
219,315,83473,5,14,0:0:0:0:
240,87,83631,1,8,0:3:0:0:
216,344,83789,1,8,0:0:0:0:
329,169,83947,2,0,P|382:166|430:181,1,95.2499992733002,2|8,0:0|0:0,0:0:0:0:
241,51,84262,1,8,0:3:0:0:
330,278,84420,2,0,L|426:291,1,95.2499992733002,8|0,0:0|0:0,0:0:0:0:
452,295,84657,1,0,0:0:0:0:
480,299,84736,5,12,0:0:0:0:
315,133,84894,1,0,0:0:0:0:
253,361,85052,1,8,0:0:0:0:
170,112,85210,1,8,0:3:0:0:
174,84,85289,1,0,0:3:0:0:
179,56,85368,1,10,0:3:0:0:
61,300,85526,1,8,0:3:0:0:
183,31,85683,1,8,0:3:0:0:
0,210,85841,1,8,0:3:0:0:
246,307,85999,6,0,B|290:322|290:322|356:320,1,95.2499992733002,14|0,0:0|0:0,0:0:0:0:
494,263,86315,1,8,0:0:0:0:
338,106,86473,2,0,P|323:56|333:16,1,95.2499992733002,2|8,0:0|0:0,0:0:0:0:
395,175,86789,1,8,0:3:0:0:
291,343,86947,1,10,0:0:0:0:
158,158,87105,1,2,0:0:0:0:
161,129,87183,1,0,0:0:0:0:
164,100,87262,6,0,B|167:52|167:52|152:3,1,95.2499992733002,12|0,0:0|0:0,0:0:0:0:
156,289,87578,1,8,0:0:0:0:
52,69,87736,1,0,0:0:0:0:
74,299,87894,1,12,0:0:0:0:
0,136,88052,1,0,0:0:0:0:
125,369,88210,2,0,B|174:381|174:381|267:369,1,142.87499890995,8|0,0:0|0:0,0:0:0:0:
288,369,88526,5,14,0:0:0:0:
247,115,88683,1,8,0:3:0:0:
182,304,88841,1,8,0:0:0:0:
374,265,88999,2,0,L|469:289,1,95.2499992733002,2|8,0:0|0:0,0:0:0:0:
379,92,89315,1,8,0:3:0:0:
249,353,89473,2,0,P|197:383|156:383,1,95.2499992733002,8|0,0:0|0:0,0:0:0:0:
158,384,89710,1,0,0:0:0:0:
153,383,89789,5,12,0:0:0:0:
107,141,89947,1,8,0:3:0:0:
39,344,90105,1,8,0:0:0:0:
205,184,90262,1,0,0:0:0:0:
228,181,90341,1,0,0:0:0:0:
251,178,90420,2,0,P|279:180|310:192,1,47.6249996366501,8|0,0:0|0:0,0:0:0:0:
410,333,90578,2,0,L|398:252,1,47.6249996366501,0|0,0:0|0:0,0:0:0:0:
382,129,90736,1,8,0:0:0:0:
376,99,90815,1,0,0:0:0:0:
372,70,90894,1,0,0:0:0:0:
369,41,90973,1,0,0:0:0:0:
366,12,91052,5,12,0:0:0:0:
461,204,91210,1,0,0:0:0:0:
461,204,91289,1,0,0:0:0:0:
461,204,91368,1,8,0:0:0:0:
281,84,91526,1,12,0:0:0:0:
222,300,91683,1,0,0:0:0:0:
227,328,91762,1,0,0:0:0:0:
232,356,91841,1,0,0:0:0:0:
91,110,91999,5,8,0:0:0:0:
131,346,92157,1,4,0:0:0:0:
256,192,92315,12,0,98631,2:0:0:0:
