osu file format v14

[General]
AudioFilename: audio.mp3
AudioLeadIn: 0
PreviewTime: 52999
Countdown: 0
SampleSet: Soft
StackLeniency: 0.7
Mode: 3
LetterboxInBreaks: 0
SpecialStyle: 0
WidescreenStoryboard: 0

[Editor]
DistanceSpacing: 0.5
BeatDivisor: 4
GridSize: 32
TimelineZoom: 1.5

[Metadata]
Title:FaV (Short Version)
TitleUnicode:FaV (Short Version)
Artist:Ayane
ArtistUnicode:彩音
Creator:Virtue-
Version:Normal
Source:LAMUNATION!-ラムネーション!-
Tags:OP ラムネーション! eroge visual novel dating sim whitepowder cittan kepposhi studiokpc -[ AmiShici ]-
BeatmapID:1002596
BeatmapSetID:468778

[Difficulty]
HPDrainRate:7
CircleSize:4
OverallDifficulty:7
ApproachRate:5
SliderMultiplier:1.4
SliderTickRate:1

[Events]
//Background and Video events
Video,0,"vid.avi"
0,0,"lamunation.jpg",0,0
//Break Periods
//Storyboard Layer 0 (Background)
//Storyboard Layer 1 (Fail)
//Storyboard Layer 2 (Pass)
//Storyboard Layer 3 (Foreground)
//Storyboard Sound Samples

[TimingPoints]
105,315.789473684211,4,2,1,45,1,0
53157,-100,4,2,1,45,0,1
63262,-100,4,2,1,45,0,0
73368,-100,4,2,1,45,0,1
91999,-100,4,2,1,45,0,0

[HitObjects]
64,192,105,128,0,1999:0:0:0:0:
192,192,420,1,8,0:0:0:0:
320,192,578,1,8,0:0:0:0:
448,192,1052,1,8,0:0:0:0:
448,192,1683,1,8,0:0:0:0:
448,192,1999,128,0,2631:0:0:0:0:
320,192,2157,1,8,0:0:0:0:
192,192,2315,1,8,0:0:0:0:
192,192,2631,128,0,3894:0:0:0:0:
448,192,2947,1,8,0:0:0:0:
320,192,3105,1,8,0:0:0:0:
64,192,3578,1,8,0:0:0:0:
448,192,3894,128,0,6420:0:0:0:0:
320,192,4210,1,8,0:0:0:0:
64,192,4683,1,8,0:0:0:0:
192,192,4841,1,8,0:0:0:0:
320,192,5157,1,4,0:0:0:0:
192,192,5473,1,4,0:0:0:0:
64,192,5789,1,4,0:0:0:0:
320,192,6105,1,4,0:0:0:0:
192,192,6420,1,4,0:0:0:0:
64,192,6736,1,4,0:0:0:0:
192,192,7052,1,4,0:0:0:0:
320,192,7368,1,4,0:0:0:0:
448,192,7683,1,4,0:0:0:0:
64,192,7683,128,0,8947:0:0:0:0:
448,192,8947,128,4,9578:0:0:0:0:
320,192,8947,128,2,9578:0:0:0:0:
448,192,10210,128,0,10683:0:0:0:0:
320,192,10210,1,2,0:0:0:0:
64,192,10683,128,0,11157:0:0:0:0:
192,192,10683,1,2,0:0:0:0:
448,192,11157,128,0,11631:0:0:0:0:
192,192,11157,1,2,0:0:0:0:
64,192,11631,128,0,12105:0:0:0:0:
320,192,11631,1,2,0:0:0:0:
448,192,12105,128,0,12420:0:0:0:0:
192,192,12105,1,2,0:0:0:0:
192,192,12420,128,0,12736:0:0:0:0:
64,192,12420,1,2,0:0:0:0:
448,192,12736,128,0,13210:0:0:0:0:
320,192,12736,1,2,0:0:0:0:
64,192,13210,128,0,13683:0:0:0:0:
192,192,13210,1,2,0:0:0:0:
320,192,13683,128,0,14157:0:0:0:0:
448,192,13683,1,2,0:0:0:0:
64,192,14157,128,0,14631:0:0:0:0:
192,192,14157,1,2,0:0:0:0:
448,192,14631,128,0,14947:0:0:0:0:
320,192,14631,1,2,0:0:0:0:
192,192,14947,128,0,15262:0:0:0:0:
64,192,14947,1,2,0:0:0:0:
320,192,15262,128,0,15736:0:0:0:0:
448,192,15262,1,2,0:0:0:0:
64,192,15736,128,0,16210:0:0:0:0:
192,192,15736,1,2,0:0:0:0:
448,192,16210,128,0,16683:0:0:0:0:
320,192,16210,1,2,0:0:0:0:
192,192,16683,128,0,17157:0:0:0:0:
64,192,16683,1,2,0:0:0:0:
448,192,17157,128,0,17473:0:0:0:0:
320,192,17157,1,2,0:0:0:0:
64,192,17473,128,0,17789:0:0:0:0:
192,192,17473,1,2,0:0:0:0:
448,192,17789,128,0,18262:0:0:0:0:
320,192,17789,1,2,0:0:0:0:
64,192,18262,128,0,20315:0:0:0:0:
192,192,18262,1,2,0:0:0:0:
320,192,18736,1,2,0:0:0:0:
192,192,18894,1,2,0:0:0:0:
448,192,19210,1,2,0:0:0:0:
320,192,19368,1,2,0:0:0:0:
192,192,19526,1,2,0:0:0:0:
448,192,19683,1,2,0:0:0:0:
448,192,20315,128,0,22841:0:0:0:0:
320,192,20315,1,4,0:0:0:0:
192,192,20631,1,2,0:0:0:0:
64,192,20947,1,2,0:0:0:0:
320,192,21262,1,2,0:0:0:0:
192,192,21420,1,4,0:0:0:0:
192,192,21736,1,4,0:0:0:0:
320,192,21894,1,4,0:0:0:0:
64,192,22841,128,4,23157:0:0:0:0:
320,192,23157,1,2,0:0:0:0:
448,192,23157,1,0,0:0:0:0:
192,192,23473,128,4,23789:0:0:0:0:
64,192,23789,1,2,0:0:0:0:
448,192,23789,1,0,0:0:0:0:
320,192,24105,128,4,24420:0:0:0:0:
64,192,24420,1,2,0:0:0:0:
192,192,24420,1,0,0:0:0:0:
448,192,24736,128,4,25052:0:0:0:0:
192,192,25052,1,2,0:0:0:0:
320,192,25052,1,0,0:0:0:0:
64,192,25368,128,4,25683:0:0:0:0:
448,192,25683,1,2,0:0:0:0:
320,192,25683,1,0,0:0:0:0:
192,192,25999,128,4,26315:0:0:0:0:
64,192,26315,1,2,0:0:0:0:
448,192,26315,1,0,0:0:0:0:
320,192,26631,128,4,26947:0:0:0:0:
64,192,26947,1,2,0:0:0:0:
192,192,26947,1,0,0:0:0:0:
448,192,27262,128,4,27578:0:0:0:0:
192,192,27578,1,2,0:0:0:0:
320,192,27578,1,0,0:0:0:0:
320,192,27894,128,4,28210:0:0:0:0:
64,192,28210,1,2,0:0:0:0:
448,192,28210,1,0,0:0:0:0:
192,192,28526,128,4,28841:0:0:0:0:
320,192,28841,1,2,0:0:0:0:
448,192,28841,1,0,0:0:0:0:
64,192,29157,128,4,29473:0:0:0:0:
192,192,29473,1,2,0:0:0:0:
320,192,29473,1,0,0:0:0:0:
448,192,29789,128,4,30105:0:0:0:0:
192,192,30105,1,0,0:0:0:0:
64,192,30105,1,2,0:0:0:0:
64,192,30420,128,0,30894:0:0:0:0:
320,192,30420,1,2,0:0:0:0:
192,192,30894,128,0,31368:0:0:0:0:
448,192,30894,1,2,0:0:0:0:
320,192,31368,128,0,31841:0:0:0:0:
64,192,31368,1,2,0:0:0:0:
448,192,31841,128,0,32947:0:0:0:0:
192,192,31841,1,2,0:0:0:0:
64,192,31999,1,2,0:0:0:0:
320,192,32315,128,6,32947:0:0:0:0:
64,192,32947,128,0,33578:0:0:0:0:
192,192,32947,1,4,0:0:0:0:
320,192,33262,1,2,0:0:0:0:
192,192,33578,1,4,0:0:0:0:
448,192,33578,128,0,34210:0:0:0:0:
64,192,33894,1,2,0:0:0:0:
320,192,34210,1,4,0:0:0:0:
192,192,34210,128,0,34841:0:0:0:0:
448,192,34526,1,2,0:0:0:0:
320,192,34841,1,4,0:0:0:0:
64,192,34841,128,0,35473:0:0:0:0:
192,192,35157,1,2,0:0:0:0:
320,192,35473,1,4,0:0:0:0:
448,192,35473,128,0,36105:0:0:0:0:
192,192,35789,1,2,0:0:0:0:
64,192,36105,1,4,0:0:0:0:
192,192,36105,128,0,36736:0:0:0:0:
448,192,36420,1,2,0:0:0:0:
320,192,36736,1,4,0:0:0:0:
64,192,36736,128,0,37368:0:0:0:0:
192,192,37052,1,2,0:0:0:0:
320,192,37368,1,4,0:0:0:0:
448,192,37368,128,0,37999:0:0:0:0:
192,192,37683,1,2,0:0:0:0:
64,192,37999,1,4,0:0:0:0:
192,192,37999,128,0,38631:0:0:0:0:
320,192,38315,1,2,0:0:0:0:
448,192,38631,128,0,39262:0:0:0:0:
64,192,38631,1,4,0:0:0:0:
192,192,38947,1,2,0:0:0:0:
320,192,39262,1,4,0:0:0:0:
64,192,39262,128,0,39894:0:0:0:0:
192,192,39578,1,2,0:0:0:0:
320,192,39894,1,4,0:0:0:0:
448,192,39894,128,0,40526:0:0:0:0:
192,192,40210,1,2,0:0:0:0:
64,192,40526,128,0,40999:0:0:0:0:
320,192,40526,1,2,0:0:0:0:
320,192,40999,128,0,41473:0:0:0:0:
448,192,40999,1,2,0:0:0:0:
64,192,41473,128,0,41789:0:0:0:0:
192,192,41473,1,2,0:0:0:0:
448,192,41789,128,4,43052:0:0:0:0:
320,192,41789,1,2,0:0:0:0:
64,192,42262,1,2,0:0:0:0:
192,192,42420,1,2,0:0:0:0:
320,192,43052,1,4,0:0:0:0:
64,192,43052,128,0,44315:0:0:0:0:
448,192,43368,1,4,0:0:0:0:
192,192,43683,1,4,0:0:0:0:
448,192,43999,1,4,0:0:0:0:
320,192,44315,128,0,46841:0:0:0:0:
192,192,44315,1,4,0:0:0:0:
64,192,44631,1,4,0:0:0:0:
448,192,44947,1,4,0:0:0:0:
192,192,45105,1,0,0:0:0:0:
64,192,45262,1,4,0:0:0:0:
448,192,45578,1,4,0:0:0:0:
192,192,45894,1,4,0:0:0:0:
448,192,46210,1,4,0:0:0:0:
64,192,46526,1,4,0:0:0:0:
192,192,46841,1,4,0:0:0:0:
448,192,47157,1,4,0:0:0:0:
320,192,47473,1,4,0:0:0:0:
192,192,47631,1,0,0:0:0:0:
64,192,47789,1,4,0:0:0:0:
192,192,47947,1,0,0:0:0:0:
448,192,48105,128,0,49368:0:0:0:0:
320,192,48105,1,4,0:0:0:0:
64,192,48420,1,4,0:0:0:0:
192,192,48736,1,4,0:0:0:0:
320,192,49052,1,4,0:0:0:0:
64,192,49368,128,0,50631:0:0:0:0:
192,192,49368,1,4,0:0:0:0:
448,192,49683,1,4,0:0:0:0:
192,192,49999,1,4,0:0:0:0:
320,192,50157,1,0,0:0:0:0:
448,192,50315,1,4,0:0:0:0:
448,192,50631,128,0,51894:0:0:0:0:
192,192,50631,1,4,0:0:0:0:
64,192,51894,128,4,52526:0:0:0:0:
192,192,51894,128,2,52526:0:0:0:0:
64,192,53157,128,0,54420:0:0:0:0:
192,192,53157,1,4,0:0:0:0:
448,192,53473,1,2,0:0:0:0:
192,192,53789,1,4,0:0:0:0:
448,192,54105,1,2,0:0:0:0:
320,192,54420,128,4,55683:0:0:0:0:
448,192,54736,1,2,0:0:0:0:
64,192,55052,1,4,0:0:0:0:
448,192,55368,1,2,0:0:0:0:
192,192,55683,128,4,56947:0:0:0:0:
448,192,55999,1,2,0:0:0:0:
64,192,56315,1,4,0:0:0:0:
320,192,56631,1,2,0:0:0:0:
448,192,56947,128,4,57262:0:0:0:0:
320,192,57262,1,2,0:0:0:0:
192,192,57420,1,4,0:0:0:0:
64,192,57736,1,4,0:0:0:0:
192,192,57894,1,2,0:0:0:0:
320,192,58052,1,0,0:0:0:0:
64,192,58210,128,0,59473:0:0:0:0:
448,192,58210,1,4,0:0:0:0:
320,192,58526,1,2,0:0:0:0:
192,192,58841,1,4,0:0:0:0:
448,192,59157,1,2,0:0:0:0:
320,192,59473,128,4,60736:0:0:0:0:
448,192,59789,1,2,0:0:0:0:
64,192,60105,1,4,0:0:0:0:
192,192,60420,1,2,0:0:0:0:
64,192,60736,128,4,61999:0:0:0:0:
192,192,61052,1,2,0:0:0:0:
448,192,61368,1,4,0:0:0:0:
320,192,61683,1,2,0:0:0:0:
448,192,61999,128,4,62631:0:0:0:0:
320,192,62315,1,2,0:0:0:0:
192,192,62473,1,2,0:0:0:0:
320,192,62631,1,2,0:0:0:0:
64,192,62631,128,4,63262:0:0:0:0:
448,192,62947,1,0,0:0:0:0:
192,192,63262,128,0,64526:0:0:0:0:
320,192,63262,1,4,0:0:0:0:
448,192,63420,1,4,0:0:0:0:
320,192,63736,1,4,0:0:0:0:
64,192,63894,1,2,0:0:0:0:
448,192,64210,1,4,0:0:0:0:
320,192,64368,1,4,0:0:0:0:
448,192,64526,128,0,65789:0:0:0:0:
64,192,64526,1,2,0:0:0:0:
320,192,64999,1,2,0:0:0:0:
192,192,65315,1,2,0:0:0:0:
64,192,65789,1,4,0:0:0:0:
192,192,65947,1,4,0:0:0:0:
448,192,66105,1,2,0:0:0:0:
320,192,66262,1,4,0:0:0:0:
64,192,66420,1,4,0:0:0:0:
192,192,66578,1,2,0:0:0:0:
320,192,66736,1,2,0:0:0:0:
448,192,66894,1,4,0:0:0:0:
320,192,67210,1,0,0:0:0:0:
64,192,67368,1,0,0:0:0:0:
192,192,67526,1,0,0:0:0:0:
320,192,67683,1,0,0:0:0:0:
448,192,67841,1,0,0:0:0:0:
64,192,67999,1,0,0:0:0:0:
192,192,68157,1,0,0:0:0:0:
320,192,68315,128,0,69578:0:0:0:0:
448,192,68315,1,4,0:0:0:0:
64,192,68631,1,2,0:0:0:0:
448,192,68947,1,4,0:0:0:0:
64,192,69262,1,2,0:0:0:0:
64,192,69578,128,0,70210:0:0:0:0:
448,192,69578,1,4,0:0:0:0:
320,192,69894,1,2,0:0:0:0:
192,192,70210,128,4,70841:0:0:0:0:
320,192,70526,1,2,0:0:0:0:
448,192,70841,128,0,72105:0:0:0:0:
64,192,70841,1,2,0:0:0:0:
320,192,71315,5,2,0:0:0:0:
192,192,71789,1,2,0:0:0:0:
64,192,72105,128,0,72736:0:0:0:0:
320,192,72105,1,2,0:0:0:0:
320,192,72736,128,2,73368:0:0:0:0:
64,192,73368,1,2,0:0:0:0:
192,192,73841,1,2,0:0:0:0:
448,192,74315,1,2,0:0:0:0:
320,192,74789,1,2,0:0:0:0:
64,192,75262,1,2,0:0:0:0:
192,192,75578,1,2,0:0:0:0:
448,192,75894,1,2,0:0:0:0:
320,192,76368,1,2,0:0:0:0:
64,192,76841,1,2,0:0:0:0:
320,192,77315,1,2,0:0:0:0:
448,192,77789,1,2,0:0:0:0:
320,192,78105,1,2,0:0:0:0:
64,192,78420,1,2,0:0:0:0:
192,192,78894,1,2,0:0:0:0:
448,192,79368,1,2,0:0:0:0:
320,192,79841,1,2,0:0:0:0:
64,192,80315,1,2,0:0:0:0:
192,192,80631,1,2,0:0:0:0:
448,192,80947,1,2,0:0:0:0:
320,192,81420,1,2,0:0:0:0:
64,192,81894,1,2,0:0:0:0:
448,192,82052,1,2,0:0:0:0:
320,192,82210,128,4,82368:0:0:0:0:
64,192,82368,128,2,82526:0:0:0:0:
192,192,82526,128,2,82683:0:0:0:0:
320,192,82683,128,2,82841:0:0:0:0:
448,192,82841,128,0,82999:0:0:0:0:
192,192,82999,128,0,83157:0:0:0:0:
64,192,83157,128,0,83473:0:0:0:0:
320,192,83473,1,2,0:0:0:0:
448,192,83473,1,0,0:0:0:0:
192,192,83789,1,2,0:0:0:0:
64,192,83789,1,0,0:0:0:0:
320,192,84105,1,2,0:0:0:0:
448,192,84105,1,0,0:0:0:0:
192,192,84420,1,2,0:0:0:0:
320,192,84420,1,0,0:0:0:0:
64,192,84736,1,2,0:0:0:0:
192,192,84736,1,0,0:0:0:0:
64,192,85052,1,2,0:0:0:0:
448,192,85052,1,0,0:0:0:0:
320,192,85368,1,2,0:0:0:0:
192,192,85368,1,0,0:0:0:0:
192,192,85683,1,2,0:0:0:0:
448,192,85683,1,0,0:0:0:0:
320,192,85999,1,2,0:0:0:0:
64,192,85999,1,0,0:0:0:0:
448,192,86315,1,2,0:0:0:0:
320,192,86315,1,0,0:0:0:0:
320,192,86631,1,2,0:0:0:0:
192,192,86631,1,0,0:0:0:0:
192,192,86947,1,2,0:0:0:0:
64,192,86947,1,0,0:0:0:0:
320,192,87262,1,2,0:0:0:0:
448,192,87262,1,0,0:0:0:0:
448,192,87578,1,2,0:0:0:0:
64,192,87578,1,0,0:0:0:0:
320,192,87894,1,2,0:0:0:0:
64,192,87894,1,0,0:0:0:0:
192,192,88210,1,2,0:0:0:0:
448,192,88210,1,0,0:0:0:0:
448,192,88526,1,2,0:0:0:0:
320,192,88526,1,0,0:0:0:0:
192,192,88841,1,2,0:0:0:0:
64,192,88841,1,0,0:0:0:0:
64,192,89157,1,2,0:0:0:0:
320,192,89157,1,0,0:0:0:0:
192,192,89473,1,2,0:0:0:0:
448,192,89473,1,0,0:0:0:0:
448,192,89789,1,2,0:0:0:0:
64,192,89789,1,0,0:0:0:0:
192,192,90105,1,2,0:0:0:0:
320,192,90105,1,0,0:0:0:0:
64,192,90420,128,2,91052:0:0:0:0:
448,192,90420,1,0,0:0:0:0:
320,192,91052,1,2,0:0:0:0:
448,192,91052,128,0,91526:0:0:0:0:
64,192,91526,1,2,0:0:0:0:
192,192,91526,128,0,91999:0:0:0:0:
320,192,91999,1,2,0:0:0:0:
448,192,92157,128,2,98789:0:0:0:0:
64,192,92157,128,4,98789:0:0:0:0:
