osu file format v14

[General]
AudioFilename: audio.mp3
AudioLeadIn: 0
PreviewTime: 248192
Countdown: 0
SampleSet: Normal
StackLeniency: 0.7
Mode: 1
LetterboxInBreaks: 0
WidescreenStoryboard: 0

[Editor]
Bookmarks: 25468,57968,80468,100468,147968,190468,220758,248981,271481,291481
DistanceSpacing: 0.8
BeatDivisor: 4
GridSize: 32
TimelineZoom: 1.3

[Metadata]
Title:Endless Tears...
TitleUnicode:Endless Tears...
Artist:Ayane
ArtistUnicode:彩音
Creator:yassu-
Version:Inner Oni
Source:11eyes CrossOver
Tags:lass 5pb.games op tatsh
BeatmapID:1532456
BeatmapSetID:725826

[Difficulty]
HPDrainRate:5.5
CircleSize:5
OverallDifficulty:6.5
ApproachRate:5
SliderMultiplier:1.4
SliderTickRate:1

[Events]
//Background and Video events
0,0,"11_eyes%20blue_eyes%20dress%20feathers%20lisette_vertorre%20long_hair%20white_hair[1].jpg",0,0
//Break Periods
2,213168,216768
//Storyboard Layer 0 (Background)
//Storyboard Layer 1 (Fail)
//Storyboard Layer 2 (Pass)
//Storyboard Layer 3 (Foreground)
//Storyboard Sound Samples

[TimingPoints]
5468,312.5,4,1,0,80,1,0
57811,-100,4,1,0,90,0,0
57968,-100,4,1,0,90,0,1
79999,-100,4,1,0,90,0,0
80468,-100,4,1,0,90,0,1
100468,-100,4,1,0,90,0,0
100624,-100,4,1,0,80,0,0
147889,-100,4,1,0,90,0,0
147968,-100,4,1,0,90,0,1
169999,-100,4,1,0,90,0,0
170311,-100,4,1,0,60,0,0
189139,-100,4,1,0,80,0,0
217811,-100,4,1,0,20,0,0
217968,348.837209302326,4,1,0,20,1,0
220584,-100,4,1,0,30,0,8
220758,394.736842105263,4,1,0,30,1,0
246127,-100,4,1,0,20,0,0
248792,-100,4,1,0,90,0,0
248966,312.5,4,1,0,90,1,1
270997,-100,4,1,0,90,0,0
271466,-100,4,1,0,90,0,1
311466,-100,4,1,0,90,0,0
311544,-100,4,1,0,80,0,0
326309,-100,4,1,0,50,0,0
328184,-100,4,1,0,90,0,0

[HitObjects]
256,192,5468,5,4,0:0:0:0:
256,192,6718,1,4,0:0:0:0:
256,192,7968,1,4,0:0:0:0:
256,192,8124,1,4,0:0:0:0:
256,192,9218,1,4,0:0:0:0:
256,192,9686,1,2,0:0:0:0:
256,192,9738,1,2,0:0:0:0:
256,192,9790,1,2,0:0:0:0:
256,192,9843,1,0,0:0:0:0:
256,192,9999,1,0,0:0:0:0:
256,192,10077,1,2,0:0:0:0:
256,192,10155,1,0,0:0:0:0:
256,192,10233,1,0,0:0:0:0:
256,192,10311,1,2,0:0:0:0:
256,192,10389,1,2,0:0:0:0:
256,192,10468,1,0,0:0:0:0:
256,192,10780,1,2,0:0:0:0:
256,192,10936,1,0,0:0:0:0:
256,192,11014,1,0,0:0:0:0:
256,192,11093,1,2,0:0:0:0:
256,192,11249,1,0,0:0:0:0:
256,192,11405,1,2,0:0:0:0:
256,192,11483,1,0,0:0:0:0:
256,192,11561,1,2,0:0:0:0:
256,192,11718,1,0,0:0:0:0:
256,192,11874,1,0,0:0:0:0:
256,192,12030,1,2,0:0:0:0:
256,192,12186,1,0,0:0:0:0:
256,192,12264,1,0,0:0:0:0:
256,192,12343,1,2,0:0:0:0:
256,192,12499,1,0,0:0:0:0:
256,192,12655,1,2,0:0:0:0:
256,192,12733,1,0,0:0:0:0:
256,192,12811,1,2,0:0:0:0:
256,192,12889,1,2,0:0:0:0:
256,192,12968,1,0,0:0:0:0:
256,192,13280,1,2,0:0:0:0:
256,192,13436,1,0,0:0:0:0:
256,192,13514,1,2,0:0:0:0:
256,192,13593,1,2,0:0:0:0:
256,192,13749,1,0,0:0:0:0:
256,192,13905,1,2,0:0:0:0:
256,192,13983,1,0,0:0:0:0:
256,192,14061,1,2,0:0:0:0:
256,192,14218,1,0,0:0:0:0:
256,192,14374,1,0,0:0:0:0:
256,192,14530,1,2,0:0:0:0:
256,192,14686,1,0,0:0:0:0:
256,192,14764,1,0,0:0:0:0:
256,192,14843,1,2,0:0:0:0:
256,192,14999,1,0,0:0:0:0:
256,192,15077,1,0,0:0:0:0:
256,192,15155,1,2,0:0:0:0:
256,192,15233,1,0,0:0:0:0:
256,192,15311,1,2,0:0:0:0:
256,192,15389,1,2,0:0:0:0:
256,192,15468,1,0,0:0:0:0:
256,192,15780,1,2,0:0:0:0:
256,192,15936,1,0,0:0:0:0:
256,192,16014,1,0,0:0:0:0:
256,192,16093,1,2,0:0:0:0:
256,192,16249,1,0,0:0:0:0:
256,192,16405,1,2,0:0:0:0:
256,192,16483,1,0,0:0:0:0:
256,192,16561,1,2,0:0:0:0:
256,192,16718,1,0,0:0:0:0:
256,192,16874,1,0,0:0:0:0:
256,192,17030,1,2,0:0:0:0:
256,192,17186,1,0,0:0:0:0:
256,192,17264,1,0,0:0:0:0:
256,192,17343,1,2,0:0:0:0:
256,192,17499,1,0,0:0:0:0:
256,192,17655,1,2,0:0:0:0:
256,192,17733,1,0,0:0:0:0:
256,192,17811,1,2,0:0:0:0:
256,192,17889,1,2,0:0:0:0:
256,192,17968,1,0,0:0:0:0:
256,192,18280,1,2,0:0:0:0:
256,192,18358,1,2,0:0:0:0:
256,192,18436,1,0,0:0:0:0:
256,192,18593,1,2,0:0:0:0:
256,192,18749,1,0,0:0:0:0:
256,192,18827,1,0,0:0:0:0:
256,192,18905,1,2,0:0:0:0:
256,192,18983,1,0,0:0:0:0:
256,192,19061,1,2,0:0:0:0:
256,192,19139,1,2,0:0:0:0:
256,192,19218,1,0,0:0:0:0:
256,192,19374,1,0,0:0:0:0:
256,192,19530,1,2,0:0:0:0:
256,192,19686,1,0,0:0:0:0:
256,192,19764,1,0,0:0:0:0:
256,192,19843,1,2,0:0:0:0:
256,192,19999,1,0,0:0:0:0:
256,192,20077,1,0,0:0:0:0:
256,192,20155,1,2,0:0:0:0:
256,192,20233,1,2,0:0:0:0:
256,192,20311,1,2,0:0:0:0:
256,192,20389,1,2,0:0:0:0:
256,192,20468,1,0,0:0:0:0:
256,192,20624,1,0,0:0:0:0:
256,192,20780,1,2,0:0:0:0:
256,192,20936,1,0,0:0:0:0:
256,192,21014,1,0,0:0:0:0:
256,192,21093,1,0,0:0:0:0:
256,192,21249,1,2,0:0:0:0:
256,192,21561,1,4,0:0:0:0:
256,192,21874,1,0,0:0:0:0:
256,192,22030,1,2,0:0:0:0:
256,192,22186,1,0,0:0:0:0:
256,192,22264,1,0,0:0:0:0:
256,192,22343,1,0,0:0:0:0:
256,192,22499,1,2,0:0:0:0:
256,192,22655,1,0,0:0:0:0:
256,192,22733,1,0,0:0:0:0:
256,192,22811,1,2,0:0:0:0:
256,192,22889,1,2,0:0:0:0:
256,192,22968,1,0,0:0:0:0:
256,192,23124,1,0,0:0:0:0:
256,192,23280,1,2,0:0:0:0:
256,192,23436,1,0,0:0:0:0:
256,192,23514,1,0,0:0:0:0:
256,192,23593,1,0,0:0:0:0:
256,192,23749,1,2,0:0:0:0:
256,192,24061,1,6,0:0:0:0:
256,192,24374,1,0,0:0:0:0:
256,192,24530,1,2,0:0:0:0:
256,192,24686,1,0,0:0:0:0:
256,192,24764,1,0,0:0:0:0:
288,192,24843,1,0,0:0:0:0:
288,192,24999,1,2,0:0:0:0:
256,192,25155,1,2,0:0:0:0:
256,192,25233,1,2,0:0:0:0:
256,192,25311,1,0,0:0:0:0:
256,192,25389,1,0,0:0:0:0:
256,192,25468,1,0,0:0:0:0:
256,192,25624,1,0,0:0:0:0:
256,192,25780,1,2,0:0:0:0:
256,192,26093,1,0,0:0:0:0:
256,192,26249,1,0,0:0:0:0:
256,192,26405,1,2,0:0:0:0:
256,192,26561,1,0,0:0:0:0:
256,192,26874,1,0,0:0:0:0:
256,192,27030,1,2,0:0:0:0:
256,192,27343,1,0,0:0:0:0:
256,192,27499,1,2,0:0:0:0:
256,192,27655,1,2,0:0:0:0:
256,192,27811,1,0,0:0:0:0:
256,192,28124,1,0,0:0:0:0:
256,192,28280,1,2,0:0:0:0:
256,192,28593,1,0,0:0:0:0:
256,192,28749,1,0,0:0:0:0:
256,192,28905,1,2,0:0:0:0:
256,192,29061,1,4,0:0:0:0:
256,192,29374,1,0,0:0:0:0:
256,192,29530,1,2,0:0:0:0:
256,192,29686,1,0,0:0:0:0:
256,192,29764,1,0,0:0:0:0:
256,192,29843,1,0,0:0:0:0:
256,192,29999,1,0,0:0:0:0:
256,192,30155,1,2,0:0:0:0:
256,192,30311,1,2,0:0:0:0:
256,192,30389,1,2,0:0:0:0:
256,192,30468,1,0,0:0:0:0:
256,192,30780,1,2,0:0:0:0:
256,192,30936,1,0,0:0:0:0:
256,192,31093,1,2,0:0:0:0:
256,192,31171,1,0,0:0:0:0:
256,192,31249,1,0,0:0:0:0:
256,192,31405,1,2,0:0:0:0:
256,192,31561,1,2,0:0:0:0:
256,192,31718,1,0,0:0:0:0:
256,192,32030,1,2,0:0:0:0:
256,192,32186,1,0,0:0:0:0:
256,192,32264,1,0,0:0:0:0:
256,192,32343,1,2,0:0:0:0:
256,192,32499,1,0,0:0:0:0:
256,192,32655,1,2,0:0:0:0:
256,192,32811,1,2,0:0:0:0:
256,192,32889,1,2,0:0:0:0:
256,192,32968,1,0,0:0:0:0:
256,192,33280,1,6,0:0:0:0:
256,192,33436,1,0,0:0:0:0:
256,192,33749,1,0,0:0:0:0:
256,192,33905,1,6,0:0:0:0:
256,192,34218,1,0,0:0:0:0:
256,192,34374,1,0,0:0:0:0:
256,192,34530,1,6,0:0:0:0:
256,192,34686,1,0,0:0:0:0:
256,192,34843,1,0,0:0:0:0:
256,192,34921,1,2,0:0:0:0:
256,192,34999,1,0,0:0:0:0:
256,192,35077,1,0,0:0:0:0:
256,192,35155,1,2,0:0:0:0:
256,192,35233,1,0,0:0:0:0:
256,192,35311,1,2,0:0:0:0:
256,192,35389,1,2,0:0:0:0:
256,192,35468,1,0,0:0:0:0:
256,192,35624,1,0,0:0:0:0:
256,192,35780,1,2,0:0:0:0:
256,192,35936,1,0,0:0:0:0:
256,192,36093,1,0,0:0:0:0:
256,192,36249,1,2,0:0:0:0:
256,192,36405,1,2,0:0:0:0:
256,192,36561,1,0,0:0:0:0:
256,192,36874,1,0,0:0:0:0:
256,192,37030,1,2,0:0:0:0:
256,192,37186,1,0,0:0:0:0:
256,192,37343,1,0,0:0:0:0:
256,192,37499,1,2,0:0:0:0:
256,192,37655,1,2,0:0:0:0:
256,192,37811,1,0,0:0:0:0:
256,192,37889,1,0,0:0:0:0:
256,192,37968,1,2,0:0:0:0:
256,192,38124,1,0,0:0:0:0:
256,192,38280,1,2,0:0:0:0:
256,192,38436,1,0,0:0:0:0:
256,192,38593,1,0,0:0:0:0:
256,192,38749,1,2,0:0:0:0:
256,192,38905,1,2,0:0:0:0:
256,192,39061,1,4,0:0:0:0:
256,192,39374,1,0,0:0:0:0:
256,192,39530,1,2,0:0:0:0:
256,192,39686,1,0,0:0:0:0:
256,192,39764,1,0,0:0:0:0:
256,192,39843,1,2,0:0:0:0:
256,192,39999,1,0,0:0:0:0:
256,192,40155,1,2,0:0:0:0:
256,192,40233,1,0,0:0:0:0:
256,192,40311,1,2,0:0:0:0:
256,192,40389,1,2,0:0:0:0:
256,192,40468,1,0,0:0:0:0:
256,192,40624,1,0,0:0:0:0:
256,192,40780,1,2,0:0:0:0:
256,192,40936,1,0,0:0:0:0:
256,192,41093,1,2,0:0:0:0:
256,192,41171,1,0,0:0:0:0:
256,192,41249,1,0,0:0:0:0:
256,192,41405,1,2,0:0:0:0:
256,192,41561,1,2,0:0:0:0:
256,192,41718,1,0,0:0:0:0:
256,192,42030,1,2,0:0:0:0:
256,192,42186,1,0,0:0:0:0:
256,192,42264,1,0,0:0:0:0:
256,192,42343,1,2,0:0:0:0:
256,192,42499,1,0,0:0:0:0:
256,192,42655,1,2,0:0:0:0:
256,192,42733,1,0,0:0:0:0:
256,192,42811,1,2,0:0:0:0:
256,192,42889,1,2,0:0:0:0:
256,192,42968,1,0,0:0:0:0:
256,192,43124,1,0,0:0:0:0:
256,192,43280,1,6,0:0:0:0:
256,192,43593,1,0,0:0:0:0:
256,192,43905,1,6,0:0:0:0:
256,192,44061,1,0,0:0:0:0:
256,192,44218,1,0,0:0:0:0:
256,192,44374,1,6,0:0:0:0:
256,192,44530,1,0,0:0:0:0:
256,192,44608,1,0,0:0:0:0:
256,192,44686,1,2,0:0:0:0:
256,192,44764,1,2,0:0:0:0:
256,192,44843,1,0,0:0:0:0:
256,192,44921,1,2,0:0:0:0:
256,192,44999,1,0,0:0:0:0:
256,192,45077,1,0,0:0:0:0:
256,192,45155,1,2,0:0:0:0:
256,192,45233,1,0,0:0:0:0:
256,192,45311,1,2,0:0:0:0:
256,192,45389,1,2,0:0:0:0:
256,192,45468,1,0,0:0:0:0:
256,192,45780,1,2,0:0:0:0:
256,192,45936,1,0,0:0:0:0:
256,192,46093,1,0,0:0:0:0:
256,192,46405,1,2,0:0:0:0:
256,192,46718,1,0,0:0:0:0:
256,192,47030,1,2,0:0:0:0:
256,192,47186,1,0,0:0:0:0:
256,192,47343,1,0,0:0:0:0:
256,192,47655,1,2,0:0:0:0:
256,192,47968,1,4,0:0:0:0:
256,192,48280,1,2,0:0:0:0:
256,192,48436,1,0,0:0:0:0:
256,192,48749,1,0,0:0:0:0:
256,192,48905,1,0,0:0:0:0:
256,192,49061,1,6,0:0:0:0:
256,192,49374,1,6,0:0:0:0:
256,192,49530,1,6,0:0:0:0:
256,192,49843,1,2,0:0:0:0:
256,192,49999,1,0,0:0:0:0:
256,192,50155,1,2,0:0:0:0:
256,192,50311,1,2,0:0:0:0:
256,192,50389,1,2,0:0:0:0:
256,192,50468,1,0,0:0:0:0:
256,192,50780,1,2,0:0:0:0:
256,192,51093,1,0,0:0:0:0:
256,192,51405,1,2,0:0:0:0:
256,192,51561,5,0,0:0:0:0:
256,192,51874,1,0,0:0:0:0:
256,192,52030,1,2,0:0:0:0:
256,192,52343,1,0,0:0:0:0:
256,192,52499,1,0,0:0:0:0:
256,192,52655,1,2,0:0:0:0:
256,192,52811,1,4,0:0:0:0:
256,192,53124,1,0,0:0:0:0:
256,192,53280,1,2,0:0:0:0:
256,192,53593,1,0,0:0:0:0:
256,192,53905,1,2,0:0:0:0:
256,192,54218,1,0,0:0:0:0:
256,192,54530,1,2,0:0:0:0:
256,192,54686,1,0,0:0:0:0:
256,192,54843,1,0,0:0:0:0:
256,192,54999,1,2,0:0:0:0:
256,192,55077,1,2,0:0:0:0:
256,192,55155,1,2,0:0:0:0:
256,192,55233,1,2,0:0:0:0:
256,192,55311,1,2,0:0:0:0:
256,192,55389,1,2,0:0:0:0:
256,192,55468,1,0,0:0:0:0:
256,192,55780,1,0,0:0:0:0:
256,192,55936,1,6,0:0:0:0:
256,192,56249,1,0,0:0:0:0:
256,192,56405,1,6,0:0:0:0:
256,192,56718,1,0,0:0:0:0:
256,192,56874,1,6,0:0:0:0:
256,192,57030,1,0,0:0:0:0:
256,192,57108,1,0,0:0:0:0:
256,192,57186,1,0,0:0:0:0:
256,192,57343,1,6,0:0:0:0:
256,192,57968,1,4,0:0:0:0:
256,192,58124,1,0,0:0:0:0:
256,192,58202,1,0,0:0:0:0:
256,192,58280,1,2,0:0:0:0:
256,192,58436,1,2,0:0:0:0:
256,192,58514,1,2,0:0:0:0:
256,192,58593,1,0,0:0:0:0:
256,192,58671,1,0,0:0:0:0:
256,192,58749,1,0,0:0:0:0:
256,192,58905,1,2,0:0:0:0:
256,192,59061,1,0,0:0:0:0:
256,192,59374,1,0,0:0:0:0:
256,192,59530,1,2,0:0:0:0:
256,192,59686,1,2,0:0:0:0:
256,192,59764,5,2,0:0:0:0:
256,192,59843,1,0,0:0:0:0:
256,192,59999,1,0,0:0:0:0:
256,192,60077,5,0,0:0:0:0:
256,192,60155,1,2,0:0:0:0:
256,192,60311,1,2,0:0:0:0:
256,192,60468,1,0,0:0:0:0:
256,192,60624,1,0,0:0:0:0:
256,192,60702,1,0,0:0:0:0:
256,192,60780,1,2,0:0:0:0:
256,192,60936,1,0,0:0:0:0:
256,192,61014,1,0,0:0:0:0:
256,192,61093,1,2,0:0:0:0:
256,192,61171,1,2,0:0:0:0:
256,192,61249,1,2,0:0:0:0:
256,192,61405,1,0,0:0:0:0:
256,192,61561,1,2,0:0:0:0:
256,192,61874,1,0,0:0:0:0:
256,192,62030,1,2,0:0:0:0:
256,192,62186,1,0,0:0:0:0:
256,192,62264,1,0,0:0:0:0:
256,192,62343,1,2,0:0:0:0:
256,192,62499,1,2,0:0:0:0:
256,192,62655,1,2,0:0:0:0:
256,192,62811,1,4,0:0:0:0:
256,192,63124,1,0,0:0:0:0:
256,192,63202,1,0,0:0:0:0:
256,192,63280,1,2,0:0:0:0:
256,192,63436,1,2,0:0:0:0:
256,192,63514,1,2,0:0:0:0:
256,192,63593,1,0,0:0:0:0:
256,192,63671,1,0,0:0:0:0:
256,192,63749,1,2,0:0:0:0:
256,192,63905,1,2,0:0:0:0:
256,192,64061,1,0,0:0:0:0:
256,192,64139,1,0,0:0:0:0:
256,192,64218,1,0,0:0:0:0:
256,192,64374,1,0,0:0:0:0:
256,192,64530,1,2,0:0:0:0:
256,192,64843,1,0,0:0:0:0:
256,192,64999,1,2,0:0:0:0:
256,192,65077,1,2,0:0:0:0:
256,192,65155,1,2,0:0:0:0:
256,192,65311,1,2,0:0:0:0:
256,192,65468,1,0,0:0:0:0:
256,192,65624,1,0,0:0:0:0:
256,192,65702,1,0,0:0:0:0:
256,192,65780,1,2,0:0:0:0:
256,192,65936,1,0,0:0:0:0:
256,192,66014,1,0,0:0:0:0:
256,192,66093,1,2,0:0:0:0:
256,192,66171,1,2,0:0:0:0:
256,192,66249,1,0,0:0:0:0:
256,192,66405,1,2,0:0:0:0:
256,192,66561,1,0,0:0:0:0:
256,192,66874,1,0,0:0:0:0:
256,192,66952,1,0,0:0:0:0:
256,192,67030,1,2,0:0:0:0:
256,192,67108,1,2,0:0:0:0:
256,192,67186,1,0,0:0:0:0:
256,192,67264,1,0,0:0:0:0:
256,192,67343,1,2,0:0:0:0:
256,192,67499,1,0,0:0:0:0:
256,192,67655,1,2,0:0:0:0:
256,192,67811,1,4,0:0:0:0:
256,192,68124,1,0,0:0:0:0:
256,192,68202,1,0,0:0:0:0:
256,192,68280,1,2,0:0:0:0:
256,192,68436,1,2,0:0:0:0:
256,192,68593,1,0,0:0:0:0:
256,192,68671,1,0,0:0:0:0:
256,192,68749,1,2,0:0:0:0:
256,192,68827,1,2,0:0:0:0:
256,192,68905,1,0,0:0:0:0:
256,192,69061,1,2,0:0:0:0:
256,192,69374,1,0,0:0:0:0:
256,192,69530,1,2,0:0:0:0:
256,192,69686,1,0,0:0:0:0:
256,192,69764,5,0,0:0:0:0:
256,192,69843,1,2,0:0:0:0:
256,192,69999,1,2,0:0:0:0:
256,192,70077,5,2,0:0:0:0:
256,192,70155,1,0,0:0:0:0:
256,192,70311,1,2,0:0:0:0:
256,192,70468,1,0,0:0:0:0:
256,192,70624,1,0,0:0:0:0:
256,192,70702,1,0,0:0:0:0:
256,192,70780,1,2,0:0:0:0:
256,192,70936,1,0,0:0:0:0:
256,192,71093,1,2,0:0:0:0:
256,192,71171,1,2,0:0:0:0:
256,192,71249,1,0,0:0:0:0:
256,192,71327,1,0,0:0:0:0:
256,192,71405,1,2,0:0:0:0:
256,192,71561,1,2,0:0:0:0:
256,192,71718,1,0,0:0:0:0:
256,192,72030,1,2,0:0:0:0:
256,192,72186,1,0,0:0:0:0:
256,192,72343,1,2,0:0:0:0:
256,192,72421,1,2,0:0:0:0:
256,192,72499,1,0,0:0:0:0:
256,192,72577,1,0,0:0:0:0:
256,192,72655,1,2,0:0:0:0:
256,192,72733,1,2,0:0:0:0:
256,192,72811,1,0,0:0:0:0:
256,192,72968,1,4,0:0:0:0:
256,192,73280,1,2,0:0:0:0:
256,192,73436,1,0,0:0:0:0:
256,192,73514,1,0,0:0:0:0:
256,192,73593,1,0,0:0:0:0:
256,192,73749,1,0,0:0:0:0:
256,192,73905,1,2,0:0:0:0:
256,192,74061,1,2,0:0:0:0:
256,192,74139,1,2,0:0:0:0:
256,192,74218,1,0,0:0:0:0:
256,192,74374,1,0,0:0:0:0:
256,192,74530,1,2,0:0:0:0:
256,192,74686,1,0,0:0:0:0:
256,192,74764,1,0,0:0:0:0:
256,192,74843,1,2,0:0:0:0:
256,192,74999,1,0,0:0:0:0:
256,192,75155,1,2,0:0:0:0:
256,192,75233,1,0,0:0:0:0:
256,192,75311,1,2,0:0:0:0:
256,192,75389,1,2,0:0:0:0:
256,192,75468,1,0,0:0:0:0:
256,192,75624,1,0,0:0:0:0:
256,192,75780,1,2,0:0:0:0:
256,192,75936,1,0,0:0:0:0:
256,192,76093,1,2,0:0:0:0:
256,192,76249,1,2,0:0:0:0:
256,192,76405,1,0,0:0:0:0:
256,192,76561,1,2,0:0:0:0:
256,192,76718,1,4,0:0:0:0:
256,192,76874,1,0,0:0:0:0:
256,192,76952,1,0,0:0:0:0:
256,192,77030,1,2,0:0:0:0:
256,192,77108,1,2,0:0:0:0:
256,192,77186,1,0,0:0:0:0:
256,192,77264,1,2,0:0:0:0:
256,192,77343,1,0,0:0:0:0:
256,192,77499,1,2,0:0:0:0:
256,192,77577,1,0,0:0:0:0:
256,192,77655,1,2,0:0:0:0:
256,192,77733,1,2,0:0:0:0:
256,192,77811,1,2,0:0:0:0:
256,192,77968,1,4,0:0:0:0:
256,192,78280,1,0,0:0:0:0:
256,192,78436,1,0,0:0:0:0:
256,192,78593,1,2,0:0:0:0:
256,192,78905,1,0,0:0:0:0:
256,192,79139,1,0,0:0:0:0:
256,192,79218,1,2,0:0:0:0:
256,192,79374,1,0,0:0:0:0:
256,192,79530,1,2,0:0:0:0:
256,192,79608,1,2,0:0:0:0:
256,192,79686,1,0,0:0:0:0:
256,192,79843,1,6,0:0:0:0:
256,192,79999,1,6,0:0:0:0:
256,192,80468,1,4,0:0:0:0:
256,192,80624,1,0,0:0:0:0:
256,192,80780,1,2,0:0:0:0:
256,192,81014,1,0,0:0:0:0:
256,192,81093,1,2,0:0:0:0:
256,192,81249,1,0,0:0:0:0:
256,192,81327,1,0,0:0:0:0:
256,192,81405,1,2,0:0:0:0:
256,192,81561,1,0,0:0:0:0:
256,192,81718,1,2,0:0:0:0:
256,192,81796,1,2,0:0:0:0:
256,192,81874,1,0,0:0:0:0:
256,192,82030,1,2,0:0:0:0:
256,192,82186,1,0,0:0:0:0:
256,192,82264,1,0,0:0:0:0:
256,192,82343,1,2,0:0:0:0:
256,192,82421,1,0,0:0:0:0:
256,192,82499,1,2,0:0:0:0:
256,192,82577,1,2,0:0:0:0:
256,192,82655,1,0,0:0:0:0:
256,192,82811,1,6,0:0:0:0:
256,192,83124,1,0,0:0:0:0:
256,192,83280,1,2,0:0:0:0:
256,192,83514,1,0,0:0:0:0:
256,192,83593,1,2,0:0:0:0:
256,192,83749,1,0,0:0:0:0:
256,192,83905,1,2,0:0:0:0:
256,192,83983,1,0,0:0:0:0:
256,192,84061,1,0,0:0:0:0:
256,192,84218,1,2,0:0:0:0:
256,192,84374,1,0,0:0:0:0:
256,192,84452,1,2,0:0:0:0:
256,192,84530,1,2,0:0:0:0:
256,192,84686,1,2,0:0:0:0:
256,192,84843,1,0,0:0:0:0:
256,192,84999,1,0,0:0:0:0:
256,192,85311,1,4,0:0:0:0:
256,192,85624,1,0,0:0:0:0:
256,192,85780,1,2,0:0:0:0:
256,192,86014,1,0,0:0:0:0:
256,192,86093,1,2,0:0:0:0:
256,192,86249,1,0,0:0:0:0:
256,192,86405,1,2,0:0:0:0:
256,192,86483,1,2,0:0:0:0:
256,192,86561,1,0,0:0:0:0:
256,192,86718,1,2,0:0:0:0:
256,192,86874,1,0,0:0:0:0:
256,192,86952,1,0,0:0:0:0:
256,192,87030,1,2,0:0:0:0:
256,192,87186,1,0,0:0:0:0:
256,192,87264,1,0,0:0:0:0:
256,192,87343,1,2,0:0:0:0:
256,192,87421,1,2,0:0:0:0:
256,192,87499,1,0,0:0:0:0:
256,192,87577,1,2,0:0:0:0:
256,192,87655,1,0,0:0:0:0:
256,192,87811,1,6,0:0:0:0:
256,192,88124,1,6,0:0:0:0:
256,192,88280,1,0,0:0:0:0:
256,192,88514,1,0,0:0:0:0:
256,192,88593,1,2,0:0:0:0:
256,192,88749,1,0,0:0:0:0:
256,192,88905,1,2,0:0:0:0:
256,192,89061,1,0,0:0:0:0:
256,192,89139,1,2,0:0:0:0:
256,192,89218,1,2,0:0:0:0:
256,192,89374,1,0,0:0:0:0:
256,192,89530,1,2,0:0:0:0:
256,192,89608,1,0,0:0:0:0:
256,192,89686,1,0,0:0:0:0:
256,192,89843,1,2,0:0:0:0:
256,192,89999,1,2,0:0:0:0:
256,192,90311,1,4,0:0:0:0:
256,192,90624,1,0,0:0:0:0:
256,192,90780,1,2,0:0:0:0:
256,192,91014,1,0,0:0:0:0:
256,192,91093,1,2,0:0:0:0:
256,192,91249,1,0,0:0:0:0:
256,192,91327,1,0,0:0:0:0:
256,192,91405,1,2,0:0:0:0:
256,192,91561,1,0,0:0:0:0:
256,192,91718,1,2,0:0:0:0:
256,192,91796,1,2,0:0:0:0:
256,192,91874,1,0,0:0:0:0:
256,192,92030,1,2,0:0:0:0:
256,192,92186,1,0,0:0:0:0:
256,192,92264,1,0,0:0:0:0:
256,192,92343,1,2,0:0:0:0:
256,192,92421,1,0,0:0:0:0:
256,192,92499,1,2,0:0:0:0:
256,192,92577,1,2,0:0:0:0:
256,192,92655,1,0,0:0:0:0:
256,192,92811,1,6,0:0:0:0:
256,192,93124,1,0,0:0:0:0:
256,192,93280,1,2,0:0:0:0:
256,192,93514,1,0,0:0:0:0:
256,192,93593,1,2,0:0:0:0:
256,192,93749,1,0,0:0:0:0:
256,192,93905,1,2,0:0:0:0:
256,192,93983,1,0,0:0:0:0:
256,192,94061,1,0,0:0:0:0:
256,192,94218,1,2,0:0:0:0:
256,192,94374,1,0,0:0:0:0:
256,192,94452,1,2,0:0:0:0:
256,192,94530,1,2,0:0:0:0:
256,192,94686,1,2,0:0:0:0:
256,192,94843,1,0,0:0:0:0:
256,192,94999,1,0,0:0:0:0:
256,192,95077,1,0,0:0:0:0:
256,192,95155,1,2,0:0:0:0:
256,192,95233,1,2,0:0:0:0:
256,192,95311,1,2,0:0:0:0:
256,192,95468,1,0,0:0:0:0:
256,192,95780,1,2,0:0:0:0:
256,192,95936,1,0,0:0:0:0:
256,192,96249,1,0,0:0:0:0:
256,192,96405,1,2,0:0:0:0:
256,192,96561,1,2,0:0:0:0:
256,192,96718,1,0,0:0:0:0:
256,192,97030,1,2,0:0:0:0:
256,192,97343,1,0,0:0:0:0:
256,192,97499,1,0,0:0:0:0:
256,192,97655,1,2,0:0:0:0:
256,192,97811,1,4,0:0:0:0:
256,192,98124,1,0,0:0:0:0:
256,192,98280,1,2,0:0:0:0:
256,192,98436,1,2,0:0:0:0:
256,192,98593,1,0,0:0:0:0:
256,192,98749,1,2,0:0:0:0:
256,192,98905,1,0,0:0:0:0:
256,192,99061,1,2,0:0:0:0:
256,192,99218,5,0,0:0:0:0:
256,192,99374,1,0,0:0:0:0:
256,192,99452,1,0,0:0:0:0:
256,192,99530,1,2,0:0:0:0:
256,192,99608,1,2,0:0:0:0:
256,192,99686,1,0,0:0:0:0:
256,192,99764,1,2,0:0:0:0:
256,192,99843,1,0,0:0:0:0:
256,192,99921,1,0,0:0:0:0:
256,192,99999,1,2,0:0:0:0:
256,192,100077,1,0,0:0:0:0:
256,192,100155,1,2,0:0:0:0:
256,192,100233,1,2,0:0:0:0:
256,192,100311,1,2,0:0:0:0:
256,192,100468,5,4,0:0:0:0:
256,192,100780,1,2,0:0:0:0:
256,192,100936,1,0,0:0:0:0:
256,192,101014,1,0,0:0:0:0:
256,192,101093,1,2,0:0:0:0:
256,192,101249,1,0,0:0:0:0:
256,192,101405,1,2,0:0:0:0:
256,192,101483,1,0,0:0:0:0:
256,192,101561,1,2,0:0:0:0:
256,192,101718,1,0,0:0:0:0:
256,192,101874,1,0,0:0:0:0:
256,192,102030,1,2,0:0:0:0:
256,192,102186,1,0,0:0:0:0:
256,192,102264,1,0,0:0:0:0:
256,192,102343,1,2,0:0:0:0:
256,192,102499,1,0,0:0:0:0:
256,192,102655,1,2,0:0:0:0:
256,192,102733,1,0,0:0:0:0:
256,192,102811,1,2,0:0:0:0:
256,192,102889,1,2,0:0:0:0:
256,192,102968,1,0,0:0:0:0:
256,192,103280,1,2,0:0:0:0:
256,192,103436,1,0,0:0:0:0:
256,192,103514,1,2,0:0:0:0:
256,192,103593,1,2,0:0:0:0:
256,192,103749,1,0,0:0:0:0:
256,192,103905,1,2,0:0:0:0:
256,192,103983,1,0,0:0:0:0:
256,192,104061,1,2,0:0:0:0:
256,192,104218,1,0,0:0:0:0:
256,192,104374,1,0,0:0:0:0:
256,192,104530,1,2,0:0:0:0:
256,192,104686,1,0,0:0:0:0:
256,192,104764,1,0,0:0:0:0:
256,192,104843,1,2,0:0:0:0:
256,192,104999,1,0,0:0:0:0:
256,192,105077,1,0,0:0:0:0:
256,192,105155,1,2,0:0:0:0:
256,192,105233,1,0,0:0:0:0:
256,192,105311,1,2,0:0:0:0:
256,192,105389,1,2,0:0:0:0:
256,192,105468,1,0,0:0:0:0:
256,192,105780,1,2,0:0:0:0:
256,192,105936,1,0,0:0:0:0:
256,192,106014,1,0,0:0:0:0:
256,192,106093,1,2,0:0:0:0:
256,192,106249,1,0,0:0:0:0:
256,192,106405,1,2,0:0:0:0:
256,192,106483,1,0,0:0:0:0:
256,192,106561,1,2,0:0:0:0:
256,192,106718,1,0,0:0:0:0:
256,192,106874,1,0,0:0:0:0:
256,192,107030,1,2,0:0:0:0:
256,192,107186,1,0,0:0:0:0:
256,192,107264,1,0,0:0:0:0:
256,192,107343,1,2,0:0:0:0:
256,192,107499,1,0,0:0:0:0:
256,192,107655,1,2,0:0:0:0:
256,192,107733,1,0,0:0:0:0:
256,192,107811,1,2,0:0:0:0:
256,192,107889,1,2,0:0:0:0:
256,192,107968,1,0,0:0:0:0:
256,192,108280,1,2,0:0:0:0:
256,192,108358,1,2,0:0:0:0:
256,192,108436,1,0,0:0:0:0:
256,192,108593,1,2,0:0:0:0:
256,192,108749,1,0,0:0:0:0:
256,192,108827,1,0,0:0:0:0:
256,192,108905,1,2,0:0:0:0:
256,192,108983,1,0,0:0:0:0:
256,192,109061,1,2,0:0:0:0:
256,192,109139,1,2,0:0:0:0:
256,192,109218,1,0,0:0:0:0:
256,192,109374,1,0,0:0:0:0:
256,192,109530,1,2,0:0:0:0:
256,192,109686,1,0,0:0:0:0:
256,192,109764,1,0,0:0:0:0:
256,192,109843,1,2,0:0:0:0:
256,192,109999,1,0,0:0:0:0:
256,192,110077,1,0,0:0:0:0:
256,192,110155,1,2,0:0:0:0:
256,192,110233,1,2,0:0:0:0:
256,192,110311,1,2,0:0:0:0:
256,192,110389,1,2,0:0:0:0:
256,192,110468,1,0,0:0:0:0:
256,192,110624,1,0,0:0:0:0:
256,192,110780,1,2,0:0:0:0:
256,192,110936,1,0,0:0:0:0:
256,192,111014,1,0,0:0:0:0:
256,192,111093,1,0,0:0:0:0:
256,192,111249,1,2,0:0:0:0:
256,192,111405,1,0,0:0:0:0:
256,192,111561,1,4,0:0:0:0:
256,192,111874,1,0,0:0:0:0:
256,192,112030,1,2,0:0:0:0:
256,192,112186,1,0,0:0:0:0:
256,192,112264,1,0,0:0:0:0:
256,192,112343,1,0,0:0:0:0:
256,192,112499,1,2,0:0:0:0:
256,192,112655,1,0,0:0:0:0:
256,192,112733,1,0,0:0:0:0:
256,192,112811,1,2,0:0:0:0:
256,192,112889,1,2,0:0:0:0:
256,192,112968,1,0,0:0:0:0:
256,192,113124,1,0,0:0:0:0:
256,192,113280,1,2,0:0:0:0:
256,192,113436,1,0,0:0:0:0:
256,192,113514,1,0,0:0:0:0:
256,192,113593,1,0,0:0:0:0:
256,192,113749,1,2,0:0:0:0:
256,192,113905,1,2,0:0:0:0:
256,192,114061,1,4,0:0:0:0:
256,192,114374,1,0,0:0:0:0:
256,192,114452,1,0,0:0:0:0:
256,192,114530,1,2,0:0:0:0:
256,192,114608,1,2,0:0:0:0:
256,192,114686,1,0,0:0:0:0:
256,192,114764,1,2,0:0:0:0:
288,192,114843,1,0,0:0:0:0:
256,192,114921,1,0,0:0:0:0:
288,192,114999,1,2,0:0:0:0:
256,192,115077,1,0,0:0:0:0:
256,192,115155,1,2,0:0:0:0:
256,192,115233,1,2,0:0:0:0:
256,192,115311,1,0,0:0:0:0:
256,192,115389,1,0,0:0:0:0:
256,192,115468,1,0,0:0:0:0:
256,192,116718,1,0,0:0:0:0:
256,192,117968,1,0,0:0:0:0:
256,192,119061,1,4,0:0:0:0:
256,192,119374,1,0,0:0:0:0:
256,192,119530,1,2,0:0:0:0:
256,192,119686,1,0,0:0:0:0:
256,192,119764,1,0,0:0:0:0:
256,192,119843,1,0,0:0:0:0:
256,192,119999,1,0,0:0:0:0:
256,192,120155,1,2,0:0:0:0:
256,192,120311,1,2,0:0:0:0:
256,192,120389,1,2,0:0:0:0:
256,192,120468,1,0,0:0:0:0:
256,192,120780,1,2,0:0:0:0:
256,192,120936,1,0,0:0:0:0:
256,192,121093,1,2,0:0:0:0:
256,192,121171,1,0,0:0:0:0:
256,192,121249,1,0,0:0:0:0:
256,192,121405,1,2,0:0:0:0:
256,192,121561,1,2,0:0:0:0:
256,192,121718,1,0,0:0:0:0:
256,192,122030,1,2,0:0:0:0:
256,192,122186,1,0,0:0:0:0:
256,192,122264,1,0,0:0:0:0:
256,192,122343,1,2,0:0:0:0:
256,192,122499,1,0,0:0:0:0:
256,192,122655,1,2,0:0:0:0:
256,192,122811,1,2,0:0:0:0:
256,192,122889,1,2,0:0:0:0:
256,192,122968,1,0,0:0:0:0:
256,192,123280,1,6,0:0:0:0:
256,192,123436,1,0,0:0:0:0:
256,192,123749,1,0,0:0:0:0:
256,192,123905,1,6,0:0:0:0:
256,192,124218,1,0,0:0:0:0:
256,192,124374,1,0,0:0:0:0:
256,192,124530,1,6,0:0:0:0:
256,192,124686,1,0,0:0:0:0:
256,192,124843,1,0,0:0:0:0:
256,192,124921,1,2,0:0:0:0:
256,192,124999,1,0,0:0:0:0:
256,192,125155,1,2,0:0:0:0:
256,192,125311,1,2,0:0:0:0:
256,192,125389,1,2,0:0:0:0:
256,192,125468,1,0,0:0:0:0:
256,192,126718,1,0,0:0:0:0:
256,192,127968,1,0,0:0:0:0:
256,192,129061,1,4,0:0:0:0:
256,192,129374,1,0,0:0:0:0:
256,192,129530,1,2,0:0:0:0:
256,192,129686,1,0,0:0:0:0:
256,192,129764,1,0,0:0:0:0:
256,192,129843,1,2,0:0:0:0:
256,192,129999,1,0,0:0:0:0:
256,192,130155,1,2,0:0:0:0:
256,192,130233,5,0,0:0:0:0:
256,192,130311,1,2,0:0:0:0:
256,192,130389,1,2,0:0:0:0:
256,192,130468,1,0,0:0:0:0:
256,192,130780,1,2,0:0:0:0:
256,192,130936,1,0,0:0:0:0:
256,192,131093,1,2,0:0:0:0:
256,192,131171,1,0,0:0:0:0:
256,192,131249,1,0,0:0:0:0:
256,192,131405,1,2,0:0:0:0:
256,192,131561,1,2,0:0:0:0:
256,192,131718,1,0,0:0:0:0:
256,192,132030,1,2,0:0:0:0:
256,192,132186,1,0,0:0:0:0:
256,192,132264,1,0,0:0:0:0:
256,192,132343,1,2,0:0:0:0:
256,192,132499,1,0,0:0:0:0:
256,192,132655,1,2,0:0:0:0:
256,192,132733,1,0,0:0:0:0:
256,192,132811,1,2,0:0:0:0:
256,192,132889,1,2,0:0:0:0:
256,192,132968,1,0,0:0:0:0:
256,192,133124,1,0,0:0:0:0:
256,192,133280,1,6,0:0:0:0:
256,192,133593,1,0,0:0:0:0:
256,192,133905,1,6,0:0:0:0:
256,192,134061,1,0,0:0:0:0:
256,192,134218,1,0,0:0:0:0:
256,192,134374,1,6,0:0:0:0:
256,192,134530,1,0,0:0:0:0:
256,192,134608,1,0,0:0:0:0:
256,192,134686,1,2,0:0:0:0:
256,192,134764,1,2,0:0:0:0:
256,192,134843,1,0,0:0:0:0:
256,192,134921,1,2,0:0:0:0:
256,192,134999,1,0,0:0:0:0:
256,192,135077,1,0,0:0:0:0:
256,192,135155,1,2,0:0:0:0:
256,192,135233,1,0,0:0:0:0:
256,192,135311,1,2,0:0:0:0:
256,192,135389,1,2,0:0:0:0:
256,192,135468,1,0,0:0:0:0:
256,192,135780,1,2,0:0:0:0:
256,192,135936,1,0,0:0:0:0:
256,192,136093,1,0,0:0:0:0:
256,192,136405,1,2,0:0:0:0:
256,192,136718,1,0,0:0:0:0:
256,192,136874,1,0,0:0:0:0:
256,192,137030,1,2,0:0:0:0:
256,192,137186,1,0,0:0:0:0:
256,192,137343,1,0,0:0:0:0:
256,192,137655,1,2,0:0:0:0:
256,192,137968,1,4,0:0:0:0:
256,192,138280,1,2,0:0:0:0:
256,192,138436,1,0,0:0:0:0:
256,192,138749,1,0,0:0:0:0:
256,192,138905,1,0,0:0:0:0:
256,192,139061,1,6,0:0:0:0:
256,192,139374,1,6,0:0:0:0:
256,192,139530,1,6,0:0:0:0:
256,192,139843,1,2,0:0:0:0:
256,192,139999,1,0,0:0:0:0:
256,192,140155,1,2,0:0:0:0:
256,192,140311,1,2,0:0:0:0:
256,192,140389,1,2,0:0:0:0:
256,192,140468,1,0,0:0:0:0:
256,192,140780,1,2,0:0:0:0:
256,192,140936,1,2,0:0:0:0:
256,192,141093,1,0,0:0:0:0:
256,192,141249,1,0,0:0:0:0:
256,192,141405,1,2,0:0:0:0:
256,192,141561,5,0,0:0:0:0:
256,192,141874,1,0,0:0:0:0:
256,192,142030,1,2,0:0:0:0:
256,192,142343,1,0,0:0:0:0:
256,192,142499,1,2,0:0:0:0:
256,192,142655,1,2,0:0:0:0:
256,192,142811,1,4,0:0:0:0:
256,192,143124,1,0,0:0:0:0:
256,192,143280,1,2,0:0:0:0:
256,192,143593,1,0,0:0:0:0:
256,192,143905,1,2,0:0:0:0:
256,192,144218,1,0,0:0:0:0:
256,192,144530,1,2,0:0:0:0:
256,192,144686,1,0,0:0:0:0:
256,192,144843,1,0,0:0:0:0:
256,192,144999,1,2,0:0:0:0:
256,192,145077,1,2,0:0:0:0:
256,192,145155,1,2,0:0:0:0:
256,192,145233,1,2,0:0:0:0:
256,192,145311,1,2,0:0:0:0:
256,192,145389,1,2,0:0:0:0:
256,192,145468,1,0,0:0:0:0:
256,192,145624,1,2,0:0:0:0:
256,192,145702,1,2,0:0:0:0:
256,192,145780,1,2,0:0:0:0:
256,192,145936,1,4,0:0:0:0:
256,192,146093,1,2,0:0:0:0:
256,192,146171,1,2,0:0:0:0:
256,192,146249,1,2,0:0:0:0:
256,192,146405,1,4,0:0:0:0:
256,192,146561,1,2,0:0:0:0:
256,192,146639,1,2,0:0:0:0:
256,192,146718,1,2,0:0:0:0:
256,192,146874,1,4,0:0:0:0:
256,192,147030,1,2,0:0:0:0:
256,192,147108,1,2,0:0:0:0:
256,192,147186,1,2,0:0:0:0:
256,192,147343,1,4,0:0:0:0:
256,192,147655,2,0,L|224:160,2,35
256,192,147968,1,6,0:0:0:0:
256,192,148124,1,0,0:0:0:0:
256,192,148202,1,0,0:0:0:0:
256,192,148280,1,2,0:0:0:0:
256,192,148358,1,2,0:0:0:0:
256,192,148436,1,0,0:0:0:0:
256,192,148593,1,0,0:0:0:0:
256,192,148671,1,0,0:0:0:0:
256,192,148749,1,2,0:0:0:0:
256,192,148905,1,2,0:0:0:0:
256,192,149061,1,0,0:0:0:0:
256,192,149374,1,0,0:0:0:0:
256,192,149530,1,2,0:0:0:0:
256,192,149608,1,2,0:0:0:0:
256,192,149686,1,0,0:0:0:0:
256,192,149843,1,2,0:0:0:0:
256,192,149999,1,0,0:0:0:0:
256,192,150077,5,0,0:0:0:0:
256,192,150155,1,2,0:0:0:0:
256,192,150311,1,2,0:0:0:0:
256,192,150468,1,0,0:0:0:0:
256,192,150624,1,0,0:0:0:0:
256,192,150702,1,0,0:0:0:0:
256,192,150780,1,2,0:0:0:0:
256,192,150858,1,2,0:0:0:0:
256,192,150936,1,0,0:0:0:0:
256,192,151093,1,2,0:0:0:0:
256,192,151171,1,2,0:0:0:0:
256,192,151249,1,0,0:0:0:0:
256,192,151405,1,0,0:0:0:0:
256,192,151561,1,2,0:0:0:0:
256,192,151874,1,0,0:0:0:0:
256,192,152030,1,2,0:0:0:0:
256,192,152186,1,0,0:0:0:0:
256,192,152264,1,0,0:0:0:0:
256,192,152343,1,2,0:0:0:0:
256,192,152499,1,2,0:0:0:0:
256,192,152655,1,2,0:0:0:0:
256,192,152811,1,4,0:0:0:0:
256,192,153124,1,0,0:0:0:0:
256,192,153202,1,0,0:0:0:0:
256,192,153280,1,2,0:0:0:0:
256,192,153358,1,2,0:0:0:0:
256,192,153436,1,2,0:0:0:0:
256,192,153593,1,0,0:0:0:0:
256,192,153671,1,0,0:0:0:0:
256,192,153749,1,2,0:0:0:0:
256,192,153905,1,0,0:0:0:0:
256,192,154061,1,2,0:0:0:0:
256,192,154139,1,2,0:0:0:0:
256,192,154218,1,2,0:0:0:0:
256,192,154374,1,0,0:0:0:0:
256,192,154530,1,2,0:0:0:0:
256,192,154843,1,0,0:0:0:0:
256,192,154999,1,0,0:0:0:0:
256,192,155077,1,0,0:0:0:0:
256,192,155155,1,0,0:0:0:0:
256,192,155311,1,2,0:0:0:0:
256,192,155468,1,0,0:0:0:0:
256,192,155624,1,0,0:0:0:0:
256,192,155702,1,0,0:0:0:0:
256,192,155780,1,2,0:0:0:0:
256,192,155858,1,2,0:0:0:0:
256,192,155936,1,2,0:0:0:0:
256,192,156093,1,2,0:0:0:0:
256,192,156171,1,2,0:0:0:0:
256,192,156249,1,0,0:0:0:0:
256,192,156405,1,2,0:0:0:0:
256,192,156561,1,0,0:0:0:0:
256,192,156874,1,0,0:0:0:0:
256,192,156952,1,0,0:0:0:0:
256,192,157030,1,2,0:0:0:0:
256,192,157108,1,2,0:0:0:0:
256,192,157186,1,0,0:0:0:0:
256,192,157264,1,0,0:0:0:0:
256,192,157343,1,2,0:0:0:0:
256,192,157499,1,0,0:0:0:0:
256,192,157655,1,2,0:0:0:0:
256,192,157811,1,4,0:0:0:0:
256,192,158124,1,0,0:0:0:0:
256,192,158202,1,0,0:0:0:0:
256,192,158280,1,2,0:0:0:0:
256,192,158358,1,2,0:0:0:0:
256,192,158436,1,0,0:0:0:0:
256,192,158593,1,0,0:0:0:0:
256,192,158749,1,2,0:0:0:0:
256,192,158827,1,2,0:0:0:0:
256,192,158905,1,0,0:0:0:0:
256,192,159061,1,2,0:0:0:0:
256,192,159374,1,0,0:0:0:0:
256,192,159530,1,2,0:0:0:0:
256,192,159608,5,2,0:0:0:0:
256,192,159686,1,0,0:0:0:0:
256,192,159843,1,2,0:0:0:0:
256,192,159999,1,0,0:0:0:0:
256,192,160077,5,0,0:0:0:0:
256,192,160155,1,2,0:0:0:0:
256,192,160311,1,2,0:0:0:0:
256,192,160468,1,0,0:0:0:0:
256,192,160624,1,0,0:0:0:0:
256,192,160702,1,0,0:0:0:0:
256,192,160780,1,2,0:0:0:0:
256,192,160858,1,2,0:0:0:0:
256,192,160936,1,0,0:0:0:0:
256,192,161093,1,2,0:0:0:0:
256,192,161249,1,0,0:0:0:0:
256,192,161327,1,0,0:0:0:0:
256,192,161405,1,2,0:0:0:0:
256,192,161561,1,2,0:0:0:0:
256,192,161718,1,0,0:0:0:0:
256,192,162030,1,2,0:0:0:0:
256,192,162186,1,0,0:0:0:0:
256,192,162343,1,2,0:0:0:0:
256,192,162421,1,2,0:0:0:0:
256,192,162499,1,0,0:0:0:0:
256,192,162577,1,0,0:0:0:0:
256,192,162655,1,2,0:0:0:0:
256,192,162733,1,2,0:0:0:0:
256,192,162811,1,0,0:0:0:0:
256,192,162968,1,4,0:0:0:0:
256,192,163280,1,2,0:0:0:0:
256,192,163436,1,0,0:0:0:0:
256,192,163514,1,0,0:0:0:0:
256,192,163593,1,0,0:0:0:0:
256,192,163749,1,0,0:0:0:0:
256,192,163905,1,2,0:0:0:0:
256,192,164061,1,2,0:0:0:0:
256,192,164139,1,2,0:0:0:0:
256,192,164218,1,0,0:0:0:0:
256,192,164374,1,0,0:0:0:0:
256,192,164530,1,2,0:0:0:0:
256,192,164686,1,0,0:0:0:0:
256,192,164764,1,0,0:0:0:0:
256,192,164843,1,2,0:0:0:0:
256,192,164999,1,0,0:0:0:0:
256,192,165155,1,2,0:0:0:0:
256,192,165233,1,0,0:0:0:0:
256,192,165311,1,2,0:0:0:0:
256,192,165389,1,2,0:0:0:0:
256,192,165468,1,0,0:0:0:0:
256,192,165624,1,0,0:0:0:0:
256,192,165780,1,2,0:0:0:0:
256,192,165936,1,0,0:0:0:0:
256,192,166093,1,2,0:0:0:0:
256,192,166249,1,2,0:0:0:0:
256,192,166405,1,0,0:0:0:0:
256,192,166561,1,2,0:0:0:0:
256,192,166718,1,4,0:0:0:0:
256,192,166874,1,0,0:0:0:0:
256,192,166952,1,0,0:0:0:0:
256,192,167030,1,2,0:0:0:0:
256,192,167108,1,2,0:0:0:0:
256,192,167186,1,0,0:0:0:0:
256,192,167264,1,2,0:0:0:0:
256,192,167343,1,0,0:0:0:0:
256,192,167499,1,2,0:0:0:0:
256,192,167577,1,0,0:0:0:0:
256,192,167655,1,2,0:0:0:0:
256,192,167733,1,2,0:0:0:0:
256,192,167811,1,2,0:0:0:0:
256,192,167968,1,4,0:0:0:0:
256,192,168280,1,0,0:0:0:0:
256,192,168436,1,0,0:0:0:0:
256,192,168593,1,2,0:0:0:0:
256,192,168905,1,0,0:0:0:0:
256,192,169139,1,0,0:0:0:0:
256,192,169218,1,2,0:0:0:0:
256,192,169374,1,0,0:0:0:0:
256,192,169530,1,2,0:0:0:0:
256,192,169608,1,2,0:0:0:0:
256,192,169686,1,0,0:0:0:0:
256,192,169843,1,6,0:0:0:0:
256,192,169999,1,6,0:0:0:0:
256,192,170468,1,4,0:0:0:0:
256,192,170780,1,0,0:0:0:0:
256,192,171093,1,0,0:0:0:0:
256,192,171405,1,0,0:0:0:0:
256,192,171718,1,0,0:0:0:0:
256,192,172030,1,0,0:0:0:0:
256,192,172343,1,0,0:0:0:0:
256,192,172655,1,0,0:0:0:0:
256,192,172811,1,2,0:0:0:0:
256,192,172968,1,0,0:0:0:0:
256,192,173280,1,0,0:0:0:0:
256,192,173593,1,0,0:0:0:0:
256,192,173905,1,0,0:0:0:0:
256,192,174218,1,0,0:0:0:0:
256,192,174530,1,0,0:0:0:0:
256,192,174843,1,0,0:0:0:0:
256,192,174999,1,2,0:0:0:0:
256,192,175155,1,0,0:0:0:0:
256,192,175311,1,2,0:0:0:0:
256,192,175468,1,0,0:0:0:0:
256,192,175780,1,0,0:0:0:0:
256,192,176093,1,0,0:0:0:0:
256,192,176405,1,0,0:0:0:0:
256,192,176718,1,0,0:0:0:0:
256,192,177030,1,0,0:0:0:0:
256,192,177343,1,0,0:0:0:0:
256,192,177655,1,0,0:0:0:0:
256,192,177811,1,2,0:0:0:0:
256,192,177968,1,0,0:0:0:0:
256,192,178280,1,0,0:0:0:0:
256,192,178593,1,0,0:0:0:0:
256,192,178905,1,0,0:0:0:0:
256,192,179218,1,0,0:0:0:0:
256,192,179530,1,0,0:0:0:0:
256,192,179843,1,0,0:0:0:0:
256,192,179999,1,2,0:0:0:0:
256,192,180077,1,2,0:0:0:0:
256,192,180155,1,0,0:0:0:0:
256,192,180311,1,2,0:0:0:0:
256,192,180468,1,4,0:0:0:0:
256,192,180780,1,0,0:0:0:0:
256,192,181093,1,0,0:0:0:0:
256,192,181405,1,0,0:0:0:0:
256,192,181561,1,2,0:0:0:0:
256,192,181718,1,0,0:0:0:0:
256,192,182030,1,0,0:0:0:0:
256,192,182343,1,0,0:0:0:0:
256,192,182499,1,2,0:0:0:0:
256,192,182655,1,0,0:0:0:0:
256,192,182811,1,2,0:0:0:0:
256,192,182968,1,0,0:0:0:0:
256,192,183280,1,0,0:0:0:0:
256,192,183593,1,0,0:0:0:0:
256,192,183905,1,0,0:0:0:0:
256,192,184061,1,2,0:0:0:0:
256,192,184218,1,0,0:0:0:0:
256,192,184530,1,0,0:0:0:0:
256,192,184843,1,0,0:0:0:0:
256,192,184999,1,2,0:0:0:0:
256,192,185077,1,2,0:0:0:0:
256,192,185155,1,0,0:0:0:0:
256,192,185311,1,2,0:0:0:0:
256,192,185468,1,0,0:0:0:0:
256,192,185780,1,0,0:0:0:0:
256,192,186093,1,0,0:0:0:0:
256,192,186249,1,2,0:0:0:0:
256,192,186405,1,0,0:0:0:0:
256,192,186561,1,2,0:0:0:0:
256,192,186718,1,0,0:0:0:0:
256,192,187030,1,0,0:0:0:0:
256,192,187343,1,0,0:0:0:0:
256,192,187499,1,2,0:0:0:0:
256,192,187577,1,2,0:0:0:0:
256,192,187655,1,0,0:0:0:0:
256,192,187811,1,2,0:0:0:0:
256,192,187968,1,0,0:0:0:0:
256,192,188280,1,0,0:0:0:0:
256,192,188593,1,0,0:0:0:0:
256,192,188749,1,2,0:0:0:0:
256,192,188905,1,0,0:0:0:0:
256,192,189061,1,0,0:0:0:0:
256,192,189218,1,2,0:0:0:0:
256,192,189296,1,2,0:0:0:0:
256,192,189374,1,2,0:0:0:0:
256,192,189452,1,2,0:0:0:0:
256,192,189530,1,0,0:0:0:0:
256,192,189608,1,0,0:0:0:0:
256,192,189686,1,0,0:0:0:0:
256,192,189764,1,0,0:0:0:0:
256,192,189843,1,2,0:0:0:0:
256,192,189921,1,2,0:0:0:0:
256,192,189999,1,2,0:0:0:0:
256,192,190077,1,2,0:0:0:0:
256,192,190155,1,0,0:0:0:0:
256,192,190233,1,0,0:0:0:0:
256,192,190311,1,0,0:0:0:0:
256,192,190389,1,0,0:0:0:0:
256,192,190468,1,2,0:0:0:0:
256,192,190546,1,2,0:0:0:0:
256,192,190624,1,0,0:0:0:0:
256,192,190702,1,2,0:0:0:0:
256,192,190780,1,0,0:0:0:0:
256,192,190858,1,0,0:0:0:0:
256,192,190936,1,2,0:0:0:0:
256,192,191014,1,0,0:0:0:0:
256,192,191093,1,2,0:0:0:0:
256,192,191171,1,2,0:0:0:0:
256,192,191249,1,0,0:0:0:0:
256,192,191327,1,0,0:0:0:0:
256,192,191405,1,2,0:0:0:0:
256,192,191483,1,2,0:0:0:0:
256,192,191561,1,0,0:0:0:0:
256,192,191639,1,0,0:0:0:0:
256,192,191718,1,2,0:0:0:0:
256,192,191796,1,2,0:0:0:0:
256,192,191874,1,0,0:0:0:0:
256,192,191952,1,2,0:0:0:0:
256,192,192030,1,0,0:0:0:0:
256,192,192108,1,0,0:0:0:0:
256,192,192186,1,2,0:0:0:0:
256,192,192264,1,0,0:0:0:0:
256,192,192343,1,2,0:0:0:0:
256,192,192421,1,2,0:0:0:0:
256,192,192499,1,0,0:0:0:0:
256,192,192577,1,0,0:0:0:0:
256,192,192655,1,2,0:0:0:0:
256,192,192733,1,0,0:0:0:0:
256,192,192811,1,0,0:0:0:0:
256,192,192889,1,2,0:0:0:0:
256,192,192968,1,0,0:0:0:0:
256,192,193124,1,0,0:0:0:0:
256,192,193280,1,2,0:0:0:0:
256,192,193436,1,0,0:0:0:0:
256,192,193514,1,0,0:0:0:0:
256,192,193593,1,0,0:0:0:0:
256,192,193749,1,0,0:0:0:0:
256,192,193905,1,2,0:0:0:0:
256,192,193983,1,2,0:0:0:0:
256,192,194061,1,2,0:0:0:0:
256,192,194218,1,0,0:0:0:0:
256,192,194374,1,0,0:0:0:0:
256,192,194530,1,2,0:0:0:0:
256,192,194686,1,0,0:0:0:0:
256,192,194764,1,0,0:0:0:0:
256,192,194843,1,0,0:0:0:0:
256,192,194999,1,0,0:0:0:0:
256,192,195155,1,2,0:0:0:0:
256,192,195311,1,2,0:0:0:0:
256,192,195468,1,4,0:0:0:0:
256,192,195624,1,0,0:0:0:0:
256,192,195702,1,0,0:0:0:0:
256,192,195780,1,2,0:0:0:0:
256,192,195936,1,0,0:0:0:0:
256,192,196093,1,2,0:0:0:0:
256,192,196171,1,2,0:0:0:0:
256,192,196249,1,0,0:0:0:0:
256,192,196327,1,0,0:0:0:0:
256,192,196405,1,2,0:0:0:0:
256,192,196561,1,2,0:0:0:0:
256,192,196718,1,0,0:0:0:0:
256,192,196874,1,2,0:0:0:0:
256,192,196952,1,0,0:0:0:0:
256,192,197030,1,2,0:0:0:0:
256,192,197186,1,0,0:0:0:0:
256,192,197343,1,2,0:0:0:0:
256,192,197421,1,2,0:0:0:0:
256,192,197499,1,0,0:0:0:0:
256,192,197577,1,0,0:0:0:0:
256,192,197655,1,2,0:0:0:0:
256,192,197733,1,0,0:0:0:0:
256,192,197811,1,2,0:0:0:0:
256,192,197968,1,4,0:0:0:0:
256,192,198280,1,2,0:0:0:0:
256,192,198436,1,0,0:0:0:0:
256,192,198593,1,2,0:0:0:0:
256,192,198671,1,2,0:0:0:0:
256,192,198749,1,0,0:0:0:0:
256,192,198905,1,2,0:0:0:0:
256,192,199061,1,2,0:0:0:0:
256,192,199218,1,0,0:0:0:0:
256,192,199374,1,0,0:0:0:0:
256,192,199530,1,2,0:0:0:0:
256,192,199582,1,2,0:0:0:0:
256,192,199634,1,2,0:0:0:0:
256,192,199686,1,0,0:0:0:0:
256,192,199843,1,6,0:0:0:0:
256,192,199999,1,0,0:0:0:0:
256,192,200155,1,6,0:0:0:0:
256,192,200311,1,0,0:0:0:0:
256,192,200468,1,6,0:0:0:0:
256,192,200780,1,2,0:0:0:0:
256,192,200936,1,0,0:0:0:0:
256,192,201014,1,0,0:0:0:0:
256,192,201093,1,0,0:0:0:0:
256,192,201249,1,0,0:0:0:0:
256,192,201405,1,2,0:0:0:0:
256,192,201483,1,2,0:0:0:0:
256,192,201561,1,0,0:0:0:0:
256,192,201639,1,0,0:0:0:0:
256,192,201718,1,2,0:0:0:0:
256,192,201874,1,0,0:0:0:0:
256,192,202030,1,2,0:0:0:0:
256,192,202186,1,0,0:0:0:0:
256,192,202264,1,0,0:0:0:0:
256,192,202343,1,0,0:0:0:0:
256,192,202499,1,0,0:0:0:0:
256,192,202655,1,2,0:0:0:0:
256,192,202733,1,2,0:0:0:0:
256,192,202811,1,2,0:0:0:0:
256,192,202889,1,2,0:0:0:0:
256,192,202968,1,0,0:0:0:0:
256,192,203046,1,2,0:0:0:0:
256,192,203124,1,2,0:0:0:0:
256,192,203202,1,0,0:0:0:0:
256,192,203280,1,2,0:0:0:0:
256,192,203358,1,0,0:0:0:0:
256,192,203436,1,0,0:0:0:0:
256,192,203514,1,2,0:0:0:0:
256,192,203593,1,2,0:0:0:0:
256,192,203671,1,2,0:0:0:0:
256,192,203749,1,0,0:0:0:0:
256,192,203827,1,0,0:0:0:0:
256,192,203905,1,2,0:0:0:0:
256,192,203983,1,2,0:0:0:0:
256,192,204061,1,0,0:0:0:0:
256,192,204139,1,2,0:0:0:0:
256,192,204218,1,0,0:0:0:0:
256,192,204296,1,0,0:0:0:0:
256,192,204374,1,2,0:0:0:0:
256,192,204452,1,0,0:0:0:0:
256,192,204530,1,2,0:0:0:0:
256,192,204608,1,2,0:0:0:0:
256,192,204686,1,0,0:0:0:0:
256,192,204764,1,2,0:0:0:0:
256,192,204843,1,2,0:0:0:0:
256,192,204921,1,0,0:0:0:0:
256,192,204999,1,0,0:0:0:0:
256,192,205077,1,0,0:0:0:0:
256,192,205155,1,2,0:0:0:0:
256,192,205233,1,2,0:0:0:0:
256,192,205311,1,0,0:0:0:0:
256,192,205389,1,2,0:0:0:0:
256,192,205468,1,0,0:0:0:0:
256,192,205624,1,0,0:0:0:0:
256,192,205780,1,2,0:0:0:0:
256,192,205936,1,0,0:0:0:0:
256,192,206014,1,0,0:0:0:0:
256,192,206093,1,0,0:0:0:0:
256,192,206249,1,0,0:0:0:0:
256,192,206405,1,2,0:0:0:0:
256,192,206561,1,2,0:0:0:0:
256,192,206639,1,2,0:0:0:0:
256,192,206718,1,0,0:0:0:0:
256,192,206874,1,2,0:0:0:0:
256,192,207030,1,2,0:0:0:0:
256,192,207186,1,0,0:0:0:0:
256,192,207264,1,0,0:0:0:0:
256,192,207343,1,0,0:0:0:0:
256,192,207499,1,2,0:0:0:0:
256,192,207655,1,2,0:0:0:0:
256,192,207811,1,2,0:0:0:0:
256,192,207863,1,2,0:0:0:0:
256,192,207915,1,2,0:0:0:0:
256,192,207968,1,0,0:0:0:0:
256,192,208124,1,0,0:0:0:0:
256,192,208280,1,2,0:0:0:0:
256,192,208436,1,0,0:0:0:0:
256,192,208593,1,2,0:0:0:0:
256,192,208671,1,2,0:0:0:0:
256,192,208749,1,0,0:0:0:0:
256,192,208905,1,2,0:0:0:0:
256,192,209061,1,2,0:0:0:0:
256,192,209218,1,0,0:0:0:0:
256,192,209530,1,2,0:0:0:0:
256,192,209686,1,0,0:0:0:0:
256,192,209764,1,2,0:0:0:0:
256,192,209843,1,2,0:0:0:0:
256,192,209999,1,0,0:0:0:0:
256,192,210155,1,2,0:0:0:0:
256,192,210233,1,2,0:0:0:0:
256,192,210311,1,0,0:0:0:0:
256,192,210389,1,0,0:0:0:0:
256,192,210468,1,2,0:0:0:0:
256,192,210624,1,0,0:0:0:0:
256,192,210780,1,2,0:0:0:0:
256,192,210936,1,0,0:0:0:0:
256,192,211249,1,2,0:0:0:0:
256,192,211405,1,0,0:0:0:0:
256,192,211561,1,0,0:0:0:0:
256,192,211718,1,2,0:0:0:0:
256,192,211796,1,2,0:0:0:0:
256,192,211874,1,0,0:0:0:0:
256,192,212186,1,2,0:0:0:0:
256,192,212343,1,0,0:0:0:0:
256,192,212421,1,0,0:0:0:0:
256,192,212499,1,0,0:0:0:0:
256,192,212577,1,0,0:0:0:0:
256,192,212655,1,2,0:0:0:0:
256,192,212733,1,2,0:0:0:0:
256,192,212811,1,2,0:0:0:0:
256,192,212889,1,2,0:0:0:0:
256,192,212968,1,0,0:0:0:0:
256,192,217968,12,0,220409,0:0:0:0:
256,192,220758,5,0,0:0:0:0:
256,192,221547,1,0,0:0:0:0:
256,192,221942,1,0,0:0:0:0:
256,192,222336,1,2,0:0:0:0:
256,192,223126,1,2,0:0:0:0:
256,192,223915,1,0,0:0:0:0:
256,192,224705,1,0,0:0:0:0:
256,192,225100,1,0,0:0:0:0:
256,192,225494,1,2,0:0:0:0:
256,192,226284,1,0,0:0:0:0:
256,192,226679,1,2,0:0:0:0:
256,192,227073,1,0,0:0:0:0:
256,192,227863,1,0,0:0:0:0:
256,192,228258,1,0,0:0:0:0:
256,192,228652,1,2,0:0:0:0:
256,192,229442,1,2,0:0:0:0:
256,192,229836,1,0,0:0:0:0:
256,192,230231,1,2,0:0:0:0:
256,192,231415,1,0,0:0:0:0:
256,192,231810,1,2,0:0:0:0:
256,192,232008,1,2,0:0:0:0:
256,192,232205,1,0,0:0:0:0:
256,192,232600,1,2,0:0:0:0:
256,192,232994,1,2,0:0:0:0:
256,192,233389,1,0,0:0:0:0:
256,192,234179,1,0,0:0:0:0:
256,192,234573,1,0,0:0:0:0:
256,192,234968,1,2,0:0:0:0:
256,192,235758,1,2,0:0:0:0:
256,192,236152,1,2,0:0:0:0:
256,192,236547,1,0,0:0:0:0:
256,192,236942,1,0,0:0:0:0:
256,192,237336,1,2,0:0:0:0:
256,192,238126,1,0,0:0:0:0:
256,192,238915,1,2,0:0:0:0:
256,192,239310,1,2,0:0:0:0:
256,192,239705,1,0,0:0:0:0:
256,192,240494,1,0,0:0:0:0:
256,192,240889,1,2,0:0:0:0:
256,192,242073,1,0,0:0:0:0:
256,192,242468,1,0,0:0:0:0:
256,192,242863,1,2,0:0:0:0:
256,192,243652,1,0,0:0:0:0:
256,192,244442,1,2,0:0:0:0:
256,192,246021,1,2,0:0:0:0:
256,192,246218,12,2,248192,0:0:0:0:
256,192,248966,5,4,0:0:0:0:
256,192,249122,1,0,0:0:0:0:
256,192,249200,1,0,0:0:0:0:
256,192,249278,1,2,0:0:0:0:
256,192,249434,1,2,0:0:0:0:
256,192,249512,1,2,0:0:0:0:
256,192,249591,1,0,0:0:0:0:
256,192,249669,1,0,0:0:0:0:
256,192,249747,1,0,0:0:0:0:
256,192,249903,1,2,0:0:0:0:
256,192,250059,1,0,0:0:0:0:
256,192,250137,1,0,0:0:0:0:
256,192,250216,1,0,0:0:0:0:
256,192,250372,1,0,0:0:0:0:
256,192,250528,1,2,0:0:0:0:
256,192,250684,1,2,0:0:0:0:
256,192,250762,5,2,0:0:0:0:
256,192,250841,1,0,0:0:0:0:
256,192,250997,1,0,0:0:0:0:
256,192,251075,5,0,0:0:0:0:
256,192,251153,1,2,0:0:0:0:
256,192,251309,1,2,0:0:0:0:
256,192,251466,1,0,0:0:0:0:
256,192,251622,1,0,0:0:0:0:
256,192,251700,1,0,0:0:0:0:
256,192,251778,1,2,0:0:0:0:
256,192,251934,1,0,0:0:0:0:
256,192,252012,1,0,0:0:0:0:
256,192,252091,1,2,0:0:0:0:
256,192,252169,1,2,0:0:0:0:
256,192,252247,1,2,0:0:0:0:
256,192,252403,1,0,0:0:0:0:
256,192,252559,1,2,0:0:0:0:
256,192,252637,1,2,0:0:0:0:
256,192,252716,1,2,0:0:0:0:
256,192,252872,1,0,0:0:0:0:
256,192,253028,1,2,0:0:0:0:
256,192,253184,1,0,0:0:0:0:
256,192,253262,1,0,0:0:0:0:
256,192,253341,1,2,0:0:0:0:
256,192,253497,1,2,0:0:0:0:
256,192,253653,1,2,0:0:0:0:
256,192,253809,1,4,0:0:0:0:
256,192,254122,1,0,0:0:0:0:
256,192,254200,1,0,0:0:0:0:
256,192,254278,1,2,0:0:0:0:
256,192,254434,1,2,0:0:0:0:
256,192,254512,1,2,0:0:0:0:
256,192,254591,1,0,0:0:0:0:
256,192,254669,1,0,0:0:0:0:
256,192,254747,1,2,0:0:0:0:
256,192,254903,1,2,0:0:0:0:
256,192,255059,1,0,0:0:0:0:
256,192,255137,1,0,0:0:0:0:
256,192,255216,1,0,0:0:0:0:
256,192,255372,1,0,0:0:0:0:
256,192,255528,1,2,0:0:0:0:
256,192,255606,1,2,0:0:0:0:
256,192,255684,1,2,0:0:0:0:
256,192,255762,1,2,0:0:0:0:
256,192,255841,1,0,0:0:0:0:
256,192,255997,1,2,0:0:0:0:
256,192,256075,1,2,0:0:0:0:
256,192,256153,1,2,0:0:0:0:
256,192,256309,1,2,0:0:0:0:
256,192,256466,1,0,0:0:0:0:
256,192,256622,1,0,0:0:0:0:
256,192,256700,1,0,0:0:0:0:
256,192,256778,1,2,0:0:0:0:
256,192,256934,1,0,0:0:0:0:
256,192,257012,1,0,0:0:0:0:
256,192,257091,1,2,0:0:0:0:
256,192,257169,1,2,0:0:0:0:
256,192,257247,1,0,0:0:0:0:
256,192,257403,1,2,0:0:0:0:
256,192,257559,1,0,0:0:0:0:
256,192,257716,1,2,0:0:0:0:
256,192,257872,1,0,0:0:0:0:
256,192,257950,1,0,0:0:0:0:
256,192,258028,1,2,0:0:0:0:
256,192,258106,1,2,0:0:0:0:
256,192,258184,1,0,0:0:0:0:
256,192,258262,1,0,0:0:0:0:
256,192,258341,1,2,0:0:0:0:
256,192,258497,1,0,0:0:0:0:
256,192,258653,1,2,0:0:0:0:
256,192,258809,1,4,0:0:0:0:
256,192,259122,1,0,0:0:0:0:
256,192,259200,1,0,0:0:0:0:
256,192,259278,1,2,0:0:0:0:
256,192,259434,1,2,0:0:0:0:
256,192,259591,1,0,0:0:0:0:
256,192,259669,1,0,0:0:0:0:
256,192,259747,1,2,0:0:0:0:
256,192,259825,1,2,0:0:0:0:
256,192,259903,1,0,0:0:0:0:
256,192,260059,1,2,0:0:0:0:
256,192,260137,1,2,0:0:0:0:
256,192,260216,1,2,0:0:0:0:
256,192,260372,1,0,0:0:0:0:
256,192,260528,1,2,0:0:0:0:
256,192,260684,1,0,0:0:0:0:
256,192,260762,5,0,0:0:0:0:
256,192,260841,1,2,0:0:0:0:
256,192,260997,1,2,0:0:0:0:
256,192,261075,5,2,0:0:0:0:
256,192,261153,1,0,0:0:0:0:
256,192,261309,1,2,0:0:0:0:
256,192,261466,1,0,0:0:0:0:
256,192,261622,1,0,0:0:0:0:
256,192,261700,1,0,0:0:0:0:
256,192,261778,1,2,0:0:0:0:
256,192,261934,1,0,0:0:0:0:
256,192,262091,1,2,0:0:0:0:
256,192,262169,1,2,0:0:0:0:
256,192,262247,1,0,0:0:0:0:
256,192,262325,1,0,0:0:0:0:
256,192,262403,1,2,0:0:0:0:
256,192,262559,1,2,0:0:0:0:
256,192,262716,1,0,0:0:0:0:
256,192,262794,1,0,0:0:0:0:
256,192,262872,1,0,0:0:0:0:
256,192,263028,1,2,0:0:0:0:
256,192,263184,1,0,0:0:0:0:
256,192,263341,1,2,0:0:0:0:
256,192,263419,1,2,0:0:0:0:
256,192,263497,1,0,0:0:0:0:
256,192,263575,1,0,0:0:0:0:
256,192,263653,1,2,0:0:0:0:
256,192,263731,1,2,0:0:0:0:
256,192,263809,1,0,0:0:0:0:
256,192,263966,1,4,0:0:0:0:
256,192,264278,1,2,0:0:0:0:
256,192,264434,1,0,0:0:0:0:
256,192,264512,1,0,0:0:0:0:
256,192,264591,1,0,0:0:0:0:
256,192,264747,1,0,0:0:0:0:
256,192,264903,1,2,0:0:0:0:
256,192,265059,1,2,0:0:0:0:
256,192,265137,1,2,0:0:0:0:
256,192,265216,1,0,0:0:0:0:
256,192,265372,1,0,0:0:0:0:
256,192,265528,1,2,0:0:0:0:
256,192,265684,1,0,0:0:0:0:
256,192,265762,1,0,0:0:0:0:
256,192,265841,1,2,0:0:0:0:
256,192,265997,1,0,0:0:0:0:
256,192,266153,1,2,0:0:0:0:
256,192,266231,1,0,0:0:0:0:
256,192,266309,1,2,0:0:0:0:
256,192,266387,1,2,0:0:0:0:
256,192,266466,1,0,0:0:0:0:
256,192,266622,1,0,0:0:0:0:
256,192,266778,1,2,0:0:0:0:
256,192,266934,1,0,0:0:0:0:
256,192,267091,1,2,0:0:0:0:
256,192,267247,1,2,0:0:0:0:
256,192,267403,1,0,0:0:0:0:
256,192,267559,1,2,0:0:0:0:
256,192,267716,1,4,0:0:0:0:
256,192,267872,1,0,0:0:0:0:
256,192,267950,1,0,0:0:0:0:
256,192,268028,1,2,0:0:0:0:
256,192,268106,1,2,0:0:0:0:
256,192,268184,1,0,0:0:0:0:
256,192,268262,1,2,0:0:0:0:
256,192,268341,1,0,0:0:0:0:
256,192,268497,1,2,0:0:0:0:
256,192,268575,1,0,0:0:0:0:
256,192,268653,1,2,0:0:0:0:
256,192,268731,1,2,0:0:0:0:
256,192,268809,1,2,0:0:0:0:
256,192,268966,1,4,0:0:0:0:
256,192,269278,1,0,0:0:0:0:
256,192,269434,1,0,0:0:0:0:
256,192,269591,1,2,0:0:0:0:
256,192,269903,1,0,0:0:0:0:
256,192,270137,1,0,0:0:0:0:
256,192,270216,1,2,0:0:0:0:
256,192,270372,1,0,0:0:0:0:
256,192,270528,1,2,0:0:0:0:
256,192,270606,1,2,0:0:0:0:
256,192,270684,1,0,0:0:0:0:
256,192,270841,1,6,0:0:0:0:
256,192,270997,1,6,0:0:0:0:
256,192,271466,1,4,0:0:0:0:
256,192,271622,1,0,0:0:0:0:
256,192,271778,1,2,0:0:0:0:
256,192,272012,1,0,0:0:0:0:
256,192,272091,1,2,0:0:0:0:
256,192,272247,1,0,0:0:0:0:
256,192,272325,1,0,0:0:0:0:
256,192,272403,1,2,0:0:0:0:
256,192,272559,1,0,0:0:0:0:
256,192,272716,1,2,0:0:0:0:
256,192,272794,1,2,0:0:0:0:
256,192,272872,1,0,0:0:0:0:
256,192,273028,1,2,0:0:0:0:
256,192,273184,1,0,0:0:0:0:
256,192,273262,1,0,0:0:0:0:
256,192,273341,1,2,0:0:0:0:
256,192,273419,1,0,0:0:0:0:
256,192,273497,1,2,0:0:0:0:
256,192,273575,1,2,0:0:0:0:
256,192,273653,1,0,0:0:0:0:
256,192,273809,1,6,0:0:0:0:
256,192,274122,1,0,0:0:0:0:
256,192,274278,1,2,0:0:0:0:
256,192,274512,1,0,0:0:0:0:
256,192,274591,1,2,0:0:0:0:
256,192,274747,1,0,0:0:0:0:
256,192,274903,1,2,0:0:0:0:
256,192,274981,1,0,0:0:0:0:
256,192,275059,1,0,0:0:0:0:
256,192,275216,1,2,0:0:0:0:
256,192,275372,1,0,0:0:0:0:
256,192,275450,1,2,0:0:0:0:
256,192,275528,1,2,0:0:0:0:
256,192,275684,1,2,0:0:0:0:
256,192,275841,1,0,0:0:0:0:
256,192,275997,1,0,0:0:0:0:
256,192,276309,1,4,0:0:0:0:
256,192,276622,1,0,0:0:0:0:
256,192,276778,1,2,0:0:0:0:
256,192,277012,1,0,0:0:0:0:
256,192,277091,1,2,0:0:0:0:
256,192,277247,1,0,0:0:0:0:
256,192,277403,1,2,0:0:0:0:
256,192,277481,1,2,0:0:0:0:
256,192,277559,1,0,0:0:0:0:
256,192,277716,1,2,0:0:0:0:
256,192,277872,1,0,0:0:0:0:
256,192,277950,1,0,0:0:0:0:
256,192,278028,1,2,0:0:0:0:
256,192,278184,1,0,0:0:0:0:
256,192,278262,1,0,0:0:0:0:
256,192,278341,1,2,0:0:0:0:
256,192,278419,1,2,0:0:0:0:
256,192,278497,1,0,0:0:0:0:
256,192,278575,1,2,0:0:0:0:
256,192,278653,1,0,0:0:0:0:
256,192,278809,1,6,0:0:0:0:
256,192,279122,1,6,0:0:0:0:
256,192,279278,1,0,0:0:0:0:
256,192,279512,1,0,0:0:0:0:
256,192,279591,1,2,0:0:0:0:
256,192,279747,1,0,0:0:0:0:
256,192,279903,1,2,0:0:0:0:
256,192,280059,1,0,0:0:0:0:
256,192,280137,1,2,0:0:0:0:
256,192,280216,1,2,0:0:0:0:
256,192,280372,1,0,0:0:0:0:
256,192,280528,1,2,0:0:0:0:
256,192,280606,1,0,0:0:0:0:
256,192,280684,1,0,0:0:0:0:
256,192,280841,1,2,0:0:0:0:
256,192,280997,1,2,0:0:0:0:
256,192,281309,1,4,0:0:0:0:
256,192,281622,1,0,0:0:0:0:
256,192,281778,1,2,0:0:0:0:
256,192,282012,1,0,0:0:0:0:
256,192,282091,1,2,0:0:0:0:
256,192,282247,1,0,0:0:0:0:
256,192,282325,1,0,0:0:0:0:
256,192,282403,1,2,0:0:0:0:
256,192,282559,1,0,0:0:0:0:
256,192,282716,1,2,0:0:0:0:
256,192,282794,1,2,0:0:0:0:
256,192,282872,1,0,0:0:0:0:
256,192,283028,1,2,0:0:0:0:
256,192,283184,1,0,0:0:0:0:
256,192,283262,1,0,0:0:0:0:
256,192,283341,1,2,0:0:0:0:
256,192,283419,1,0,0:0:0:0:
256,192,283497,1,2,0:0:0:0:
256,192,283575,1,2,0:0:0:0:
256,192,283653,1,0,0:0:0:0:
256,192,283809,1,6,0:0:0:0:
256,192,284122,1,0,0:0:0:0:
256,192,284278,1,2,0:0:0:0:
256,192,284512,1,0,0:0:0:0:
256,192,284591,1,2,0:0:0:0:
256,192,284747,1,0,0:0:0:0:
256,192,284903,1,2,0:0:0:0:
256,192,284981,1,0,0:0:0:0:
256,192,285059,1,0,0:0:0:0:
256,192,285216,1,2,0:0:0:0:
256,192,285372,1,0,0:0:0:0:
256,192,285450,1,2,0:0:0:0:
256,192,285528,1,2,0:0:0:0:
256,192,285684,1,2,0:0:0:0:
256,192,285841,1,0,0:0:0:0:
256,192,285997,1,0,0:0:0:0:
256,192,286075,1,0,0:0:0:0:
256,192,286153,1,2,0:0:0:0:
256,192,286231,1,2,0:0:0:0:
256,192,286309,1,2,0:0:0:0:
256,192,286466,1,0,0:0:0:0:
256,192,286778,1,2,0:0:0:0:
256,192,286934,1,0,0:0:0:0:
256,192,287247,1,0,0:0:0:0:
256,192,287403,1,2,0:0:0:0:
256,192,287559,1,0,0:0:0:0:
256,192,287716,1,0,0:0:0:0:
256,192,288028,1,2,0:0:0:0:
256,192,288341,1,0,0:0:0:0:
256,192,288497,1,2,0:0:0:0:
256,192,288653,1,2,0:0:0:0:
256,192,288809,1,4,0:0:0:0:
256,192,289122,1,0,0:0:0:0:
256,192,289278,1,2,0:0:0:0:
256,192,289434,1,2,0:0:0:0:
256,192,289591,1,0,0:0:0:0:
256,192,289747,1,2,0:0:0:0:
256,192,289903,1,0,0:0:0:0:
256,192,290059,1,2,0:0:0:0:
256,192,290216,5,0,0:0:0:0:
256,192,290372,1,0,0:0:0:0:
256,192,290450,1,0,0:0:0:0:
256,192,290528,1,2,0:0:0:0:
256,192,290606,1,2,0:0:0:0:
256,192,290684,1,0,0:0:0:0:
256,192,290762,1,2,0:0:0:0:
256,192,290841,1,0,0:0:0:0:
256,192,290919,1,0,0:0:0:0:
256,192,290997,1,2,0:0:0:0:
256,192,291075,1,0,0:0:0:0:
256,192,291153,1,2,0:0:0:0:
256,192,291231,1,2,0:0:0:0:
256,192,291309,1,2,0:0:0:0:
256,192,291466,1,4,0:0:0:0:
256,192,291622,1,0,0:0:0:0:
256,192,291778,1,2,0:0:0:0:
256,192,291934,1,0,0:0:0:0:
256,192,292012,1,0,0:0:0:0:
256,192,292091,1,2,0:0:0:0:
256,192,292247,1,0,0:0:0:0:
256,192,292325,1,0,0:0:0:0:
256,192,292403,1,2,0:0:0:0:
256,192,292559,1,0,0:0:0:0:
256,192,292716,1,2,0:0:0:0:
256,192,292794,1,2,0:0:0:0:
256,192,292872,1,0,0:0:0:0:
256,192,293028,1,2,0:0:0:0:
256,192,293184,1,0,0:0:0:0:
256,192,293262,1,0,0:0:0:0:
256,192,293341,1,2,0:0:0:0:
256,192,293419,1,0,0:0:0:0:
256,192,293497,1,2,0:0:0:0:
256,192,293575,1,2,0:0:0:0:
256,192,293653,1,0,0:0:0:0:
256,192,293809,1,6,0:0:0:0:
256,192,293966,1,0,0:0:0:0:
256,192,294122,1,0,0:0:0:0:
256,192,294278,1,2,0:0:0:0:
256,192,294434,1,0,0:0:0:0:
256,192,294512,1,0,0:0:0:0:
256,192,294591,1,2,0:0:0:0:
256,192,294747,1,0,0:0:0:0:
256,192,294903,1,2,0:0:0:0:
256,192,294981,1,0,0:0:0:0:
256,192,295059,1,0,0:0:0:0:
256,192,295216,1,2,0:0:0:0:
256,192,295372,1,0,0:0:0:0:
256,192,295450,1,2,0:0:0:0:
256,192,295528,1,2,0:0:0:0:
256,192,295684,1,2,0:0:0:0:
256,192,295841,1,0,0:0:0:0:
256,192,295997,1,0,0:0:0:0:
256,192,296309,1,4,0:0:0:0:
256,192,296622,1,0,0:0:0:0:
256,192,296778,1,2,0:0:0:0:
256,192,296934,1,0,0:0:0:0:
256,192,297012,1,0,0:0:0:0:
256,192,297091,1,2,0:0:0:0:
256,192,297247,1,0,0:0:0:0:
256,192,297403,1,2,0:0:0:0:
256,192,297481,1,2,0:0:0:0:
256,192,297559,1,0,0:0:0:0:
256,192,297716,1,2,0:0:0:0:
256,192,297872,1,0,0:0:0:0:
256,192,297950,1,0,0:0:0:0:
256,192,298028,1,2,0:0:0:0:
256,192,298184,1,0,0:0:0:0:
256,192,298262,1,0,0:0:0:0:
256,192,298341,1,2,0:0:0:0:
256,192,298419,1,2,0:0:0:0:
256,192,298497,1,0,0:0:0:0:
256,192,298575,1,2,0:0:0:0:
256,192,298653,1,0,0:0:0:0:
256,192,298809,1,6,0:0:0:0:
256,192,298966,1,0,0:0:0:0:
256,192,299122,1,6,0:0:0:0:
256,192,299278,1,0,0:0:0:0:
256,192,299434,1,0,0:0:0:0:
256,192,299512,1,0,0:0:0:0:
256,192,299591,1,2,0:0:0:0:
256,192,299747,1,0,0:0:0:0:
256,192,299903,1,2,0:0:0:0:
256,192,300059,1,0,0:0:0:0:
256,192,300137,1,2,0:0:0:0:
256,192,300216,1,2,0:0:0:0:
256,192,300372,1,0,0:0:0:0:
256,192,300528,1,2,0:0:0:0:
256,192,300606,1,0,0:0:0:0:
256,192,300684,1,0,0:0:0:0:
256,192,300841,1,2,0:0:0:0:
256,192,300997,1,2,0:0:0:0:
256,192,301309,1,4,0:0:0:0:
256,192,301622,1,0,0:0:0:0:
256,192,301778,1,2,0:0:0:0:
256,192,301934,1,0,0:0:0:0:
256,192,302012,1,0,0:0:0:0:
256,192,302091,1,2,0:0:0:0:
256,192,302247,1,0,0:0:0:0:
256,192,302325,1,0,0:0:0:0:
256,192,302403,1,2,0:0:0:0:
256,192,302559,1,0,0:0:0:0:
256,192,302716,1,2,0:0:0:0:
256,192,302794,1,2,0:0:0:0:
256,192,302872,1,0,0:0:0:0:
256,192,303028,1,2,0:0:0:0:
256,192,303184,1,0,0:0:0:0:
256,192,303262,1,0,0:0:0:0:
256,192,303341,1,2,0:0:0:0:
256,192,303419,1,0,0:0:0:0:
256,192,303497,1,2,0:0:0:0:
256,192,303575,1,2,0:0:0:0:
256,192,303653,1,0,0:0:0:0:
256,192,303809,1,6,0:0:0:0:
256,192,303966,1,0,0:0:0:0:
256,192,304122,1,0,0:0:0:0:
256,192,304278,1,2,0:0:0:0:
256,192,304434,1,0,0:0:0:0:
256,192,304512,1,0,0:0:0:0:
256,192,304591,1,2,0:0:0:0:
256,192,304747,1,0,0:0:0:0:
256,192,304903,1,2,0:0:0:0:
256,192,304981,1,0,0:0:0:0:
256,192,305059,1,0,0:0:0:0:
256,192,305216,1,2,0:0:0:0:
256,192,305372,1,0,0:0:0:0:
256,192,305450,1,2,0:0:0:0:
256,192,305528,1,2,0:0:0:0:
256,192,305684,1,2,0:0:0:0:
256,192,305841,1,0,0:0:0:0:
256,192,305997,1,0,0:0:0:0:
256,192,306075,1,0,0:0:0:0:
256,192,306153,1,2,0:0:0:0:
256,192,306231,1,2,0:0:0:0:
256,192,306309,1,2,0:0:0:0:
256,192,306466,1,0,0:0:0:0:
256,192,306778,1,2,0:0:0:0:
256,192,306934,1,0,0:0:0:0:
256,192,307091,1,0,0:0:0:0:
256,192,307247,1,0,0:0:0:0:
256,192,307403,1,2,0:0:0:0:
256,192,307559,1,2,0:0:0:0:
256,192,307716,1,0,0:0:0:0:
256,192,308028,1,2,0:0:0:0:
256,192,308341,1,0,0:0:0:0:
256,192,308497,1,0,0:0:0:0:
256,192,308653,1,2,0:0:0:0:
256,192,308809,1,4,0:0:0:0:
256,192,309122,1,0,0:0:0:0:
256,192,309278,1,2,0:0:0:0:
256,192,309434,1,2,0:0:0:0:
256,192,309591,1,0,0:0:0:0:
256,192,309747,1,2,0:0:0:0:
256,192,309903,1,0,0:0:0:0:
256,192,310059,1,2,0:0:0:0:
256,192,310216,5,0,0:0:0:0:
256,192,310372,1,0,0:0:0:0:
256,192,310450,1,0,0:0:0:0:
256,192,310528,1,2,0:0:0:0:
256,192,310606,1,2,0:0:0:0:
256,192,310684,1,0,0:0:0:0:
256,192,310762,1,2,0:0:0:0:
256,192,310841,1,0,0:0:0:0:
256,192,310919,1,0,0:0:0:0:
256,192,310997,1,2,0:0:0:0:
256,192,311075,1,0,0:0:0:0:
256,192,311153,1,2,0:0:0:0:
256,192,311231,1,2,0:0:0:0:
256,192,311309,1,2,0:0:0:0:
256,192,311387,1,2,0:0:0:0:
256,192,311466,5,0,0:0:0:0:
256,192,311622,1,0,0:0:0:0:
256,192,311778,1,2,0:0:0:0:
256,192,311934,1,0,0:0:0:0:
256,192,312091,1,2,0:0:0:0:
256,192,312247,1,2,0:0:0:0:
256,192,312403,1,0,0:0:0:0:
256,192,312559,1,6,0:0:0:0:
256,192,312716,1,0,0:0:0:0:
256,192,312872,1,0,0:0:0:0:
256,192,313028,1,2,0:0:0:0:
256,192,313184,1,0,0:0:0:0:
256,192,313341,1,0,0:0:0:0:
256,192,313497,1,2,0:0:0:0:
256,192,313653,1,0,0:0:0:0:
256,192,313809,1,2,0:0:0:0:
256,192,313966,1,4,0:0:0:0:
288,224,314122,1,0,0:0:0:0:
256,192,314278,1,2,0:0:0:0:
256,192,314434,1,0,0:0:0:0:
256,192,314591,1,2,0:0:0:0:
256,192,314747,1,0,0:0:0:0:
256,192,314903,1,6,0:0:0:0:
256,192,315059,1,6,0:0:0:0:
256,192,315216,1,0,0:0:0:0:
256,192,315372,1,0,0:0:0:0:
256,192,315528,1,2,0:0:0:0:
256,192,315684,1,0,0:0:0:0:
256,192,315841,1,0,0:0:0:0:
256,192,315997,1,2,0:0:0:0:
256,192,316153,1,0,0:0:0:0:
256,192,316309,1,2,0:0:0:0:
256,192,316387,1,2,0:0:0:0:
256,192,316466,1,0,0:0:0:0:
256,192,316622,1,0,0:0:0:0:
256,192,316778,1,2,0:0:0:0:
256,192,316934,1,0,0:0:0:0:
256,192,317091,1,2,0:0:0:0:
256,192,317247,1,2,0:0:0:0:
256,192,317403,1,0,0:0:0:0:
256,192,317559,1,6,0:0:0:0:
256,192,317716,1,0,0:0:0:0:
256,192,317872,1,0,0:0:0:0:
256,192,318028,1,2,0:0:0:0:
256,192,318184,1,0,0:0:0:0:
256,192,318341,1,0,0:0:0:0:
256,192,318497,1,2,0:0:0:0:
256,192,318653,1,0,0:0:0:0:
256,192,318809,1,2,0:0:0:0:
256,192,318966,1,4,0:0:0:0:
288,224,319122,1,0,0:0:0:0:
256,192,319278,1,2,0:0:0:0:
256,192,319434,1,0,0:0:0:0:
256,192,319591,1,2,0:0:0:0:
256,192,319747,1,0,0:0:0:0:
256,192,319903,1,6,0:0:0:0:
256,192,320059,1,6,0:0:0:0:
256,192,320216,1,0,0:0:0:0:
256,192,320372,1,0,0:0:0:0:
256,192,320528,1,2,0:0:0:0:
256,192,320684,1,0,0:0:0:0:
256,192,320841,1,0,0:0:0:0:
256,192,320997,1,2,0:0:0:0:
256,192,321153,1,0,0:0:0:0:
256,192,321309,1,2,0:0:0:0:
256,192,321466,1,4,0:0:0:0:
256,192,321622,1,4,0:0:0:0:
256,192,321934,1,4,0:0:0:0:
256,192,322091,1,4,0:0:0:0:
256,192,322403,1,4,0:0:0:0:
256,192,322559,1,4,0:0:0:0:
256,192,322872,1,4,0:0:0:0:
256,192,323028,1,4,0:0:0:0:
256,192,323341,1,4,0:0:0:0:
256,192,323653,1,6,0:0:0:0:
256,192,323966,1,4,0:0:0:0:
256,192,324122,1,4,0:0:0:0:
256,192,324434,1,4,0:0:0:0:
256,192,324591,1,4,0:0:0:0:
256,192,324903,1,4,0:0:0:0:
256,192,325059,1,4,0:0:0:0:
256,192,325372,1,4,0:0:0:0:
256,192,325528,1,4,0:0:0:0:
256,192,325841,1,4,0:0:0:0:
256,192,325997,1,4,0:0:0:0:
256,192,326153,1,6,0:0:0:0:
256,192,326466,12,0,327716,0:0:0:0:
256,192,328341,5,4,0:0:0:0:
