osu file format v14

[General]
AudioFilename: audio.mp3
AudioLeadIn: 0
PreviewTime: 63039
Countdown: 0
SampleSet: Soft
StackLeniency: 0.5
Mode: 0
LetterboxInBreaks: 0
WidescreenStoryboard: 0

[Editor]
DistanceSpacing: 1
BeatDivisor: 2
GridSize: 4
TimelineZoom: 1

[Metadata]
Title:Complex Image (Short Ver.)
TitleUnicode:コンプレックス・イマージュ (Short Ver.)
Artist:Ayane
ArtistUnicode:彩音
Creator:Nyukai
Version:Normal
Source:ひぐらしのなく頃に祭
Tags:澪尽し編 miotsukushi-hen hou 07th expansion higurashi no naku koro ni matsuri when the they cicadas cry festival gift nageki no mori 嘆きノ森 video game videogame japanese visual novel jpop j-pop pop ps2 playstation 2
BeatmapID:2685720
BeatmapSetID:1294273

[Difficulty]
HPDrainRate:4
CircleSize:4
OverallDifficulty:4
ApproachRate:5
SliderMultiplier:1.1
SliderTickRate:1

[Events]
//Background and Video events
0,0,"bg.png",0,0
//Break Periods
//Storyboard Layer 0 (Background)
//Storyboard Layer 1 (Fail)
//Storyboard Layer 2 (Pass)
//Storyboard Layer 3 (Foreground)
//Storyboard Layer 4 (Overlay)
//Storyboard Sound Samples

[TimingPoints]
412,437.956204379562,4,2,1,50,1,0
3915,-100,4,2,1,70,0,0
17492,-100,4,1,1,70,0,0
17930,-100,4,2,1,40,0,0
19682,-100,4,2,1,50,0,0
33258,-100,4,2,1,60,0,0
60083,-100,4,1,1,60,0,0
63477,-100,4,2,1,80,0,1
77382,-100,4,2,1,80,0,0
77492,-100,4,2,1,80,0,1
91506,-100,4,2,1,70,0,0
103769,-100,4,1,1,60,0,0
105521,-100,4,2,1,70,0,0
119098,-100,4,1,1,70,0,0
119536,-100,4,2,1,50,0,0
121397,-100,4,2,1,30,0,0

[Colours]
Combo1 : 228,158,116
Combo2 : 153,63,23
SliderTrackOverride : 216,159,133
SliderBorder : 197,87,35

[HitObjects]
204,136,412,6,0,P|255:120|307:136,1,110,4|2,1:2|0:3,0:0:0:0:
360,232,1287,2,0,P|308:247|256:231,1,110,2|2,0:0|0:3,0:0:0:0:
204,248,1944,1,0,1:0:0:0:
204,248,2163,2,0,L|68:280,1,110,4|2,1:2|1:2,0:0:0:0:
24,192,3039,1,0,1:0:0:0:
96,110,3477,1,8,1:0:0:0:
176,36,3915,6,0,P|240:36|296:80,1,110,4|8,1:0|1:0,0:0:0:0:
312,100,4572,2,0,P|360:125|414:122,1,110,2|2,0:0|0:0,0:0:0:0:
464,144,5229,1,8,1:0:0:0:
464,256,5667,1,0,3:0:0:0:
372,312,6105,1,8,1:0:0:0:
324,340,6324,1,2,0:0:0:0:
276,312,6543,2,0,B|240:312|240:312|200:300|200:300|140:300,1,110,0|8,3:0|1:0,0:0:0:0:
148,192,7419,6,0,B|184:192|184:192|224:204|224:204|284:204,1,110,0|8,3:0|1:0,0:0:0:0:
312,192,8076,2,0,P|360:192|416:140,1,110,2|2,0:0|0:0,0:0:0:0:
432,104,8733,1,8,1:0:0:0:
348,32,9171,1,4,1:2:0:0:
256,92,9609,1,4,1:2:0:0:
164,32,10047,1,4,1:2:0:0:
72,92,10484,2,0,L|20:156,1,55,8|2,1:0|0:0,0:0:0:0:
24,188,10922,6,0,B|24:240|24:240|64:296,1,110,4|8,1:2|1:0,0:0:0:0:
112,304,11579,2,0,P|172:304|224:260,1,110,2|2,0:0|0:0,0:0:0:0:
256,244,12236,1,8,1:0:0:0:
352,188,12674,2,0,B|380:140|380:140|352:92,1,110,0|8,3:0|1:0,0:0:0:0:
304,65,13331,1,2,0:0:0:0:
304,65,13550,2,0,B|256:92|256:92|208:64,1,110,0|8,3:0|1:0,0:0:0:0:
104,96,14426,5,0,3:0:0:0:
52,192,14864,1,8,1:0:0:0:
80,240,15083,1,2,0:0:0:0:
112,284,15302,2,0,P|156:284|204:340,1,110,0|8,3:0|1:0,0:0:0:0:
311,328,16178,2,0,P|346:287|400:284,1,110,4|8,1:2|1:0,0:0:0:0:
460,192,17054,1,4,1:2:0:0:
400,100,17492,1,8,0:0:0:0:
348,4,17930,5,2,3:2:0:0:
256,320,19244,1,2,0:3:0:0:
160,268,19682,6,0,P|100:268|60:232,1,110,4|8,3:2|1:0,0:0:0:0:
32,192,20339,1,0,0:0:0:0:
63,146,20557,2,0,P|106:113|160:116,1,110,2|8,3:2|1:0,0:0:0:0:
256,172,21433,1,2,3:2:0:0:
351,116,21871,1,8,1:0:0:0:
400,140,22090,1,0,0:0:0:0:
448,168,22309,2,0,P|464:219|448:271,1,110,2|8,3:2|1:0,0:0:0:0:
348,320,23185,6,0,P|288:320|252:280,1,110,2|8,3:2|1:0,0:0:0:0:
212,252,23842,1,2,0:0:0:0:
212,252,24061,2,0,L|156:136,1,110,0|8,3:0|1:0,0:0:0:0:
232,68,24937,2,0,L|279:167,1,110,0|8,3:0|1:0,0:0:0:0:
304,216,25594,1,2,0:0:0:0:
304,216,25813,1,0,3:0:0:0:
256,316,26251,1,8,1:0:0:0:
144,316,26689,6,0,P|76:316|40:276,1,110,4|8,3:2|1:0,3:2:0:0:
24,240,27346,1,0,0:2:0:0:
24,240,27565,2,0,L|120:156,1,110,2|8,3:2|1:0,0:0:0:0:
200,108,28441,1,2,3:2:0:0:
288,40,28879,1,8,1:0:0:0:
332,72,29098,1,2,0:0:0:0:
376,104,29317,2,0,B|396:132|396:132|408:168|408:168|436:196,1,110,0|8,3:0|1:0,0:0:0:0:
364,280,30193,6,0,B|344:252|344:252|332:216|332:216|304:188,1,110,2|8,3:2|1:0,0:0:0:0:
256,164,30849,1,2,0:0:0:0:
206,189,31068,2,0,B|180:216|180:216|168:252|168:252|148:280,1,110,0|8,3:0|1:0,0:0:0:0:
80,192,31944,1,2,3:2:0:0:
148,103,32382,1,8,1:0:0:0:
228,28,32820,2,0,P|279:12|331:27,1,110,0|8,3:0|1:0,0:0:0:0:
380,52,33477,1,0,1:0:0:0:
428,76,33696,6,0,L|392:204,1,110,4|8,3:2|1:0,0:0:0:0:
360,284,34572,1,2,3:2:0:0:
256,248,35010,1,8,1:0:0:0:
212,212,35229,1,2,0:0:0:0:
172,176,35448,2,0,B|172:144|172:144|184:104|184:104|184:60,1,110,0|8,3:0|1:0,0:0:0:0:
288,36,36324,2,0,B|320:36|320:36|360:48|360:48|404:48,1,110,0|8,3:0|1:0,0:0:0:0:
448,72,36981,1,2,0:0:0:0:
448,72,37200,6,0,P|464:123|448:175,1,110,2|8,3:2|1:0,0:0:0:0:
384,264,38076,1,2,3:2:0:0:
316,352,38514,1,8,1:0:0:0:
256,260,38952,1,2,3:2:0:0:
196,352,39390,2,0,L|136:312,1,55,8|2,1:0|0:0,0:0:0:0:
108,288,39828,2,0,B|80:256|80:228|80:228|80:160,1,110,2|8,3:2|1:0,0:0:0:0:
96,136,40484,1,0,1:0:0:0:
96,136,40703,6,0,P|156:136|200:96,1,110,4|8,3:2|1:0,0:0:0:0:
256,16,41579,1,2,3:2:0:0:
318,106,42017,2,0,L|380:184,1,55,8|2,1:0|0:0,0:0:0:0:
388,192,42455,2,0,B|388:244|388:244|356:304,1,110,2|8,3:2|1:0,0:0:0:0:
256,332,43331,1,2,3:2:0:0:
151,295,43769,1,8,1:0:0:0:
53,244,44207,6,0,P|37:192|53:140,1,110,2|8,3:2|1:0,0:0:0:0:
108,120,44864,1,0,0:0:0:0:
108,120,45083,2,0,P|168:120|208:80,1,110,2|8,3:2|1:0,0:0:0:0:
308,88,45959,2,0,P|350:122|404:120,1,110,2|2,1:2|1:2,3:2:0:0:
488,192,46835,1,2,1:2:0:0:
403,263,47273,1,2,1:2:0:0:
356,288,47492,1,0,1:0:0:0:
308,312,47711,6,0,B|248:312|248:312|184:268,1,110,4|8,3:2|1:0,0:0:0:0:
148,192,48587,1,2,3:2:0:0:
206,100,49025,2,0,L|272:72,1,55,8|2,1:0|0:0,0:0:0:0:
304,52,49463,2,0,P|364:52|412:88,1,110,0|8,3:0|1:0,3:2:0:0:
432,184,50339,2,0,P|372:184|324:148,1,110,0|8,3:0|1:0,3:2:0:0:
276,160,50995,1,2,0:0:0:0:
276,160,51214,6,0,B|232:160|232:160|200:172|200:172|156:172,1,110,2|8,3:2|1:0,0:0:0:0:
148,280,52090,2,0,B|192:280|192:280|224:268|224:268|268:268,1,110,2|8,3:2|1:0,0:0:0:0:
304,292,52747,1,0,0:0:0:0:
352,316,52966,2,0,P|403:332|455:316,1,110,2|8,3:2|1:0,0:0:0:0:
492,212,53842,1,2,3:2:0:0:
400,152,54280,1,8,1:0:0:0:
303,99,54718,6,0,B|255:126|255:126|207:98,1,110,4|8,0:0|1:0,0:0:0:0:
160,76,55375,1,0,0:0:0:0:
160,76,55594,2,0,L|104:200,1,110,0|8,3:0|1:0,0:0:0:0:
168,192,56251,1,2,0:0:0:0:
168,192,56470,2,0,L|112:316,2,110,0|8|0,3:0|1:0|3:0,0:0:0:0:
256,128,57784,1,8,1:0:0:0:
344,192,58222,6,0,L|400:316,1,110,4|0,1:0|1:0,0:0:0:0:
488,240,59098,2,0,L|432:116,1,110,4|0,1:0|1:0,0:0:0:0:
408,36,59974,1,4,1:0:0:0:
312,88,60411,1,0,0:0:0:0:
204,88,60849,1,0,0:0:0:0:
104,36,61287,1,0,0:0:0:0:
69,139,61725,5,2,2:2:0:0:
396,192,63039,1,8,1:0:0:0:
396,304,63477,6,0,P|332:304|296:272,1,110,4|8,1:0|1:0,0:0:0:0:
256,244,64134,2,0,P|192:244|156:276,1,110,2|2,0:0|0:0,0:0:0:0:
120,312,64791,1,8,1:0:0:0:
36,240,65229,2,0,B|9:192|9:192|37:144,1,110,2|8,3:2|1:0,0:0:0:0:
88,120,65886,1,2,0:0:0:0:
88,120,66105,1,2,3:2:0:0:
188,72,66543,1,8,1:0:0:0:
292,36,66981,6,0,P|360:36|400:72,1,110,0|8,3:0|1:0,0:0:0:0:
436,92,67638,2,0,L|384:220,1,110,2|2,0:0|0:0,0:0:0:0:
372,244,68295,1,8,1:0:0:0:
300,324,68733,1,2,3:2:0:0:
188,324,69171,2,0,L|116:324,1,55,8|2,1:0|0:0,0:0:0:0:
104,280,69609,2,0,B|104:240|104:240|96:220|96:220|96:168,1,110,8|8,1:0|1:0,0:0:0:0:
140,140,70266,1,2,1:2:0:0:
140,140,70484,6,0,P|204:140|248:92,1,110,4|8,1:0|1:0,0:0:0:0:
256,60,71141,2,0,L|372:92,1,110,2|0,0:0|0:0,0:0:0:0:
416,108,71798,1,8,1:0:0:0:
400,216,72236,2,0,L|284:184,1,110,0|8,3:0|1:0,3:0:0:0:
240,184,72893,1,2,0:0:0:0:
240,184,73112,2,0,P|184:184|128:228,1,110,0|8,3:0|1:0,0:0:0:0:
172,320,73988,6,0,P|228:320|284:276,1,110,2|8,3:2|1:0,0:0:0:0:
356,220,74864,2,0,L|372:148,1,55,0|2,3:0|0:0,0:0:0:0:
380,112,75302,1,8,1:0:0:0:
308,28,75740,1,4,1:0:0:0:
204,28,76178,1,4,1:0:0:0:
132,112,76616,1,4,1:0:0:0:
72,204,77054,2,0,L|88:276,1,55,8|0,1:0|1:0,0:0:0:0:
116,304,77492,6,0,P|180:304|216:272,1,110,4|8,1:0|1:0,0:0:0:0:
256,244,78149,2,0,P|320:244|356:276,1,110,2|2,0:0|0:0,0:0:0:0:
392,312,78806,1,8,1:0:0:0:
476,240,79244,2,0,B|503:192|503:192|475:144,1,110,2|8,3:2|1:0,0:0:0:0:
424,120,79901,1,2,0:0:0:0:
424,120,80120,1,2,3:2:0:0:
324,72,80558,1,8,1:0:0:0:
220,36,80996,6,0,P|152:36|112:72,1,110,2|8,3:2|1:0,0:0:0:0:
76,92,81653,2,0,L|128:220,1,110,2|2,0:0|0:0,0:0:0:0:
140,244,82310,1,8,1:0:0:0:
212,324,82748,1,2,3:2:0:0:
324,324,83186,2,0,L|396:324,1,55,8|2,1:0|0:0,0:0:0:0:
408,280,83624,2,0,B|408:240|408:240|416:220|416:220|416:168,1,110,8|8,1:0|1:0,0:0:0:0:
372,140,84281,1,0,1:0:0:0:
372,140,84499,6,0,P|308:140|264:92,1,110,4|8,1:0|1:0,3:0:0:0:
256,60,85156,2,0,L|140:92,1,110,2|2,0:0|0:0,0:0:0:0:
96,108,85813,1,8,1:0:0:0:
112,216,86251,2,0,L|228:184,1,110,2|8,3:2|1:0,0:0:0:0:
272,184,86908,1,2,0:0:0:0:
272,184,87127,2,0,P|328:184|384:228,1,110,0|8,3:0|1:0,0:0:0:0:
340,320,88003,6,0,P|284:320|228:276,1,110,2|8,3:2|1:0,0:0:0:0:
200,252,88660,1,2,0:0:0:0:
200,252,88879,1,0,3:0:0:0:
124,172,89317,2,0,L|96:116,1,55,8|2,1:0|0:0,0:0:0:0:
128,76,89755,1,4,1:0:0:0:
232,36,90193,1,0,1:0:0:0:
340,36,90630,2,0,L|408:60,1,55,0|0,1:0|1:0,0:0:0:0:
444,76,91068,1,8,1:0:0:0:
448,188,91506,6,0,B|412:224|412:224|340:224,1,110,4|8,0:0|1:0,0:0:0:0:
308,192,92163,1,2,0:0:0:0:
308,192,92382,1,0,3:0:0:0:
256,96,92820,1,8,1:0:0:0:
200,192,93258,2,0,P|148:207|96:191,1,110,2|8,3:2|1:0,0:0:0:0:
52,160,93915,1,2,0:0:0:0:
52,160,94134,2,0,L|72:284,1,110,0|8,3:0|1:0,0:0:0:0:
164,328,95010,6,0,P|224:328|264:292,1,110,2|8,3:2|1:0,3:0:0:0:
312,272,95667,1,2,0:0:0:0:
312,272,95886,2,0,B|368:272|368:272|416:248,1,110,0|8,3:0|1:0,0:0:0:0:
416,136,96762,2,0,B|368:112|368:112|312:112,1,110,2|8,3:2|1:0,0:0:0:0:
208,76,97638,1,2,3:2:0:0:
108,32,98076,2,0,L|64:116,1,55,8|8,1:0|1:0,0:0:0:0:
56,128,98514,6,0,P|56:192|100:240,1,110,4|0,1:0|1:0,0:0:0:0:
168,296,99390,1,0,1:0:0:0:
256,228,99828,1,0,1:0:0:0:
344,296,100266,2,0,P|400:296|456:244,1,110,0|0,1:0|1:0,3:2:0:0:
480,224,100922,1,2,0:2:0:0:
480,224,101141,2,0,L|384:152,1,110,0|0,1:0|1:2,0:0:0:0:
304,92,102017,5,0,1:0:0:0:
232,176,102455,1,0,1:0:0:0:
324,248,102893,1,0,1:0:0:0:
392,158,103331,1,0,1:0:0:0:
456,68,103769,1,0,0:0:0:0:
336,348,105521,6,0,P|272:348|216:304,1,110,4|8,1:0|1:0,0:0:0:0:
200,284,106178,2,0,P|152:259|98:262,1,110,2|2,0:0|0:0,0:0:0:0:
48,240,106835,1,8,1:0:0:0:
48,128,107273,1,0,3:0:0:0:
140,72,107711,1,8,1:0:0:0:
188,44,107930,1,2,0:0:0:0:
236,72,108149,2,0,B|272:72|272:72|312:84|312:84|372:84,1,110,0|8,3:0|1:0,0:0:0:0:
364,192,109025,6,0,B|328:192|328:192|288:180|288:180|228:180,1,110,0|8,3:0|1:0,0:0:0:0:
200,192,109682,2,0,P|152:192|96:244,1,110,2|2,0:0|0:0,0:0:0:0:
80,280,110339,1,8,1:0:0:0:
164,352,110777,1,4,1:2:0:0:
256,292,111215,1,4,1:2:0:0:
348,352,111653,1,4,1:2:0:0:
440,292,112090,2,0,L|492:228,1,55,4|0,1:2|1:0,0:0:0:0:
488,196,112528,6,0,B|488:144|488:144|448:88,1,110,4|12,1:2|1:0,0:0:0:0:
400,80,113185,2,0,P|340:80|288:124,1,110,2|2,0:0|0:0,0:0:0:0:
256,140,113842,1,8,1:0:0:0:
160,196,114280,2,0,B|132:244|132:244|160:292,1,110,0|8,3:0|1:0,0:0:0:0:
208,319,114937,1,2,0:0:0:0:
208,319,115156,2,0,B|256:292|256:292|304:320,1,110,0|8,3:0|1:0,0:0:0:0:
408,288,116032,5,0,3:0:0:0:
460,192,116470,1,8,1:0:0:0:
432,144,116689,1,2,0:0:0:0:
400,100,116908,2,0,P|356:100|308:44,1,110,0|8,3:0|1:0,0:0:0:0:
201,56,117784,2,0,P|166:97|112:100,1,110,4|4,1:2|1:2,0:0:0:0:
52,192,118660,1,4,1:2:0:0:
112,284,119098,1,8,0:0:0:0:
172,376,119536,5,2,3:2:0:0:
256,56,120849,1,2,0:3:0:0:
368,56,121287,5,4,1:0:0:0:
256,192,121506,12,2,128185,0:0:0:0:
