osu file format v14

[General]
AudioFilename: audio.mp3
AudioLeadIn: 0
PreviewTime: 63039
Countdown: 0
SampleSet: Soft
StackLeniency: 0.4
Mode: 0
LetterboxInBreaks: 0
WidescreenStoryboard: 0

[Editor]
DistanceSpacing: 1.1
BeatDivisor: 4
GridSize: 4
TimelineZoom: 1

[Metadata]
Title:Complex Image (Short Ver.)
TitleUnicode:コンプレックス・イマージュ (Short Ver.)
Artist:Ayane
ArtistUnicode:彩音
Creator:Nyukai
Version:Insane
Source:ひぐらしのなく頃に祭
Tags:澪尽し編 miotsukushi-hen hou 07th expansion higurashi no naku koro ni matsuri when the they cicadas cry festival gift nageki no mori 嘆きノ森 video game videogame japanese visual novel jpop j-pop pop ps2 playstation 2
BeatmapID:2685718
BeatmapSetID:1294273

[Difficulty]
HPDrainRate:6
CircleSize:5
OverallDifficulty:7
ApproachRate:8.5
SliderMultiplier:1.6
SliderTickRate:1

[Events]
//Background and Video events
0,0,"bg.png",0,0
//Break Periods
//Storyboard Layer 0 (Background)
//Storyboard Layer 1 (Fail)
//Storyboard Layer 2 (Pass)
//Storyboard Layer 3 (Foreground)
//Storyboard Layer 4 (Overlay)
//Storyboard Sound Samples

[TimingPoints]
412,437.956204379562,4,2,1,50,1,0
3806,-100,4,2,1,5,0,0
3915,-90.9090909090909,4,2,1,70,0,0
17492,-90.9090909090909,4,1,1,70,0,0
17930,-100,4,2,1,40,0,0
19682,-100,4,2,1,50,0,0
33258,-100,4,2,1,60,0,0
60083,-100,4,1,1,60,0,0
63477,-90.9090909090909,4,2,1,80,0,1
77382,-90.9090909090909,4,2,1,80,0,0
77492,-90.9090909090909,4,2,1,80,0,1
91506,-90.9090909090909,4,2,1,70,0,0
98514,-100,4,2,1,70,0,0
103769,-100,4,1,1,60,0,0
105521,-90.9090909090909,4,2,1,70,0,0
119098,-90.9090909090909,4,1,1,70,0,0
119536,-100,4,2,1,50,0,0
121178,-100,4,2,1,5,0,0
121287,-100,4,2,1,50,0,0
121397,-100,4,2,1,30,0,0

[Colours]
Combo1 : 228,158,116
Combo2 : 153,63,23
SliderTrackOverride : 216,159,133
SliderBorder : 197,87,35

[HitObjects]
328,264,412,6,0,P|292:280|256:264,1,80,4|0,1:2|0:0,0:0:0:0:
176,228,849,1,2,0:3:0:0:
176,228,959,2,0,L|132:152,1,80
112,124,1287,1,2,0:0:0:0:
192,84,1506,1,0,0:0:0:0:
256,148,1725,1,2,0:3:0:0:
320,84,1944,1,0,1:0:0:0:
192,84,2163,6,0,L|128:32,1,80,4|0,1:2|0:0,0:0:0:0:
112,124,2601,1,2,1:2:0:0:
112,124,2711,2,0,L|176:176,1,80
196,188,3039,1,0,1:0:0:0:
216,200,3149,1,0,1:0:0:0:
236,212,3258,1,0,1:0:0:0:
256,224,3368,1,0,1:0:0:0:
276,236,3477,2,0,P|332:256|388:236,1,120,8|0,1:0|0:0,0:0:0:0:
436,192,3915,5,4,1:0:0:0:
384,100,4134,1,0,0:0:0:0:
384,100,4244,1,2,0:0:0:0:
384,100,4353,2,0,P|344:84|304:100,1,88.000002685547,8|2,1:0|0:0,0:0:0:0:
256,196,4791,1,0,3:0:0:0:
128,100,5010,1,2,0:0:0:0:
128,100,5120,1,0,0:0:0:0:
128,100,5229,2,0,P|168:84|208:100,1,88.000002685547,8|2,1:0|0:0,0:0:0:0:
256,196,5667,5,0,3:0:0:0:
364,236,5886,1,0,0:0:0:0:
364,236,5995,1,2,0:0:0:0:
364,236,6105,2,0,B|378:274|378:274|362:318,1,88.000002685547,8|2,1:0|0:0,0:0:0:0:
256,340,6543,1,0,3:0:0:0:
148,236,6762,1,2,0:0:0:0:
148,236,6871,1,0,0:0:0:0:
148,236,6981,2,0,B|134:274|134:274|150:318,1,88.000002685547,8|2,1:0|0:0,0:0:0:0:
256,340,7419,5,0,3:0:0:0:
361,318,7638,1,0,0:0:0:0:
361,318,7747,1,2,0:0:0:0:
361,318,7857,2,0,L|461:250,1,88.000002685547,8|2,1:0|0:0,0:0:0:0:
508,192,8295,1,0,3:0:0:0:
361,66,8514,1,2,0:0:0:0:
361,66,8623,1,0,0:0:0:0:
361,66,8733,2,0,L|461:134,1,88.000002685547,8|2,1:0|0:0,0:0:0:0:
296,264,9171,6,0,P|256:280|216:264,1,88.000002685547,4|0,1:2|0:0,0:0:0:0:
216,119,9609,2,0,P|256:104|295:119,1,88.000002685547,4|0,1:2|1:0,0:0:0:0:
116,231,10047,2,0,P|100:191|116:152,1,88.000002685547,4|0,1:2|0:0,0:0:0:0:
216,119,10484,1,8,1:0:0:0:
396,152,10703,1,2,0:0:0:0:
396,152,10813,1,0,0:0:0:0:
396,152,10922,6,0,P|411:191|395:231,1,88.000002685547,4|0,1:2|0:0,0:0:0:0:
336,260,11251,1,2,0:0:0:0:
336,260,11360,2,0,L|364:343,1,88.000002685547,8|2,1:0|0:0,0:0:0:0:
256,192,11798,1,0,3:0:0:0:
176,260,12017,1,2,0:0:0:0:
176,260,12127,1,0,0:0:0:0:
176,260,12236,2,0,L|147:343,1,88.000002685547,8|2,1:0|0:0,0:0:0:0:
256,192,12674,5,0,3:0:0:0:
352,144,12893,1,0,0:0:0:0:
352,144,13003,1,2,0:0:0:0:
352,143,13112,2,0,P|367:103|352:63,1,88.000002685547,8|2,1:0|0:0,0:0:0:0:
256,20,13550,1,0,3:0:0:0:
160,144,13769,1,2,0:0:0:0:
160,144,13879,1,0,0:0:0:0:
160,143,13988,2,0,P|144:103|159:63,1,88.000002685547,8|2,1:0|0:0,0:0:0:0:
256,20,14426,5,0,3:0:0:0:
352,63,14645,1,0,0:0:0:0:
352,63,14755,1,2,0:0:0:0:
352,63,14864,2,0,B|400:63|400:63|440:99,1,88.000002685547,8|2,1:0|0:0,0:0:0:0:
452,192,15302,1,0,3:0:0:0:
352,321,15521,1,2,0:0:0:0:
352,321,15631,1,0,0:0:0:0:
352,321,15740,2,0,B|400:321|400:321|429:294,1,88.000002685547,8|2,1:0|0:0,0:0:0:0:
452,192,16178,6,0,B|414:178|414:178|370:194,1,88.000002685547,4|0,1:2|0:0,0:0:0:0:
256,308,16616,1,8,1:0:0:0:
60,192,16835,1,0,1:0:0:0:
60,192,16944,1,0,0:0:0:0:
60,192,17054,2,0,B|98:178|98:178|142:194,1,88.000002685547,4|0,1:2|0:0,0:0:0:0:
256,308,17492,2,0,L|256:344,6,22.0000006713867,8|0|0|0|0|0|0,0:0|0:0|0:0|0:0|0:0|0:0|0:0,0:0:0:0:
256,240,17930,6,0,P|240:204|256:168,1,80,2|0,3:2|0:2,3:2:0:0:
328,136,18368,2,0,P|344:100|328:64,1,80,2|0,0:3|0:2,3:2:0:0:
256,28,18806,1,2,0:0:0:0:
183,64,19025,1,0,1:0:0:0:
183,64,19134,1,0,0:0:0:0:
183,64,19244,2,0,P|168:100|184:136,1,80,2|0,0:3|0:2,3:2:0:0:
323,248,19682,6,0,P|255:212|188:248,1,160,4|8,3:2|1:0,0:0:0:0:
256,304,20339,1,0,0:0:0:0:
256,304,20448,1,2,0:0:0:0:
256,304,20557,1,0,3:0:0:0:
323,248,20776,2,0,L|375:168,1,80,0|8,0:0|1:0,0:0:0:0:
327,80,21214,6,0,L|284:148,1,80,2|0,0:0|3:2,0:0:0:0:
236,220,21652,1,2,0:0:0:0:
160,176,21871,1,8,1:0:0:0:
208,104,22090,1,0,0:0:0:0:
208,104,22200,1,2,0:0:0:0:
208,104,22309,2,0,L|136:48,1,80,0|2,3:0|0:0,0:0:0:0:
96,126,22747,2,0,L|168:182,1,80,8|2,1:0|0:0,0:0:0:0:
328,320,23185,6,0,B|280:320|256:292|256:292|232:320|184:320,1,160,2|8,3:2|1:0,0:0:0:0:
256,200,23842,1,2,0:0:0:0:
328,320,24062,2,0,B|348:284|348:284|329:250,1,80,0|0,3:0|0:0,0:0:0:0:
184,320,24499,2,0,B|164:284|164:284|182:250,1,80,8|2,1:0|0:0,0:0:0:0:
328,152,24937,5,0,3:0:0:0:
184,152,25156,1,2,0:0:0:0:
300,68,25375,1,8,1:0:0:0:
256,200,25594,2,0,B|271:224|271:224|270:229|270:229|277:225|277:225|275:230|275:230|293:257,1,80,2|0,0:0|3:0,0:0:0:0:
212,68,26032,2,0,B|196:43|196:43|197:38|197:38|190:42|190:42|192:37|192:37|174:10,1,80,2|8,0:0|1:0,0:0:0:0:
300,68,26470,1,0,1:0:0:0:
364,256,26689,6,0,P|328:272|292:256,1,80,4|2,3:2|0:2,3:2:0:0:
148,256,27127,2,0,P|184:272|220:256,1,80,8|0,1:0|0:2,3:2:0:0:
184,200,27455,1,2,0:0:0:0:
184,200,27565,2,0,L|208:112,1,80,0|0,3:0|0:0,0:0:0:0:
256,52,28003,1,8,1:0:0:0:
306,122,28222,1,2,0:0:0:0:
306,122,28331,1,0,0:0:0:0:
306,122,28441,6,0,L|328:200,1,80,0|2,3:0|0:0,0:0:0:0:
327,198,28879,1,8,1:0:0:0:
437,276,29098,1,0,0:0:0:0:
437,276,29207,1,2,0:0:0:0:
437,276,29317,2,0,L|416:200,1,80,0|2,3:0|0:0,0:0:0:0:
404,112,29755,1,8,1:0:0:0:
327,198,29974,1,2,0:0:0:0:
256,112,30193,6,0,B|200:112|200:112|152:140|152:140|103:140,1,160,2|8,3:2|1:0,0:0:0:0:
32,192,30849,1,2,0:0:0:0:
92,52,31068,2,0,B|136:52|136:52|184:20,1,80,0|0,3:0|0:0,0:0:0:0:
256,200,31506,2,0,B|212:200|212:200|164:232,1,80,8|0,1:0|0:0,0:0:0:0:
400,264,31944,6,0,P|432:192|400:120,1,160,2|8,3:2|1:0,0:0:0:0:
316,96,32601,1,2,0:0:0:0:
288,80,32711,1,0,0:0:0:0:
256,72,32820,1,0,3:0:0:0:
224,80,32930,1,0,0:0:0:0:
196,96,33039,1,0,3:0:0:0:
256,192,33258,1,8,1:0:0:0:
326,289,33477,1,0,1:0:0:0:
326,289,33587,1,0,0:0:0:0:
326,289,33696,6,0,P|254:319|184:288,1,160,4|8,3:2|1:0,0:0:0:0:
88,119,34353,1,0,0:0:0:0:
88,264,34572,2,0,B|88:216|60:192|60:192|88:168|88:120,1,160,2|8,3:2|1:0,0:0:0:0:
152,192,35229,1,2,0:0:0:0:
242,158,35448,6,0,B|261:192|261:192|241:228,1,80,0|2,3:0|0:0,0:0:0:0:
64,228,35886,2,0,B|44:192|44:192|63:158,1,80,8|0,1:0|0:0,0:0:0:0:
152,192,36324,1,0,3:0:0:0:
152,192,36433,1,0,0:0:0:0:
152,192,36543,1,2,0:0:0:0:
212,268,36762,2,0,L|268:356,1,80,8|2,1:0|0:0,0:0:0:0:
436,256,37200,6,0,L|348:108,1,160,2|8,3:2|1:0,0:0:0:0:
354,118,37857,1,0,0:0:0:0:
452,124,38076,2,0,L|508:212,1,80,2|0,3:2|0:0,0:0:0:0:
334,259,38514,2,0,L|292:192,1,80,8|0,1:0|0:0,0:0:0:0:
180,44,38952,5,2,3:2:0:0:
116,180,39171,1,0,0:0:0:0:
116,180,39280,1,2,0:0:0:0:
116,180,39390,1,8,1:0:0:0:
256,100,39609,1,2,0:0:0:0:
96,88,39828,1,2,3:2:0:0:
212,192,40047,1,0,0:0:0:0:
256,24,40266,1,8,1:0:0:0:
300,192,40484,1,0,1:0:0:0:
256,24,40703,6,0,B|200:24|200:24|164:44|164:44|96:44,1,160,4|8,3:2|1:0,0:0:0:0:
44,124,41360,1,2,0:0:0:0:
44,124,41470,1,0,0:0:0:0:
44,124,41579,2,0,B|25:158|25:158|45:194,1,80,2|0,3:2|0:0,0:0:0:0:
104,224,41908,1,2,0:0:0:0:
104,224,42017,2,0,P|140:224|180:256,1,80,8|2,1:0|0:0,0:0:0:0:
328,344,42455,6,0,B|280:344|256:316|256:316|232:344|184:344,1,160,2|8,3:2|1:0,0:0:0:0:
336,248,43112,1,2,0:0:0:0:
336,248,43222,1,0,0:0:0:0:
336,248,43331,2,0,P|368:225|408:224,1,80,2|0,3:2|0:0,0:0:0:0:
467,194,43660,1,0,0:0:0:0:
467,194,43769,2,0,B|487:158|487:158|468:124,1,80,8|0,1:0|0:0,0:0:0:0:
336,28,44207,6,0,B|292:28|256:64|256:64|164:64,1,160,2|8,3:2|1:0,0:0:0:0:
244,140,44864,1,0,0:0:0:0:
244,140,45083,2,0,B|288:140|324:104|324:104|416:104,1,160,2|8,3:2|1:0,0:0:0:0:
467,194,45740,1,0,0:0:0:0:
393,280,45959,6,0,P|409:316|393:352,1,80,2|0,1:2|0:2,3:2:0:0:
220,263,46397,2,0,P|256:248|292:264,1,80,2|0,1:2|0:2,3:2:0:0:
118,351,46835,1,2,1:2:0:0:
118,351,46944,1,0,1:0:0:0:
118,351,47054,1,0,1:0:0:0:
118,351,47163,1,0,1:0:0:0:
118,351,47273,1,2,1:2:0:0:
220,263,47492,1,0,1:0:0:0:
220,263,47601,1,0,1:0:0:0:
220,263,47711,6,0,B|220:208|220:208|200:172|200:172|200:88,1,160,4|8,3:2|1:0,0:0:0:0:
248,24,48368,1,0,0:0:0:0:
248,24,48587,2,0,B|168:0|168:48|88:24,1,160,2|8,3:2|1:0,0:0:0:0:
200,108,49244,1,2,0:0:0:0:
200,108,49353,1,0,0:0:0:0:
200,108,49463,6,0,P|215:144|199:180,1,80,0|2,3:0|0:2,3:2:0:0:
112,140,49901,1,8,1:0:0:0:
220,32,50120,1,2,0:0:0:0:
220,32,50229,1,0,0:0:0:0:
220,32,50339,2,0,P|255:16|291:31,1,80,0|2,3:0|0:2,3:2:0:0:
400,140,50776,1,8,1:0:0:0:
312,108,50995,1,2,0:0:0:0:
484,172,51214,6,0,B|460:249|508:249|484:329,1,160,2|8,3:2|1:0,0:0:0:0:
484,328,51871,1,0,0:0:0:0:
400,284,52090,2,0,P|352:284|324:256,1,80,2|0,3:2|0:0,0:0:0:0:
328,120,52528,2,0,P|376:120|404:148,1,80,8|0,1:0|0:0,0:0:0:0:
256,192,52966,6,0,B|178:168|178:216|98:192,1,160,2|8,3:2|1:0,0:0:0:0:
99,192,53623,1,0,0:0:0:0:
108,96,53842,2,0,P|156:96|184:68,1,80,2|0,3:2|0:0,0:0:0:0:
256,20,54280,1,8,1:0:0:0:
332,76,54499,1,0,1:0:0:0:
332,76,54609,1,0,1:0:0:0:
332,76,54718,6,0,P|364:99|404:96,1,80,4|2,0:0|0:0,0:0:0:0:
492,132,55156,1,8,1:0:0:0:
460,224,55375,1,0,0:0:0:0:
460,224,55484,1,2,0:0:0:0:
460,224,55594,2,0,L|424:308,1,80,0|0,3:0|0:0,0:0:0:0:
340,264,56032,2,0,L|376:180,1,80,8|2,1:0|0:0,0:0:0:0:
328,72,56470,5,0,3:0:0:0:
184,72,56689,1,2,0:0:0:0:
256,8,56908,1,8,1:0:0:0:
256,136,57127,1,0,0:0:0:0:
256,136,57236,1,2,0:0:0:0:
256,136,57346,2,0,P|271:172|255:208,1,80,0|2,3:0|0:2,3:2:0:0:
160,228,57784,2,0,P|144:192|159:156,1,80,8|2,1:0|0:2,3:2:0:0:
256,72,58222,5,4,1:0:0:0:
256,72,58441,1,0,1:0:0:0:
376,192,58660,1,0,1:0:0:0:
376,192,58879,1,0,1:0:0:0:
256,312,59098,5,4,1:0:0:0:
256,312,59317,1,0,1:0:0:0:
136,192,59536,1,0,1:0:0:0:
136,192,59755,1,0,1:0:0:0:
256,72,59974,5,4,1:0:0:0:
280,72,60083,1,0,0:0:0:0:
304,72,60193,1,0,0:0:0:0:
328,72,60302,1,0,0:0:0:0:
352,72,60411,1,0,0:0:0:0:
376,72,60521,1,0,0:0:0:0:
400,72,60630,1,0,0:0:0:0:
424,72,60740,1,0,0:0:0:0:
448,72,60849,2,0,L|480:72,16,20,0|0|0|0|0|0|0|0|0|0|0|0|0|0|0|0|2,0:0|0:0|0:0|0:0|0:0|0:0|0:0|0:0|0:0|0:0|0:0|0:0|0:0|0:0|0:0|0:0|2:2,0:0:0:0:
256,192,61835,12,8,63039,1:0:0:0:
256,192,63477,5,4,1:0:0:0:
300,100,63696,1,0,0:0:0:0:
300,100,63806,1,2,0:0:0:0:
300,100,63915,2,0,P|340:85|379:100,1,88.000002685547,8|2,1:0|0:0,0:0:0:0:
436,192,64353,1,0,3:0:0:0:
380,282,64572,1,2,0:0:0:0:
380,282,64682,1,0,0:0:0:0:
380,282,64791,2,0,P|340:298|300:284,1,88.000002685547,8|2,1:0|0:0,0:0:0:0:
112,116,65229,6,0,B|68:192|68:192|112:268,1,176.000005371094,2|8,3:2|1:0,0:0:0:0:
68,364,65886,1,2,0:0:0:0:
68,364,65995,1,0,0:0:0:0:
68,364,66105,2,0,L|21:289,1,88.000002685547,2|0,3:2|0:0,0:0:0:0:
173,201,66543,2,0,L|220:276,1,88.000002685547,8|2,1:0|0:0,0:0:0:0:
176,68,66981,5,0,3:0:0:0:
336,68,67200,1,0,0:0:0:0:
336,68,67309,1,2,0:0:0:0:
336,68,67419,2,0,L|415:31,1,88.000002685547,8|2,1:0|0:0,0:0:0:0:
336,176,67857,2,0,L|256:212,1,88.000002685547,0|2,3:0|0:0,0:0:0:0:
176,68,68295,1,8,1:0:0:0:
256,212,68514,1,0,0:0:0:0:
336,68,68733,5,2,3:2:0:0:
356,228,68952,1,0,0:0:0:0:
356,228,69061,1,2,0:0:0:0:
356,228,69171,1,8,1:0:0:0:
240,108,69390,1,2,0:0:0:0:
412,140,69609,2,0,P|452:124|492:140,1,88.000002685547,8|0,1:0|0:0,0:0:0:0:
256,212,70047,2,0,P|216:228|176:212,1,88.000002685547,8|2,1:0|1:2,0:0:0:0:
180,56,70484,6,0,B|256:12|256:12|332:56,1,176.000005371094,4|8,1:0|1:0,0:0:0:0:
412,140,71141,1,2,0:0:0:0:
412,140,71251,1,0,0:0:0:0:
412,140,71360,1,0,3:0:0:0:
282,271,71579,1,2,0:0:0:0:
282,271,71689,1,0,0:0:0:0:
282,271,71798,2,0,L|320:192,1,88.000002685547,8|2,1:0|0:0,0:0:0:0:
480,12,72236,6,0,B|449:95|513:95|481:183,1,176.000005371094,0|8,3:0|1:0,3:0:0:0:
311,122,72893,1,2,0:0:0:0:
311,122,73003,1,0,0:0:0:0:
311,122,73112,2,0,P|352:107|392:124,1,88.000002685547,0|2,3:0|0:0,0:0:0:0:
392,260,73550,2,0,P|352:276|311:261,1,88.000002685547,8|2,1:0|0:0,0:0:0:0:
116,268,73988,6,0,B|160:192|160:192|116:116,1,176.000005371094,2|8,3:2|1:0,0:0:0:0:
44,192,74645,1,0,0:0:0:0:
184,80,74864,2,0,L|232:164,1,88.000002685547,0|2,3:0|0:0,0:0:0:0:
184,304,75302,2,0,L|232:220,1,88.000002685547,8|2,1:0|0:0,0:0:0:0:
328,80,75740,5,4,1:0:0:0:
184,80,75959,1,0,1:0:0:0:
352,80,76178,5,4,1:0:0:0:
160,80,76397,1,0,1:0:0:0:
380,80,76616,5,4,1:0:0:0:
184,212,76835,1,0,1:0:0:0:
348,236,77054,1,8,1:0:0:0:
216,56,77273,1,0,1:0:0:0:
216,56,77382,1,0,1:0:0:0:
216,56,77492,6,0,P|172:56|136:88,1,88.000002685547,4|0,1:0|0:0,0:0:0:0:
88,128,77820,1,2,0:0:0:0:
88,128,77930,2,0,P|54:154|11:154,1,88.000002685547,8|2,1:0|0:0,0:0:0:0:
184,212,78368,1,0,3:0:0:0:
256,288,78587,1,2,0:0:0:0:
256,288,78696,1,0,0:0:0:0:
256,288,78806,2,0,P|290:262|333:262,1,88.000002685547,8|2,1:0|0:0,0:0:0:0:
412,192,79244,5,2,3:2:0:0:
333,121,79463,1,0,0:0:0:0:
333,121,79572,1,2,0:0:0:0:
333,121,79682,2,0,P|290:122|256:96,1,88.000002685547,8|2,1:0|0:0,0:0:0:0:
168,32,80120,2,0,B|116:32|80:68|80:68|1:68,1,176.000005371094,2|8,3:2|1:0,0:0:0:0:
177,123,80776,1,2,0:0:0:0:
177,123,80886,1,0,0:0:0:0:
177,123,80995,6,0,B|213:95|213:95|261:95,1,88.000002685547,2|0,3:2|0:0,0:0:0:0:
348,44,81433,1,8,1:0:0:0:
460,152,81652,1,2,0:0:0:0:
460,152,81762,1,0,0:0:0:0:
460,152,81871,2,0,B|479:190|479:190|459:230,1,88.000002685547,0|2,3:0|0:0,0:0:0:0:
348,340,82309,1,8,1:0:0:0:
458,230,82528,1,2,0:0:0:0:
348,340,82747,6,0,P|276:296|204:340,1,176.000005371094,2|8,3:2|1:0,0:0:0:0:
204,338,83404,1,2,0:0:0:0:
124,268,83624,2,0,P|83:282|43:266,1,88.000002685547,8|0,1:0|1:0,0:0:0:0:
43,117,84061,1,8,1:0:0:0:
72,100,84171,1,0,1:0:0:0:
100,84,84280,1,0,1:0:0:0:
128,68,84390,1,0,1:0:0:0:
156,52,84499,6,0,B|244:84|244:20|327:51,1,176.000005371094,4|8,1:0|1:0,3:0:0:0:
356,152,85156,1,2,0:0:0:0:
356,152,85266,1,0,0:0:0:0:
356,152,85375,2,0,B|375:190|375:190|355:230,1,88.000002685547,0|2,3:0|0:0,0:0:0:0:
156,152,85813,2,0,B|137:190|137:190|157:230,1,88.000002685547,8|0,1:0|0:0,0:0:0:0:
327,49,86251,6,0,P|256:5|184:48,1,176.000005371094,2|8,3:2|1:0,0:0:0:0:
256,212,86908,1,2,0:0:0:0:
256,212,87017,1,0,0:0:0:0:
256,212,87127,2,0,L|256:124,1,88.000002685547,0|2,3:0|0:0,0:0:0:0:
354,230,87565,2,0,L|354:318,1,88.000002685547,8|2,1:0|0:0,0:0:0:0:
158,318,88003,6,0,B|114:242|114:242|158:166,1,176.000005371094,2|8,3:2|1:0,0:0:0:0:
256,128,88660,1,2,0:0:0:0:
353,165,88879,1,0,3:0:0:0:
353,165,88988,1,0,0:0:0:0:
353,165,89098,1,0,0:0:0:0:
320,264,89317,1,8,1:0:0:0:
220,228,89536,1,2,0:0:0:0:
384,72,89755,5,4,1:0:0:0:
384,72,89974,1,0,1:0:0:0:
256,128,90193,1,0,1:0:0:0:
256,128,90412,1,0,1:0:0:0:
128,72,90630,5,0,1:0:0:0:
104,92,90740,1,0,1:0:0:0:
80,112,90849,1,0,1:0:0:0:
56,132,90959,1,0,1:0:0:0:
32,152,91068,2,0,L|4:180,6,22.0000006713867,8|0|0|0|0|0|0,1:0|1:0|1:0|1:0|1:0|1:0|1:0,1:0:0:0:
56,224,91506,6,0,P|41:264|56:303,1,88.000002685547,4|0,0:0|0:0,0:0:0:0:
148,336,91944,1,8,1:0:0:0:
216,268,92163,1,2,0:0:0:0:
216,268,92273,1,0,0:0:0:0:
216,268,92382,2,0,P|255:251|296:266,1,88.000002685547,0|0,3:0|0:0,0:0:0:0:
443,338,92820,2,0,P|403:353|364:336,1,88.000002685547,8|2,1:0|0:0,0:0:0:0:
295,265,93258,5,2,3:2:0:0:
256,176,93477,1,0,0:0:0:0:
256,176,93587,1,2,0:0:0:0:
256,176,93696,2,0,B|236:136|236:136|255:98,1,88.000002685547,8|2,1:0|0:0,0:0:0:0:
352,100,94134,2,0,B|371:138|371:138|351:178,1,88.000002685547,0|2,3:0|0:0,0:0:0:0:
295,265,94572,1,8,1:0:0:0:
363,335,94791,1,2,0:0:0:0:
350,178,95010,6,0,B|267:147|267:211|179:179,1,176.000005371094,2|8,3:2|1:0,3:0:0:0:
116,108,95667,1,2,0:0:0:0:
71,288,95886,2,0,L|96:204,1,88.000002685547,0|0,3:0|0:0,0:0:0:0:
178,178,96214,1,2,0:0:0:0:
178,178,96324,2,0,L|150:274,1,88.000002685547,8|2,1:0|0:0,0:0:0:0:
256,348,96762,5,2,3:2:0:0:
358,262,96981,1,0,0:0:0:0:
358,262,97090,1,2,0:0:0:0:
358,262,97200,2,0,L|334:178,1,88.000002685547,8|2,1:0|0:0,0:0:0:0:
308,84,97638,1,2,3:2:0:0:
476,148,97857,1,0,0:0:0:0:
476,148,97966,1,2,0:0:0:0:
476,148,98076,2,0,L|500:232,1,88.000002685547,8|8,1:0|1:0,0:0:0:0:
392,320,98514,6,0,B|358:339|358:339|322:319,1,80,4|0,1:0|0:0,0:0:0:0:
120,320,98952,2,0,B|154:339|154:339|190:319,1,80,0|2,1:0|0:0,0:0:0:0:
256,260,99390,2,0,B|280:180|232:180|256:100,1,160,0|0,1:0|1:0,0:0:0:0:
332,56,100047,1,2,0:0:0:0:
332,56,100156,1,0,0:0:0:0:
332,56,100266,6,0,P|368:40|404:56,1,80,0|0,1:0|0:2,3:2:0:0:
404,144,100703,2,0,P|368:159|332:143,1,80,0|2,1:0|0:2,3:2:0:0:
256,96,101141,1,0,1:0:0:0:
108,144,101360,2,0,P|143:159|179:143,1,80,2|0,0:0|1:2,3:2:0:0:
256,96,101798,1,2,0:0:0:0:
256,288,102017,5,0,1:0:0:0:
256,288,102236,1,0,1:0:0:0:
352,192,102455,1,0,1:0:0:0:
352,192,102674,1,0,1:0:0:0:
256,96,102893,5,0,1:0:0:0:
256,96,103112,1,0,1:0:0:0:
160,192,103331,1,0,1:0:0:0:
160,192,103550,1,0,1:0:0:0:
256,288,103769,5,0,0:0:0:0:
284,288,103879,1,0,0:0:0:0:
312,288,103988,1,0,0:0:0:0:
340,288,104098,1,0,0:0:0:0:
368,288,104207,1,2,0:3:0:0:
396,288,104317,1,0,0:0:0:0:
424,288,104426,1,0,0:0:0:0:
452,288,104536,1,0,0:0:0:0:
480,288,104645,2,0,L|500:264,14,20,0|0|0|0|0|0|0|0|2|0|0|0|0|0|0,0:0|0:0|0:0|0:0|0:0|0:0|0:0|0:0|0:3|0:0|0:0|0:0|0:0|0:0|0:0,0:0:0:0:
436,192,105521,5,4,1:0:0:0:
384,284,105740,1,0,0:0:0:0:
384,284,105850,1,2,0:0:0:0:
384,284,105959,2,0,P|344:300|304:284,1,88.000002685547,8|2,1:0|0:0,0:0:0:0:
256,188,106397,1,0,3:0:0:0:
128,284,106616,1,2,0:0:0:0:
128,284,106726,1,0,0:0:0:0:
128,284,106835,2,0,P|168:300|208:284,1,88.000002685547,8|2,1:0|0:0,0:0:0:0:
256,188,107273,5,0,3:0:0:0:
364,148,107492,1,0,0:0:0:0:
364,148,107601,1,2,0:0:0:0:
364,148,107711,2,0,B|378:110|378:110|362:66,1,88.000002685547,8|2,1:0|0:0,0:0:0:0:
256,44,108149,1,0,3:0:0:0:
148,148,108368,1,2,0:0:0:0:
148,148,108477,1,0,0:0:0:0:
148,148,108587,2,0,B|134:110|134:110|150:66,1,88.000002685547,8|2,1:0|0:0,0:0:0:0:
256,44,109025,5,0,3:0:0:0:
361,66,109244,1,2,0:0:0:0:
361,66,109353,1,0,0:0:0:0:
361,66,109463,2,0,L|461:134,1,88.000002685547,8|2,1:0|0:0,0:0:0:0:
508,192,109901,1,0,3:0:0:0:
361,318,110120,1,2,0:0:0:0:
361,318,110229,1,0,0:0:0:0:
361,318,110339,2,0,L|461:250,1,88.000002685547,8|2,1:0|0:0,0:0:0:0:
296,120,110777,6,0,P|256:104|216:120,1,88.000002685547,4|0,1:2|0:0,0:0:0:0:
216,265,111215,2,0,P|256:280|295:265,1,88.000002685547,4|0,1:2|1:0,0:0:0:0:
116,153,111653,2,0,P|100:193|116:232,1,88.000002685547,4|0,1:2|0:0,0:0:0:0:
216,265,112090,1,4,1:2:0:0:
396,232,112309,1,0,1:0:0:0:
396,232,112419,1,0,1:0:0:0:
396,232,112528,6,0,P|411:193|395:153,1,88.000002685547,4|0,1:2|0:0,0:0:0:0:
336,124,112857,1,2,0:0:0:0:
336,124,112966,2,0,L|364:41,1,88.000002685547,12|2,1:0|0:0,0:0:0:0:
256,192,113404,1,0,3:0:0:0:
176,124,113623,1,2,0:0:0:0:
176,124,113733,1,0,0:0:0:0:
176,124,113842,2,0,L|147:41,1,88.000002685547,8|2,1:0|0:0,0:0:0:0:
256,192,114280,5,0,3:0:0:0:
352,240,114499,1,0,0:0:0:0:
352,240,114609,1,2,0:0:0:0:
352,241,114718,2,0,P|367:281|352:321,1,88.000002685547,8|2,1:0|0:0,0:0:0:0:
256,364,115156,1,0,3:0:0:0:
160,240,115375,1,2,0:0:0:0:
160,240,115485,1,0,0:0:0:0:
160,241,115594,2,0,P|144:281|159:321,1,88.000002685547,8|2,1:0|0:0,0:0:0:0:
256,364,116032,5,0,3:0:0:0:
352,321,116251,1,0,0:0:0:0:
352,321,116361,1,2,0:0:0:0:
352,321,116470,2,0,B|400:321|400:321|440:285,1,88.000002685547,8|2,1:0|0:0,0:0:0:0:
452,192,116908,1,0,3:0:0:0:
352,63,117127,1,2,0:0:0:0:
352,63,117237,1,0,0:0:0:0:
352,63,117346,2,0,B|400:63|400:63|429:90,1,88.000002685547,8|2,1:0|0:0,0:0:0:0:
452,192,117784,6,0,B|414:206|414:206|370:190,1,88.000002685547,4|0,1:2|0:0,0:0:0:0:
256,76,118222,1,4,1:2:0:0:
256,76,118441,1,0,1:0:0:0:
60,192,118660,2,0,B|98:206|98:206|142:190,1,88.000002685547,4|0,1:2|0:0,0:0:0:0:
256,76,119098,2,0,L|256:40,6,22.0000006713867,8|0|0|0|0|0|0,0:0|0:0|0:0|0:0|0:0|0:0|0:0,0:0:0:0:
256,144,119536,6,0,P|240:180|256:216,1,80,2|0,3:2|0:2,3:2:0:0:
328,248,119974,2,0,P|344:284|328:320,1,80,2|0,0:3|0:2,3:2:0:0:
256,356,120412,1,2,0:0:0:0:
183,320,120630,1,0,1:0:0:0:
183,320,120740,1,0,0:0:0:0:
183,320,120849,2,0,L|156:200,1,120,2|0,0:3|0:0,3:2:0:0:
144,140,121287,5,4,1:0:0:0:
256,192,121397,12,2,128185,0:0:0:0:
