osu file format v14

[General]
AudioFilename: audio.mp3
AudioLeadIn: 0
PreviewTime: 63039
Countdown: 0
SampleSet: Soft
StackLeniency: 0.4
Mode: 0
LetterboxInBreaks: 0
WidescreenStoryboard: 0

[Editor]
DistanceSpacing: 1.1
BeatDivisor: 4
GridSize: 4
TimelineZoom: 1

[Metadata]
Title:Complex Image (Short Ver.)
TitleUnicode:コンプレックス・イマージュ (Short Ver.)
Artist:Ayane
ArtistUnicode:彩音
Creator:Nyukai
Version:Hard
Source:ひぐらしのなく頃に祭
Tags:澪尽し編 miotsukushi-hen hou 07th expansion higurashi no naku koro ni matsuri when the they cicadas cry festival gift nageki no mori 嘆きノ森 video game videogame japanese visual novel jpop j-pop pop ps2 playstation 2
BeatmapID:2685719
BeatmapSetID:1294273

[Difficulty]
HPDrainRate:5
CircleSize:4.5
OverallDifficulty:6
ApproachRate:7.5
SliderMultiplier:1.4
SliderTickRate:1

[Events]
//Background and Video events
0,0,"bg.png",0,0
//Break Periods
//Storyboard Layer 0 (Background)
//Storyboard Layer 1 (Fail)
//Storyboard Layer 2 (Pass)
//Storyboard Layer 3 (Foreground)
//Storyboard Layer 4 (Overlay)
//Storyboard Sound Samples

[TimingPoints]
412,437.956204379562,4,2,1,50,1,0
3915,-90.9090909090909,4,2,1,70,0,0
17492,-90.9090909090909,4,1,1,70,0,0
17930,-100,4,2,1,40,0,0
19682,-100,4,2,1,50,0,0
33258,-100,4,2,1,60,0,0
60083,-100,4,1,1,60,0,0
63477,-90.9090909090909,4,2,1,80,0,1
77382,-90.9090909090909,4,2,1,80,0,0
77492,-90.9090909090909,4,2,1,80,0,1
91506,-90.9090909090909,4,2,1,70,0,0
98514,-100,4,2,1,70,0,0
103769,-100,4,1,1,60,0,0
105521,-90.9090909090909,4,2,1,70,0,0
119098,-90.9090909090909,4,1,1,70,0,0
119536,-100,4,2,1,50,0,0
121397,-100,4,2,1,30,0,0

[Colours]
Combo1 : 228,158,116
Combo2 : 153,63,23
SliderTrackOverride : 216,159,133
SliderBorder : 197,87,35

[HitObjects]
320,116,412,6,0,P|256:92|192:116,1,140,4|2,1:2|0:3,0:0:0:0:
132,168,1068,1,0,0:0:0:0:
132,168,1287,2,0,L|88:100,1,70,2|0,0:0|0:0,0:0:0:0:
32,152,1725,2,0,L|70:210,1,70,2|0,0:3|1:0,0:0:0:0:
132,256,2163,2,0,B|196:284|196:284|260:256,1,140,4|2,1:2|1:2,0:0:0:0:
304,192,2820,1,0,0:0:0:0:
304,192,2930,1,0,0:0:0:0:
304,192,3039,2,0,L|332:152,3,35,0|0|0|0,1:0|1:0|1:0|1:0,0:0:0:0:
344,132,3477,1,8,1:0:0:0:
256,16,3915,6,0,P|204:16|144:64,1,115.50000352478,4|2,1:0|0:0,0:0:0:0:
120,84,4353,2,0,P|108:119|120:155,1,77.0000023498536,8|2,1:0|0:0,0:0:0:0:
200,204,4791,1,0,3:0:0:0:
280,248,5010,2,0,P|315:259|351:247,1,77.0000023498536,2|8,0:0|1:0,0:0:0:0:
424,192,5448,1,2,0:0:0:0:
352,136,5667,6,0,L|280:39,1,115.50000352478,0|2,3:0|0:0,0:0:0:0:
240,32,6105,2,0,P|200:32|164:64,1,77.0000023498536,8|2,1:0|0:0,0:0:0:0:
112,124,6543,2,0,P|80:145|42:144,1,77.0000023498536,0|2,3:0|0:0,0:0:0:0:
44,236,6981,1,8,1:0:0:0:
124,284,7200,1,2,0:0:0:0:
204,328,7419,6,0,P|264:328|312:280,1,115.50000352478,0|2,3:0|0:0,0:0:0:0:
304,294,7857,2,0,L|384:320,1,77.0000023498536,8|2,1:0|0:0,0:0:0:0:
404,228,8295,2,0,L|324:202,1,77.0000023498536,0|2,3:0|0:0,0:0:0:0:
256,148,8733,1,8,1:0:0:0:
256,148,8952,1,2,0:0:0:0:
181,203,9171,6,0,P|157:131|181:60,1,154.000004699707,4|4,1:2|1:2,0:0:0:0:
256,8,9828,1,0,1:0:0:0:
331,60,10047,2,0,P|354:131|330:203,1,154.000004699707,4|8,1:2|1:0,0:0:0:0:
256,260,10703,1,2,0:0:0:0:
256,260,10813,1,0,0:0:0:0:
256,260,10922,6,0,B|216:260|216:260|184:276|184:276|136:276,1,115.50000352478,4|2,1:2|0:0,0:0:0:0:
100,280,11360,2,0,P|56:280|28:256,1,77.0000023498536,8|2,1:0|0:0,0:0:0:0:
96,192,11798,1,0,3:0:0:0:
31,123,12017,2,0,P|62:101|100:104,1,77.0000023498536,2|8,0:0|1:0,0:0:0:0:
188,76,12455,1,2,0:0:0:0:
276,48,12674,6,0,P|352:48|380:92,1,115.50000352478,0|2,3:0|0:0,0:0:0:0:
374,74,13112,2,0,L|356:160,1,77.0000023498536,8|2,1:0|0:0,0:0:0:0:
452,156,13550,2,0,L|433:241,1,77.0000023498536,0|2,3:0|0:0,0:0:0:0:
420,324,13988,1,8,1:0:0:0:
328,308,14207,1,2,0:0:0:0:
344,216,14426,6,0,B|344:164|344:164|344:132|320:96,1,115.50000352478,0|2,3:0|0:0,0:0:0:0:
291,71,14864,2,0,P|256:83|220:71,1,77.0000023498536,8|2,1:0|0:0,0:0:0:0:
96,148,15302,2,0,P|132:135|168:148,1,77.0000023498536,0|2,3:0|0:0,0:0:0:0:
167,236,15740,2,0,P|132:248|96:235,1,77.0000023498536,8|2,1:0|0:0,0:0:0:0:
16,192,16178,5,4,1:2:0:0:
148,64,16616,1,8,1:0:0:0:
236,36,16835,1,0,1:0:0:0:
236,36,16944,1,0,0:0:0:0:
236,36,17054,2,0,B|288:36|288:36|328:56|328:56|400:56,1,154.000004699707,4|8,1:2|0:0,0:0:0:0:
460,112,17711,1,0,0:0:0:0:
384,176,17930,6,0,P|396:208|384:240,1,70,2|0,3:2|0:2,3:2:0:0:
324,300,18368,1,2,0:3:0:0:
324,300,18587,1,0,0:2:0:0:
256,252,18806,1,2,0:0:0:0:
256,252,19025,1,0,1:0:0:0:
188,300,19244,2,0,P|155:312|123:300,1,70,2|0,0:3|0:2,3:2:0:0:
40,256,19682,6,0,B|40:216|16:192|16:192|40:168|40:128,1,140,4|8,3:2|1:0,0:0:0:0:
112,84,20339,1,0,0:0:0:0:
112,84,20448,1,2,0:0:0:0:
112,84,20557,2,0,B|152:84|176:60|176:60|200:84|240:84,1,140,0|8,3:0|1:0,0:0:0:0:
322,99,21214,1,2,0:0:0:0:
322,99,21433,6,0,B|362:99|362:99|402:123,1,70,0|2,3:2|0:0,0:0:0:0:
420,192,21871,1,8,1:0:0:0:
387,269,22090,1,0,0:0:0:0:
387,269,22200,1,2,0:0:0:0:
387,269,22309,2,0,B|362:285|362:285|322:285,1,70,0|2,3:0|0:0,0:0:0:0:
256,232,22747,1,8,1:0:0:0:
190,285,22966,1,2,0:0:0:0:
190,285,23185,6,0,P|122:285|76:232,1,140,2|8,3:2|1:0,0:0:0:0:
76,149,23842,1,2,0:0:0:0:
76,149,24061,2,0,P|122:98|190:99,1,140,0|8,3:0|1:0,0:0:0:0:
256,152,24718,1,2,0:0:0:0:
322,98,24937,6,0,L|392:40,1,70,0|2,3:0|0:0,0:0:0:0:
375,53,25375,1,8,1:0:0:0:
436,112,25594,2,0,L|382:156,1,70,2|0,0:0|3:0,0:0:0:0:
320,212,26032,1,2,0:0:0:0:
252,260,26251,2,0,P|219:272|187:259,1,70,8|0,1:0|1:0,0:0:0:0:
136,192,26689,5,4,3:2:0:0:
136,192,26908,1,2,0:2:0:0:
187,124,27127,2,0,P|219:111|252:124,1,70,8|0,1:0|0:2,3:2:0:0:
292,140,27455,1,2,0:0:0:0:
292,140,27565,2,0,P|356:164|420:140,1,140,0|8,3:0|1:0,0:0:0:0:
356,84,28222,1,2,0:0:0:0:
356,84,28441,6,0,L|300:16,1,70,0|2,3:0|0:0,0:0:0:0:
420,139,28879,1,8,1:0:0:0:
488,192,29098,1,0,0:0:0:0:
488,192,29207,1,2,0:0:0:0:
488,192,29317,2,0,B|503:222|503:222|487:254,1,70,0|2,3:0|0:0,0:0:0:0:
420,308,29755,1,8,1:0:0:0:
352,356,29974,1,2,0:0:0:0:
324,276,30193,6,0,B|256:260|256:260|188:276,1,140,2|8,3:2|1:0,0:0:0:0:
116,232,30849,1,2,0:0:0:0:
116,232,31068,2,0,P|84:245|51:232,1,70,0|0,3:0|0:0,0:0:0:0:
52,150,31506,2,0,P|84:139|116:152,1,70,8|0,1:0|0:0,0:0:0:0:
188,108,31944,6,0,B|256:124|256:124|324:108,1,140,2|8,3:2|1:0,0:0:0:0:
404,76,32601,1,2,0:0:0:0:
404,76,32711,1,0,0:0:0:0:
404,76,32820,2,0,L|440:60,2,35,0|0|0,3:0|0:0|3:0,0:0:0:0:
324,107,33258,2,0,P|313:139|326:171,1,70,8|0,1:0|1:0,0:0:0:0:
364,192,33587,1,0,0:0:0:0:
364,192,33696,6,0,L|212:216,1,140,4|8,3:2|1:0,0:0:0:0:
256,292,34353,1,0,0:0:0:0:
256,292,34572,2,0,L|408:268,1,140,2|8,3:2|1:0,0:0:0:0:
476,256,35229,6,0,P|500:191|476:127,1,140,2|2,0:0|0:0,0:0:0:0:
394,113,35886,2,0,P|354:113|326:81,1,70,8|0,1:0|0:0,0:0:0:0:
256,56,36324,1,0,3:0:0:0:
179,94,36543,2,0,P|152:115|118:113,1,70,2|8,0:0|1:0,0:0:0:0:
84,192,36981,1,2,0:0:0:0:
84,192,37200,6,0,L|160:328,1,140,2|8,3:2|1:0,0:0:0:0:
324,306,38076,2,0,L|256:184,1,140,2|8,3:2|1:0,0:0:0:0:
196,124,38733,1,0,0:0:0:0:
256,64,38952,6,0,P|312:64|352:32,1,105,2|2,3:2|0:0,0:0:0:0:
349,35,39390,2,0,L|420:84,1,70,8|2,1:0|0:0,0:0:0:0:
421,187,39828,2,0,L|364:148,1,70,2|0,3:2|0:0,0:0:0:0:
296,196,40266,1,8,1:0:0:0:
220,236,40484,1,0,1:0:0:0:
144,276,40703,6,0,B|104:276|80:300|80:300|56:276|16:276,2,140,4|8|2,3:2|1:0|3:2,0:0:0:0:
220,236,41798,1,0,0:0:0:0:
220,236,41908,1,2,0:0:0:0:
220,236,42017,2,0,P|256:236|288:256,1,70,8|2,1:0|0:0,0:0:0:0:
340,192,42455,6,0,P|364:127|340:63,1,140,2|8,3:2|1:0,0:0:0:0:
256,44,43112,1,2,0:0:0:0:
171,63,43331,2,0,P|147:127|172:192,1,140,2|8,3:2|1:0,0:0:0:0:
192,272,43988,1,0,0:0:0:0:
192,272,44207,6,0,B|232:272|256:248|256:248|280:272|320:272,1,140,2|8,3:2|1:0,0:0:0:0:
320,188,44864,1,0,0:0:0:0:
320,188,45083,2,0,L|336:104,1,70,2|0,3:2|0:0,0:0:0:0:
256,14,45521,2,0,L|256:84,1,70,8|0,1:0|0:0,0:0:0:0:
178,119,45959,5,2,1:2:0:0:
256,268,46397,1,2,1:2:0:0:
333,119,46835,2,0,L|350:75,4,35,2|0|0|0|2,1:2|1:0|1:0|1:0|1:2,0:0:0:0:
256,156,47492,1,0,1:0:0:0:
256,156,47601,1,0,1:0:0:0:
256,156,47711,6,0,P|191:180|127:155,1,140,4|8,3:2|1:0,0:0:0:0:
84,84,48368,1,0,0:0:0:0:
84,84,48587,2,0,L|84:232,1,140,2|8,3:2|1:0,0:0:0:0:
120,300,49244,6,0,B|188:316|188:316|256:300,1,140,2|2,0:0|0:2,0:0:0:0:
332,264,49901,2,0,P|364:275|396:263,1,70,8|2,1:0|0:0,0:0:0:0:
440,192,50339,1,0,3:0:0:0:
396,120,50557,2,0,P|364:108|332:120,1,70,2|8,0:2|1:0,0:0:0:0:
256,84,50995,1,2,0:0:0:0:
256,84,51214,6,0,B|188:68|188:68|120:84,1,140,2|8,3:2|1:0,0:0:0:0:
56,240,52090,2,0,B|124:256|124:256|192:240,1,140,2|8,3:2|1:0,0:0:0:0:
256,184,52747,1,0,0:0:0:0:
320,240,52966,2,0,B|388:256|388:256|456:240,1,140,2|8,3:2|1:0,0:0:0:0:
472,156,53623,1,0,0:0:0:0:
472,156,53842,2,0,L|484:64,1,70,2|0,3:2|0:0,0:0:0:0:
396,76,54280,2,0,L|386:145,1,70,8|0,1:0|1:0,0:0:0:0:
320,240,54718,5,4,0:0:0:0:
256,296,54937,1,2,0:0:0:0:
192,240,55156,1,8,1:0:0:0:
256,188,55375,1,0,0:0:0:0:
256,188,55484,1,2,0:0:0:0:
256,188,55594,2,0,B|280:116|232:116|256:44,1,140,0|8,3:0|1:0,0:0:0:0:
336,44,56251,1,2,0:0:0:0:
336,44,56470,6,0,P|368:31|400:43,1,70,0|2,3:0|0:0,0:0:0:0:
432,124,56908,2,0,P|399:136|367:123,1,70,8|0,1:0|0:0,0:0:0:0:
328,132,57236,1,2,0:0:0:0:
328,132,57346,2,0,L|328:216,1,70,0|2,3:0|0:2,3:2:0:0:
256,318,57784,2,0,L|256:248,1,70,8|2,1:0|0:2,3:2:0:0:
184,132,58222,5,4,1:0:0:0:
184,132,58441,1,0,1:0:0:0:
124,192,58660,2,0,B|94:177|94:177|62:193,1,70,0|0,1:0|1:0,0:0:0:0:
92,272,59098,1,4,1:0:0:0:
92,272,59317,1,0,1:0:0:0:
136,344,59536,2,0,B|166:359|166:359|198:343,1,70,0|0,1:0|1:0,0:0:0:0:
256,284,59974,6,0,L|296:284,3,35,4|0|0|0,1:0|0:0|0:0|0:0,0:0:0:0:
312,248,60411,2,0,L|352:248,3,35
368,212,60849,2,0,L|396:212,16,17.5,0|0|0|0|0|0|0|0|0|0|0|0|0|0|0|0|2,0:0|0:0|0:0|0:0|0:0|0:0|0:0|0:0|0:0|0:0|0:0|0:0|0:0|0:0|0:0|0:0|2:2,0:0:0:0:
256,192,61835,12,8,63039,1:0:0:0:
308,140,63477,6,0,P|256:116|204:140,1,115.50000352478,4|2,1:0|0:0,0:0:0:0:
205,138,63915,2,0,L|144:80,1,77.0000023498536,8|2,1:0|0:0,0:0:0:0:
96,160,64353,2,0,L|152:212,1,77.0000023498536,0|2,3:0|0:0,0:0:0:0:
232,260,64791,1,8,1:0:0:0:
308,312,65010,1,2,0:0:0:0:
384,260,65229,6,0,B|384:208|384:208|400:168|400:168|400:104,1,154.000004699707,2|8,3:2|1:0,0:0:0:0:
316,68,65886,1,2,0:0:0:0:
316,68,66105,2,0,L|316:145,1,77.0000023498536,2|0,3:2|0:0,0:0:0:0:
256,293,66543,2,0,L|256:216,1,77.0000023498536,8|2,1:0|0:0,0:0:0:0:
196,68,66981,6,0,P|144:68|88:116,1,115.50000352478,0|2,3:0|0:0,0:0:0:0:
94,104,67419,2,0,L|32:184,1,77.0000023498536,8|2,1:0|0:0,0:0:0:0:
88,252,67857,2,0,L|136:192,1,77.0000023498536,0|2,3:0|0:0,0:0:0:0:
220,232,68295,1,8,1:0:0:0:
304,268,68514,1,0,0:0:0:0:
392,296,68733,6,0,P|444:296|492:240,1,115.50000352478,2|2,3:2|0:0,0:0:0:0:
487,253,69171,2,0,L|456:164,1,77.0000023498536,8|2,1:0|0:0,0:0:0:0:
432,92,69609,1,8,1:0:0:0:
432,92,69828,1,0,0:0:0:0:
344,120,70047,1,8,1:0:0:0:
376,204,70266,1,2,1:2:0:0:
376,204,70484,6,0,B|352:252|352:252|352:292|352:292|312:352,1,154.000004699707,4|8,1:0|1:0,0:0:0:0:
256,272,71141,1,2,0:0:0:0:
193,342,71360,2,0,B|160:292|160:292|160:252|160:252|136:204,1,154.000004699707,0|8,3:0|1:0,0:0:0:0:
188,128,72017,1,2,0:0:0:0:
188,128,72236,6,0,P|255:96|323:128,1,154.000004699707,0|8,3:0|1:0,3:0:0:0:
392,192,72893,1,2,0:0:0:0:
452,264,73112,2,0,P|465:299|449:333,1,77.0000023498536,0|2,3:0|0:0,0:0:0:0:
364,368,73550,2,0,P|348:334|361:298,1,77.0000023498536,8|2,1:0|0:0,0:0:0:0:
392,192,73988,6,0,B|364:144|364:144|312:124|312:124|284:84,1,154.000004699707,2|8,3:2|1:0,0:0:0:0:
220,28,74645,1,0,0:0:0:0:
287,89,74864,2,0,L|371:37,1,77.0000023498536,0|2,3:0|0:0,0:0:0:0:
220,28,75302,2,0,L|136:80,1,77.0000023498536,8|2,1:0|0:0,0:0:0:0:
76,116,75740,5,4,1:0:0:0:
20,192,75959,1,0,1:0:0:0:
76,268,76178,1,4,1:0:0:0:
132,192,76397,1,0,1:0:0:0:
76,116,76616,2,0,P|63:80|79:46,1,77.0000023498536,4|0,1:0|1:0,0:0:0:0:
172,32,77054,2,0,P|207:19|241:35,1,77.0000023498536,8|0,1:0|1:0,0:0:0:0:
256,80,77382,1,0,1:0:0:0:
256,80,77492,6,0,B|292:100|292:100|376:100,1,115.50000352478,4|2,1:0|0:0,0:0:0:0:
366,100,77930,2,0,L|344:192,1,77.0000023498536,8|2,1:0|0:0,0:0:0:0:
256,192,78368,2,0,L|233:284,1,77.0000023498536,0|2,3:0|0:0,0:0:0:0:
144,264,78806,1,8,1:0:0:0:
84,192,79025,1,2,0:0:0:0:
148,124,79244,6,0,P|208:124|248:68,1,115.50000352478,2|2,3:2|0:0,0:0:0:0:
256,40,79682,1,8,1:0:0:0:
340,80,79901,1,2,0:0:0:0:
420,124,80120,2,0,P|452:191|420:259,1,154.000004699707,2|8,3:2|1:0,0:0:0:0:
340,304,80776,1,2,0:0:0:0:
256,344,80995,6,0,B|216:344|216:344|180:320|180:320|128:320,1,115.50000352478,2|0,3:2|0:0,0:0:0:0:
108,300,81433,2,0,B|68:300|68:300|36:280,1,77.0000023498536,8|2,1:0|0:0,0:0:0:0:
60,192,81871,1,0,3:0:0:0:
36,104,82090,2,0,B|68:84|68:84|108:84,1,77.0000023498536,2|8,0:0|1:0,0:0:0:0:
200,64,82528,1,2,0:0:0:0:
288,40,82747,6,0,P|344:40|408:80,1,115.50000352478,2|0,3:2|0:0,0:0:0:0:
395,67,83185,2,0,L|396:152,1,77.0000023498536,8|2,1:0|0:0,0:0:0:0:
396,236,83623,1,8,1:0:0:0:
332,304,83842,1,0,1:0:0:0:
240,304,84061,2,0,P|204:304|164:272,1,77.0000023498536,8|0,1:0|1:0,0:0:0:0:
136,252,84390,1,0,1:0:0:0:
136,252,84499,6,0,L|196:96,1,154.000004699707,4|8,1:0|1:0,3:0:0:0:
295,160,85156,2,0,L|239:303,1,154.000004699707,2|2,0:0|0:0,0:0:0:0:
320,348,85813,2,0,L|356:268,1,77.0000023498536,8|0,1:0|0:0,0:0:0:0:
388,192,86251,6,0,B|416:120|416:120|388:48,1,154.000004699707,2|8,3:2|1:0,0:0:0:0:
251,120,86908,1,2,0:0:0:0:
251,120,87127,2,0,L|328:120,1,77.0000023498536,0|2,3:0|0:0,0:0:0:0:
465,192,87565,2,0,L|388:192,1,77.0000023498536,8|2,1:0|0:0,0:0:0:0:
324,260,88003,6,0,B|288:260|256:228|256:228|224:260|188:260,1,154.000004699707,2|8,3:2|1:0,0:0:0:0:
104,296,88660,1,2,0:0:0:0:
104,296,88879,2,0,B|80:220|128:220|104:144,1,154.000004699707,0|8,3:0|1:0,0:0:0:0:
140,60,89536,1,2,0:0:0:0:
220,16,89755,6,0,B|254:0|254:0|290:16,1,77.0000023498536,4|0,1:0|1:0,0:0:0:0:
372,60,90193,1,0,1:0:0:0:
372,60,90412,1,0,1:0:0:0:
407,145,90630,2,0,L|388:200,3,38.5000011749268,0|0|0|0,1:0|1:0|1:0|1:0,0:0:0:0:
436,204,91068,2,0,L|441:185,6,19.2500005874634,8|0|0|0|0|0|0,1:0|1:0|1:0|1:0|1:0|1:0|1:0,1:0:0:0:
420,248,91506,6,0,P|392:280|312:280,1,115.50000352478,4|0,0:0|0:0,0:0:0:0:
280,264,91944,1,8,1:0:0:0:
200,216,92163,1,2,0:0:0:0:
124,160,92382,2,0,B|144:112|200:112|200:112|276:112,1,154.000004699707,0|8,3:0|1:0,0:0:0:0:
348,124,93039,1,2,0:0:0:0:
440,140,93258,6,0,P|462:191|438:242,1,115.50000352478,2|2,3:2|0:0,0:0:0:0:
412,280,93696,1,8,1:0:0:0:
336,332,93915,2,0,P|296:332|260:300,1,77.0000023498536,2|0,0:0|3:0,0:0:0:0:
188,264,94353,1,2,0:0:0:0:
188,264,94572,2,0,P|152:264|104:304,1,77.0000023498536,8|2,1:0|0:0,0:0:0:0:
36,328,95010,6,0,B|12:252|60:252|36:176,1,154.000004699707,2|8,3:2|1:0,3:0:0:0:
88,100,95667,1,2,0:0:0:0:
88,100,95886,2,0,P|148:100|196:48,1,115.50000352478,0|2,3:0|0:0,0:0:0:0:
212,28,96324,1,8,1:0:0:0:
256,108,96543,1,2,0:0:0:0:
300,28,96762,6,0,L|412:52,1,115.50000352478,2|2,3:2|0:0,0:0:0:0:
436,92,97200,1,8,1:0:0:0:
464,180,97419,1,2,0:0:0:0:
464,180,97638,2,0,P|464:236|412:288,1,115.50000352478,2|2,3:2|0:0,0:0:0:0:
384,296,98076,1,8,1:0:0:0:
292,312,98295,1,8,1:0:0:0:
208,316,98514,6,0,P|148:316|88:252,2,140,4|0|0,1:0|1:0|1:0,0:0:0:0:
256,156,99828,1,0,1:0:0:0:
308,88,100047,1,2,0:0:0:0:
256,20,100266,6,0,B|208:20|208:20|172:36|172:36|112:36,2,140,0|0|0,1:0|1:0|1:0,3:2:0:0:
388,124,101579,1,0,1:2:0:0:
436,192,101798,1,2,0:0:0:0:
388,260,102017,6,0,P|400:292|388:324,1,70,0|0,1:0|1:0,0:0:0:0:
304,324,102455,2,0,P|291:291|303:259,1,70,0|0,1:0|1:0,0:0:0:0:
320,176,102893,1,0,1:0:0:0:
320,176,103112,1,0,1:0:0:0:
256,124,103331,1,0,1:0:0:0:
256,124,103550,1,0,1:0:0:0:
192,176,103769,6,0,L|172:212,3,35
208,232,104207,2,0,L|188:268,3,35,2|0|0|0,0:3|0:0|0:0|0:0,0:0:0:0:
228,284,104645,2,0,L|216:312,14,17.5,0|0|0|0|0|0|0|0|2|0|0|0|0|0|0,0:0|0:0|0:0|0:0|0:0|0:0|0:0|0:0|0:3|0:0|0:0|0:0|0:0|0:0|0:0,0:0:0:0:
256,364,105521,6,0,P|308:364|368:316,1,115.50000352478,4|2,1:0|0:0,0:0:0:0:
392,300,105959,2,0,P|404:265|392:229,1,77.0000023498536,8|2,1:0|0:0,0:0:0:0:
312,180,106397,1,0,3:0:0:0:
232,136,106616,2,0,P|197:125|161:137,1,77.0000023498536,2|8,0:0|1:0,0:0:0:0:
88,192,107054,1,2,0:0:0:0:
160,248,107273,6,0,L|232:345,1,115.50000352478,0|2,3:0|0:0,0:0:0:0:
272,352,107711,2,0,P|312:352|348:320,1,77.0000023498536,8|2,1:0|0:0,0:0:0:0:
400,260,108149,2,0,P|432:239|470:240,1,77.0000023498536,0|2,3:0|0:0,0:0:0:0:
468,148,108587,1,8,1:0:0:0:
388,100,108806,1,2,0:0:0:0:
308,56,109025,6,0,P|248:56|200:104,1,115.50000352478,0|0,3:0|0:0,0:0:0:0:
208,90,109463,2,0,L|128:64,1,77.0000023498536,8|2,1:0|0:0,0:0:0:0:
108,156,109901,2,0,L|188:182,1,77.0000023498536,0|2,3:0|0:0,0:0:0:0:
256,236,110339,1,8,1:0:0:0:
256,236,110558,1,2,0:0:0:0:
331,181,110777,6,0,P|355:253|331:324,1,154.000004699707,4|4,1:2|1:2,0:0:0:0:
256,376,111434,1,0,1:0:0:0:
181,324,111653,2,0,P|158:253|182:181,1,154.000004699707,4|4,1:2|1:2,0:0:0:0:
256,124,112309,1,0,1:0:0:0:
256,124,112419,1,0,1:0:0:0:
256,124,112528,6,0,B|296:124|296:124|328:108|328:108|376:108,1,115.50000352478,4|2,1:2|0:0,0:0:0:0:
412,104,112966,2,0,P|456:104|484:128,1,77.0000023498536,12|2,1:0|0:0,0:0:0:0:
416,192,113404,1,0,3:0:0:0:
481,261,113623,2,0,P|450:283|412:280,1,77.0000023498536,2|8,0:0|1:0,0:0:0:0:
324,308,114061,1,2,0:0:0:0:
236,336,114280,6,0,P|160:336|132:292,1,115.50000352478,0|2,3:0|0:0,0:0:0:0:
138,310,114718,2,0,L|156:224,1,77.0000023498536,8|2,1:0|0:0,0:0:0:0:
60,228,115156,2,0,L|79:143,1,77.0000023498536,0|2,3:0|0:0,0:0:0:0:
92,60,115594,1,8,1:0:0:0:
184,76,115813,1,2,0:0:0:0:
168,168,116032,6,0,B|168:220|168:220|168:252|192:288,1,115.50000352478,0|2,3:0|0:0,0:0:0:0:
221,313,116470,2,0,P|256:301|292:313,1,77.0000023498536,8|2,1:0|0:0,0:0:0:0:
416,236,116908,2,0,P|380:249|344:236,1,77.0000023498536,0|2,3:0|0:0,0:0:0:0:
345,148,117346,2,0,P|380:136|416:149,1,77.0000023498536,8|2,1:0|0:0,0:0:0:0:
496,192,117784,5,4,1:2:0:0:
364,320,118222,1,4,1:2:0:0:
276,348,118441,1,0,1:0:0:0:
276,348,118550,1,0,0:0:0:0:
276,348,118660,2,0,B|224:348|224:348|184:328|184:328|112:328,1,154.000004699707,4|8,1:2|0:0,0:0:0:0:
52,272,119317,1,0,0:0:0:0:
128,208,119536,6,0,P|116:176|128:144,1,70,2|0,3:2|0:2,3:2:0:0:
188,84,119974,1,2,0:3:0:0:
188,84,120193,1,0,0:2:0:0:
256,132,120411,2,0,P|288:144|320:132,1,70,2|0,0:0|1:0,0:0:0:0:
388,84,120849,1,2,0:3:0:0:
388,252,121287,5,4,1:0:0:0:
256,192,121397,12,2,128185,0:0:0:0:
