osu file format v14

[General]
AudioFilename: audio.mp3
AudioLeadIn: 0
PreviewTime: 60255
Countdown: 0
SampleSet: Soft
StackLeniency: 0.4
Mode: 0
LetterboxInBreaks: 0
EpilepsyWarning: 1
WidescreenStoryboard: 1

[Editor]
Bookmarks: 61555,87155,112755,186355,211955,237555,263155,288755
DistanceSpacing: 0.8
BeatDivisor: 4
GridSize: 8
TimelineZoom: 1.7

[Metadata]
Title:Close Your Eyes
TitleUnicode:Close Your Eyes
Artist:Ayane
ArtistUnicode:彩音
Creator:Luscent
Version:Reminiscence
Source:G線上の魔王
Tags:404 aimnotfound kalibe G-Senjou no Maou G Senjou insert song full pidor devil on g string g-string japanese video game j-rock jrock rock elephant notes Akabei Soft2
BeatmapID:2480360
BeatmapSetID:1190434

[Difficulty]
HPDrainRate:5
CircleSize:4
OverallDifficulty:8
ApproachRate:8.3
SliderMultiplier:1.6
SliderTickRate:0.5

[Events]
//Background and Video events
0,0,"bg.jpg",0,0
//Break Periods
2,119347,125243
//Storyboard Layer 0 (Background)
//Storyboard Layer 1 (Fail)
//Storyboard Layer 2 (Pass)
//Storyboard Layer 3 (Foreground)
Sprite,Foreground,Centre,"sb\holeinwhite.png",364,292 S,4,235954,236254,19.36219,14.80638 S,4,236354,236654,14.80638,10.25057 F,0,236754,,1 C,0,236754,,0,0,0 S,3,236754,237554,10.25057,0.9111617 F,0,237554,237654,1,0
//Storyboard Layer 4 (Overlay)
//Storyboard Sound Samples

[TimingPoints]
-853,400,4,2,0,20,1,0
547,-111.111111111111,4,2,1,20,0,0
747,-111.111111111111,4,2,1,40,0,0
55147,-166.666666666667,4,2,1,60,0,0
55747,-166.666666666667,4,2,1,50,0,0
56347,-166.666666666667,4,2,1,40,0,0
56747,-125,4,2,1,60,0,0
57347,-200,4,2,1,50,0,0
57947,-666.666666666667,4,2,1,40,0,0
59947,-666.666666666667,4,2,1,20,0,0
60347,-666.666666666667,4,2,1,60,0,0
61147,-333.333333333333,4,2,1,60,0,0
61547,-100,4,2,10,70,0,0
61947,-100,4,2,9,70,0,0
62147,-100,4,2,8,70,0,0
62347,-100,4,2,9,70,0,0
62947,-100,4,2,30,70,0,0
63547,-100,4,2,9,70,0,0
63747,-100,4,2,8,70,0,0
64747,-100,4,2,11,70,0,0
65147,-100,4,2,30,70,0,0
65347,-100,4,2,9,70,0,0
65947,-100,4,2,30,70,0,0
66147,-100,4,2,11,70,0,0
66747,-100,4,2,30,70,0,0
66947,-100,4,2,9,70,0,0
68347,-100,4,2,8,70,0,0
68547,-100,4,2,7,70,0,0
69147,-100,4,2,8,70,0,0
69347,-100,4,2,9,70,0,0
69947,-100,4,2,8,70,0,0
70147,-100,4,2,7,70,0,0
70747,-100,4,2,5,70,0,0
71147,-100,4,2,11,70,0,0
71547,-100,4,2,12,70,0,0
71747,-100,4,2,30,70,0,0
72347,-100,4,2,9,70,0,0
72747,-100,4,2,8,70,0,0
74747,-100,4,2,6,70,0,0
74947,-100,4,2,5,70,0,0
75147,-100,4,2,6,70,0,0
75547,-100,4,2,12,85,0,0
76147,-100,4,2,12,70,0,0
77147,-100,4,2,30,70,0,0
77547,-100,4,2,11,70,0,0
78747,-100,4,2,9,70,0,0
78947,-100,4,2,8,70,0,0
79347,-100,4,2,7,70,0,0
79547,-100,4,2,32,70,0,0
79747,-100,4,2,7,70,0,0
80347,-100,4,2,30,70,0,0
80547,-100,4,2,9,70,0,0
80747,-100,4,2,30,70,0,0
81147,-100,4,2,8,70,0,0
82747,-100,4,2,8,60,0,0
82947,-100,4,2,8,60,0,0
83147,-100,4,2,9,50,0,0
83547,-100,4,2,30,50,0,0
83947,-100,4,2,11,70,0,0
85147,-100,4,2,5,70,0,0
85547,-100,4,2,12,70,0,0
85947,-100,4,2,13,60,0,0
86147,-100,4,2,11,60,0,0
86347,-100,4,2,11,55,0,0
86547,-100,4,2,30,55,0,0
86747,-100,4,2,30,50,0,0
87147,-100,4,2,30,70,0,0
87547,-100,4,2,9,70,0,0
87747,-100,4,2,8,70,0,0
88347,-100,4,2,9,70,0,0
88547,-100,4,2,30,70,0,0
89147,-100,4,2,9,70,0,0
89347,-100,4,2,8,70,0,0
90347,-100,4,2,11,70,0,0
90747,-100,4,2,30,70,0,0
90947,-100,4,2,9,70,0,0
91547,-100,4,2,30,70,0,0
91747,-100,4,2,11,70,0,0
92347,-100,4,2,30,70,0,0
92547,-100,4,2,9,70,0,0
93947,-100,4,2,8,70,0,0
94147,-100,4,2,7,70,0,0
94747,-100,4,2,8,70,0,0
94947,-100,4,2,9,70,0,0
95547,-100,4,2,8,70,0,0
95747,-100,4,2,7,70,0,0
96347,-100,4,2,5,70,0,0
96747,-100,4,2,11,70,0,0
97147,-100,4,2,12,70,0,0
97347,-100,4,2,30,70,0,0
97947,-100,4,2,9,70,0,0
98347,-100,4,2,8,70,0,0
100347,-100,4,2,30,70,0,0
100547,-100,4,2,9,70,0,0
100747,-100,4,2,30,70,0,0
101147,-100,4,2,8,70,0,0
102747,-100,4,2,9,70,0,0
102947,-100,4,2,8,70,0,0
103147,-100,4,2,32,70,0,0
103947,-100,4,2,30,70,0,0
104747,-100,4,2,11,70,0,0
105147,-100,4,2,30,70,0,0
105347,-100,4,2,11,70,0,0
105547,-100,4,2,12,70,0,0
105947,-100,4,2,30,70,0,0
106347,-100,4,2,12,70,0,0
106747,-100,4,2,13,70,0,0
106947,-100,4,2,30,70,0,0
109547,-100,4,2,12,70,0,0
109947,-100,4,2,13,70,0,0
110147,-100,4,2,12,70,0,0
110347,-100,4,2,13,70,0,0
110547,-100,4,2,13,70,0,0
110947,-100,4,2,14,70,0,0
111947,-100,4,2,12,70,0,0
112347,-100,4,2,11,70,0,0
112747,-100,4,2,10,70,0,0
113147,-100,4,2,25,70,0,0
119147,-100,4,2,25,20,0,0
125547,-111.111111111111,4,2,1,40,0,0
132547,-166.666666666667,4,2,1,40,0,0
133147,-111.111111111111,4,2,1,40,0,0
135147,-250,4,2,1,40,0,0
138347,-111.111111111111,4,2,1,40,0,0
140347,-166.666666666667,4,2,1,40,0,0
141147,-111.111111111111,4,2,1,40,0,0
142747,-166.666666666667,4,2,1,40,0,0
147947,-250,4,2,1,40,0,0
151147,-111.111111111111,4,2,1,50,0,0
163947,-111.111111111111,4,2,1,55,0,0
181147,-125,4,2,1,55,0,0
181547,-142.857142857143,4,2,1,60,0,0
181947,-166.666666666667,4,2,1,65,0,0
182747,-500,4,2,1,30,0,0
184747,-500,4,2,1,20,0,0
185119,400,4,2,1,40,1,0
185919,-333.333333333333,4,2,1,40,0,0
186347,400,4,2,30,70,1,0
186347,-95.2380952380952,4,2,30,70,0,0
186747,-95.2380952380952,4,2,9,70,0,0
186947,-95.2380952380952,4,2,8,70,0,0
187147,-95.2380952380952,4,2,9,70,0,0
187747,-95.2380952380952,4,2,10,70,0,0
188347,-95.2380952380952,4,2,9,70,0,0
188547,-95.2380952380952,4,2,8,70,0,0
189547,-95.2380952380952,4,2,11,70,0,0
189947,-95.2380952380952,4,2,10,70,0,0
190147,-95.2380952380952,4,2,9,70,0,0
190747,-95.2380952380952,4,2,10,70,0,0
190946,-95.2380952380952,4,2,11,70,0,0
191547,-95.2380952380952,4,2,10,70,0,0
191747,-95.2380952380952,4,2,9,70,0,0
193146,-95.2380952380952,4,2,8,70,0,0
193347,-95.2380952380952,4,2,7,70,0,0
193947,-95.2380952380952,4,2,8,70,0,0
194147,-95.2380952380952,4,2,9,70,0,0
194747,-95.2380952380952,4,2,8,70,0,0
194947,-95.2380952380952,4,2,7,70,0,0
195547,-95.2380952380952,4,2,5,70,0,0
195947,-95.2380952380952,4,2,11,70,0,0
196347,-95.2380952380952,4,2,12,70,0,0
196546,-95.2380952380952,4,2,10,70,0,0
197147,-95.2380952380952,4,2,9,70,0,0
197547,-95.2380952380952,4,2,8,70,0,0
199546,-95.2380952380952,4,2,6,70,0,0
199747,-95.2380952380952,4,2,5,70,0,0
199947,-95.2380952380952,4,2,6,70,0,0
200347,-95.2380952380952,4,2,12,85,0,0
201347,-95.2380952380952,4,2,12,70,0,0
201947,-95.2380952380952,4,2,30,70,0,0
202347,-95.2380952380952,4,2,11,70,0,0
203547,-95.2380952380952,4,2,9,70,0,0
203747,-95.2380952380952,4,2,8,70,0,0
204347,-95.2380952380952,4,2,32,70,0,0
204547,-95.2380952380952,4,2,7,70,0,0
205147,-95.2380952380952,4,2,30,70,0,0
205347,-95.2380952380952,4,2,9,70,0,0
205547,-95.2380952380952,4,2,30,70,0,0
205946,-95.2380952380952,4,2,8,70,0,0
207947,-95.2380952380952,4,2,9,70,0,0
208347,-95.2380952380952,4,2,30,70,0,0
208747,-95.2380952380952,4,2,11,70,0,0
209947,-95.2380952380952,4,2,5,70,0,0
210347,-95.2380952380952,4,2,12,70,0,0
210747,-95.2380952380952,4,2,13,70,0,0
210946,-95.2380952380952,4,2,11,70,0,0
211147,-95.2380952380952,4,2,11,70,0,0
211347,-95.2380952380952,4,2,30,70,0,0
212347,-95.2380952380952,4,2,9,70,0,0
212546,-95.2380952380952,4,2,8,70,0,0
213147,-95.2380952380952,4,2,9,70,0,0
213347,-95.2380952380952,4,2,10,70,0,0
213947,-95.2380952380952,4,2,9,70,0,0
214147,-95.2380952380952,4,2,8,70,0,0
215147,-95.2380952380952,4,2,11,70,0,0
215547,-95.2380952380952,4,2,10,70,0,0
215747,-95.2380952380952,4,2,9,70,0,0
216347,-95.2380952380952,4,2,10,70,0,0
216546,-95.2380952380952,4,2,11,70,0,0
217147,-95.2380952380952,4,2,10,70,0,0
217347,-95.2380952380952,4,2,9,70,0,0
218746,-95.2380952380952,4,2,8,70,0,0
218947,-95.2380952380952,4,2,7,70,0,0
219547,-95.2380952380952,4,2,8,70,0,0
219747,-95.2380952380952,4,2,9,70,0,0
220347,-95.2380952380952,4,2,8,70,0,0
220546,-95.2380952380952,4,2,7,70,0,0
221147,-95.2380952380952,4,2,5,70,0,0
221547,-95.2380952380952,4,2,11,70,0,0
221947,-95.2380952380952,4,2,12,70,0,0
222146,-95.2380952380952,4,2,10,70,0,0
222747,-95.2380952380952,4,2,9,70,0,0
223147,-95.2380952380952,4,2,8,70,0,0
225147,-95.2380952380952,4,2,30,70,0,0
225347,-95.2380952380952,4,2,9,70,0,0
225547,-95.2380952380952,4,2,30,70,0,0
225947,-95.2380952380952,4,2,8,70,0,0
227547,-95.2380952380952,4,2,9,70,0,0
227747,-95.2380952380952,4,2,8,70,0,0
227947,-95.2380952380952,4,2,32,70,0,0
228747,-95.2380952380952,4,2,30,70,0,0
229447,-95.2380952380952,4,2,1,70,0,0
229547,-95.2380952380952,4,2,11,70,0,0
229947,-95.2380952380952,4,2,30,70,0,0
230147,-95.2380952380952,4,2,11,70,0,0
230347,-95.2380952380952,4,2,12,70,0,0
230747,-95.2380952380952,4,2,30,70,0,0
231147,-95.2380952380952,4,2,12,70,0,0
231546,-95.2380952380952,4,2,13,70,0,0
231747,-95.2380952380952,4,2,30,70,0,0
233947,-166.666666666667,4,2,30,60,0,0
234347,-83.3333333333333,4,2,12,100,0,1
234647,-83.3333333333333,4,2,12,60,0,1
234747,-83.3333333333333,4,2,13,100,0,0
234947,-83.3333333333333,4,2,12,80,0,0
235147,-83.3333333333333,4,2,13,100,0,1
235447,-83.3333333333333,4,2,13,60,0,1
235547,-83.3333333333333,4,2,13,100,0,0
235947,-95.2380952380952,4,2,13,100,0,0
236747,-95.2380952380952,4,2,13,70,0,0
236880,-95.2380952380952,4,2,13,62,0,0
237013,-95.2380952380952,4,2,13,54,0,0
237147,-95.2380952380952,4,2,13,46,0,0
237280,-95.2380952380952,4,2,13,38,0,0
237413,-95.2380952380952,4,2,13,30,0,0
237547,-90.9090909090909,4,2,30,80,0,1
237947,-90.9090909090909,4,2,9,80,0,1
238147,-90.9090909090909,4,2,8,80,0,1
238347,-90.9090909090909,4,2,9,80,0,1
238947,-90.9090909090909,4,2,30,80,0,1
239547,-90.9090909090909,4,2,9,80,0,1
239747,-90.9090909090909,4,2,8,80,0,1
240747,-90.9090909090909,4,2,11,80,0,1
241147,-90.9090909090909,4,2,30,80,0,1
241347,-90.9090909090909,4,2,9,80,0,1
241947,-90.9090909090909,4,2,30,80,0,1
242147,-90.9090909090909,4,2,11,80,0,1
242747,-90.9090909090909,4,2,30,80,0,1
242947,-90.9090909090909,4,2,9,80,0,1
244347,-90.9090909090909,4,2,8,80,0,1
244547,-90.9090909090909,4,2,7,80,0,1
245147,-90.9090909090909,4,2,8,80,0,1
245347,-90.9090909090909,4,2,9,80,0,1
245947,-90.9090909090909,4,2,8,80,0,1
246147,-90.9090909090909,4,2,7,80,0,1
246747,-90.9090909090909,4,2,5,80,0,1
247047,-90.9090909090909,4,2,5,80,0,1
247147,-90.9090909090909,4,2,11,80,0,1
247547,-90.9090909090909,4,2,12,80,0,1
247747,-90.9090909090909,4,2,30,80,0,1
248347,-90.9090909090909,4,2,9,80,0,1
248747,-90.9090909090909,4,2,8,80,0,1
250747,-90.9090909090909,4,2,6,80,0,1
250947,-90.9090909090909,4,2,5,80,0,1
251147,-90.9090909090909,4,2,6,80,0,1
251547,-90.9090909090909,4,2,12,80,0,1
253147,-90.9090909090909,4,2,30,80,0,1
253547,-90.9090909090909,4,2,11,80,0,1
254747,-90.9090909090909,4,2,9,80,0,1
254947,-90.9090909090909,4,2,8,80,0,1
255047,-90.9090909090909,4,2,8,80,0,1
255147,-90.9090909090909,4,2,8,80,0,1
255547,-90.9090909090909,4,2,32,80,0,1
255747,-90.9090909090909,4,2,7,80,0,1
256347,-90.9090909090909,4,2,30,80,0,1
256547,-90.9090909090909,4,2,9,80,0,1
256747,-90.9090909090909,4,2,30,80,0,1
257147,-90.9090909090909,4,2,8,80,0,1
258947,-90.9090909090909,4,2,9,80,0,1
259547,-90.9090909090909,4,2,30,80,0,1
259947,-90.9090909090909,4,2,11,80,0,1
261147,-90.9090909090909,4,2,5,80,0,1
261547,-90.9090909090909,4,2,12,80,0,1
261947,-90.9090909090909,4,2,13,80,0,1
262147,-90.9090909090909,4,2,11,80,0,1
262547,-90.9090909090909,4,2,30,80,0,1
262747,-90.9090909090909,4,2,30,45,0,1
263147,-90.9090909090909,4,2,30,80,0,1
263547,-90.9090909090909,4,2,9,80,0,1
263747,-90.9090909090909,4,2,8,80,0,1
264347,-90.9090909090909,4,2,9,80,0,1
264547,-90.9090909090909,4,2,30,80,0,1
265147,-90.9090909090909,4,2,9,80,0,1
265347,-90.9090909090909,4,2,8,80,0,1
266347,-90.9090909090909,4,2,11,80,0,1
266747,-90.9090909090909,4,2,10,80,0,1
266947,-90.9090909090909,4,2,9,80,0,1
267547,-90.9090909090909,4,2,10,80,0,1
267747,-90.9090909090909,4,2,11,80,0,1
268347,-90.9090909090909,4,2,10,80,0,1
268547,-90.9090909090909,4,2,9,80,0,1
269947,-90.9090909090909,4,2,8,80,0,1
270147,-90.9090909090909,4,2,7,80,0,1
270747,-90.9090909090909,4,2,8,80,0,1
270947,-90.9090909090909,4,2,9,80,0,1
271547,-90.9090909090909,4,2,8,80,0,1
271747,-90.9090909090909,4,2,7,80,0,1
272347,-90.9090909090909,4,2,5,80,0,1
272747,-90.9090909090909,4,2,11,80,0,1
273147,-90.9090909090909,4,2,12,80,0,1
273320,396.039603960396,4,2,30,80,1,1
273320,-90.9090909090909,4,2,30,80,0,1
273914,-90.9090909090909,4,2,9,80,0,1
274310,-90.9090909090909,4,2,8,80,0,1
274505,500,4,2,1,80,1,1
274505,-90.9090909090909,4,2,1,80,0,1
274755,400,4,2,8,80,1,1
274755,-90.9090909090909,4,2,8,80,0,1
275129,400,4,2,8,80,1,1
275129,-90.9090909090909,4,2,8,80,0,1
275955,400,4,2,8,80,1,1
275955,-90.9090909090909,4,2,8,80,0,1
276355,-90.9090909090909,4,2,30,80,0,1
276555,-90.9090909090909,4,2,9,80,0,1
276755,-90.9090909090909,4,2,30,80,0,1
277155,-90.9090909090909,4,2,8,80,0,1
278755,-90.9090909090909,4,2,9,80,0,1
278955,-90.9090909090909,4,2,8,80,0,1
279155,-90.9090909090909,4,2,32,80,0,1
279955,-90.9090909090909,4,2,30,80,0,1
280755,-90.9090909090909,4,2,11,80,0,1
281155,-90.9090909090909,4,2,30,80,0,1
281355,-90.9090909090909,4,2,11,80,0,1
281555,-90.9090909090909,4,2,12,80,0,1
281955,-90.9090909090909,4,2,30,80,0,1
282355,-90.9090909090909,4,2,12,80,0,1
282755,-90.9090909090909,4,2,13,80,0,1
282955,-90.9090909090909,4,2,30,80,0,1
285155,-90.9090909090909,4,2,30,100,0,0
285555,-83.3333333333333,4,2,12,100,0,1
285755,-83.3333333333333,4,2,1,100,0,1
285855,-83.3333333333333,4,2,12,100,0,0
285955,-83.3333333333333,4,2,13,100,0,1
286155,-83.3333333333333,4,2,12,100,0,0
286355,-83.3333333333333,4,2,13,100,0,1
286555,-83.3333333333333,4,2,14,100,0,0
286755,-100,4,2,14,100,0,1
286955,-100,4,2,14,100,0,0
287155,-100,4,2,14,100,0,1
287955,-100,4,2,12,80,0,1
288355,-100,4,2,11,60,0,1
288755,-100,4,2,10,60,0,1
289155,-100,4,2,25,80,0,0
289355,-100,4,2,12,60,0,0
295155,-100,4,2,12,30,0,0

[Colours]
Combo1 : 173,183,250
Combo2 : 158,214,254
Combo3 : 128,168,213

[HitObjects]
219,183,597,6,0,L|199:186,2,17.9999994506836,2|0|0,0:0|0:0|0:0,0:0:0:0:
256,200,747,2,0,P|237:136|257:54,1,143.999995605469,0|2,0:0|0:0,0:0:0:0:
323,9,1347,1,0,0:0:0:0:
411,70,1547,1,2,0:0:0:0:
411,70,1947,1,2,0:0:0:0:
344,166,2147,2,0,P|388:158|435:153,1,71.9999978027344,2|0,0:0|0:0,0:0:0:0:
508,130,2547,1,2,0:0:0:0:
508,130,2747,2,0,P|488:204|504:296,1,143.999995605469,2|0,0:0|0:0,0:0:0:0:
198,305,3547,5,2,0:0:0:0:
95,371,3747,1,0,0:0:0:0:
0,269,3947,2,0,P|39:281|102:286,1,71.9999978027344,2|0,0:0|0:0,0:0:0:0:
110,207,4347,1,2,0:0:0:0:
110,207,4747,1,2,0:0:0:0:
229,281,5147,6,0,P|248:170|227:56,1,215.999993408203,2|0,0:0|0:0,0:0:0:0:
324,30,5947,2,0,P|320:78|327:121,1,71.9999978027344,2|0,0:0|0:0,0:0:0:0:
376,194,6347,1,2,0:0:0:0:
376,194,6747,1,0,0:0:0:0:
340,295,6947,1,2,0:0:0:0:
230,290,7147,6,0,P|191:307|162:325,1,71.9999978027344,2|0,0:0|0:0,0:0:0:0:
68,307,7547,1,2,0:0:0:0:
232,377,7747,1,2,0:0:0:0:
137,251,7947,2,0,P|106:232|73:218,1,71.9999978027344
226,135,8347,2,0,P|226:177|234:220,1,71.9999978027344
127,114,8747,6,0,P|216:94|285:54,1,143.999995605469,2|2,0:0|0:0,0:0:0:0:
441,120,9347,1,0,0:0:0:0:
366,145,9547,2,0,P|335:155|284:180,1,71.9999978027344,2|0,0:0|0:0,0:0:0:0:
428,284,9947,1,2,0:0:0:0:
241,224,10147,1,0,0:0:0:0:
361,365,10347,6,0,P|349:326|342:258,1,71.9999978027344,2|0,0:0|0:0,0:0:0:0:
97,270,10747,2,0,P|109:231|116:163,1,71.9999978027344
267,304,11147,1,2,0:0:0:0:
267,304,11547,1,2,0:0:0:0:
195,213,11747,1,2,0:0:0:0:
117,298,11947,1,0,0:0:0:0:
193,384,12147,1,2,0:0:0:0:
333,269,12347,2,0,P|320:222|317:171,1,71.9999978027344
257,139,12747,2,0,P|334:165|401:155,1,143.999995605469,2|0,0:0|0:0,0:0:0:0:
461,109,13347,1,0,0:0:0:0:
512,271,13547,5,4,0:0:0:0:
512,271,13947,2,0,P|470:273|426:276,1,71.9999978027344,2|0,0:0|0:0,0:0:0:0:
332,346,14347,2,0,P|354:271|330:179,1,143.999995605469,2|0,0:0|0:0,0:0:0:0:
268,155,14947,1,2,0:0:0:0:
268,155,15347,1,2,0:0:0:0:
137,252,15547,2,0,P|213:258|293:277,1,143.999995605469,2|2,0:0|0:0,0:0:0:0:
200,25,16347,5,2,0:0:0:0:
208,110,16547,1,0,0:0:0:0:
65,92,16747,2,0,P|115:79|161:77,1,71.9999978027344,2|0,0:0|0:0,0:0:0:0:
264,229,17147,2,0,P|214:224|186:213,1,71.9999978027344,2|0,0:0|0:0,0:0:0:0:
279,36,17547,2,0,P|291:83|287:140,1,71.9999978027344,2|0,0:0|0:0,0:0:0:0:
340,315,17947,6,0,L|369:96,1,215.999993408203,2|0,0:0|0:0,0:0:0:0:
448,82,18747,2,0,P|444:126|456:170,1,71.9999978027344,2|0,0:0|0:0,0:0:0:0:
510,235,19147,2,0,P|479:242|432:260,1,71.9999978027344,2|0,0:0|0:0,0:0:0:0:
262,311,19547,1,0,0:0:0:0:
344,338,19747,2,0,P|382:352|431:370,1,71.9999978027344,2|4,0:0|0:0,0:0:0:0:
73,344,20347,6,0,P|63:295|49:243,1,71.9999978027344,2|0,0:0|0:0,0:0:0:0:
235,222,20747,2,0,P|236:170|238:115,1,71.9999978027344,2|0,0:0|0:0,0:0:0:0:
427,170,21147,2,0,P|435:123|442:77,1,71.9999978027344,2|0,0:0|0:0,0:0:0:0:
334,46,21547,6,0,P|350:110|340:204,1,143.999995605469,2|0,0:0|0:0,0:0:0:0:
218,262,22147,1,0,0:0:0:0:
406,285,22347,2,0,P|333:305|261:367,1,143.999995605469,2|0,0:0|0:0,0:0:0:0:
200,381,22947,1,0,0:0:0:0:
120,356,23147,1,2,0:0:0:0:
41,212,23547,5,2,0:0:0:0:
55,209,23947,1,2,0:0:0:0:
69,206,24347,1,0,0:0:0:0:
193,257,24547,5,2,0:0:0:0:
204,158,24947,1,2,0:0:0:0:
206,146,25147,1,0,0:0:0:0:
308,219,25547,5,2,0:0:0:0:
432,169,25947,1,2,0:0:0:0:
507,189,26147,1,0,0:0:0:0:
482,93,26347,6,0,P|426:126|330:121,1,143.999995605469,6|0,0:0|0:0,0:0:0:0:
406,281,26947,2,0,L|416:202,1,71.9999978027344,2|0,0:0|0:0,0:0:0:0:
365,367,27347,1,0,0:0:0:0:
277,340,27547,2,0,L|192:320,1,71.9999978027344,2|0,0:0|0:0,0:0:0:0:
21,357,27947,6,0,P|5:298|21:237,1,107.999996704102,2|0,0:0|0:0,0:0:0:0:
16,255,28347,2,0,L|106:249,1,71.9999978027344,2|0,0:0|0:0,0:0:0:0:
177,127,28747,2,0,L|155:225,1,71.9999978027344,2|0,0:0|0:0,0:0:0:0:
165,304,29147,1,2,0:0:0:0:
165,304,29347,1,0,0:0:0:0:
336,249,29547,6,0,P|408:267|482:302,1,143.999995605469,2|0,0:0|0:0,0:0:0:0:
138,134,30347,2,0,P|66:152|-8:187,1,143.999995605469,2|0,0:0|0:0,0:0:0:0:
309,155,31147,2,0,P|324:91|304:3,1,143.999995605469,2|0,0:0|0:0,0:0:0:0:
212,86,31747,1,2,0:0:0:0:
419,193,31947,2,0,P|330:228|284:285,1,143.999995605469,2|0,0:0|0:0,0:0:0:0:
267,347,32547,1,0,0:0:0:0:
267,347,32747,1,6,0:0:0:0:
7,190,33547,6,0,P|65:191|123:198,2,107.999996704102,2|2|0,0:0|0:0|0:0,0:0:0:0:
116,275,34347,2,0,P|154:212|229:179,1,143.999995605469,2|0,0:0|0:0,0:0:0:0:
6,15,35147,2,0,P|44:78|125:107,1,143.999995605469,2|0,0:0|0:0,0:0:0:0:
293,22,35947,6,0,P|281:112|272:178,1,143.999995605469,2|0,0:0|0:0,0:0:0:0:
358,332,36747,1,0,0:0:0:0:
425,285,36947,2,0,P|431:239|437:198,2,71.9999978027344,2|2|2,0:0|0:0|0:0,0:0:0:0:
193,241,37547,2,0,P|158:226|119:188,1,71.9999978027344,2|0,0:0|0:0,0:0:0:0:
276,260,37947,2,0,P|313:262|365:244,1,71.9999978027344
170,280,38347,2,0,P|87:305|30:363,1,143.999995605469,2|0,0:0|0:0,0:0:0:0:
44,341,38947,1,2,0:0:0:0:
3,175,39147,6,0,P|64:215|149:192,1,143.999995605469,6|0,0:0|0:0,0:0:0:0:
264,240,39747,1,2,0:0:0:0:
319,169,39947,2,0,P|321:123|318:71,1,71.9999978027344
320,97,40547,1,2,0:0:0:0:
171,168,40747,2,0,P|182:219|186:269,1,71.9999978027344,2|0,0:0|0:0,0:0:0:0:
123,292,41147,5,2,0:0:0:0:
263,209,41347,1,0,0:0:0:0:
260,374,41547,2,0,P|212:361|169:355,1,71.9999978027344,2|0,0:0|0:0,0:0:0:0:
247,289,41947,1,2,0:0:0:0:
247,289,42147,1,0,0:0:0:0:
406,288,42347,6,0,P|333:327|287:385,1,143.999995605469,2|0,0:0|0:0,0:0:0:0:
479,271,43147,2,0,P|401:246|342:187,1,143.999995605469,2|0,0:0|0:0,0:0:0:0:
512,143,43947,2,0,P|522:184|477:273,1,143.999995605469,2|0,0:0|0:0,0:0:0:0:
268,282,44547,1,2,0:0:0:0:
271,207,44747,2,0,L|277:50,1,143.999995605469
191,167,45347,1,0,0:0:0:0:
359,66,45547,1,4,0:0:0:0:
76,40,45947,5,2,0:0:0:0:
78,53,46347,1,2,0:0:0:0:
3,120,46747,2,0,P|50:132|91:153,1,71.9999978027344,2|0,0:0|0:0,0:0:0:0:
147,102,47147,2,0,P|101:183|101:242,1,143.999995605469,2|0,0:0|0:0,0:0:0:0:
241,267,47747,2,0,P|237:217|232:183,1,71.9999978027344,2|0,0:0|0:0,0:0:0:0:
63,309,48147,1,0,0:0:0:0:
144,328,48347,2,0,P|211:348|291:393,1,143.999995605469,2|0,0:0|0:0,0:0:0:0:
465,315,49147,5,2,0:0:0:0:
463,302,49547,1,2,0:0:0:0:
473,213,49947,2,0,P|432:230|372:233,1,71.9999978027344,2|0,0:0|0:0,0:0:0:0:
352,301,50347,2,0,P|371:230|357:135,1,143.999995605469,2|0,0:0|0:0,0:0:0:0:
158,197,50947,2,0,P|205:209|246:220,1,71.9999978027344,2|0,0:0|0:0,0:0:0:0:
284,273,51347,1,0,0:0:0:0:
269,150,51547,2,0,P|261:69|269:2,1,143.999995605469,2|4,0:0|0:0,0:0:0:0:
475,27,52347,5,2,0:0:0:0:
472,50,52747,1,2,0:0:0:0:
496,122,53147,2,0,P|457:140|424:166,1,71.9999978027344,2|0,0:0|0:0,0:0:0:0:
315,263,53547,2,0,P|390:254|428:252,1,107.999996704102,2|0,0:0|0:0,0:0:0:0:
446,249,53947,1,2,0:0:0:0:
215,349,54147,2,0,P|274:356|336:366,1,107.999996704102,2|0,0:0|0:0,0:0:0:0:
345,368,54547,1,2,0:0:0:0:
132,330,54747,5,2,0:0:0:0:
276,212,54947,1,0,0:0:0:0:
149,161,55147,2,0,P|158:200|166:268,1,95.9999970703126,2|0,0:0|0:0,0:0:0:0:
299,73,55747,2,0,P|260:82|192:90,1,95.9999970703126,2|0,0:0|0:0,0:0:0:0:
382,168,56347,2,0,P|374:124|370:88,1,47.9999985351563,2|0,0:0|0:0,0:0:0:0:
349,255,56747,6,0,P|318:284|291:312,1,64,2|0,0:0|0:0,0:0:0:0:
298,187,57147,1,0,0:0:0:0:
435,237,57347,2,0,P|471:255|515:277,1,80,2|0,0:0|0:0,0:0:0:0:
331,327,57947,6,0,P|274:336|216:372,1,119.999996337891,2|0,0:0|0:0,0:0:0:0:
297,126,60347,5,0,1:0:0:0:
271,283,60547,1,2,0:0:0:0:
271,283,60647,1,2,0:0:0:0:
271,283,60747,1,0,1:0:0:0:
365,219,60947,1,0,1:0:0:0:
200,198,61147,2,0,P|170:194|156:192,1,35.9999989013672,0|0,1:0|0:0,0:0:0:0:
97,224,61547,6,0,P|176:234|271:248,1,160,6|2,1:2|1:2,0:2:0:0:
420,296,62147,1,2,0:2:0:0:
343,159,62347,2,0,P|328:207|333:247,1,80,8|0,1:2|0:2,0:2:0:0:
363,359,62747,1,2,1:2:0:0:
500,270,62947,6,0,P|489:188|482:100,1,160,2|0,1:2|0:2,0:2:0:0:
244,91,63547,1,2,1:2:0:0:
344,156,63747,1,2,0:2:0:0:
423,66,63947,1,8,1:2:0:0:
322,0,64147,1,0,1:2:0:0:
268,162,64347,1,0,0:2:0:0:
71,172,64547,5,0,1:2:0:0:
71,172,64647,1,0,3:2:0:0:
71,172,64747,2,0,P|86:236|94:286,1,80,2|0,1:2|0:2,0:2:0:0:
205,286,65147,1,2,1:2:0:0:
210,106,65347,2,0,P|169:116|131:120,1,80,2|8,1:2|1:2,0:2:0:0:
1,260,65747,1,0,0:2:0:0:
43,337,65947,2,0,P|96:324|138:316,1,80,2|2,1:2|1:2,0:2:0:0:
148,314,66247,1,0,3:2:0:0:
177,307,66347,5,0,0:2:0:0:
364,311,66547,1,8,1:2:0:0:
226,203,66747,1,2,1:2:0:0:
272,384,66947,1,2,0:2:0:0:
272,384,67047,1,0,3:2:0:0:
272,384,67147,1,8,1:2:0:0:
347,215,67347,1,0,1:2:0:0:
512,240,67547,2,0,P|498:178|497:139,1,80,0|0,1:2|0:2,0:2:0:0:
462,46,67947,6,0,P|391:81|292:73,1,160,6|2,1:2|1:2,0:2:0:0:
169,170,68547,1,2,1:2:0:0:
257,197,68747,2,0,P|306:214|359:241,1,80,8|0,1:2|0:2,0:2:0:0:
383,163,69147,1,2,1:2:0:0:
201,255,69347,2,0,P|115:282|35:320,1,160,2|0,1:2|1:2,0:2:0:0:
188,345,69947,5,2,1:2:0:0:
31,216,70147,1,2,1:2:0:0:
31,216,70247,1,0,3:2:0:0:
31,216,70347,1,8,1:2:0:0:
93,375,70547,1,0,0:2:0:0:
136,191,70747,1,2,1:2:0:0:
13,304,70947,1,2,1:2:0:0:
236,277,71147,6,0,P|318:267|384:264,1,120,6|0,1:2|0:2,0:2:0:0:
385,280,71547,2,0,P|388:215|397:169,1,80,2|0,1:2|1:2,0:2:0:0:
393,176,71847,1,2,3:2:0:0:
398,152,71947,1,12,1:2:0:0:
324,353,72147,1,2,1:2:0:0:
510,224,72347,1,2,1:2:0:0:
305,133,72547,5,2,1:2:0:0:
305,133,72647,1,0,3:2:0:0:
305,133,72747,1,2,1:2:0:0:
477,67,72947,1,8,1:2:0:0:
440,270,73147,1,0,1:2:0:0:
168,210,73347,5,0,0:2:0:0:
325,227,73547,2,0,P|273:224|235:216,1,80,8|0,1:2|0:2,0:2:0:0:
65,310,73947,2,0,P|112:320|153:340,1,80,0|0,1:2|0:2,0:2:0:0:
160,347,74247,1,0,3:2:0:0:
177,363,74347,1,4,1:2:0:0:
31,83,74747,5,2,1:2:0:0:
122,137,74947,1,2,1:2:0:0:
212,79,75147,2,0,P|205:33|201:-5,1,80,10|0,1:2|0:2,0:2:0:0:
117,36,75547,1,2,1:2:0:0:
302,111,75747,2,0,P|272:201|264:291,1,160,2|0,1:2|1:2,0:2:0:0:
212,365,76347,1,0,1:2:0:0:
344,276,76547,1,0,0:2:0:0:
174,297,76747,2,0,P|122:300|61:297,1,80,8|0,1:2|0:2,0:2:0:0:
187,217,77147,5,2,1:2:0:0:
318,349,77347,1,0,1:2:0:0:
486,288,77547,2,0,P|482:199|485:115,1,160,2|0,1:2|0:2,0:2:0:0:
252,37,78147,1,0,1:2:0:0:
252,37,78347,2,0,P|251:96|249:133,1,80,10|0,1:2|0:2,0:2:0:0:
250,245,78747,1,2,1:2:0:0:
341,277,78947,2,0,P|388:296|439:322,1,80,2|0,1:2|0:2,0:2:0:0:
165,287,79347,1,8,1:2:0:0:
335,192,79547,2,0,P|381:178|437:167,1,80,2|0,1:2|0:2,0:2:0:0:
259,365,79947,1,8,1:2:0:0:
259,365,80347,5,2,1:2:0:0:
101,222,80547,1,2,1:2:0:0:
52,355,80747,2,0,P|108:339|165:330,1,80,6|0,1:2|0:2,0:2:0:0:
3,268,81147,1,2,1:2:0:0:
213,289,81347,2,0,P|206:210|209:171,1,80,2|8,1:2|0:2,0:2:0:0:
198,123,81747,1,0,1:2:0:0:
198,123,81947,1,0,1:2:0:0:
370,253,82147,5,0,1:2:0:0:
370,253,82247,1,0,3:2:0:0:
370,253,82347,1,0,1:2:0:0:
423,350,82547,1,0,1:2:0:0:
259,254,82747,1,2,1:2:0:0:
399,141,82947,1,0,0:2:0:0:
275,326,83147,2,0,P|224:332|184:344,1,80,10|0,1:2|0:2,0:2:0:0:
434,206,83547,2,0,P|485:212|525:224,1,80,2|0,1:2|0:2,0:2:0:0:
287,36,83947,5,6,0:2:0:0:
287,36,84347,5,0,1:2:0:0:
246,186,84547,1,0,1:2:0:0:
444,303,84747,5,12,0:2:0:0:
431,121,84947,1,0,1:2:0:0:
118,285,85147,5,2,1:2:0:0:
217,311,85347,1,0,1:2:0:0:
217,311,85447,1,0,3:2:0:0:
217,311,85547,2,0,P|264:322|305:337,1,80,6|0,1:2|0:2,0:2:0:0:
88,373,85947,5,2,1:2:0:0:
281,244,86147,1,2,0:2:0:0:
0,256,86347,5,0,1:2:0:0:
137,305,86547,1,2,0:2:0:0:
17,173,86747,5,0,1:2:0:0:
17,173,86947,1,0,1:2:0:0:
187,81,87147,6,0,P|267:88|313:80,1,120,6|0,1:2|0:2,0:2:0:0:
336,95,87547,2,0,P|338:43|346:10,1,80,2|2,1:2|1:2,0:2:0:0:
453,57,87947,1,8,0:2:0:0:
399,247,88147,1,0,1:2:0:0:
512,174,88347,2,0,P|463:174|421:179,1,80,2|2,1:2|0:2,0:2:0:0:
270,279,88747,6,0,P|336:298|390:344,1,120,0|0,1:2|0:2,0:2:0:0:
393,351,89147,1,2,1:2:0:0:
198,334,89347,1,2,1:2:0:0:
198,334,89447,1,0,3:2:0:0:
198,334,89547,1,8,1:2:0:0:
355,193,89747,1,0,0:2:0:0:
159,229,89947,2,0,P|113:238|68:247,1,80,0|0,1:2|0:2,0:2:0:0:
57,251,90247,1,0,3:2:0:0:
32,256,90347,6,0,P|21:181|2:92,1,160,2|2,1:2|1:2,0:2:0:0:
176,48,90947,1,2,1:2:0:0:
176,48,91047,1,0,3:2:0:0:
176,48,91147,1,8,1:2:0:0:
102,168,91347,1,0,0:2:0:0:
88,7,91547,2,0,P|132:12|195:6,1,80,2|2,1:2|1:2,0:2:0:0:
258,183,91947,5,0,1:2:0:0:
380,108,92147,1,8,1:2:0:0:
472,218,92347,1,2,1:2:0:0:
291,99,92547,1,2,1:2:0:0:
291,99,92647,1,0,3:2:0:0:
291,99,92747,2,0,P|298:34|295:-3,1,80,8|0,1:2|0:2,0:2:0:0:
395,219,93147,2,0,P|388:284|391:321,1,80,0|0,1:2|0:2,0:2:0:0:
397,320,93447,1,0,3:2:0:0:
408,341,93547,6,0,P|329:345|245:401,1,160,6|2,1:2|1:2,0:2:0:0:
180,279,94147,1,2,1:2:0:0:
39,327,94347,2,0,P|28:268|21:218,1,80,8|0,1:2|0:2,0:2:0:0:
254,170,94747,2,0,P|265:229|272:279,1,80,2|2,1:2|0:2,0:2:0:0:
74,326,95147,6,0,P|56:241|46:171,1,120,0|0,1:2|0:2,0:2:0:0:
54,212,95547,2,0,P|103:221|153:212,1,80,2|2,1:2|1:2,0:2:0:0:
155,210,95847,1,0,3:2:0:0:
176,199,95947,1,8,1:2:0:0:
92,128,96147,1,0,1:2:0:0:
213,284,96347,1,2,1:2:0:0:
92,128,96547,1,2,1:2:0:0:
318,28,96747,6,0,P|292:100|308:159,1,120,6|0,1:2|0:2,0:2:0:0:
303,145,97147,2,0,P|356:142|400:136,1,80,2|0,1:2|0:2,0:2:0:0:
407,136,97447,1,2,3:2:0:0:
430,134,97547,1,12,1:2:0:0:
367,350,97747,1,2,1:2:0:0:
512,253,97947,1,2,1:2:0:0:
194,274,98147,5,2,1:2:0:0:
194,274,98247,1,0,3:2:0:0:
194,274,98347,1,2,1:2:0:0:
353,251,98547,1,8,1:2:0:0:
152,356,98747,1,0,1:2:0:0:
353,251,98947,1,0,0:2:0:0:
103,140,99147,6,0,P|111:191|111:238,1,80,12|0,1:2|0:2,0:2:0:0:
225,313,99547,1,0,1:2:0:0:
26,191,99747,1,0,1:2:0:0:
199,97,99947,2,0,P|191:148|191:195,1,80,4|0,1:2|0:2,0:2:0:0:
112,328,100347,5,2,1:2:0:0:
112,328,100547,1,2,1:2:0:0:
302,353,100747,2,0,P|264:282|268:197,1,160,10|2,1:2|1:2,0:2:0:0:
505,200,101347,2,0,L|515:93,1,80,2|0,1:2|0:2,0:2:0:0:
347,224,101747,1,0,1:2:0:0:
300,139,101947,2,0,L|297:50,1,80,0|0,1:2|0:2,0:2:0:0:
107,224,102347,1,8,1:2:0:0:
39,183,102547,2,0,L|31:96,2,80,2|2|2,1:2|1:2|0:2,0:2:0:0:
233,354,103147,6,0,P|243:308|223:251,1,80,2|0,1:2|0:2,0:2:0:0:
34,277,103547,2,0,P|24:323|44:380,1,80,2|2,1:2|0:2,0:2:0:0:
326,353,103947,2,0,B|342:277|295:278|312:186,1,160,10|2,1:2|1:2,0:2:0:0:
376,66,104547,1,2,1:2:0:0:
444,118,104747,2,0,P|405:141|358:147,1,80,2|0,1:2|0:2,0:2:0:0:
159,97,105147,1,2,1:2:0:0:
261,16,105347,2,0,P|281:60|285:109,1,80,2|10,1:2|1:2,0:2:0:0:
370,287,105747,1,0,0:2:0:0:
261,180,105947,1,2,1:2:0:0:
261,180,106347,6,0,B|176:195|77:220,1,160,6|2,1:2|1:2,0:2:0:0:
70,320,106947,1,2,1:2:0:0:
134,121,107147,2,0,P|91:132|45:142,1,80,8|0,1:2|0:2,0:2:0:0:
0,238,107547,1,0,1:2:0:0:
207,272,107747,2,0,P|203:221|200:158,1,80,0|0,1:2|0:2,0:2:0:0:
152,374,108147,1,8,1:2:0:0:
292,278,108347,1,0,1:2:0:0:
376,326,108547,1,0,0:2:0:0:
512,238,108747,5,8,1:2:0:0:
277,163,109147,1,2,1:2:0:0:
277,163,109347,1,0,1:2:0:0:
508,114,109547,6,0,P|430:147|392:188,1,120,6|0,1:2|0:2,0:2:0:0:
409,174,109947,2,0,P|393:114|375:71,1,80,2|2,1:2|1:2,0:2:0:0:
379,79,110247,1,0,3:2:0:0:
371,60,110347,1,14,1:2:0:0:
263,247,110547,1,0,1:2:0:0:
143,130,110747,1,0,1:2:0:0:
0,240,110947,5,8,0:2:0:0:
0,240,111047,1,0,3:2:0:0:
0,240,111147,1,12,0:2:0:0:
187,245,111347,1,8,0:2:0:0:
152,354,111547,5,4,1:2:0:0:
295,214,111747,1,0,0:2:0:0:
397,251,111947,5,10,1:2:0:0:
341,98,112147,1,0,0:2:0:0:
512,170,112347,5,2,1:2:0:0:
320,291,112547,1,8,1:2:0:0:
88,239,112747,5,6,0:2:0:0:
370,174,113147,5,2,0:0:0:0:
256,192,113347,12,0,119147,0:2:0:0:
176,255,125947,6,0,P|133:267|96:269,1,71.9999978027344,2|0,0:0|0:0,0:0:0:0:
240,321,126347,2,0,P|217:239|243:149,1,143.999995605469,2|0,0:0|0:0,0:0:0:0:
255,108,126947,1,0,0:0:0:0:
15,37,127347,1,2,0:0:0:0:
15,37,127547,2,0,P|22:89|27:210,1,143.999995605469,2|0,0:0|0:0,0:0:0:0:
258,361,128347,5,2,0:0:0:0:
358,371,128747,1,2,0:0:0:0:
422,293,129147,1,2,0:0:0:0:
417,192,129547,1,2,0:0:0:0:
276,224,129947,2,0,P|172:182|124:70,1,215.999993408203,2|0,0:0|0:0,0:0:0:0:
157,14,130747,1,0,0:0:0:0:
157,14,130947,1,2,0:0:0:0:
29,346,131747,5,2,0:0:0:0:
29,346,131947,2,0,P|110:311|170:312,1,143.999995605469,2|0,0:0|0:0,0:0:0:0:
240,366,132547,2,0,P|245:295|260:235,1,95.9999970703126,2|0,0:0|0:0,0:0:0:0:
201,19,133347,5,2,0:0:0:0:
141,124,133547,2,0,P|221:102|307:102,1,143.999995605469,2|0,0:0|0:0,0:0:0:0:
436,135,134347,1,0,0:0:0:0:
344,48,134747,1,2,0:0:0:0:
378,228,134947,1,0,0:0:0:0:
436,135,135147,6,0,P|370:141|302:156,1,128,2|0,0:0|0:0,0:0:0:0:
164,282,136347,2,0,P|190:286|213:292,2,32
286,350,136947,5,2,0:2:0:0:
286,350,137347,2,0,P|291:288|280:214,1,128,2|0,0:3|0:0,0:0:0:0:
115,150,138347,5,4,0:0:0:0:
115,150,138747,1,2,0:0:0:0:
125,240,138947,1,0,0:0:0:0:
208,186,139147,2,0,P|204:129|216:29,1,143.999995605469,2|0,0:0|0:0,0:0:0:0:
124,26,139747,1,2,0:0:0:0:
124,26,140147,1,2,0:0:0:0:
296,16,140347,2,0,L|294:139,1,95.9999970703126,2|0,0:0|0:0,0:0:0:0:
387,332,141147,5,2,0:0:0:0:
371,232,141547,1,2,0:0:0:0:
271,250,141947,1,0,0:0:0:0:
294,348,142347,1,2,0:0:0:0:
409,329,142747,2,0,P|383:252|387:175,1,143.999995605469,2|0,0:0|0:0,0:0:0:0:
414,119,143547,1,2,0:0:0:0:
414,119,143747,1,0,0:0:0:0:
53,178,144347,5,2,0:0:0:0:
56,181,144747,1,2,0:0:0:0:
106,238,145147,5,2,0:0:0:0:
179,223,145547,1,2,0:0:0:0:
240,177,145947,1,2,0:0:0:0:
314,196,146347,2,0,P|308:250|315:363,1,143.999995605469,2|0,0:0|0:0,0:0:0:0:
390,355,147147,1,2,0:0:0:0:
495,266,147447,1,2,0:0:0:0:
453,149,147747,1,2,0:0:0:0:
266,163,147947,6,0,P|317:184|400:181,1,128,2|0,0:0|0:0,0:0:0:0:
273,67,149147,1,2,0:0:0:0:
273,67,149347,2,0,L|264:181,1,96,2|0,0:0|3:0,0:0:0:0:
204,203,150347,5,0,1:0:0:0:
275,363,150547,1,0,3:0:0:0:
136,276,150747,1,0,3:0:0:0:
297,251,150947,1,0,3:0:0:0:
157,352,151147,2,0,P|107:359|84:365,1,71.9999978027344,2|0,3:2|0:0,0:0:0:0:
297,251,151547,2,0,P|347:258|370:264,1,71.9999978027344,2|2,0:0|0:0,0:0:0:0:
61,160,151947,2,0,P|45:258|80:316,1,143.999995605469,0|0,1:0|0:0,0:0:0:0:
227,94,152547,5,2,0:0:0:0:
147,90,152747,2,0,P|108:88|47:87,1,71.9999978027344,2|0,3:2|0:0,0:0:0:0:
297,132,153147,1,2,0:0:0:0:
186,24,153347,1,2,0:0:0:0:
187,163,153547,2,0,P|198:211|203:267,1,71.9999978027344,2|0,1:2|0:0,0:0:0:0:
362,97,153947,2,0,P|367:61|375:26,1,71.9999978027344,2|0,1:2|0:0,0:0:0:0:
486,129,154347,5,2,3:2:0:0:
176,296,154747,1,0,0:0:0:0:
263,154,154947,1,0,0:0:0:0:
388,284,155147,2,0,P|346:282|300:271,1,71.9999978027344,2|0,1:2|0:0,0:0:0:0:
176,219,155547,2,0,P|230:231|271:252,1,71.9999978027344,2|0,0:2|0:0,0:0:0:0:
259,384,155947,2,0,P|250:333|256:281,1,71.9999978027344,2|0,3:2|0:0,0:0:0:0:
368,198,156347,5,2,0:2:0:0:
259,384,156547,1,2,1:2:0:0:
176,219,156747,2,0,P|230:231|271:252,1,71.9999978027344,0|0,1:0|0:0,0:0:0:0:
388,284,157147,1,0,1:0:0:0:
259,384,157347,1,0,0:0:0:0:
176,219,157547,1,4,3:2:0:0:
435,124,158347,6,0,P|387:136|326:132,2,107.999996704102,2|2|2,1:2|0:0|0:0,0:0:0:0:
500,177,159147,2,0,P|469:118|475:15,1,143.999995605469,2|2,3:2|0:0,0:0:0:0:
302,274,159947,2,0,P|391:238|452:243,1,143.999995605469,2|0,1:2|0:0,0:0:0:0:
51,33,160747,6,0,L|39:193,1,143.999995605469,2|0,3:2|0:0,0:0:0:0:
184,281,161547,1,2,1:2:0:0:
107,243,161747,2,0,L|33:253,2,71.9999978027344,0|2|2,0:0|0:0|0:0,0:0:0:0:
256,320,162347,5,0,3:0:0:0:
146,177,162547,1,0,0:0:0:0:
88,331,162747,2,0,P|145:312|189:302,1,71.9999978027344
337,349,163147,5,0,1:3:0:0:
458,288,163347,1,8,3:0:0:0:
481,195,163547,1,4,3:0:0:0:
464,124,163747,1,4,3:0:0:0:
293,166,163947,6,0,P|244:187|115:172,1,143.999995605469,6|2,3:2|0:0,0:0:0:0:
117,116,164547,1,2,0:0:0:0:
38,276,164747,2,0,P|96:260|143:257,1,71.9999978027344,0|0,1:0|0:0,0:0:0:0:
187,303,165147,1,0,0:0:0:0:
59,185,165347,1,2,0:0:0:0:
191,155,165547,6,0,P|184:209|183:246,1,71.9999978027344,2|0,3:2|0:0,0:0:0:0:
140,359,165947,1,2,0:0:0:0:
140,359,166147,1,2,0:0:0:0:
240,333,166347,2,0,P|315:340|397:360,1,143.999995605469,0|2,1:0|0:0,0:0:0:0:
496,228,167147,5,2,3:2:0:0:
427,293,167547,1,0,0:0:0:0:
254,94,167947,5,2,1:2:0:0:
221,249,168347,1,2,0:0:0:0:
37,150,168747,6,0,P|66:228|75:291,1,143.999995605469,2|2,3:2|0:0,0:0:0:0:
211,378,169347,1,2,0:0:0:0:
228,275,169547,2,0,P|178:278|134:292,1,71.9999978027344,0|0,1:2|0:0,0:0:0:0:
116,358,169947,1,0,0:0:0:0:
390,299,170147,1,0,0:0:0:0:
390,299,170247,1,0,0:0:0:0:
390,299,170347,1,4,1:2:0:0:
490,184,170747,5,0,0:0:0:0:
450,380,171147,1,0,1:0:0:0:
312,256,171547,2,0,P|363:248|410:245,1,71.9999978027344,2|0,0:0|0:0,0:0:0:0:
241,194,171947,2,0,P|235:242|219:286,1,71.9999978027344,2|0,3:2|0:0,0:0:0:0:
286,335,172347,1,2,1:2:0:0:
322,157,172547,1,2,0:0:0:0:
162,218,172747,1,0,1:0:0:0:
452,280,172947,2,0,P|455:224|460:175,1,71.9999978027344,2|0,0:0|0:0,0:0:0:0:
35,24,173547,6,0,P|87:72|161:93,1,143.999995605469,2|0,3:2|0:0,0:0:0:0:
182,14,174147,1,0,0:0:0:0:
79,154,174347,2,0,P|67:195|60:255,1,71.9999978027344,0|0,1:0|0:0,0:0:0:0:
191,167,174747,1,2,1:2:0:0:
5,120,174947,1,0,0:0:0:0:
129,277,175147,2,0,P|179:262|213:258,1,71.9999978027344,2|0,3:2|1:0,0:0:0:0:
266,154,175547,5,0,0:0:0:0:
300,346,175747,1,2,0:0:0:0:
402,198,175947,5,0,1:0:0:0:
397,296,176147,1,2,0:0:0:0:
507,237,176347,5,0,1:0:0:0:
507,237,176747,6,0,P|487:142|485:59,1,143.999995605469,6|0,0:0|1:2,0:0:0:0:
262,152,177547,2,0,P|344:175|420:211,1,143.999995605469,0|2,1:0|1:2,0:0:0:0:
397,198,178147,1,2,0:0:0:0:
303,86,178347,2,0,P|314:46|316:4,1,71.9999978027344,2|0,3:2|0:0,0:0:0:0:
407,113,178747,1,2,1:2:0:0:
232,224,178947,2,0,P|235:259|245:294,1,71.9999978027344,2|4,0:0|1:2,0:0:0:0:
382,353,179547,1,2,0:0:0:0:
96,257,179747,5,0,1:0:0:0:
96,257,179847,1,0,1:0:0:0:
96,257,179947,2,0,P|150:170|151:99,1,143.999995605469,6|0,1:2|0:0,0:0:0:0:
156,20,180547,1,2,0:0:0:0:
429,64,180747,6,0,P|380:76|339:92,1,71.9999978027344,0|0,1:0|0:0,0:0:0:0:
224,162,181147,2,0,P|268:171|298:181,1,64,2|0,1:2|0:0,0:0:0:0:
430,220,181547,2,0,P|390:230|357:245,1,55.9999982910157,2|0,1:2|0:0,0:0:0:0:
237,250,181947,1,0,1:0:0:0:
395,328,182147,1,2,0:0:0:0:
192,334,182347,2,0,P|230:325|256:322,1,47.9999985351563,0|0,1:0|0:0,0:0:0:0:
260,325,182647,1,0,0:0:0:0:
287,328,182747,6,0,P|204:298|116:317,1,160,6|0,0:0|0:0,0:0:0:0:
247,99,185119,5,0,1:0:0:0:
273,256,185319,1,2,0:0:0:0:
273,256,185419,1,2,0:0:0:0:
273,256,185519,1,0,0:0:0:0:
179,192,185719,1,0,0:0:0:0:
344,171,185919,2,0,P|374:167|388:165,1,35.9999989013672,2|0,0:0|0:0,0:0:0:0:
434,276,186347,6,0,P|457:198|449:137,1,125.999996154785,6|0,1:2|0:0,0:2:0:0:
446,124,186747,1,2,1:2:0:0:
314,242,186947,1,2,0:2:0:0:
184,219,187147,2,0,P|136:217|91:217,1,83.9999974365235,8|0,1:2|0:2,0:2:0:0:
261,306,187547,5,2,1:2:0:0:
302,163,187747,2,0,P|298:86|282:8,1,125.999996154785,2|0,1:2|0:0,0:2:0:0:
278,7,188147,1,0,1:2:0:0:
167,164,188347,1,2,1:2:0:0:
35,102,188547,1,2,0:2:0:0:
35,102,188647,1,0,3:0:0:0:
35,102,188747,1,8,1:2:0:0:
224,101,188947,1,0,1:2:0:0:
35,207,189147,2,0,P|99:173|137:169,1,83.9999974365235,0|0,0:2|1:2,0:0:0:0:
138,165,189447,1,0,3:2:0:0:
167,164,189547,6,0,L|164:301,1,125.999996154785,2|0,1:2|0:0,0:2:0:0:
163,325,189947,1,2,1:2:0:0:
321,360,190147,2,0,P|274:334|245:296,1,83.9999974365235,2|8,1:2|1:2,0:2:0:0:
371,239,190547,1,0,0:2:0:0:
476,313,190747,2,0,P|505:267|513:220,1,83.9999974365235,2|2,1:2|1:2,0:2:0:0:
430,73,191147,5,0,0:2:0:0:
371,239,191347,1,8,1:2:0:0:
460,177,191547,1,2,1:2:0:0:
322,68,191747,1,2,1:2:0:0:
322,68,191847,1,0,3:2:0:0:
322,68,191947,1,8,1:2:0:0:
460,177,192147,1,0,1:2:0:0:
283,171,192347,2,0,P|227:184|185:197,1,83.9999974365235,0|0,1:2|0:2,0:2:0:0:
0,86,192747,6,0,P|55:133|165:133,1,167.999994873047,6|2,1:2|1:2,0:2:0:0:
208,86,193347,1,2,1:2:0:0:
130,221,193547,2,0,P|117:277|106:327,1,83.9999974365235,8|0,1:2|0:2,0:2:0:0:
42,252,193947,5,2,1:2:0:0:
206,278,194147,2,0,P|253:288|335:313,1,125.999996154785,2|0,1:2|0:0,0:2:0:0:
357,326,194547,1,0,1:2:0:0:
253,370,194747,1,2,1:2:0:0:
357,219,194947,1,2,1:2:0:0:
357,219,195047,1,0,3:2:0:0:
357,219,195147,1,8,1:2:0:0:
439,384,195347,1,0,0:2:0:0:
512,172,195547,5,2,1:2:0:0:
423,287,195747,1,2,1:2:0:0:
279,244,195947,2,0,P|325:163|321:101,1,125.999996154785,6|0,1:2|0:2,0:2:0:0:
330,136,196347,2,0,P|311:78|310:31,1,83.9999974365235,2|2,1:2|1:2,0:2:0:0:
310,34,196647,1,0,3:2:0:0:
314,13,196747,1,12,1:2:0:0:
228,156,196947,1,2,1:2:0:0:
442,69,197147,1,2,1:2:0:0:
117,103,197347,5,2,1:2:0:0:
117,103,197447,1,0,3:2:0:0:
117,103,197547,1,2,1:2:0:0:
309,55,197747,1,8,1:2:0:0:
246,273,197947,1,0,1:2:0:0:
35,214,198147,5,0,0:2:0:0:
159,169,198347,2,0,P|144:222|139:273,1,83.9999974365235,12|0,1:2|0:2,0:2:0:0:
182,365,198747,1,0,1:2:0:0:
50,334,198947,1,0,1:2:0:0:
262,290,199147,6,0,B|345:284|336:333|430:322,1,167.999994873047,4|2,0:2|1:2,0:0:0:0:
511,248,199747,1,2,1:2:0:0:
415,162,199947,2,0,P|388:211|388:256,1,83.9999974365235,10|0,1:2|0:2,0:2:0:0:
503,125,200347,1,2,1:2:0:0:
319,90,200547,2,0,P|403:79|469:12,1,167.999994873047,2|0,1:2|1:2,0:2:0:0:
302,185,201147,2,0,P|255:178|194:171,1,83.9999974365235,0|0,1:2|0:2,0:0:0:0:
50,297,201547,2,0,P|97:290|158:283,1,83.9999974365235,8|0,1:2|0:2,0:2:0:0:
310,278,201947,5,2,1:2:0:0:
181,353,202147,1,0,1:2:0:0:
89,219,202347,2,0,L|80:26,1,167.999994873047,2|0,1:2|0:2,0:2:0:0:
279,24,202947,1,0,1:2:0:0:
279,24,203147,2,0,L|287:120,1,83.9999974365235,10|0,1:2|0:2,0:2:0:0:
300,237,203547,1,2,1:2:0:0:
211,207,203747,2,0,P|170:197|122:200,1,83.9999974365235,2|0,1:2|0:2,0:2:0:0:
362,181,204147,1,8,1:2:0:0:
220,287,204347,2,0,P|185:318|153:361,1,83.9999974365235,2|0,1:2|0:2,0:2:0:0:
440,215,204747,1,8,1:2:0:0:
440,215,205147,5,2,1:2:0:0:
427,330,205347,1,2,1:2:0:0:
314,243,205547,2,0,B|301:154|346:174|332:76,1,167.999994873047,6|2,1:2|1:2,0:2:0:0:
135,78,206147,1,2,1:2:0:0:
242,115,206347,2,0,P|248:68|240:20,1,83.9999974365235,8|0,0:2|1:2,0:0:0:0:
35,37,206747,2,0,P|28:88|37:132,1,83.9999974365235,0|0,1:2|1:2,0:0:0:0:
248,234,207147,5,0,1:2:0:0:
67,259,207347,1,0,1:2:0:0:
271,231,207547,1,2,1:2:0:0:
91,176,207747,5,0,1:2:0:0:
91,176,207847,1,0,3:0:0:0:
91,176,207947,1,10,1:2:0:0:
240,319,208147,1,0,0:2:0:0:
192,128,208347,5,2,1:2:0:0:
105,354,208547,1,0,1:2:0:0:
407,273,208747,5,6,0:2:0:0:
407,273,209147,5,0,1:2:0:0:
317,336,209347,1,0,1:2:0:0:
179,318,209547,1,8,0:2:0:0:
66,196,209747,1,8,1:2:0:0:
122,35,209947,1,10,1:2:0:0:
316,43,210213,5,0,1:2:0:0:
316,43,210347,2,0,P|311:117|284:191,1,125.999996154785,6|0,1:2|0:0,0:2:0:0:
280,200,210747,2,0,P|344:187|393:191,1,83.9999974365235,6|2,1:2|0:2,0:0:0:0:
387,190,211047,1,0,1:0:0:0:
411,193,211147,1,0,1:2:0:0:
358,301,211347,1,2,3:2:0:0:
512,252,211547,1,0,1:2:0:0:
462,353,211747,1,0,1:2:0:0:
329,321,211947,6,0,P|260:306|190:310,1,125.999996154785,6|0,1:2|0:2,0:2:0:0:
176,329,212347,2,0,P|169:263|154:209,1,83.9999974365235,2|2,1:2|1:2,0:2:0:0:
48,88,212747,2,0,P|103:112|190:108,1,125.999996154785,8|0,0:2|0:0,0:0:0:0:
197,100,213147,1,2,1:2:0:0:
14,237,213347,6,0,P|64:217|119:212,1,83.9999974365235,2|0,0:2|1:2,0:0:0:0:
380,255,213747,1,0,1:0:0:0:
279,88,213947,1,2,1:2:0:0:
263,282,214147,1,2,1:2:0:0:
263,282,214247,1,0,3:2:0:0:
263,282,214347,1,8,1:2:0:0:
390,134,214547,1,0,0:2:0:0:
201,178,214747,2,0,P|261:187|311:199,1,83.9999974365235,0|0,1:2|0:2,0:2:0:0:
492,365,215147,6,0,P|494:279|511:202,1,125.999996154785,2|0,1:2|0:0,0:2:0:0:
508,210,215547,1,2,1:2:0:0:
414,285,215747,2,0,P|368:312|313:323,1,83.9999974365235,2|8,1:2|1:2,0:0:0:0:
183,352,216147,1,0,0:2:0:0:
183,254,216347,2,0,P|222:266|258:289,1,83.9999974365235,2|2,1:2|1:2,0:2:0:0:
0,260,216747,5,0,1:2:0:0:
187,171,216947,1,8,1:2:0:0:
49,132,217147,1,2,1:2:0:0:
114,314,217347,1,2,1:2:0:0:
114,314,217447,1,0,3:2:0:0:
114,314,217547,2,0,P|96:262|100:210,1,83.9999974365235,8|0,1:2|0:2,0:2:0:0:
263,158,217947,2,0,P|276:96|271:61,1,83.9999974365235,0|0,1:2|0:2,0:2:0:0:
263,53,218247,1,0,3:2:0:0:
252,31,218347,6,0,P|335:34|413:4,1,167.999994873047,2|2,1:2|1:2,0:2:0:0:
344,150,218947,1,2,1:2:0:0:
435,179,219147,2,0,P|474:193|528:219,1,83.9999974365235,8|0,1:2|0:2,0:2:0:0:
432,94,219547,1,2,1:2:0:0:
369,235,219747,2,0,P|349:306|345:361,1,125.999996154785,2|0,1:2|0:0,0:0:0:0:
351,384,220147,1,0,1:0:0:0:
156,296,220347,6,0,P|213:291|260:277,1,83.9999974365235,2|2,1:2|1:2,0:2:0:0:
261,279,220647,1,0,3:2:0:0:
283,273,220747,1,8,1:2:0:0:
84,329,220947,1,0,1:2:0:0:
163,211,221147,1,2,1:2:0:0:
216,384,221347,1,2,1:2:0:0:
43,243,221547,6,0,P|62:175|53:91,1,125.999996154785,6|0,1:2|0:2,0:2:0:0:
63,123,221947,2,0,P|116:107|178:94,1,83.9999974365235,2|2,1:2|1:2,0:2:0:0:
168,94,222247,1,0,3:2:0:0:
192,88,222347,1,12,1:2:0:0:
0,40,222547,1,2,1:2:0:0:
169,212,222747,1,2,1:2:0:0:
276,9,222947,5,2,1:2:0:0:
276,9,223047,1,0,3:2:0:0:
276,9,223147,1,2,1:2:0:0:
403,169,223347,1,8,1:2:0:0:
235,144,223547,5,0,1:2:0:0:
460,28,223747,1,0,0:2:0:0:
327,212,223947,6,0,P|322:247|305:282,2,55.9999982910157,12|0|0,1:2|3:0|1:0,0:2:0:0:
424,299,224347,2,0,P|429:334|446:369,2,55.9999982910157,4|6|4,3:0|3:0|1:0,1:0:0:0:
264,320,224747,6,0,P|193:330|106:346,1,125.999996154785,4|0,1:2|0:0,0:2:0:0:
108,346,225147,1,2,1:2:0:0:
232,219,225347,1,2,1:2:0:0:
17,225,225547,2,0,P|75:252|111:250,1,83.9999974365235,10|0,1:2|0:0,0:2:0:0:
222,82,225947,5,2,1:2:0:0:
133,94,226147,2,0,P|88:101|35:110,1,83.9999974365235,2|0,1:2|0:2,0:2:0:0:
166,12,226547,1,0,1:2:0:0:
303,156,226747,2,0,P|299:102|312:39,1,83.9999974365235,0|0,1:2|0:2,0:2:0:0:
500,16,227147,1,8,1:2:0:0:
486,124,227347,1,2,1:2:0:0:
376,112,227547,1,2,1:2:0:0:
395,2,227747,1,2,0:2:0:0:
508,153,227947,6,0,P|432:172|382:205,1,125.999996154785,2|0,1:2|0:0,0:2:0:0:
371,216,228347,1,2,1:2:0:0:
284,362,228547,1,2,0:2:0:0:
284,362,228747,2,0,P|308:301|282:227,1,83.9999974365235,10|0,1:2|0:0,0:2:0:0:
105,234,229147,1,2,1:2:0:0:
203,286,229347,5,2,1:2:0:0:
203,286,229447,1,0,3:0:0:0:
203,286,229547,2,0,L|206:165,1,83.9999974365235,2|0,1:2|0:2,0:2:0:0:
95,341,229947,1,2,1:2:0:0:
301,169,230147,1,2,1:2:0:0:
32,119,230347,2,0,P|72:148|132:163,1,83.9999974365235,10|0,1:2|0:2,0:0:0:0:
256,18,230747,2,0,P|233:63|228:124,1,83.9999974365235,2|0,1:2|0:0,0:0:0:0:
436,207,231147,6,0,B|362:204|362:255|266:248,1,167.999994873047,6|2,1:2|1:2,0:2:0:0:
300,161,231747,1,2,1:2:0:0:
424,300,231947,2,0,P|429:342|416:389,1,83.9999974365235,8|0,1:2|0:2,0:2:0:0:
203,298,232347,1,0,1:2:0:0:
276,248,232547,2,0,P|329:232|382:235,1,83.9999974365235,0|0,1:2|1:2,0:2:0:0:
228,384,232947,1,8,1:2:0:0:
124,269,233147,2,0,P|105:221|96:177,1,83.9999974365235,0|0,1:2|0:2,0:0:0:0:
136,82,233547,5,8,1:2:0:0:
375,104,233947,2,0,P|413:101|453:95,1,71.9999978027344,2|0,1:2|0:0,0:0:0:0:
512,32,234347,6,0,P|476:121|494:201,1,143.999995605469,6|0,1:2|0:2,0:2:0:0:
491,195,234747,1,2,1:2:0:0:
260,349,234947,5,2,1:2:0:0:
260,349,235047,1,0,3:2:0:0:
260,349,235147,2,0,P|283:254|266:185,1,143.999995605469,14|0,1:2|0:0,0:0:0:0:
264,180,235547,1,0,1:2:0:0:
143,328,235747,1,0,1:0:0:0:
0,245,235947,6,0,P|53:240|101:237,1,83.9999974365235,4|0,1:2|0:0,0:0:0:0:
205,125,236347,2,0,P|152:120|104:117,1,83.9999974365235,4|0,1:2|0:0,0:0:0:0:
310,13,236747,5,4,3:0:0:0:
340,81,236880,5,4,3:0:0:0:
313,135,237013,5,4,3:0:0:0:
284,177,237147,5,4,3:0:0:0:
284,211,237280,5,4,3:0:0:0:
292,230,237413,5,4,3:0:0:0:
300,236,237547,6,0,B|367:248|367:211|446:218,1,132.00000402832,6|0,1:2|0:0,0:2:0:0:
456,227,237947,1,2,1:2:0:0:
311,314,238147,2,0,P|269:340|234:380,1,88.000002685547,2|8,0:2|1:2,0:0:0:0:
498,292,238547,1,0,0:2:0:0:
327,167,238747,5,2,1:2:0:0:
327,167,238947,2,0,P|359:86|353:0,1,176.000005371094,2|0,1:2|0:2,0:2:0:0:
131,132,239547,1,2,1:2:0:0:
221,154,239747,1,2,1:2:0:0:
221,154,239847,1,0,3:0:0:0:
221,154,239947,2,0,P|273:170|326:194,1,88.000002685547,8|0,1:2|1:2,0:0:0:0:
30,362,240347,2,0,P|21:309|35:254,1,88.000002685547,0|0,1:2|1:2,0:0:0:0:
38,251,240647,1,0,3:2:0:0:
57,233,240747,6,0,P|123:198|221:213,1,176.000005371094,6|2,1:2|1:2,0:2:0:0:
326,296,241347,1,2,1:2:0:0:
236,318,241547,2,0,P|194:330|140:352,1,88.000002685547,8|0,1:2|0:2,0:0:0:0:
308,384,241947,5,2,1:2:0:0:
420,311,242147,2,0,P|401:228|401:161,1,132.00000402832,2|0,1:2|0:0,0:0:0:0:
404,148,242547,1,8,1:2:0:0:
299,253,242747,1,2,1:2:0:0:
512,173,242947,5,2,1:2:0:0:
512,173,243047,1,0,3:2:0:0:
512,173,243147,1,8,1:2:0:0:
272,45,243347,1,0,1:2:0:0:
367,1,243547,2,0,P|356:55|357:97,1,88.000002685547,0|0,1:2|0:2,0:2:0:0:
228,272,243947,6,0,P|278:193|278:131,1,132.00000402832,6|0,1:2|0:0,0:2:0:0:
277,124,244347,1,2,1:2:0:0:
86,191,244547,2,0,P|136:187|187:183,1,88.000002685547,2|8,1:2|1:2,0:0:0:0:
298,231,244947,1,0,1:2:0:0:
150,101,245147,1,2,1:2:0:0:
139,275,245347,2,0,P|155:337|154:372,1,88.000002685547,2|0,1:2|0:0,0:2:0:0:
285,354,245747,5,0,1:2:0:0:
364,346,245947,2,0,P|418:339|477:335,1,88.000002685547,2|2,1:2|1:2,0:0:0:0:
240,288,246347,2,0,P|240:216|292:153,1,132.00000402832,8|0,1:2|0:0,0:0:0:0:
301,160,246747,1,2,1:2:0:0:
492,37,246947,5,2,1:2:0:0:
492,37,247047,1,0,3:0:0:0:
492,37,247147,2,0,P|423:50|346:42,1,132.00000402832,2|0,1:2|0:2,0:2:0:0:
326,35,247547,1,2,1:2:0:0:
512,124,247747,2,0,P|464:149|415:187,1,88.000002685547,2|12,1:2|1:2,0:0:0:0:
363,255,248147,1,2,1:2:0:0:
253,112,248347,1,2,1:2:0:0:
112,193,248547,5,2,1:2:0:0:
112,193,248647,1,0,3:2:0:0:
112,193,248747,2,0,P|171:189|212:187,1,88.000002685547,6|8,1:2|1:2,0:0:0:0:
81,288,249147,2,0,P|41:267|-19:256,1,88.000002685547,0|0,1:2|0:2,0:0:0:0:
275,199,249547,1,12,1:2:0:0:
275,199,249947,5,0,1:2:0:0:
135,361,250147,1,0,1:2:0:0:
135,361,250247,1,0,3:0:0:0:
135,361,250347,2,0,P|201:342|268:344,1,132.00000402832,4|0,1:2|0:0,0:0:0:0:
300,356,250747,2,0,P|292:291|298:240,1,88.000002685547,2|2,1:2|1:2,0:0:0:0:
325,81,251147,1,10,1:2:0:0:
414,238,251347,1,0,0:2:0:0:
251,174,251547,5,2,1:2:0:0:
411,141,251747,2,0,P|460:132|513:126,1,88.000002685547,2|0,1:2|0:0,0:2:0:0:
296,75,252147,1,0,1:2:0:0:
400,225,252347,2,0,P|428:270|454:345,1,88.000002685547,0|0,1:2|0:2,0:0:0:0:
185,255,252747,1,8,1:2:0:0:
185,255,253147,2,0,P|131:265|88:271,1,88.000002685547,2|0,1:2|1:2,0:0:0:0:
0,188,253547,6,0,P|19:269|30:367,1,176.000005371094,2|0,1:2|0:2,0:2:0:0:
197,167,254147,1,0,1:2:0:0:
197,167,254347,2,0,P|189:220|182:275,1,88.000002685547,10|0,1:2|0:2,0:2:0:0:
293,338,254747,1,2,1:2:0:0:
394,278,254947,1,2,1:2:0:0:
394,278,255047,1,0,3:0:0:0:
394,278,255147,2,0,P|388:234|381:190,1,88.000002685547,0|8,1:2|1:2,0:0:0:0:
368,99,255547,1,2,1:2:0:0:
512,95,255747,2,0,P|506:138|500:182,1,88.000002685547,0|8,1:2|1:2,0:0:0:0:
232,273,256347,5,2,1:2:0:0:
137,356,256547,1,2,1:2:0:0:
42,267,256747,2,0,P|92:274|145:294,1,88.000002685547,6|0,1:2|0:2,0:2:0:0:
42,352,257147,1,2,1:2:0:0:
228,198,257347,1,2,1:2:0:0:
94,121,257547,2,0,P|110:170|118:215,1,88.000002685547,8|0,0:2|1:2,0:0:0:0:
265,338,257947,2,0,P|274:295|288:253,1,88.000002685547,0|0,1:2|1:2,0:0:0:0:
339,197,258347,5,0,1:2:0:0:
392,294,258547,1,0,1:2:0:0:
228,198,258747,1,2,1:2:0:0:
368,85,258947,1,0,0:2:0:0:
210,273,259147,2,0,P|159:279|119:291,1,88.000002685547,10|0,1:2|0:2,0:2:0:0:
403,150,259547,2,0,P|454:156|494:168,1,88.000002685547,2|0,1:2|0:2,0:2:0:0:
253,8,259947,5,6,0:2:0:0:
253,8,260347,1,0,1:2:0:0:
152,106,260547,1,0,1:2:0:0:
258,198,260747,1,12,0:2:0:0:
362,103,260947,1,0,1:2:0:0:
144,13,261147,5,2,1:2:0:0:
162,204,261347,1,0,1:2:0:0:
375,175,261547,2,0,P|347:229|335:314,1,132.00000402832,6|0,1:2|0:0,0:0:0:0:
339,326,261947,1,2,1:2:0:0:
512,262,262147,2,0,P|464:261|417:265,1,88.000002685547,2|0,1:2|0:0,0:0:0:0:
272,368,262547,1,2,1:2:0:0:
175,281,262747,2,4,P|137:281|88:296,2,58.6666684570313,0|4|4,1:2|3:0|3:0,3:0:0:0:
249,237,263147,6,0,P|200:313|195:384,1,132.00000402832,6|0,1:2|0:2,0:2:0:0:
200,383,263547,1,2,1:2:0:0:
24,232,263747,2,0,P|71:251|121:251,1,88.000002685547,2|8,1:2|0:2,0:0:0:0:
72,65,264147,1,0,1:2:0:0:
239,96,264347,5,2,1:2:0:0:
161,131,264547,2,0,P|118:151|77:173,1,88.000002685547,2|0,1:2|1:2,0:0:0:0:
150,49,264947,1,0,0:0:0:0:
304,170,265147,1,2,1:2:0:0:
468,97,265347,1,2,1:2:0:0:
468,97,265447,1,0,3:2:0:0:
468,97,265547,2,0,P|458:45|455:-5,1,88.000002685547,8|0,1:2|0:2,0:0:0:0:
337,175,265947,2,0,P|402:189|440:206,1,88.000002685547,0|0,1:2|0:2,0:2:0:0:
446,205,266247,1,0,3:2:0:0:
469,216,266347,6,0,P|449:286|447:353,1,132.00000402832,6|0,1:2|0:0,0:2:0:0:
453,377,266747,1,2,1:2:0:0:
253,328,266947,2,0,P|202:321|140:317,1,88.000002685547,2|8,1:2|1:2,0:0:0:0:
1,220,267347,1,0,0:2:0:0:
101,363,267547,1,2,1:2:0:0:
203,244,267747,6,0,P|195:179|201:120,1,88.000002685547,2|0,1:2|1:2,0:0:0:0:
298,5,268147,1,8,1:2:0:0:
278,191,268347,1,2,1:2:0:0:
373,104,268547,1,2,1:2:0:0:
373,104,268647,1,0,3:2:0:0:
373,104,268747,2,0,P|306:101|268:94,1,88.000002685547,12|0,1:2|0:2,0:2:0:0:
155,82,269147,1,0,1:2:0:0:
449,178,269347,5,0,1:2:0:0:
449,178,269447,1,0,3:2:0:0:
449,178,269547,2,0,P|374:217|330:284,1,132.00000402832,6|0,1:2|0:0,0:2:0:0:
329,282,269947,1,2,1:2:0:0:
179,172,270147,1,2,1:2:0:0:
152,339,270347,2,0,P|174:290|174:223,1,88.000002685547,8|0,1:2|0:2,0:2:0:0:
67,265,270747,5,2,1:2:0:0:
272,195,270947,2,0,P|254:272|256:352,1,132.00000402832,2|0,1:2|0:0,0:0:0:0:
259,352,271347,1,0,1:0:0:0:
67,163,271547,2,0,P|119:186|173:193,1,88.000002685547,2|2,1:2|1:2,0:2:0:0:
294,118,271947,1,8,1:2:0:0:
146,271,272147,1,0,1:2:0:0:
377,189,272347,5,2,1:2:0:0:
188,106,272547,1,2,1:2:0:0:
453,37,272747,2,0,P|448:112|459:178,1,132.00000402832,6|0,1:2|0:2,0:2:0:0:
463,193,273147,1,2,1:2:0:0:
249,342,273320,6,0,L|257:237,1,88.000002685547,6|8,0:2|1:2,0:0:0:0:
164,378,273716,1,2,1:2:0:0:
337,209,273914,1,6,1:2:0:0:
35,258,274112,1,2,1:2:0:0:
35,258,274211,1,0,3:2:0:0:
35,258,274310,1,2,1:2:0:0:
244,168,274505,5,12,1:2:0:0:
41,179,274755,1,0,1:0:0:0:
255,254,274955,1,0,1:0:0:0:
178,45,275129,2,0,P|117:98|22:100,1,176.000005371094,12|0,1:2|1:2,0:2:0:0:
25,101,275729,1,0,1:2:0:0:
264,18,275955,6,0,P|256:76|283:158,1,132.00000402832,4|0,1:2|0:0,0:2:0:0:
293,170,276355,1,2,1:2:0:0:
450,98,276555,1,2,1:2:0:0:
450,98,276755,2,0,P|401:83|348:82,1,88.000002685547,10|0,1:2|0:0,0:2:0:0:
230,247,277155,5,2,1:2:0:0:
327,270,277355,2,0,P|391:289|435:306,1,88.000002685547,2|0,1:2|0:2,0:2:0:0:
215,319,277755,1,0,1:2:0:0:
370,191,277955,1,0,1:2:0:0:
371,384,278155,1,0,1:2:0:0:
371,384,278255,1,0,3:0:0:0:
371,384,278355,1,8,1:2:0:0:
112,222,278555,5,2,1:2:0:0:
179,311,278755,2,0,P|192:260|187:203,1,88.000002685547,2|2,1:2|0:2,0:0:0:0:
131,39,279155,2,0,P|96:103|95:170,1,132.00000402832,2|0,1:2|0:0,0:2:0:0:
100,186,279555,1,2,1:2:0:0:
275,284,279755,1,2,0:2:0:0:
278,107,279955,2,0,P|228:115|184:127,1,88.000002685547,10|0,1:2|0:0,0:2:0:0:
194,340,280355,5,2,1:2:0:0:
356,191,280555,1,2,1:2:0:0:
171,193,280755,2,0,P|235:213|269:210,1,88.000002685547,2|0,1:2|0:2,0:2:0:0:
482,213,281155,5,2,1:2:0:0:
294,288,281355,1,2,1:2:0:0:
503,319,281555,1,6,1:2:0:0:
356,191,281755,5,0,1:2:0:0:
381,384,281955,1,2,1:2:0:0:
381,384,282355,6,0,P|418:304|410:204,1,176.000005371094,6|2,1:2|1:2,0:2:0:0:
239,84,282955,1,2,1:2:0:0:
200,159,283155,2,0,P|207:209|241:269,1,88.000002685547,8|0,1:2|0:2,0:2:0:0:
306,137,283555,1,0,1:2:0:0:
125,113,283755,2,0,P|71:117|19:143,1,88.000002685547,0|0,1:2|0:2,0:2:0:0:
180,352,284155,1,8,1:2:0:0:
307,295,284355,2,0,P|327:236|316:173,1,88.000002685547,0|0,1:2|0:2,0:0:0:0:
0,204,284755,5,8,1:2:0:0:
126,301,285155,1,2,1:2:0:0:
111,187,285355,1,0,1:2:0:0:
13,317,285555,6,0,P|96:329|161:374,1,143.999995605469,6|0,1:2|0:2,0:2:0:0:
164,384,285955,1,6,1:2:0:0:
289,212,286155,1,2,1:2:0:0:
464,254,286355,6,0,L|482:136,1,95.9999970703126,14|0,1:2|1:2,0:0:0:0:
210,186,286755,2,0,L|202:87,1,80,4|8,1:2|0:2,0:0:0:0:
201,78,287055,1,0,3:2:0:0:
198,50,287155,5,12,0:2:0:0:
137,283,287355,1,8,0:2:0:0:
322,106,287555,1,0,1:2:0:0:
82,131,287755,1,0,1:2:0:0:
298,258,287955,2,0,P|356:275|403:297,1,80,10|0,1:2|0:2,0:0:0:0:
489,175,288355,5,2,1:2:0:0:
374,283,288555,5,8,1:2:0:0:
343,367,288755,5,6,0:2:0:0:
45,258,289155,5,2,0:0:0:0:
256,192,289355,12,0,295155,0:0:0:0:
