osu file format v14

[General]
AudioFilename: audio.mp3
AudioLeadIn: 0
PreviewTime: 60255
Countdown: 0
SampleSet: Soft
StackLeniency: 0.5
Mode: 0
LetterboxInBreaks: 0
EpilepsyWarning: 1
WidescreenStoryboard: 1

[Editor]
Bookmarks: 61555,87155,112755,186355,211955,237555,263155,288755
DistanceSpacing: 0.7
BeatDivisor: 4
GridSize: 4
TimelineZoom: 2.3

[Metadata]
Title:Close Your Eyes
TitleUnicode:Close Your Eyes
Artist:Ayane
ArtistUnicode:彩音
Creator:Luscent
Version:Kalibe's Insane
Source:G線上の魔王
Tags:404 aimnotfound kalibe G-Senjou no Maou G Senjou insert song full pidor devil on g string g-string japanese video game j-rock jrock rock elephant notes Akabei Soft2
BeatmapID:2505079
BeatmapSetID:1190434

[Difficulty]
HPDrainRate:4.5
CircleSize:4
OverallDifficulty:7
ApproachRate:8
SliderMultiplier:1.7
SliderTickRate:1

[Events]
//Background and Video events
0,0,"bg.jpg",0,0
//Break Periods
2,119155,124797
//Storyboard Layer 0 (Background)
//Storyboard Layer 1 (Fail)
//Storyboard Layer 2 (Pass)
//Storyboard Layer 3 (Foreground)
Sprite,Foreground,Centre,"sb\holeinwhite.png",140,281 S,4,235954,236254,19.36219,14.80638 S,4,236354,236654,14.80638,10.25057 F,0,236754,,1 C,0,236754,,0,0,0 S,3,236754,237554,10.25057,0.9111617 F,0,237554,237654,1,0
//Storyboard Layer 4 (Overlay)
//Storyboard Sound Samples

[TimingPoints]
-853,400,4,2,0,20,1,0
547,-166.666666666666,4,2,1,20,0,0
747,-166.666666666666,4,2,1,40,0,0
26347,-142.857142857143,4,2,1,40,0,0
55147,-166.666666666667,4,2,1,60,0,0
55747,-142.857142857143,4,2,1,50,0,0
56347,-200,4,2,1,40,0,0
56747,-125,4,2,1,60,0,0
57347,-166.666666666667,4,2,1,50,0,0
57947,-666.666666666667,4,2,1,40,0,0
59947,-666.666666666667,4,2,1,20,0,0
60347,-666.666666666667,4,2,1,60,0,0
61147,-333.333333333333,4,2,1,60,0,0
61547,-100,4,2,10,70,0,0
61947,-100,4,2,9,70,0,0
62147,-100,4,2,8,70,0,0
62347,-100,4,2,9,70,0,0
62947,-100,4,2,30,70,0,0
63547,-100,4,2,9,70,0,0
63747,-100,4,2,8,70,0,0
64747,-100,4,2,11,70,0,0
65147,-100,4,2,30,70,0,0
65347,-100,4,2,9,70,0,0
65947,-100,4,2,30,70,0,0
66147,-100,4,2,11,70,0,0
66747,-100,4,2,30,70,0,0
66947,-100,4,2,9,70,0,0
68347,-100,4,2,8,70,0,0
68547,-100,4,2,7,70,0,0
69147,-100,4,2,8,70,0,0
69347,-100,4,2,9,70,0,0
69947,-100,4,2,8,70,0,0
70147,-100,4,2,7,70,0,0
70747,-100,4,2,5,70,0,0
71147,-100,4,2,11,70,0,0
71547,-100,4,2,12,70,0,0
71747,-100,4,2,30,70,0,0
72347,-100,4,2,9,70,0,0
72747,-100,4,2,8,70,0,0
74747,-100,4,2,6,70,0,0
74947,-100,4,2,5,70,0,0
75147,-100,4,2,6,70,0,0
75547,-100,4,2,12,85,0,0
76147,-100,4,2,12,70,0,0
77147,-100,4,2,30,70,0,0
77547,-100,4,2,11,70,0,0
78747,-100,4,2,9,70,0,0
78947,-100,4,2,8,70,0,0
79347,-100,4,2,7,70,0,0
79547,-100,4,2,32,70,0,0
79747,-100,4,2,7,70,0,0
80347,-133.333333333333,4,2,30,70,0,0
80547,-133.333333333333,4,2,9,70,0,0
80747,-100,4,2,30,70,0,0
81147,-100,4,2,8,70,0,0
82747,-100,4,2,8,60,0,0
82947,-100,4,2,8,60,0,0
83147,-100,4,2,9,50,0,0
83547,-100,4,2,30,40,0,0
83947,-100,4,2,11,70,0,0
85147,-133.333333333333,4,2,5,70,0,0
85547,-100,4,2,12,70,0,0
85947,-100,4,2,13,60,0,0
86147,-100,4,2,11,60,0,0
86347,-100,4,2,11,55,0,0
86547,-100,4,2,30,55,0,0
86747,-100,4,2,30,50,0,0
87147,-100,4,2,30,70,0,0
87547,-100,4,2,9,70,0,0
87747,-100,4,2,8,70,0,0
88347,-100,4,2,9,70,0,0
88547,-100,4,2,30,70,0,0
89147,-100,4,2,9,70,0,0
89347,-100,4,2,8,70,0,0
90347,-100,4,2,11,70,0,0
90747,-100,4,2,30,70,0,0
90947,-100,4,2,9,70,0,0
91547,-100,4,2,30,70,0,0
91747,-100,4,2,11,70,0,0
92347,-100,4,2,30,70,0,0
92547,-100,4,2,9,70,0,0
93947,-100,4,2,8,70,0,0
94147,-100,4,2,7,70,0,0
94747,-100,4,2,8,70,0,0
94947,-100,4,2,9,70,0,0
95547,-100,4,2,8,70,0,0
95747,-100,4,2,7,70,0,0
96347,-100,4,2,5,70,0,0
96747,-100,4,2,11,70,0,0
97147,-100,4,2,12,70,0,0
97347,-100,4,2,30,70,0,0
97947,-100,4,2,9,70,0,0
98347,-100,4,2,8,70,0,0
100347,-100,4,2,30,70,0,0
100547,-100,4,2,9,70,0,0
100747,-100,4,2,30,70,0,0
101147,-100,4,2,8,70,0,0
102747,-100,4,2,9,70,0,0
102947,-100,4,2,8,70,0,0
103147,-100,4,2,32,70,0,0
103947,-100,4,2,30,70,0,0
104747,-100,4,2,11,70,0,0
105147,-100,4,2,30,70,0,0
105347,-100,4,2,11,70,0,0
105547,-100,4,2,12,70,0,0
105947,-133.333333333333,4,2,30,70,0,0
106347,-100,4,2,12,70,0,0
106747,-100,4,2,13,70,0,0
106947,-100,4,2,30,70,0,0
109547,-100,4,2,12,70,0,0
109947,-100,4,2,13,70,0,0
110147,-100,4,2,12,70,0,0
110347,-100,4,2,13,70,0,0
110547,-100,4,2,13,70,0,0
110947,-100,4,2,14,70,0,0
111947,-100,4,2,12,70,0,0
112347,-100,4,2,11,70,0,0
112747,-100,4,2,10,70,0,0
113147,-333.333333333333,4,2,25,70,0,0
115947,-100,4,2,25,22,0,0
117547,-100,4,2,25,40,0,0
118347,-100,4,2,25,30,0,0
119147,-100,4,2,25,20,0,0
125547,-499.999999999997,4,2,25,40,0,0
128747,-499.999999999997,4,2,1,40,0,0
132547,-166.666666666667,4,2,1,40,0,0
133147,-142.857142857143,4,2,1,40,0,0
135147,-250,4,2,1,40,0,0
138347,-200,4,2,1,40,0,0
140347,-200,4,2,1,40,0,0
141147,-200,4,2,1,40,0,0
142747,-250.000000000001,4,2,1,40,0,0
145347,-250.000000000001,4,2,1,15,0,0
145547,-250.000000000001,4,2,1,40,0,0
145747,-250.000000000001,4,2,1,15,0,0
145947,-250.000000000001,4,2,1,40,0,0
146147,-250.000000000001,4,2,1,15,0,0
146347,-250.000000000001,4,2,1,40,0,0
147947,-250,4,2,1,40,0,0
151147,-125,4,2,1,50,0,0
163947,-111.111111111111,4,2,1,55,0,0
181147,-125,4,2,1,55,0,0
181547,-142.857142857143,4,2,1,60,0,0
181947,-166.666666666667,4,2,1,65,0,0
182747,-500,4,2,1,30,0,0
184747,-500,4,2,1,20,0,0
184947,-133.333333333333,4,2,1,60,0,0
185119,400,4,2,1,60,1,0
185119,-133.333333333333,4,2,1,60,0,0
185519,-90.9090909090909,4,2,1,60,0,0
185819,-166.666666666667,4,2,1,5,0,0
185919,-333.333333333333,4,2,1,60,0,0
186347,400,4,2,30,70,1,0
186347,-95.2380952380952,4,2,30,70,0,0
186747,-95.2380952380952,4,2,9,70,0,0
186947,-95.2380952380952,4,2,8,70,0,0
187147,-95.2380952380952,4,2,9,70,0,0
187747,-95.2380952380952,4,2,10,70,0,0
188347,-95.2380952380952,4,2,9,70,0,0
188547,-95.2380952380952,4,2,8,70,0,0
189547,-95.2380952380952,4,2,11,70,0,0
189947,-95.2380952380952,4,2,10,70,0,0
190147,-95.2380952380952,4,2,9,70,0,0
190747,-95.2380952380952,4,2,10,70,0,0
190946,-95.2380952380952,4,2,11,70,0,0
191547,-95.2380952380952,4,2,10,70,0,0
191747,-95.2380952380952,4,2,9,70,0,0
193146,-95.2380952380952,4,2,8,70,0,0
193347,-95.2380952380952,4,2,7,70,0,0
193947,-95.2380952380952,4,2,8,70,0,0
194147,-95.2380952380952,4,2,9,70,0,0
194747,-95.2380952380952,4,2,8,70,0,0
194947,-95.2380952380952,4,2,7,70,0,0
195547,-95.2380952380952,4,2,5,70,0,0
195947,-95.2380952380952,4,2,11,70,0,0
196347,-95.2380952380952,4,2,12,70,0,0
196546,-95.2380952380952,4,2,10,70,0,0
197147,-95.2380952380952,4,2,9,70,0,0
197547,-95.2380952380952,4,2,8,70,0,0
198747,-133.333333333333,4,2,8,70,0,0
199147,-95.2380952380952,4,2,8,70,0,0
199546,-95.2380952380952,4,2,6,70,0,0
199747,-95.2380952380952,4,2,5,70,0,0
199947,-95.2380952380952,4,2,6,70,0,0
200347,-95.2380952380952,4,2,12,85,0,0
201347,-95.2380952380952,4,2,12,70,0,0
201947,-95.2380952380952,4,2,30,70,0,0
202347,-95.2380952380952,4,2,11,70,0,0
203547,-95.2380952380952,4,2,9,70,0,0
203747,-95.2380952380952,4,2,8,70,0,0
204347,-95.2380952380952,4,2,32,70,0,0
204547,-95.2380952380952,4,2,7,70,0,0
205147,-95.2380952380952,4,2,30,70,0,0
205347,-95.2380952380952,4,2,9,70,0,0
205547,-95.2380952380952,4,2,30,70,0,0
205946,-95.2380952380952,4,2,8,70,0,0
207747,-95.2380952380952,4,2,8,70,0,0
207847,-95.2380952380952,4,2,8,70,0,0
207947,-95.2380952380952,4,2,9,70,0,0
208347,-95.2380952380952,4,2,30,70,0,0
208747,-95.2380952380952,4,2,11,70,0,0
209947,-95.2380952380952,4,2,5,70,0,0
210347,-95.2380952380952,4,2,12,70,0,0
210747,-95.2380952380952,4,2,13,70,0,0
210946,-95.2380952380952,4,2,11,70,0,0
211047,-95.2380952380952,4,2,11,70,0,0
211147,-95.2380952380952,4,2,11,70,0,0
211347,-95.2380952380952,4,2,30,70,0,0
212347,-95.2380952380952,4,2,9,70,0,0
212546,-95.2380952380952,4,2,8,70,0,0
213147,-95.2380952380952,4,2,9,70,0,0
213347,-95.2380952380952,4,2,10,70,0,0
213947,-95.2380952380952,4,2,9,70,0,0
214147,-95.2380952380952,4,2,8,70,0,0
215147,-95.2380952380952,4,2,11,70,0,0
215547,-95.2380952380952,4,2,10,70,0,0
215747,-95.2380952380952,4,2,9,70,0,0
216347,-95.2380952380952,4,2,10,70,0,0
216546,-95.2380952380952,4,2,11,70,0,0
217147,-95.2380952380952,4,2,10,70,0,0
217347,-95.2380952380952,4,2,9,70,0,0
218746,-95.2380952380952,4,2,8,70,0,0
218947,-95.2380952380952,4,2,7,70,0,0
219547,-95.2380952380952,4,2,8,70,0,0
219747,-95.2380952380952,4,2,9,70,0,0
220347,-95.2380952380952,4,2,8,70,0,0
220546,-95.2380952380952,4,2,7,70,0,0
221147,-133.333333333333,4,2,5,70,0,0
221547,-95.2380952380952,4,2,11,70,0,0
221947,-95.2380952380952,4,2,12,70,0,0
222146,-95.2380952380952,4,2,10,70,0,0
222747,-95.2380952380952,4,2,9,70,0,0
223147,-95.2380952380952,4,2,8,70,0,0
225147,-95.2380952380952,4,2,30,70,0,0
225347,-95.2380952380952,4,2,9,70,0,0
225547,-95.2380952380952,4,2,30,70,0,0
225947,-95.2380952380952,4,2,8,70,0,0
227547,-95.2380952380952,4,2,9,70,0,0
227747,-95.2380952380952,4,2,8,70,0,0
227947,-95.2380952380952,4,2,32,70,0,0
228747,-95.2380952380952,4,2,30,70,0,0
229447,-95.2380952380952,4,2,1,70,0,0
229547,-95.2380952380952,4,2,11,70,0,0
229947,-95.2380952380952,4,2,30,70,0,0
230147,-95.2380952380952,4,2,11,70,0,0
230347,-95.2380952380952,4,2,12,70,0,0
230747,-95.2380952380952,4,2,30,70,0,0
231147,-95.2380952380952,4,2,12,70,0,0
231546,-95.2380952380952,4,2,13,70,0,0
231747,-95.2380952380952,4,2,30,70,0,0
233947,-166.666666666667,4,2,30,60,0,0
234347,-83.3333333333333,4,2,12,100,0,1
234647,-83.3333333333333,4,2,12,60,0,1
234747,-83.3333333333333,4,2,13,100,0,0
234947,-83.3333333333333,4,2,12,80,0,0
235147,-83.3333333333333,4,2,13,100,0,1
235447,-83.3333333333333,4,2,13,60,0,1
235547,-83.3333333333333,4,2,13,100,0,0
235947,-95.2380952380952,4,2,13,100,0,0
236747,-95.2380952380952,4,2,13,70,0,0
236880,-95.2380952380952,4,2,13,62,0,0
237013,-95.2380952380952,4,2,13,54,0,0
237147,-95.2380952380952,4,2,13,46,0,0
237280,-95.2380952380952,4,2,13,38,0,0
237413,-95.2380952380952,4,2,13,30,0,0
237547,-90.9090909090909,4,2,30,80,0,1
237947,-90.9090909090909,4,2,9,80,0,1
238147,-90.9090909090909,4,2,8,80,0,1
238347,-90.9090909090909,4,2,9,80,0,1
238947,-90.9090909090909,4,2,30,80,0,1
239547,-90.9090909090909,4,2,9,80,0,1
239747,-90.9090909090909,4,2,8,80,0,1
240747,-90.9090909090909,4,2,11,80,0,1
241147,-90.9090909090909,4,2,30,80,0,1
241347,-90.9090909090909,4,2,9,80,0,1
241947,-90.9090909090909,4,2,30,80,0,1
242147,-90.9090909090909,4,2,11,80,0,1
242747,-90.9090909090909,4,2,30,80,0,1
242947,-90.9090909090909,4,2,9,80,0,1
244347,-90.9090909090909,4,2,8,80,0,1
244547,-90.9090909090909,4,2,7,80,0,1
245147,-90.9090909090909,4,2,8,80,0,1
245347,-90.9090909090909,4,2,9,80,0,1
245947,-90.9090909090909,4,2,8,80,0,1
246147,-90.9090909090909,4,2,7,80,0,1
246747,-90.9090909090909,4,2,5,80,0,1
247047,-90.9090909090909,4,2,5,80,0,1
247147,-90.9090909090909,4,2,11,80,0,1
247547,-90.9090909090909,4,2,12,80,0,1
247747,-90.9090909090909,4,2,30,80,0,1
248347,-90.9090909090909,4,2,9,80,0,1
248747,-90.9090909090909,4,2,8,80,0,1
249947,-133.333333333333,4,2,8,80,0,1
250347,-90.9090909090909,4,2,8,80,0,1
250747,-90.9090909090909,4,2,6,80,0,1
250947,-90.9090909090909,4,2,5,80,0,1
251147,-90.9090909090909,4,2,6,80,0,1
251547,-90.9090909090909,4,2,12,80,0,1
253147,-90.9090909090909,4,2,30,80,0,1
253547,-90.9090909090909,4,2,11,80,0,1
254747,-90.9090909090909,4,2,9,80,0,1
254947,-90.9090909090909,4,2,8,80,0,1
255047,-90.9090909090909,4,2,8,80,0,1
255147,-90.9090909090909,4,2,8,80,0,1
255547,-90.9090909090909,4,2,32,80,0,1
255747,-90.9090909090909,4,2,7,80,0,1
256347,-90.9090909090909,4,2,30,80,0,1
256547,-90.9090909090909,4,2,9,80,0,1
256747,-90.9090909090909,4,2,30,80,0,1
257147,-90.9090909090909,4,2,8,80,0,1
258947,-90.9090909090909,4,2,9,80,0,1
259547,-90.9090909090909,4,2,30,80,0,1
259947,-90.9090909090909,4,2,11,80,0,1
261147,-90.9090909090909,4,2,5,80,0,1
261547,-90.9090909090909,4,2,12,80,0,1
261947,-90.9090909090909,4,2,13,80,0,1
262147,-76.9230769230769,4,2,11,80,0,1
262213,-76.9230769230769,4,2,13,80,0,1
262347,-76.9230769230769,4,2,11,80,0,1
262547,-90.9090909090909,4,2,30,80,0,1
262613,-90.9090909090909,4,2,11,80,0,1
262747,-76.9230769230769,4,2,30,45,0,1
263147,-90.9090909090909,4,2,30,80,0,1
263547,-90.9090909090909,4,2,9,80,0,1
263747,-90.9090909090909,4,2,8,80,0,1
264347,-90.9090909090909,4,2,9,80,0,1
264547,-90.9090909090909,4,2,30,80,0,1
265147,-90.9090909090909,4,2,9,80,0,1
265347,-90.9090909090909,4,2,8,80,0,1
266347,-90.9090909090909,4,2,11,80,0,1
266747,-90.9090909090909,4,2,10,80,0,1
266947,-90.9090909090909,4,2,9,80,0,1
267547,-90.9090909090909,4,2,10,80,0,1
267747,-90.9090909090909,4,2,11,80,0,1
268347,-90.9090909090909,4,2,10,80,0,1
268547,-90.9090909090909,4,2,9,80,0,1
269947,-90.9090909090909,4,2,8,80,0,1
270147,-90.9090909090909,4,2,7,80,0,1
270747,-90.9090909090909,4,2,8,80,0,1
270947,-90.9090909090909,4,2,9,80,0,1
271547,-90.9090909090909,4,2,8,80,0,1
271747,-90.9090909090909,4,2,7,80,0,1
272347,-90.9090909090909,4,2,5,80,0,1
272747,-90.9090909090909,4,2,11,80,0,1
273147,-90.9090909090909,4,2,12,80,0,1
273320,396.039603960396,4,2,30,80,1,1
273320,-90.9090909090909,4,2,30,80,0,1
273914,-90.9090909090909,4,2,9,80,0,1
274310,-90.9090909090909,4,2,8,80,0,1
274505,500,4,2,8,80,1,1
274505,-90.9090909090909,4,2,8,80,0,1
274755,400,4,2,8,80,1,1
274755,-90.9090909090909,4,2,8,80,0,1
275129,400,4,2,8,80,1,1
275129,-90.9090909090909,4,2,8,80,0,1
275955,400,4,2,8,80,1,1
276355,-90.9090909090909,4,2,30,80,0,1
276555,-90.9090909090909,4,2,9,80,0,1
276755,-90.9090909090909,4,2,30,80,0,1
277155,-90.9090909090909,4,2,8,80,0,1
278755,-90.9090909090909,4,2,9,80,0,1
278955,-90.9090909090909,4,2,8,80,0,1
279155,-90.9090909090909,4,2,32,80,0,1
279955,-90.9090909090909,4,2,30,80,0,1
280755,-90.9090909090909,4,2,11,80,0,1
281155,-90.9090909090909,4,2,30,80,0,1
281355,-90.9090909090909,4,2,11,80,0,1
281555,-90.9090909090909,4,2,12,80,0,1
281955,-133.333333333333,4,2,30,80,0,1
282355,-90.9090909090909,4,2,12,80,0,1
282755,-90.9090909090909,4,2,13,80,0,1
282955,-90.9090909090909,4,2,30,80,0,1
285155,-90.9090909090909,4,2,30,100,0,0
285555,-83.3333333333333,4,2,12,100,0,1
285755,-83.3333333333333,4,2,1,100,0,0
285854,-83.3333333333333,4,2,12,100,0,0
285955,-83.3333333333333,4,2,13,100,0,1
286155,-83.3333333333333,4,2,12,100,0,0
286355,-83.3333333333333,4,2,13,100,0,1
286555,-83.3333333333333,4,2,14,100,0,0
286755,-100,4,2,14,100,0,1
286955,-100,4,2,14,100,0,0
287155,-100,4,2,14,100,0,1
287955,-100,4,2,12,80,0,1
288355,-100,4,2,11,60,0,1
288755,-100,4,2,10,60,0,1
289155,-250,4,2,25,80,0,0
289355,-100,4,2,12,60,0,0
291955,-100,4,2,25,45,0,0
295155,-100,4,2,12,30,0,0

[Colours]
Combo1 : 173,183,250
Combo2 : 158,214,254
Combo3 : 128,168,213

[HitObjects]
88,30,747,5,0,0:0:0:0:
103,47,1147,2,0,L|160:64,1,50.9999984436036,2|0,0:0|0:0,0:0:0:0:
40,106,1547,6,0,P|54:150|105:148,1,101.999996887207,2|2,0:0|0:0,0:0:0:0:
219,196,2147,2,0,P|263:182|261:131,1,101.999996887207,2|2,0:0|0:0,0:0:0:0:
240,110,2747,2,0,L|366:90,1,101.999996887207,2|0,0:0|0:0,0:0:0:0:
508,14,3547,5,2,0:0:0:0:
468,24,3747,1,0,0:0:0:0:
450,60,3947,1,2,0:0:0:0:
469,128,4347,1,2,0:0:0:0:
508,231,4747,1,2,0:0:0:0:
472,298,5147,2,0,P|395:327|432:247,1,203.999993774414,2|2,0:0|0:0,0:0:0:0:
420,232,6347,6,0,P|465:242|482:291,1,101.999996887207,2|0,0:0|0:0,0:0:0:0:
448,363,6947,1,2,0:0:0:0:
448,363,7147,1,2,0:0:0:0:
296,274,7547,2,0,L|231:294,1,50.9999984436036,2|2,0:0|0:0,0:0:0:0:
219,323,7947,2,0,B|155:310|181:334|112:319,1,101.999996887207
20,262,8547,5,0,0:0:0:0:
0,249,8747,2,0,L|123:231,1,101.999996887207,2|2,0:0|0:0,0:0:0:0:
260,144,9547,2,0,L|388:168,1,101.999996887207,2|2,0:0|0:0,0:0:0:0:
423,125,10147,1,0,0:0:0:0:
357,176,10347,6,0,P|352:88|423:126,1,203.999993774414,2|2,0:0|0:0,0:0:0:0:
339,55,11547,1,2,0:0:0:0:
339,55,11747,2,0,B|298:108|172:134|125:-2|206:-23|223:51,1,254.999992218018,2|2,0:0|0:0,0:0:0:0:
221,43,13147,2,0,P|215:67|176:94,1,50.9999984436036
101,136,13547,5,4,0:0:0:0:
158,245,13947,1,2,0:0:0:0:
158,245,14147,1,0,0:0:0:0:
104,325,14347,2,0,L|-38:347,1,101.999996887207,2|0,0:0|0:0,0:0:0:0:
138,317,14947,6,0,B|181:344|181:344|138:401,1,101.999996887207,2|2,0:0|0:0,0:0:0:0:
67,309,15547,2,0,L|94:181,1,101.999996887207,2|2,0:0|0:0,0:0:0:0:
256,70,16347,5,2,0:0:0:0:
306,45,16547,1,0,0:0:0:0:
379,47,16747,1,2,0:0:0:0:
305,126,17147,1,2,0:0:0:0:
175,91,17547,1,2,0:0:0:0:
139,108,17747,1,0,0:0:0:0:
17,159,17947,6,0,B|137:164|100:217|222:198,1,203.999993774414,2|2,0:0|0:0,0:0:0:0:
348,168,19147,1,2,0:0:0:0:
483,213,19547,1,0,0:0:0:0:
483,213,19747,1,2,0:0:0:0:
483,213,19947,1,0,0:0:0:0:
410,346,20347,6,0,B|387:303|387:303|438:272,2,101.999996887207,2|2|2,0:0|0:0|0:0,0:0:0:0:
351,295,21347,1,0,0:0:0:0:
278,329,21547,2,0,L|148:359,1,101.999996887207,2|0,0:0|0:0,0:0:0:0:
375,217,22347,2,0,P|348:185|380:116,1,101.999996887207,2|0,0:0|0:0,0:0:0:0:
416,73,22947,1,0,0:0:0:0:
431,68,23147,5,2,0:0:0:0:
377,117,23547,1,2,0:0:0:0:
271,162,23947,1,2,0:0:0:0:
216,223,24347,5,0,0:0:0:0:
255,314,24547,2,0,P|272:327|372:364,1,101.999996887207,2|2,0:0|0:0,0:0:0:0:
260,319,25147,2,0,P|231:331|166:396,1,101.999996887207,0|2,0:0|0:0,0:0:0:0:
264,327,25947,6,0,P|273:305|278:252,1,50.9999984436036,2|0,0:0|0:0,0:0:0:0:
176,203,26347,6,0,B|152:173|111:187|111:187|136:192|174:229,1,118.999996368408,6|0,0:0|0:0,0:0:0:0:
98,263,26947,2,0,P|129:191|101:69,1,178.499994552612,2|2,0:0|0:0,0:0:0:0:
24,82,27747,5,0,0:0:0:0:
24,8,27947,2,0,P|22:50|56:9,1,118.999996368408,2|2,0:0|0:0,0:0:0:0:
127,102,28547,2,0,P|170:92|296:169,1,178.499994552612,0|2,0:0|0:0,0:0:0:0:
433,302,29547,6,0,P|469:263|400:281,1,178.499994552612,2|0,0:0|0:0,0:0:0:0:
485,234,30347,2,0,P|521:183|505:128,1,118.999996368408,2|0,0:0|0:0,0:0:0:0:
465,72,30947,1,0,0:0:0:0:
465,72,31147,1,2,0:0:0:0:
314,171,31547,5,0,0:0:0:0:
324,178,31747,1,2,0:0:0:0:
257,263,31947,1,2,0:0:0:0:
239,245,32147,1,0,0:0:0:0:
193,309,32347,1,0,0:0:0:0:
205,335,32547,1,0,0:0:0:0:
120,350,32747,6,0,B|42:339|78:363|-4:343,1,118.999996368408,2|0,0:0|0:0,0:0:0:0:
329,218,33547,2,0,L|342:312,2,89.2499972763062,2|0|0,0:0|0:0|0:0,0:0:0:0:
299,75,34347,6,0,P|305:104|331:127,1,59.4999981842042,2|0,0:0|0:0,0:0:0:0:
316,142,34747,2,0,P|295:121|289:92,1,59.4999981842042
384,20,35147,2,0,B|454:0|426:24|503:-1,2,118.999996368408,2|0|2,0:0|0:0|0:0,0:0:0:0:
64,117,36347,5,0,0:0:0:0:
192,43,36747,1,0,0:0:0:0:
156,67,36947,1,2,0:0:0:0:
130,132,37147,1,2,0:0:0:0:
146,175,37347,1,2,0:0:0:0:
115,276,37547,6,0,P|82:320|26:301,1,118.999996368408,2|0,0:0|0:0,0:0:0:0:
11,313,38347,2,0,P|57:345|115:301,1,118.999996368408,2|0,0:0|0:0,0:0:0:0:
161,263,38947,1,2,0:0:0:0:
171,243,39147,1,2,0:0:0:0:
395,283,39547,5,0,0:0:0:0:
443,343,39747,2,0,B|472:372|472:372|493:334|440:273|379:284,1,178.499994552612,2|0,0:0|0:0,0:0:0:0:
305,332,40547,5,2,0:0:0:0:
227,299,40747,2,0,P|284:299|321:244,1,118.999996368408,2|2,0:0|0:0,0:0:0:0:
368,194,41347,2,0,B|297:124|333:54|417:72|362:142,1,178.499994552612,0|2,0:0|0:0,0:0:0:0:
354,148,42147,1,0,0:0:0:0:
313,176,42347,5,2,0:0:0:0:
439,238,42747,1,0,0:0:0:0:
254,124,43147,5,2,0:0:0:0:
139,171,43547,1,0,0:0:0:0:
139,171,43747,1,0,0:0:0:0:
21,102,43947,6,0,P|9:135|58:107,1,118.999996368408,2|0,0:0|0:0,0:0:0:0:
45,107,44547,1,2,0:0:0:0:
2,191,44747,2,0,P|81:272|201:227,1,237.999992736817,0|4,0:0|0:0,0:0:0:0:
412,40,46347,5,2,0:0:0:0:
428,58,46747,2,0,P|373:65|330:0,1,118.999996368408,2|2,0:0|0:0,0:0:0:0:
490,128,47547,1,0,0:0:0:0:
490,128,47747,2,0,P|439:156|365:129,1,118.999996368408,2|0,0:0|0:0,0:0:0:0:
327,199,48347,2,0,P|370:153|358:92,1,118.999996368408,2|0,0:0|0:0,0:0:0:0:
65,32,49547,5,2,0:0:0:0:
98,46,49947,2,0,B|161:62|161:62|128:14,1,118.999996368408,2|2,0:0|0:0,0:0:0:0:
0,153,50747,1,0,0:0:0:0:
0,153,50947,2,0,P|21:177|40:268,1,118.999996368408,2|0,0:0|0:0,0:0:0:0:
51,356,51547,6,0,P|34:386|44:347,1,118.999996368408,2|0,0:0|0:0,0:0:0:0:
54,340,52347,1,2,0:0:0:0:
105,325,52747,1,2,0:0:0:0:
165,319,53147,1,2,0:0:0:0:
228,332,53547,1,2,0:0:0:0:
293,357,53947,1,2,0:0:0:0:
298,362,54147,1,2,0:0:0:0:
370,381,54347,1,0,0:0:0:0:
440,356,54747,1,2,0:0:0:0:
446,361,54947,1,0,0:0:0:0:
489,281,55147,6,0,B|510:261|510:261|491:186,1,101.999996887207,2|0,0:0|0:0,0:0:0:0:
240,192,55747,6,0,L|375:211,1,118.999996368408,2|0,0:0|0:0,0:0:0:0:
368,234,56347,2,0,L|379:187,1,42.5,2|0,0:0|0:0,0:0:0:0:
460,16,56747,6,0,P|395:29|430:81,1,136,2|0,0:0|0:0,0:0:0:0:
283,113,57347,6,0,P|255:153|200:138,1,101.999996887207,2|0,0:0|0:0,0:0:0:0:
131,100,57947,6,0,P|106:46|23:57,1,152.999995330811,2|0,0:0|1:0,0:0:0:0:
5,79,60747,5,0,1:0:0:0:
161,170,60947,1,0,1:0:0:0:
262,109,61147,6,0,L|269:70,1,38.2499988327027,0|0,1:0|0:0,0:0:0:0:
337,25,61547,6,0,B|442:8|442:8|404:78,1,170,6|2,1:2|1:2,0:2:0:0:
257,123,62147,1,2,0:2:0:0:
162,164,62347,6,0,B|111:158|55:122|55:122|85:157|77:202,1,170,8|2,1:2|1:2,0:2:0:0:
170,262,62947,2,0,L|317:249,1,127.5,2|0,1:2|1:0,0:2:0:0:
297,250,63347,1,0,0:2:0:0:
409,183,63547,6,0,L|515:171,1,85,2|2,1:2|0:2,0:0:0:0:
493,173,63847,1,0,1:0:0:0:
493,173,63947,2,0,B|418:135|441:35|504:48|515:74|476:96,1,170,8|0,1:2|0:2,0:0:0:0:
442,251,64547,6,0,L|430:301,1,42.5,0|0,1:2|1:2,0:0:0:0:
485,377,64747,6,0,P|420:347|465:273,1,170,2|2,1:2|1:2,0:2:0:0:
392,384,65347,1,2,1:2:0:0:
270,322,65547,2,0,P|163:279|85:310,1,170,8|2,1:2|1:2,0:0:0:0:
0,203,66147,5,2,1:2:0:0:
5,209,66247,1,0,1:2:0:0:
11,214,66347,2,0,P|51:219|80:177,1,85,0|8,0:2|1:2,0:0:0:0:
131,298,66747,2,0,P|57:235|-14:281,2,170,2|8|0,1:2|1:2|1:2,0:0:0:0:
167,384,67747,1,0,0:2:0:0:
207,234,67947,6,0,B|199:155|199:155|285:200,1,170,2|2,1:2|1:2,0:2:0:0:
290,203,68547,1,2,1:2:0:0:
450,334,68747,2,0,L|316:318,1,127.5,8|0,1:2|1:0,0:2:0:0:
323,318,69147,1,2,1:2:0:0:
376,208,69347,6,0,B|436:199|436:199|386:237,1,85,2|0,1:2|0:0,0:2:0:0:
512,270,69747,5,0,1:2:0:0:
416,213,69947,2,0,P|391:180|406:136,1,85,2|2,1:2|0:2,0:0:0:0:
511,8,70347,6,0,P|478:73|414:19,1,170,8|2,1:2|1:2,0:0:0:0:
496,152,70947,1,2,1:2:0:0:
422,37,71147,5,2,1:2:0:0:
422,37,71247,2,0,P|383:12|273:26,1,127.5,0|2,1:0|1:2,0:0:0:0:
250,118,71747,1,0,1:2:0:0:
79,116,71947,6,0,B|-6:135|-6:135|34:34,1,170,12|2,1:2|1:2,0:0:0:0:
134,9,72547,2,0,L|246:28,1,85,2|2,1:2|1:2,0:0:0:0:
1,103,72947,5,8,1:2:0:0:
1,103,73147,2,0,L|94:126,1,85,0|0,1:2|0:2,0:0:0:0:
0,290,73547,5,8,1:2:0:0:
11,303,73947,1,0,1:2:0:0:
94,275,74147,6,0,P|112:279|134:312,1,42.5,0|0,0:2|1:2,0:0:0:0:
176,367,74347,6,0,B|257:411|353:351|278:308|257:363,1,170,4|2,1:2|1:2,0:0:0:0:
391,240,74947,1,2,1:2:0:0:
451,339,75147,2,0,B|412:263|412:263|519:287,1,170,10|2,1:2|1:2,0:2:0:0:
313,249,75747,6,0,B|299:244|299:244|209:260,1,85,2|0,1:2|0:0,0:2:0:0:
229,256,76147,1,0,1:2:0:0:
442,126,76347,2,0,P|403:153|425:273,1,170,0|8,1:2|1:2,0:0:0:0:
147,381,77147,2,0,P|169:349|166:302,1,85,2|0,1:2|1:2,0:0:0:0:
149,293,77447,1,0,1:0:0:0:
109,315,77547,6,0,P|86:286|132:144,1,170,2|0,1:2|0:2,0:2:0:0:
254,79,78147,1,0,1:2:0:0:
331,161,78347,6,0,B|367:170|406:205|406:205|392:152|406:112,1,170,10|2,1:2|1:2,0:2:0:0:
512,5,78947,1,2,1:2:0:0:
512,5,79047,2,0,P|466:-8|406:52,1,127.5,0|8,1:0|1:2,0:0:0:0:
406,205,79547,5,2,1:2:0:0:
448,298,79747,1,0,0:2:0:0:
333,367,79947,2,0,P|268:382|223:327,1,127.5,8|0,1:2|0:0,0:0:0:0:
206,326,80347,6,0,L|220:285,1,31.8750012159348,2|0,1:2|0:0,0:0:0:0:
195,230,80547,2,0,L|209:195,1,31.8750012159348,2|0,1:2|0:0,0:0:0:0:
153,116,80747,6,0,P|214:99|197:-9,1,170,6|2,1:2|1:2,0:2:0:0:
147,110,81347,1,2,1:2:0:0:
234,194,81547,2,0,P|265:189|398:251,1,170,8|0,0:2|1:2,0:0:0:0:
433,338,82147,1,0,1:2:0:0:
368,239,82347,1,0,1:2:0:0:
306,290,82747,5,2,1:2:0:0:
442,325,82947,1,0,0:2:0:0:
250,384,83147,5,10,1:2:0:0:
183,130,83547,1,2,1:2:0:0:
271,56,83747,6,0,P|285:37|282:5,1,42.5,0|0,0:2|1:0,0:0:0:0:
264,4,83947,6,0,B|162:-6|162:-6|212:78,1,170,6|0,0:2|1:2,0:0:0:0:
64,105,84547,1,0,1:2:0:0:
324,109,84747,6,0,B|422:97|422:97|392:130,1,127.5,12|0,0:2|0:0,0:0:0:0:
390,125,85147,6,0,L|399:165,1,31.8750012159348,2|0,1:2|0:0,0:0:0:0:
388,225,85347,2,0,L|392:256,1,31.8750012159348,0|0,1:2|0:2,0:0:0:0:
390,308,85547,1,6,1:2:0:0:
231,70,85947,5,2,1:2:0:0:
292,257,86147,1,2,0:2:0:0:
201,137,86347,5,0,1:2:0:0:
163,288,86547,1,2,0:2:0:0:
139,178,86747,5,0,1:2:0:0:
56,254,86947,2,0,P|36:272|8:286,1,42.5,0|0,1:2|1:0,0:0:0:0:
228,205,87147,6,0,P|345:173|414:184,1,170,6|2,1:2|1:2,0:2:0:0:
512,300,87747,1,2,1:2:0:0:
380,188,87947,6,0,B|341:170|342:125|342:125|391:34,1,170,8|2,0:2|1:2,0:0:0:0:
244,92,88547,2,0,B|199:31|77:56|115:134|161:78,1,170,2|0,0:2|0:0,0:0:0:0:
277,196,89147,5,2,1:2:0:0:
392,71,89347,2,0,P|421:43|415:-1,1,85,2|8,1:2|1:2,0:0:0:0:
404,83,89947,2,0,P|426:113|497:106,1,85,0|0,1:2|0:2,0:2:0:0:
471,120,90247,1,0,1:2:0:0:
471,120,90347,6,0,P|459:206|521:199,1,170,2|2,1:2|1:2,0:2:0:0:
365,278,90947,1,2,1:2:0:0:
511,228,91147,6,0,P|459:218|360:288,1,170,8|2,1:2|1:2,0:0:0:0:
244,363,91747,1,2,1:2:0:0:
244,363,91847,2,0,P|212:375|109:320,1,127.5,0|8,1:0|1:2,0:0:0:0:
38,196,92347,5,2,1:2:0:0:
160,271,92547,1,2,1:2:0:0:
67,384,92747,1,8,1:2:0:0:
67,384,92947,1,0,0:2:0:0:
45,190,93147,6,0,L|61:95,1,85,0|0,1:2|0:2,0:2:0:0:
40,64,93447,2,0,L|50:10,1,42.5,0|6,1:2|1:2,0:0:0:0:
333,92,93947,5,2,1:2:0:0:
453,40,94147,2,0,P|482:81|389:114,1,170,2|0,1:2|0:2,0:0:0:0:
512,256,94747,5,2,1:2:0:0:
422,159,94947,2,0,P|365:178|337:88,1,170,2|0,0:2|0:0,0:0:0:0:
463,49,95547,5,2,1:2:0:0:
463,49,95647,1,0,1:0:0:0:
463,49,95747,2,0,L|450:114,1,42.5,2|0,1:2|1:2,0:0:0:0:
337,187,95947,6,0,L|224:204,1,85,8|0,1:2|1:2,0:0:0:0:
479,163,96347,1,2,1:2:0:0:
486,168,96547,1,2,1:2:0:0:
381,39,96747,6,0,P|340:16|213:17,1,170,6|2,1:2|1:2,0:2:0:0:
219,14,97347,1,2,0:2:0:0:
55,129,97547,2,0,L|169:106,1,85,12|2,1:2|1:2,0:0:0:0:
204,268,97947,5,2,1:2:0:0:
55,129,98147,2,0,P|87:158|76:214,1,85,2|2,1:2|1:2,0:0:0:0:
281,184,98547,5,8,1:2:0:0:
204,268,98747,2,0,P|259:243|280:175,1,127.5,0|0,1:2|0:0,0:0:0:0:
363,245,99147,6,0,P|389:244|515:313,1,170,12|0,1:2|1:2,0:2:0:0:
356,234,99747,1,0,1:2:0:0:
201,347,99947,6,0,B|132:370|132:370|91:354|80:313|130:284,1,170,4|2,1:2|1:2,0:2:0:0:
227,234,100547,1,2,1:2:0:0:
46,172,100747,6,0,P|72:221|28:195,1,127.5,10|0,1:2|1:0,0:2:0:0:
27,191,101147,1,2,1:2:0:0:
154,107,101347,1,2,1:2:0:0:
154,107,101447,2,0,P|163:51|97:21,1,127.5,0|0,1:0|1:2,0:0:0:0:
148,110,101947,5,0,1:2:0:0:
241,32,102147,1,0,0:2:0:0:
123,0,102347,1,8,1:2:0:0:
150,33,102547,5,2,1:2:0:0:
228,81,102747,5,2,1:2:0:0:
340,93,102947,5,2,0:2:0:0:
504,30,103147,6,0,B|547:13|480:-44|407:2|408:65,1,170,2|2,1:2|1:2,0:2:0:0:
339,192,103747,1,2,0:2:0:0:
453,242,103947,2,0,B|465:279|497:309|497:309|445:318|413:357,1,170,10|2,1:2|1:2,0:2:0:0:
263,243,104547,5,2,1:2:0:0:
273,256,104647,1,0,1:0:0:0:
287,263,104747,2,0,P|324:264|354:223,1,85,2|0,1:2|0:2,0:2:0:0:
300,157,105147,5,2,1:2:0:0:
174,269,105347,1,2,1:2:0:0:
370,376,105547,2,0,P|397:324|332:309,1,127.5,10|0,1:2|0:0,0:0:0:0:
331,302,105947,6,0,L|292:312,1,31.8750012159348,2|0,1:2|0:0,0:0:0:0:
210,352,106147,6,0,L|175:361,1,31.8750012159348,0|0,1:0|0:0,0:0:0:0:
64,312,106347,6,0,B|94:264|159:272|159:272|120:280|102:318,1,170,6|2,1:2|1:2,0:2:0:0:
179,359,106947,1,2,1:2:0:0:
168,200,107147,2,0,P|158:152|218:34,1,170,8|0,1:2|1:2,0:2:0:0:
62,197,107747,5,0,1:2:0:0:
134,170,107947,2,0,P|102:199|51:192,1,85,0|8,0:2|1:2,0:0:0:0:
219,21,108347,2,0,B|239:7|239:7|228:68,1,85,0|0,1:2|0:2,0:0:0:0:
381,186,108747,2,0,B|421:189|459:201|459:201|432:161|412:107,1,170,8|2,1:2|1:2,0:0:0:0:
265,26,109347,6,0,P|284:17|317:16,1,42.5,0|0,1:2|1:0,0:0:0:0:
344,43,109547,2,0,B|230:28|291:63|176:42,1,170,6|2,1:2|1:2,0:2:0:0:
38,0,110147,1,2,1:2:0:0:
197,68,110347,5,14,1:2:0:0:
276,89,110547,1,0,1:2:0:0:
359,63,110747,1,0,1:2:0:0:
436,87,110947,1,0,0:2:0:0:
442,91,111047,1,0,1:2:0:0:
447,95,111147,5,12,0:2:0:0:
320,121,111347,5,8,0:2:0:0:
248,181,111547,5,4,1:2:0:0:
200,259,111747,5,0,0:2:0:0:
177,336,111947,5,10,1:2:0:0:
204,303,112347,1,2,1:2:0:0:
200,259,112747,1,6,0:2:0:0:
171,225,113147,6,0,B|67:290|103:422|214:443|266:354|217:279|142:310,1,356.999989105225,2|0,0:0|0:0,0:0:0:0:
62,150,125547,5,0,0:2:0:0:
282,189,128747,1,2,0:0:0:0:
309,204,129547,1,0,0:0:0:0:
396,169,129947,6,0,L|469:161,1,68,2|0,0:0|0:0,0:0:0:0:
463,161,130947,1,2,0:0:0:0:
506,152,131947,5,2,0:0:0:0:
458,297,132547,2,0,P|369:255|309:278,1,152.999995330811,2|0,0:0|0:0,0:0:0:0:
469,325,133547,5,2,0:0:0:0:
285,252,134347,2,0,P|228:262|188:320,1,118.999996368408
191,344,134947,1,0,0:0:0:0:
215,369,135147,6,0,P|164:310|46:346,1,204,2|0,0:0|0:0,0:0:0:0:
52,336,136547,1,0,0:0:0:0:
241,37,137347,6,0,B|261:96|261:96|278:88|278:88|245:6,1,170,2|2,0:3|0:0,0:0:0:0:
127,13,138747,5,0,0:0:0:0:
127,13,138947,1,0,0:0:0:0:
97,20,139147,2,0,L|9:37,1,85,2|0,0:0|0:0,0:0:0:0:
132,97,139747,2,0,L|35:113,1,85,2|2,0:0|0:0,0:0:0:0:
139,175,140347,1,2,0:0:0:0:
62,191,140747,1,0,0:0:0:0:
22,200,141147,1,2,0:0:0:0:
150,311,141547,6,0,P|178:302|265:356,1,127.5,2|0,0:0|0:0,0:0:0:0:
365,383,142347,1,2,0:0:0:0:
155,301,142747,6,0,P|219:295|273:346,1,136,2|2,0:0|0:0,0:0:0:0:
270,339,143747,1,0,0:0:0:0:
270,339,143947,1,2,0:0:0:0:
384,371,144147,6,0,B|438:382|438:382|436:374|436:374|388:359,1,102,2|2,0:3|0:0,0:0:0:0:
486,286,145147,6,0,L|476:249,1,34,2|0,0:0|0:0,0:0:0:0:
424,198,145547,2,0,L|415:163,1,34,2|0,0:0|0:0,0:0:0:0:
363,111,145947,2,0,L|353:77,1,34,2|0,0:0|0:0,0:0:0:0:
377,49,146347,6,0,P|345:63|243:75,1,136,2|2,0:0|0:0,0:0:0:0:
141,134,147447,6,0,P|136:159|113:192,1,51
221,167,147947,6,0,P|252:196|350:209,1,136,2|0,0:0|0:0,0:0:0:0:
283,310,149147,5,2,0:0:0:0:
236,381,149347,2,0,P|280:358|277:299,1,102,2|0,0:0|3:0,0:0:0:0:
250,274,150347,5,0,1:0:0:0:
114,231,150547,1,0,3:0:0:0:
11,332,150747,1,0,3:0:0:0:
28,346,151147,6,0,L|169:333,1,136,2|0,3:2|0:0,0:0:0:0:
111,357,151747,2,0,L|197:352,1,68,0|0,0:0|1:0,0:0:0:0:
178,353,152347,1,0,0:0:0:0:
298,286,152547,5,0,0:0:0:0:
298,286,152747,2,0,L|439:309,1,136,2|0,3:2|0:0,0:0:0:0:
370,324,153347,2,0,L|451:341,1,68,0|0,0:0|1:0,0:0:0:0:
248,234,153947,5,0,1:2:0:0:
215,155,154147,1,0,0:0:0:0:
306,95,154347,2,0,P|357:78|334:-12,1,136,2|0,3:2|0:0,0:0:0:0:
358,4,154947,1,0,0:0:0:0:
381,104,155147,6,0,P|399:136|485:205,1,136,0|0,1:0|0:0,0:0:0:0:
450,153,155747,2,0,P|476:179|521:201,1,68,0|2,3:2|0:0,0:0:0:0:
383,111,156347,6,0,P|357:137|335:182,1,68,0|0,0:0|1:2,0:0:0:0:
510,74,156747,2,0,P|484:17|438:59,1,136,0|0,1:0|1:2,0:0:0:0:
505,185,157347,1,0,0:0:0:0:
387,119,157547,6,0,P|351:137|230:33,1,204,6|0,3:2|0:0,0:0:0:0:
137,139,158347,2,0,P|115:158|30:178,2,102,0|0|0,1:0|0:0|0:0,0:0:0:0:
82,268,159147,6,0,P|106:246|120:197,1,68,2|0,3:2|0:0,0:0:0:0:
53,179,159547,2,0,P|40:147|15:124,1,68
87,274,159947,2,0,P|100:331|174:319,1,136,0|0,1:0|0:0,0:0:0:0:
204,246,160547,1,0,0:0:0:0:
345,267,160747,6,0,B|416:255|416:255|365:275|365:306,1,136,2|0,3:2|0:0,0:0:0:0:
367,293,161547,2,0,B|438:305|438:305|387:285|387:254,1,136,0|0,1:0|0:0,0:0:0:0:
323,191,162147,1,0,0:0:0:0:
433,138,162347,6,0,P|477:151|489:171,1,68,2|0,3:2|0:0,0:0:0:0:
505,152,162747,2,0,P|483:126|450:122,1,68
279,184,163147,5,2,1:3:0:0:
239,325,163347,1,8,3:0:0:0:
337,261,163547,5,4,3:0:0:0:
290,167,163747,1,4,3:0:0:0:
204,239,163947,6,0,B|119:261|151:236|38:265,1,152.999995330811,6|0,3:2|0:0,0:0:0:0:
124,114,164547,2,0,L|33:83,1,76.4999976654053,0|0,0:0|1:0,0:0:0:0:
204,248,165147,2,0,L|180:338,1,76.4999976654053
288,209,165547,6,0,P|341:194|343:102,1,152.999995330811,2|0,3:2|0:0,0:0:0:0:
347,107,166147,1,0,0:0:0:0:
379,216,166347,2,0,P|455:280|511:242,2,152.999995330811,0|0|2,1:0|0:0|3:2,0:0:0:0:
224,7,167547,6,0,P|261:4|295:27,1,76.4999976654053
207,105,167947,2,0,L|49:140,1,152.999995330811,0|0,1:0|0:0,0:0:0:0:
57,138,168547,1,0,0:0:0:0:
21,256,168747,6,0,B|-55:329|-18:394|46:351|6:315,1,152.999995330811,2|0,3:2|0:0,0:0:0:0:
231,222,169547,2,0,B|240:210|240:210|386:227,1,152.999995330811,0|0,1:2|0:0,0:0:0:0:
505,249,170147,5,2,0:0:0:0:
505,249,170247,1,2,0:0:0:0:
505,249,170347,1,4,1:2:0:0:
341,361,170747,1,2,0:0:0:0:
251,181,171147,2,0,P|249:134|271:23,1,152.999995330811,0|0,1:0|0:0,0:0:0:0:
231,105,171747,1,0,0:0:0:0:
97,129,171947,6,0,P|60:137|-10:145,1,76.4999976654053,2|0,3:2|0:0,0:0:0:0:
0,66,172347,2,0,P|37:74|107:82,1,76.4999976654053,0|0,1:2|0:0,0:0:0:0:
217,192,172747,2,0,P|235:251|141:284,1,152.999995330811,0|0,1:0|0:0,0:0:0:0:
132,213,173347,1,0,0:0:0:0:
263,290,173547,6,0,P|288:301|426:319,2,152.999995330811,2|0|0,3:2|0:0|1:0,0:0:0:0:
37,154,174747,1,0,1:2:0:0:
142,176,174947,6,0,L|228:160,1,76.4999976654053,0|2,0:0|3:2,0:0:0:0:
334,234,175347,1,0,1:0:0:0:
292,139,175547,6,0,L|205:119,1,76.4999976654053
312,312,175947,2,0,B|293:266|335:233|335:233|320:265|335:299,2,152.999995330811,0|0|6,1:0|0:0|3:2,0:0:0:0:
322,323,177147,1,0,1:2:0:0:
388,97,177547,6,0,L|376:12,1,76.4999976654053,8|0,1:2|0:0,0:0:0:0:
379,93,177947,2,0,L|292:111,1,76.4999976654053,0|0,1:2|0:0,0:0:0:0:
497,258,178347,2,0,B|445:242|445:242|426:211|426:211|360:195,1,152.999995330811,2|0,3:2|1:2,0:0:0:0:
365,196,178947,1,0,0:0:0:0:
157,162,179147,6,0,L|65:182,1,76.4999976654053,12|0,1:2|0:0,0:0:0:0:
161,168,179547,2,0,L|178:261,1,76.4999976654053,2|2,0:0|0:0,0:0:0:0:
189,316,179847,1,2,1:2:0:0:
206,310,179947,5,14,1:2:0:0:
262,194,180347,1,0,0:0:0:0:
189,316,180747,1,0,1:0:0:0:
279,189,181147,1,0,1:0:0:0:
118,295,181547,5,0,1:0:0:0:
357,203,181947,1,0,1:0:0:0:
181,172,182347,6,0,B|252:186|238:303|158:334|76:292|58:191|147:154|147:154|147:149|147:149|212:93|192:10|159:-35|109:-46|95:52|156:39,1,611.999981323243,4|0,1:2|0:0,0:0:0:0:
157,39,185119,6,0,B|211:31|211:31|190:47,1,63.7500024318696,2|2,0:1|0:0,0:0:0:0:
339,104,185519,6,0,P|369:61|343:115,1,187.000005706787,2|0,0:1|0:0,0:0:0:0:
294,257,186119,1,2,0:0:0:0:
451,221,186347,6,0,B|409:189|361:212|361:212|338:249|278:261,1,178.499994552612,6|2,1:2|1:2,0:2:0:0:
367,132,186947,1,2,0:2:0:0:
263,88,187147,6,0,B|224:76|224:76|177:87|177:87|206:37|205:-26,1,178.499994552612,8|2,1:2|1:2,0:2:0:0:
43,130,187747,2,0,L|-17:145,1,44.6249986381531,2|0,1:2|1:0,0:2:0:0:
0,12,187947,6,0,B|49:30|49:30|2:40,1,89.2499972763062,0|0,0:0|1:2,0:0:0:0:
162,132,188347,2,0,P|129:158|149:206,1,89.2499972763062,2|2,1:2|0:2,0:0:0:0:
11,384,188747,2,0,B|11:338|-12:300|-12:300|30:336|104:332,1,178.499994552612,8|0,1:2|0:2,0:0:0:0:
208,242,189347,1,0,1:2:0:0:
224,230,189447,1,0,1:2:0:0:
244,223,189547,6,0,P|278:245|282:295,1,89.2499972763062,2|0,1:2|0:0,0:2:0:0:
377,372,189947,1,2,1:2:0:0:
496,251,190147,1,2,1:2:0:0:
377,372,190347,2,0,P|380:317|398:367,1,133.874995914459,8|0,1:2|0:0,0:0:0:0:
268,322,190747,6,0,L|161:307,1,89.2499972763062,2|2,1:2|1:2,0:2:0:0:
179,309,191047,1,0,1:0:0:0:
179,309,191147,1,0,0:2:0:0:
18,245,191347,1,8,1:2:0:0:
15,258,191447,2,0,L|-1:320,1,44.6249986381531,0|2,1:0|1:2,0:0:0:0:
105,191,191747,1,2,1:2:0:0:
0,152,191947,2,0,B|87:171|87:171|46:88,1,178.499994552612,8|0,1:2|1:2,0:0:0:0:
40,76,192547,1,0,0:2:0:0:
163,8,192747,6,0,B|199:34|259:32|259:32|216:56|205:87,1,178.499994552612,6|2,1:2|1:2,0:2:0:0:
335,0,193347,1,2,1:2:0:0:
376,129,193547,2,0,B|433:124|433:124|446:127|446:127|521:120,1,133.874995914459,8|0,1:2|1:0,0:2:0:0:
510,122,193947,1,2,1:2:0:0:
382,245,194147,6,0,P|378:191|255:186,1,178.499994552612,2|0,1:2|1:2,0:2:0:0:
388,344,194747,2,0,L|491:366,1,89.2499972763062,2|2,1:2|1:2,0:0:0:0:
475,362,195047,1,0,1:2:0:0:
475,362,195147,1,8,1:2:0:0:
363,212,195347,1,0,0:2:0:0:
229,358,195547,1,2,1:2:0:0:
364,362,195747,6,0,P|376:343|368:303,1,44.6249986381531,2|0,1:2|0:0,0:0:0:0:
228,232,195947,6,0,L|129:252,1,89.2499972763062,2|0,1:2|0:0,0:2:0:0:
312,124,196347,1,2,1:2:0:0:
219,225,196547,5,2,1:2:0:0:
163,67,196747,6,0,P|203:60|240:104,1,89.2499972763062,12|2,1:2|1:2,0:0:0:0:
432,267,197147,2,0,P|391:272|350:229,1,89.2499972763062,2|2,1:2|1:2,0:0:0:0:
313,177,197447,1,0,1:2:0:0:
318,165,197547,5,2,1:2:0:0:
250,286,197747,1,8,1:2:0:0:
400,358,197947,2,0,P|453:325|411:260,1,133.874995914459,0|0,1:2|0:0,0:0:0:0:
332,218,198347,6,0,L|217:208,1,89.2499972763062,12|0,1:2|0:2,0:2:0:0:
106,111,198747,6,0,L|73:116,1,31.8750012159348,8|0,1:2|0:0,0:0:0:0:
31,97,198947,2,0,L|-11:105,1,31.8750012159348,8|0,1:2|0:0,0:0:0:0:
58,21,199147,6,0,P|90:91|165:44,1,178.499994552612,4|2,0:2|1:2,0:0:0:0:
202,174,199747,1,2,1:2:0:0:
42,53,199947,6,0,B|100:60|100:60|123:72|123:72|180:77,1,133.874995914459,10|0,1:2|1:0,0:2:0:0:
172,76,200347,1,2,1:2:0:0:
324,149,200547,2,0,B|378:157|450:128|450:128|411:160|411:196,1,178.499994552612,2|0,1:2|1:2,0:2:0:0:
461,271,201147,6,0,P|500:250|503:196,1,89.2499972763062,0|0,1:2|0:2,0:0:0:0:
397,42,201547,2,0,P|472:22|484:102,1,178.499994552612,8|2,1:2|1:2,0:2:0:0:
398,169,202147,2,0,P|376:169|351:202,1,44.6249986381531,0|0,1:2|1:0,0:0:0:0:
263,239,202347,6,0,B|136:217|219:265|78:231,1,178.499994552612,2|0,1:2|0:2,0:2:0:0:
189,120,202947,1,0,1:2:0:0:
180,280,203147,6,0,B|215:379|158:426|86:373|180:346,1,178.499994552612,10|2,1:2|1:2,0:2:0:0:
304,248,203747,1,2,1:2:0:0:
304,248,203847,2,0,P|326:217|429:235,1,133.874995914459,0|8,1:0|1:2,0:0:0:0:
502,300,204347,2,0,P|502:371|469:306,1,178.499994552612,2|8,1:2|1:2,0:2:0:0:
471,296,205147,1,2,1:2:0:0:
410,160,205347,2,0,P|413:135|435:104,1,44.6249986381531,2|0,1:2|1:0,0:0:0:0:
504,33,205547,6,0,P|481:62|344:73,1,178.499994552612,6|2,1:2|1:2,0:2:0:0:
238,0,206147,1,2,1:2:0:0:
49,76,206347,6,0,B|56:128|114:151|114:151|80:118|86:81,1,178.499994552612,8|0,0:2|1:2,0:0:0:0:
238,0,206947,2,0,P|247:31|178:60,1,89.2499972763062,0|0,1:2|1:2,0:0:0:0:
181,64,207547,1,2,1:2:0:0:
323,120,207747,1,0,1:2:0:0:
141,183,207947,1,10,1:2:0:0:
453,326,208347,5,2,1:2:0:0:
311,332,208547,5,0,1:2:0:0:
295,340,208647,1,0,1:0:0:0:
276,349,208747,2,0,B|198:321|198:321|110:370,1,178.499994552612,6|0,0:2|1:2,0:0:0:0:
195,246,209347,1,0,1:2:0:0:
3,166,209547,5,8,0:2:0:0:
100,199,209747,1,8,1:2:0:0:
188,165,209947,1,10,1:2:0:0:
282,200,210147,1,0,1:2:0:0:
282,200,210213,1,0,1:0:0:0:
282,200,210280,1,0,1:0:0:0:
282,200,210347,2,0,P|350:170|382:255,1,178.499994552612,6|6,1:2|1:2,0:2:0:0:
491,360,210947,5,2,1:2:0:0:
476,352,211047,1,0,1:0:0:0:
462,339,211147,2,0,P|456:317|454:279,1,44.6249986381531,0|0,1:2|0:0,0:0:0:0:
409,213,211347,2,0,P|416:189|429:150,1,44.6249986381531,2|0,1:2|0:0,0:0:0:0:
459,145,211547,6,0,P|450:120|436:95,1,44.6249986381531,0|0,1:2|0:0,0:0:0:0:
441,103,211747,6,0,P|459:84|464:42,1,44.6249986381531,0|0,1:2|1:0,0:0:0:0:
359,0,211947,6,0,B|317:-3|278:15|278:15|272:22|272:22|228:54|172:42,1,178.499994552612,6|2,1:2|1:2,0:2:0:0:
43,108,212547,1,2,1:2:0:0:
209,78,212747,6,0,L|312:94,1,89.2499972763062,8|0,0:2|0:0,0:0:0:0:
308,101,213047,1,0,1:0:0:0:
331,109,213147,1,2,1:2:0:0:
149,182,213347,2,0,B|132:200|132:200|147:106,1,89.2499972763062,10|0,0:2|1:2,0:0:0:0:
320,218,213747,2,0,P|349:250|324:303,1,89.2499972763062,0|2,1:0|1:2,0:0:0:0:
241,384,214147,1,2,1:2:0:0:
459,315,214347,6,0,P|407:324|375:258,1,133.874995914459,8|0,1:2|0:0,0:0:0:0:
423,198,214747,2,0,P|455:197|517:184,1,89.2499972763062,0|0,1:2|0:2,0:2:0:0:
497,159,215047,1,0,1:0:0:0:
495,113,215147,6,0,B|510:22|510:22|468:48|416:53,1,178.499994552612,2|2,1:2|1:2,0:2:0:0:
328,0,215747,1,2,1:2:0:0:
153,83,215947,2,0,B|101:67|101:67|85:39|85:39|38:24,1,133.874995914459,8|0,1:2|1:0,0:0:0:0:
40,24,216347,1,2,1:2:0:0:
146,164,216547,2,0,P|142:238|222:212,1,178.499994552612,2|8,1:2|1:2,0:0:0:0:
92,219,217147,5,2,1:2:0:0:
266,152,217347,1,2,1:2:0:0:
346,320,217547,2,0,P|305:380|222:335,1,178.499994552612,8|0,1:2|1:2,0:2:0:0:
0,289,218147,6,0,L|46:279,1,44.6249986381531,0|0,0:2|1:2,0:0:0:0:
107,213,218347,6,0,B|143:224|199:231|199:231|156:258|134:289,1,178.499994552612,2|2,1:2|1:2,0:2:0:0:
309,201,218947,1,2,1:2:0:0:
199,231,219147,2,0,P|177:195|198:140,1,89.2499972763062,8|0,1:2|0:2,0:2:0:0:
384,313,219547,5,2,1:2:0:0:
294,384,219747,2,0,B|265:373|220:373|220:373|262:273,1,178.499994552612,2|0,1:2|1:0,0:0:0:0:
324,156,220347,1,2,1:2:0:0:
418,215,220547,1,2,1:2:0:0:
512,81,220747,2,0,B|533:37|533:37|493:77|441:89,1,133.874995914459,8|0,1:2|0:0,0:0:0:0:
392,39,221147,6,0,P|383:24|375:-3,1,31.8750012159348,2|0,1:2|0:0,0:0:0:0:
313,49,221347,2,0,P|305:63|302:79,1,31.8750012159348,2|0,1:2|0:0,0:0:0:0:
208,127,221547,6,0,P|281:151|322:74,1,178.499994552612,6|2,1:2|1:2,0:2:0:0:
200,122,222147,1,2,1:2:0:0:
389,231,222347,6,0,P|358:187|272:218,1,133.874995914459,12|0,1:2|0:0,0:0:0:0:
252,222,222747,1,2,1:2:0:0:
388,352,222947,1,2,1:2:0:0:
393,365,223047,1,0,1:2:0:0:
399,377,223147,1,2,1:2:0:0:
472,196,223347,1,8,1:2:0:0:
362,250,223547,1,0,1:2:0:0:
345,230,223947,6,0,P|329:194|344:87,1,118.999996368408,12|0,1:2|1:0,0:2:0:0:
412,51,224347,5,0,1:2:0:0:
447,55,224480,2,0,P|475:39|503:6,1,59.4999981842042,4|0,3:0|1:0,0:0:0:0:
399,151,224747,6,0,P|324:134|221:181,1,178.499994552612,4|2,1:2|1:2,0:2:0:0:
68,321,225347,1,2,1:2:0:0:
162,373,225547,2,0,B|276:346|216:396|345:358,1,178.499994552612,10|2,1:2|1:2,0:2:0:0:
457,212,226147,5,2,1:2:0:0:
369,269,226347,1,0,0:2:0:0:
334,170,226547,1,0,1:2:0:0:
445,100,226747,2,0,B|465:122|465:122|397:111,1,89.2499972763062,0|0,1:2|0:2,0:2:0:0:
185,115,227147,5,8,1:2:0:0:
53,160,227347,5,2,1:2:0:0:
185,115,227547,1,2,1:2:0:0:
274,215,227747,2,0,P|286:234|296:281,1,44.6249986381531,2|0,0:2|1:0,0:0:0:0:
341,353,227947,6,0,P|303:369|258:324,1,89.2499972763062,2|0,1:2|0:0,0:2:0:0:
200,191,228347,1,2,1:2:0:0:
299,78,228547,6,0,P|267:45|219:53,1,89.2499972763062,2|10,0:2|1:2,0:0:0:0:
106,98,228947,1,0,0:0:0:0:
322,188,229147,6,0,L|417:180,1,89.2499972763062,2|2,1:2|1:2,0:0:0:0:
448,170,229447,2,0,L|527:166,1,44.6249986381531,0|6,1:0|1:2,0:0:0:0:
318,37,229747,1,8,1:2:0:0:
318,37,229847,2,0,L|383:47,1,44.6249986381531,0|2,1:0|1:2,0:0:0:0:
469,89,230147,5,2,1:2:0:0:
337,171,230347,2,0,B|264:104|145:141|237:211|263:152,1,178.499994552612,10|2,1:2|1:2,0:0:0:0:
262,166,230947,6,0,P|276:148|279:113,1,44.6249986381531,0|0,0:0|1:0,0:0:0:0:
158,10,231147,6,0,B|146:6|146:6|64:20,1,89.2499972763062,6|0,1:2|0:0,0:2:0:0:
70,18,231547,1,2,1:2:0:0:
190,119,231747,1,2,1:2:0:0:
71,260,231947,2,0,B|-2:209|-2:209|87:243,1,178.499994552612,8|0,1:2|1:2,0:2:0:0:
155,355,232547,5,0,1:2:0:0:
177,373,232647,2,0,B|223:367|223:367|255:374|255:374|325:364,1,133.874995914459,0|8,1:0|1:2,0:0:0:0:
419,295,233147,2,0,L|536:320,1,89.2499972763062,0|0,1:2|0:2,0:0:0:0:
303,188,233547,2,0,L|186:179,1,89.2499972763062,8|0,1:2|0:0,0:0:0:0:
447,44,233947,6,0,B|490:37|490:37|452:54,1,76.4999976654053,2|0,1:2|0:0,0:0:0:0:
362,93,234347,6,0,B|282:84|282:84|325:-4,1,152.999995330811,6|0,1:2|0:2,0:2:0:0:
320,5,234747,1,2,1:2:0:0:
164,37,234947,1,2,1:2:0:0:
325,111,235147,6,0,B|405:123|405:123|358:210,1,152.999995330811,14|0,1:2|0:0,0:0:0:0:
360,204,235547,1,0,1:2:0:0:
512,308,235747,1,0,1:0:0:0:
264,367,235947,6,0,L|169:380,1,89.2499972763062,4|0,1:2|0:0,0:0:0:0:
251,144,236347,2,0,L|132:113,1,89.2499972763062,4|0,1:2|0:0,0:0:0:0:
216,291,236747,5,4,3:0:0:0:
216,291,236880,2,0,B|213:274|213:274|214:254|214:254|208:229,1,59.4999981842042,4|4,3:0|3:0,0:0:0:0:
85,349,237147,1,4,3:0:0:0:
85,349,237280,2,0,B|63:360|63:360|45:363|45:363|19:376,1,59.4999981842042,4|4,3:0|3:0,0:0:0:0:
76,225,237547,6,0,P|144:199|132:281,1,187.000005706787,6|2,1:2|1:2,0:2:0:0:
295,337,238147,1,2,0:2:0:0:
163,280,238347,6,0,P|191:243|280:275,1,140.25000428009,8|0,1:2|0:0,0:0:0:0:
295,337,238747,1,2,1:2:0:0:
401,175,238947,6,0,P|440:182|457:243,1,93.5000028533936,2|0,1:2|0:0,0:2:0:0:
476,229,239247,2,0,P|511:252|504:312,1,93.5000028533936,0|0,1:0|0:0,0:0:0:0:
485,330,239547,1,2,1:2:0:0:
452,226,239747,1,2,1:2:0:0:
501,37,239947,6,0,B|532:69|532:69|528:72|528:72|470:56|470:56|428:82|374:50,1,187.000005706787,8|0,1:2|1:2,0:0:0:0:
202,8,240547,6,0,L|131:20,1,46.7500014266968,0|0,1:2|1:2,0:0:0:0:
28,15,240747,6,0,P|86:42|43:95,1,140.25000428009,6|0,1:2|0:0,0:2:0:0:
14,109,241147,1,2,1:2:0:0:
180,20,241347,1,2,1:2:0:0:
329,148,241547,6,0,B|373:142|373:142|381:143|381:143|435:137,1,93.5000028533936,8|0,1:2|0:2,0:0:0:0:
451,144,241847,2,0,L|511:133,1,46.7500014266968,0|2,1:0|1:2,0:0:0:0:
366,279,242147,6,0,P|390:317|360:363,2,93.5000028533936,2|0|8,1:2|0:0|1:2,0:0:0:0:
263,199,242747,1,2,1:2:0:0:
365,374,242947,1,2,1:2:0:0:
502,191,243147,2,0,P|460:187|414:272,1,140.25000428009,8|0,1:2|0:0,0:0:0:0:
296,326,243547,6,0,B|224:336|288:341|195:351,1,93.5000028533936,2|0,1:3|0:2,0:2:0:0:
128,354,243847,1,0,1:0:0:0:
101,379,243947,1,6,1:2:0:0:
51,47,244347,1,2,1:2:0:0:
132,157,244547,6,0,P|164:187|221:182,1,93.5000028533936,2|8,1:2|1:2,0:0:0:0:
308,116,244947,1,0,1:2:0:0:
117,183,245147,6,0,L|50:199,1,46.7500014266968,2|0,1:2|0:0,0:0:0:0:
308,116,245347,6,0,P|338:84|333:27,2,93.5000028533936,2|0|0,1:2|1:0|0:2,0:2:0:0:
450,276,245947,1,2,1:2:0:0:
373,196,246147,6,0,P|345:161|358:112,1,93.5000028533936,2|8,1:2|1:2,0:0:0:0:
501,39,246547,1,0,0:0:0:0:
501,39,246647,1,0,1:0:0:0:
501,39,246747,1,2,1:2:0:0:
417,120,246947,6,0,L|361:131,1,46.7500014266968,2|0,1:2|1:0,0:0:0:0:
202,62,247147,6,0,B|156:57|156:57|105:69|105:69|55:62,1,140.25000428009,2|0,1:2|0:2,0:2:0:0:
22,53,247547,1,2,1:2:0:0:
132,157,247747,2,0,B|157:197|157:197|130:239,1,93.5000028533936,2|12,1:2|1:2,0:0:0:0:
328,90,248147,6,0,B|384:74|384:74|331:117,1,93.5000028533936,10|2,1:2|1:2,0:0:0:0:
512,264,248547,6,0,B|489:216|450:194|450:194|438:204|438:204|472:229|481:277,1,187.000005706787,6|8,1:2|1:2,0:0:0:0:
353,375,249147,1,0,1:2:0:0:
204,317,249347,1,0,0:2:0:0:
98,372,249547,1,8,1:2:0:0:
72,352,249947,2,0,L|88:308,1,31.8750012159348,8|0,1:2|1:0,0:0:0:0:
136,136,250247,5,0,1:0:0:0:
136,136,250347,2,0,B|216:72|160:-12|92:4|104:44,1,187.000005706787,4|2,1:2|1:2,0:0:0:0:
239,147,250947,1,2,1:2:0:0:
345,87,251147,2,0,B|403:78|403:78|441:87|441:87|501:75,1,140.25000428009,10|0,1:2|1:0,0:0:0:0:
493,75,251547,1,2,0:2:0:0:
384,173,251747,6,0,B|378:209|397:273|397:273|356:246|302:251,1,187.000005706787,2|0,1:2|1:2,0:2:0:0:
218,132,252347,2,0,B|215:80|265:32|265:32|210:61|168:42,1,187.000005706787,0|8,1:2|1:2,0:0:0:0:
389,232,253147,1,2,1:2:0:0:
512,306,253347,6,0,L|447:298,1,46.7500014266968,0|0,1:2|0:0,0:0:0:0:
389,232,253547,2,0,B|381:187|368:149|368:149|410:177|478:194,1,187.000005706787,2|0,1:2|0:2,0:2:0:0:
271,310,254147,1,0,1:2:0:0:
435,168,254347,2,0,B|384:175|384:175|356:197|356:197|291:207,1,140.25000428009,10|0,1:2|1:0,0:2:0:0:
303,205,254747,1,2,1:2:0:0:
144,131,254947,5,2,1:2:0:0:
112,121,255047,1,0,1:0:0:0:
80,112,255147,1,0,1:2:0:0:
202,214,255347,1,8,1:2:0:0:
345,84,255547,1,2,1:2:0:0:
462,134,255747,1,0,1:2:0:0:
345,84,255947,6,0,B|324:75|324:75|196:98,1,140.25000428009,8|0,1:2|0:0,0:0:0:0:
181,101,256347,1,2,1:2:0:0:
290,241,256547,2,0,L|301:315,1,46.7500014266968,2|0,1:2|1:0,0:0:0:0:
314,370,256747,6,0,P|282:338|309:291,1,93.5000028533936,6|0,1:2|0:2,0:2:0:0:
465,224,257147,2,0,B|519:245|519:245|477:252,1,93.5000028533936,2|2,1:2|1:2,0:0:0:0:
323,162,257547,2,0,P|294:121|345:2,1,187.000005706787,8|0,0:2|1:2,0:0:0:0:
197,170,258147,1,0,1:2:0:0:
395,81,258347,6,0,P|371:113|310:107,1,93.5000028533936,0|0,1:2|1:2,0:0:0:0:
212,264,258747,2,0,B|205:208|205:208|250:240,1,93.5000028533936,2|0,1:2|0:2,0:0:0:0:
486,200,259147,6,0,L|343:222,1,140.25000428009,10|0,1:2|1:0,0:2:0:0:
273,235,259547,1,2,1:2:0:0:
133,132,259747,2,0,L|63:141,1,46.7500014266968,0|0,0:2|1:0,0:0:0:0:
1,156,259947,6,0,B|92:161|92:161|36:78,1,187.000005706787,6|0,0:2|1:2,0:0:0:0:
136,276,260547,1,0,1:2:0:0:
59,247,260747,6,0,P|105:245|140:289,1,93.5000028533936,12|0,0:2|1:2,0:0:0:0:
153,269,261147,2,0,P|120:237|73:234,1,93.5000028533936,2|0,1:2|1:2,0:0:0:0:
60,362,261547,5,6,1:2:0:0:
60,362,261680,2,0,L|160:350,1,62.3333352355958,0|0,1:0|1:0,0:0:0:0:
185,281,261947,5,2,1:2:0:0:
260,240,262080,2,0,L|357:253,1,62.3333352355958,8|0,1:2|1:0,0:0:0:0:
500,248,262347,6,0,B|507:291|507:291|468:258,2,73.6666632944744,8|0|0,3:0|3:0|3:0,0:0:0:0:
388,213,262747,6,4,B|380:210|380:210|302:222,2,73.6666632944744,0|4|4,3:2|3:0|3:0,3:0:0:0:
472,154,263147,6,0,B|503:133|541:138|541:138|481:107|418:152,1,187.000005706787,6|2,1:2|1:2,0:2:0:0:
277,253,263747,1,2,1:2:0:0:
145,257,263947,6,0,L|24:239,1,93.5000028533936,8|0,0:2|1:2,0:0:0:0:
52,243,264247,2,0,L|-24:231,1,46.7500014266968,0|2,1:0|1:2,0:0:0:0:
208,384,264547,2,0,P|186:347|218:296,1,93.5000028533936,2|0,1:2|1:2,0:0:0:0:
355,199,264947,1,0,0:0:0:0:
386,190,265047,1,0,1:0:0:0:
417,181,265147,1,2,1:2:0:0:
256,124,265347,5,2,1:2:0:0:
435,186,265547,2,0,B|459:169|495:159|495:159|465:138|437:105,1,140.25000428009,8|0,1:2|0:0,0:0:0:0:
441,73,265947,6,0,P|426:53|423:16,1,46.7500014266968,2|0,1:3|0:0,0:2:0:0:
341,34,266147,2,0,P|318:28|300:14,1,46.7500014266968,2|0,0:3|0:2,0:0:0:0:
324,169,266347,6,0,P|292:202|239:197,1,93.5000028533936,6|0,1:2|0:0,0:2:0:0:
90,61,266747,1,2,1:2:0:0:
201,11,266947,6,0,P|247:8|279:55,1,93.5000028533936,2|8,1:2|1:2,0:0:0:0:
152,115,267347,2,0,L|106:102,2,46.7500014266968,0|0|2,0:2|1:0|1:2,0:0:0:0:
352,199,267747,6,0,L|458:211,1,93.5000028533936,2|0,1:2|1:2,0:0:0:0:
483,218,268047,1,0,1:0:0:0:
267,142,268247,5,0,1:0:0:0:
263,170,268347,2,0,L|248:232,1,46.7500014266968,10|0,1:2|0:0,0:0:0:0:
264,338,268547,5,2,1:2:0:0:
224,173,268747,2,0,P|257:122|194:61,1,140.25000428009,12|0,1:2|0:0,0:2:0:0:
98,14,269147,6,0,B|33:2|33:2|72:33,1,93.5000028533936,8|0,1:2|1:2,0:0:0:0:
76,37,269447,1,0,1:2:0:0:
97,55,269547,1,6,1:2:0:0:
226,287,269947,5,2,1:2:0:0:
293,197,270147,2,0,P|281:159|316:120,1,93.5000028533936,2|8,1:2|1:2,0:0:0:0:
451,93,270547,5,0,0:2:0:0:
277,207,270747,2,0,P|229:206|200:161,2,93.5000028533936,2|2|0,1:2|1:2|0:0,0:0:0:0:
202,172,271347,5,0,1:0:0:0:
365,305,271547,2,0,P|368:346|318:384,1,93.5000028533936,2|2,1:2|1:2,0:2:0:0:
270,203,271947,6,0,P|255:166|282:59,1,140.25000428009,8|0,1:2|0:0,0:0:0:0:
306,53,272347,1,2,1:2:0:0:
441,16,272547,1,2,1:2:0:0:
221,143,272747,6,0,B|127:127|173:159|76:139,1,140.25000428009,6|0,1:2|0:2,0:2:0:0:
55,156,273147,2,0,P|79:163|105:166,1,46.7500014266968,2|0,1:2|1:0,0:0:0:0:
292,218,273320,6,0,B|385:144|455:187|420:267|359:201,1,187.000005706787,6|2,0:2|1:2,0:0:0:0:
207,126,273914,1,14,1:2:0:0:
393,228,274112,6,0,L|502:248,1,93.5000028533936,2|2,0:2|1:2,0:0:0:0:
323,70,274505,6,0,B|341:14|341:14|371:69,1,93.5000028533936,8|2,1:2|1:3,0:0:0:0:
289,169,274955,1,0,0:2:0:0:
508,228,275129,6,0,P|471:218|381:255,1,140.25000428009,8|0,1:2|0:0,0:2:0:0:
321,308,275529,5,0,1:2:0:0:
289,321,275629,1,8,0:3:0:0:
240,335,275729,5,0,1:2:0:0:
192,353,275829,1,8,0:3:0:0:
169,357,275955,5,4,1:2:0:0:
22,118,276355,5,2,1:2:0:0:
134,171,276555,1,2,1:2:0:0:
40,251,276755,1,10,1:2:0:0:
265,111,276955,5,0,0:0:0:0:
144,180,277155,1,2,1:2:0:0:
264,289,277355,2,0,B|292:297|292:297|275:224,1,93.5000028533936,2|0,1:2|0:2,0:2:0:0:
395,42,277755,6,0,P|335:14|385:69,1,187.000005706787,0|0,1:2|1:2,0:0:0:0:
263,194,278355,2,0,L|379:173,1,93.5000028533936,8|2,1:2|1:2,0:0:0:0:
392,194,278655,1,0,1:0:0:0:
412,203,278755,1,2,1:2:0:0:
254,114,278955,1,2,1:2:0:0:
240,105,279055,1,0,1:0:0:0:
217,86,279155,6,0,P|220:42|276:21,1,93.5000028533936,2|0,1:2|0:0,0:2:0:0:
368,163,279555,1,2,1:2:0:0:
177,229,279755,2,0,P|130:227|61:213,2,93.5000028533936,2|10|0,0:2|1:2|0:0,0:0:0:0:
385,299,280355,5,2,1:2:0:0:
216,214,280555,1,2,1:2:0:0:
65,293,280755,2,0,P|32:329|3:389,1,93.5000028533936,2|0,1:2|0:2,0:2:0:0:
65,293,281155,5,2,1:2:0:0:
202,197,281355,1,2,1:2:0:0:
87,40,281555,2,0,P|56:7|-5:17,1,93.5000028533936,14|0,1:2|1:2,0:0:0:0:
92,175,281955,6,0,L|109:136,1,31.8750012159348,2|0,1:2|0:0,0:0:0:0:
176,122,282155,2,0,L|192:84,1,31.8750012159348,0|0,1:0|0:0,0:0:0:0:
361,40,282355,6,0,B|421:38|477:12|477:12|446:44|441:80,1,187.000005706787,6|2,1:2|1:2,0:2:0:0:
248,152,282955,1,2,1:2:0:0:
378,125,283155,6,0,B|434:115|434:115|399:139,1,93.5000028533936,8|0,1:2|0:2,0:2:0:0:
266,15,283555,2,0,L|167:2,1,93.5000028533936,0|0,1:2|1:2,0:0:0:0:
173,2,283955,6,0,B|114:46|140:103|194:116|179:69,1,140.25000428009,0|0,1:2|0:0,0:0:0:0:
107,50,284355,2,0,L|12:66,1,93.5000028533936,0|0,1:2|0:2,0:0:0:0:
158,196,284755,2,0,P|139:234|132:178,1,140.25000428009,8|0,1:2|1:0,0:0:0:0:
119,256,285155,2,0,L|97:352,1,93.5000028533936,2|0,1:2|1:2,0:0:0:0:
98,347,285455,1,0,1:0:0:0:
98,347,285555,5,6,1:2:0:0:
244,138,285955,5,6,1:2:0:0:
429,305,286355,5,14,1:2:0:0:
223,51,286755,5,4,1:2:0:0:
223,51,286955,1,0,1:2:0:0:
193,57,287055,1,0,1:2:0:0:
155,68,287155,5,12,0:2:0:0:
305,126,287355,5,8,0:2:0:0:
396,215,287555,5,0,1:2:0:0:
420,307,287755,5,0,1:2:0:0:
369,281,287955,5,10,1:2:0:0:
341,208,288155,1,0,1:2:0:0:
389,145,288355,1,2,1:2:0:0:
465,129,288555,1,8,1:2:0:0:
479,143,288755,1,6,0:2:0:0:
508,214,289155,6,0,B|501:246|448:297|347:238|370:107|436:110|487:193|526:59|439:-31|372:0|372:0|407:8|424:43,1,476,2|0,0:0|0:0,0:0:0:0:
256,192,292055,12,0,295155,0:0:0:0:
