osu file format v14

[General]
AudioFilename: audio.mp3
AudioLeadIn: 0
PreviewTime: 83067
Countdown: 0
SampleSet: Soft
StackLeniency: 0.7
Mode: 0
LetterboxInBreaks: 0
WidescreenStoryboard: 1

[Editor]
Bookmarks: 50466
DistanceSpacing: 1
BeatDivisor: 2
GridSize: 8
TimelineZoom: 0.9999999

[Metadata]
Title:Azurite no Hitsugi
TitleUnicode:アズライトの棺
Artist:Ayane
ArtistUnicode:アヤネ
Creator:Xexxar
Version:joker's Normal
Source:水葬銀貨のイストリア
Tags:eroge visual novel tv size suisouginka めと meto metomate uguisukagura ウグイスカグラ joker- little cloudsplash16
BeatmapID:1283776
BeatmapSetID:583650

[Difficulty]
HPDrainRate:4
CircleSize:3.2
OverallDifficulty:3
ApproachRate:5
SliderMultiplier:1
SliderTickRate:1

[Events]
//Background and Video events
0,0,"nisechino.png",0,0
Video,261,"optc.flv"
//Break Periods
//Storyboard Layer 0 (Background)
//Storyboard Layer 1 (Fail)
//Storyboard Layer 2 (Pass)
//Storyboard Layer 3 (Foreground)
//Storyboard Sound Samples

[TimingPoints]
512,346.820809248555,4,2,1,50,1,0
512,-100,4,2,1,50,0,0
10222,-100,4,2,1,50,0,0
11610,-100,4,2,1,50,0,0
15772,-100,4,2,1,50,0,0
22708,-95.2380952380952,4,2,1,78,0,0
26696,-95.2380952380952,4,2,1,78,0,0
27390,-95.2380952380952,4,2,1,78,0,0
28257,-95.2380952380952,4,2,1,78,0,0
29471,-95.2380952380952,4,2,1,78,0,0
30165,-95.2380952380952,4,2,1,78,0,0
30858,-95.2380952380952,4,2,1,78,0,0
31552,-95.2380952380952,4,2,1,78,0,0
32246,-95.2380952380952,4,2,1,78,0,0
32939,-95.2380952380952,4,2,1,78,0,0
33806,-95.2380952380952,4,2,1,78,0,0
35540,-95.2380952380952,4,2,1,78,0,0
36581,-95.2380952380952,4,2,1,78,0,0
38315,-95.2380952380952,4,2,1,78,0,0
39355,-100,4,2,1,40,0,0
42130,-100,4,2,1,25,0,0
43170,-100,4,2,1,15,0,0
43517,-100,4,2,1,30,0,0
44211,-100,4,2,1,15,0,0
44905,-100,4,2,1,40,0,0
47679,-100,4,2,1,25,0,0
48720,-100,4,2,1,15,0,0
49066,-100,4,2,1,30,0,0
49760,-100,4,2,1,15,0,0
50454,-100,4,2,1,40,0,0
53228,-100,4,2,1,25,0,0
54269,-100,4,2,1,15,0,0
54616,-100,4,2,1,30,0,0
55309,-100,4,2,1,15,0,0
56003,-100,4,2,1,40,0,0
59818,-100,4,2,1,20,0,0
60165,-100,4,2,1,35,0,0
60858,-100,4,2,1,25,0,0
61379,-100,4,2,1,35,0,0
61552,-100,4,2,1,55,0,0
72650,-100,4,2,1,65,0,0
76639,-100,4,2,1,70,0,0
78199,-100,4,2,1,78,0,0
83575,-100,4,2,1,78,0,0
83748,-90.9090909090909,4,2,1,85,0,1
94500,-90.9090909090909,4,2,1,85,0,0
94847,-90.9090909090909,4,2,1,85,0,1
104384,-95.2380952380952,4,2,1,78,0,0
104484,-95.2380952380952,4,2,1,78,0,0
105251,-95.2380952380952,4,2,1,50,0,0
105945,-95.2380952380952,4,2,1,78,0,0
106292,-95.2380952380952,4,2,1,78,0,0
115309,-95.2380952380952,4,2,1,85,0,0
115483,-95.2380952380952,4,2,1,95,0,0
116350,-95.2380952380952,4,2,1,75,0,0
116436,-95.2380952380952,4,2,1,72,0,0
116523,-95.2380952380952,4,2,1,69,0,0
116610,-95.2380952380952,4,2,1,66,0,0
116696,-95.2380952380952,4,2,1,63,0,0
116783,-95.2380952380952,4,2,1,60,0,0
116870,-95.2380952380952,4,2,1,57,0,0
116957,-95.2380952380952,4,2,1,54,0,0
117043,-95.2380952380952,4,2,1,51,0,0
117217,-95.2380952380952,4,2,1,40,0,0
118777,-95.2380952380952,4,2,1,25,0,0
119644,-95.2380952380952,4,2,1,14,0,0

[Colours]
Combo1 : 240,228,147
Combo2 : 115,199,249
Combo3 : 185,200,194
Combo4 : 137,128,255
SliderTrackOverride : 35,35,35
SliderBorder : 255,255,255

[HitObjects]
96,188,512,6,0,P|140:172|206:181,1,100,2|0,0:0|0:0,0:0:0:0:
287,207,1205,1,0,0:0:0:0:
367,147,1552,1,2,0:0:0:0:
446,207,1899,2,0,B|472:304|472:304|446:347,2,150,2|2|2,0:0|0:0|0:0,0:0:0:0:
367,147,3286,6,0,L|379:45,1,100,2|0,0:0|0:0,0:0:0:0:
280,68,3980,2,0,P|221:79|165:64,1,100,0|0,0:0|0:0,0:0:0:0:
85,47,4673,2,0,B|73:102|73:102|91:182|91:182|75:243,1,200,2|2,0:0|0:0,0:0:0:0:
236,360,6061,6,0,P|228:303|237:262,1,100,2|0,0:0|0:0,0:0:0:0:
282,172,6754,1,0,0:0:0:0:
376,205,7101,1,2,0:0:0:0:
469,239,7448,2,0,P|494:172|469:90,2,150,2|2|2,0:0|0:0|0:0,0:0:0:0:
440,280,8662,1,0,0:0:0:0:
400,310,8835,6,0,B|345:330|345:330|273:284|195:333,1,200,2|2,0:0|0:0,0:0:0:0:
115,357,9876,1,2,0:0:0:0:
48,282,10222,2,0,P|23:227|100:111,1,200,2|2,0:0|0:0,0:0:0:0:
226,58,11436,1,0,0:0:0:0:
271,78,11610,6,0,P|318:93|387:94,1,100,2|0,0:0|0:0,0:0:0:0:
468,96,12303,1,0,0:0:0:0:
508,187,12650,1,2,0:0:0:0:
475,281,12997,2,0,P|433:311|328:294,2,150,2|2|2,0:0|0:0|0:0,0:0:0:0:
508,187,14384,6,0,L|400:167,1,100,2|0,0:0|0:0,0:0:0:0:
325,114,15078,2,0,L|217:134,1,100,0|2,0:0|0:0,0:0:0:0:
178,145,15598,1,2,0:0:0:0:
167,194,15772,2,0,P|194:251|104:340,1,200,0|0,0:0|0:0,0:0:0:0:
17,306,16812,1,2,0:0:0:0:
1,207,17159,5,2,0:0:0:0:
395,261,18546,1,2,0:0:0:0:
256,192,19933,12,2,21321,0:0:0:0:
85,294,22708,6,0,L|72:184,1,104.999996795654,6|0,3:2|3:0,0:0:0:0:
136,104,23402,2,0,P|184:93|243:104,1,104.999996795654,0|0,3:0|3:3,0:0:0:0:
334,143,24095,2,0,P|383:150|441:133,1,104.999996795654,0|0,3:3|3:0,0:0:0:0:
481,108,24616,2,0,L|469:272,1,157.499995193482,6|0,0:0|0:0,0:0:0:0:
379,318,25483,6,0,P|299:344|231:293,1,157.499995193482,2|2,3:2|0:0,0:0:0:0:
215,262,26176,2,0,L|234:147,1,104.999996795654,10|0,3:2|3:0,0:0:0:0:
244,107,26696,1,2,0:0:0:0:
220,59,26870,2,0,P|157:31|63:77,1,157.499995193482,10|10,3:2|3:2,0:0:0:0:
52,106,27564,2,0,L|56:212,1,104.999996795654,2|0,3:2|3:0,0:0:0:0:
108,301,28257,6,0,P|182:269|257:298,1,157.499995193482,6|2,3:2|0:0,0:0:0:0:
295,322,28951,2,0,L|308:210,1,104.999996795654,2|0,3:2|3:2,0:0:0:0:
312,165,29471,1,2,0:0:0:0:
320,113,29644,2,0,P|376:84|471:128,1,157.499995193482,2|10,3:2|0:0,0:0:0:0:
479,163,30338,2,0,L|462:328,1,157.499995193482,2|10,3:2|0:0,0:0:0:0:
421,351,31032,6,0,P|332:366|266:314,1,157.499995193482,6|2,3:2|0:0,0:0:0:0:
253,285,31725,2,0,L|245:160,1,104.999996795654,2|0,3:2|3:0,0:0:0:0:
244,127,32246,1,2,0:0:0:0:
238,74,32419,2,0,P|169:51|76:96,1,157.499995193482,10|10,3:2|0:0,0:0:0:0:
76,129,33113,2,0,B|53:230|53:230|83:292,1,157.499995193482,2|0,3:2|3:0,0:0:0:0:
106,321,33806,6,0,P|169:278|247:298,1,157.499995193482,6|2,3:2|3:2,0:0:0:0:
289,322,34500,1,8,2:2:0:0:
391,293,34847,2,0,P|421:214|420:125,1,157.499995193482,2|0,0:0|3:0,0:0:0:0:
409,91,35540,1,2,3:2:0:0:
315,43,35887,2,0,L|249:37,1,52.4999983978272,2|0,3:2|3:2,0:0:0:0:
212,55,36234,2,0,L|150:50,1,52.4999983978272,2|0,3:2|3:2,0:0:0:0:
111,71,36581,6,0,P|84:139|104:224,1,157.499995193482,6|2,0:0|3:2,0:0:0:0:
126,265,37275,1,8,0:0:0:0:
226,294,37621,2,0,P|277:219|227:97,1,209.999993591309,6|2,0:0|0:0,0:0:0:0:
159,50,38662,1,2,0:0:0:0:
66,100,39009,1,2,0:0:0:0:
30,193,39355,6,0,L|55:362,1,150,2|2,3:2|0:0,0:0:0:0:
300,368,40743,2,0,P|352:285|298:180,2,200,0|0|2,0:0|0:0|0:0,0:0:0:0:
250,362,42303,5,0,0:0:0:0:
209,331,42477,2,0,B|169:362|112:355|112:355|76:315|8:316,1,200,2|0,0:0|3:0,0:0:0:0:
9,217,43517,2,0,B|63:160|142:190|142:190|202:163,1,200,2|0,0:0|3:0,0:0:0:0:
382,105,44905,6,0,L|374:216,1,100,2|0,0:0|0:0,0:0:0:0:
368,254,45425,1,2,0:0:0:0:
216,55,46292,2,0,B|122:17|122:17|7:43,2,200,0|0|2,0:0|0:0|0:0,0:0:0:0:
260,74,47853,5,0,0:0:0:0:
292,111,48026,2,0,B|312:183|264:249|264:249|278:312,1,200,2|0,0:0|3:0,0:0:0:0:
192,357,49066,2,0,P|107:371|18:303,1,200,2|0,0:0|3:0,0:0:0:0:
67,111,50454,6,0,P|144:101|227:134,1,150,2|2,0:0|0:0,0:0:0:0:
390,306,51841,2,0,B|409:238|409:238|385:179|385:179|411:94,2,200,0|0|2,0:0|0:0|0:0,0:0:0:0:
351,338,53402,5,0,0:0:0:0:
303,323,53575,2,0,P|230:265|108:309,1,200,2|0,0:0|3:0,0:0:0:0:
42,331,54616,2,0,B|12:235|12:235|77:118,1,200,2|0,0:0|3:0,0:0:0:0:
234,49,56003,6,0,P|292:40|347:52,1,100,2|0,0:0|0:0,0:0:0:0:
378,65,56523,1,2,0:0:0:0:
389,314,57390,2,0,P|294:348|193:316,2,200,2|2|2,0:0|0:0|0:0,0:0:0:0:
422,277,58951,5,0,0:0:0:0:
410,228,59124,2,0,L|422:157,1,50,2|2,0:0|0:0,0:0:0:0:
445,31,59818,1,0,3:0:0:0:
356,77,60165,2,0,P|288:29|177:51,1,200,2|0,0:0|3:0,0:0:0:0:
72,156,61379,1,8,0:0:0:0:
41,195,61552,6,0,P|97:212|168:209,1,100,2|0,0:0|0:0,0:0:0:0:
229,172,62246,2,0,P|289:172|347:207,1,100,2|0,0:0|0:0,0:0:0:0:
366,216,62766,1,2,0:0:0:0:
414,202,62939,2,0,L|439:58,1,100,2|0,0:0|0:0,0:0:0:0:
407,6,63633,1,2,0:0:0:0:
313,40,63980,1,8,0:0:0:0:
222,83,64327,6,0,L|230:194,1,100,2|0,0:0|0:0,0:0:0:0:
239,282,65020,2,0,P|182:297|106:273,1,100,2|0,0:0|0:0,0:0:0:0:
57,238,65714,2,0,L|69:129,1,100,2|0,0:0|0:0,0:0:0:0:
95,42,66407,1,0,0:0:0:0:
177,98,66754,1,10,0:0:0:0:
258,155,67101,6,0,P|306:141|375:148,1,100,2|0,3:2|0:0,0:0:0:0:
452,168,67795,2,0,B|444:279,1,100,2|2,0:0|0:0,0:0:0:0:
436,317,68315,1,2,0:0:0:0:
404,355,68488,2,0,P|340:365|289:340,1,100,0|2,0:0|0:0,0:0:0:0:
222,300,69182,1,2,0:0:0:0:
130,339,69529,1,8,0:0:0:0:
48,281,69876,6,0,L|65:153,1,100,2|0,3:2|0:0,0:0:0:0:
81,83,70569,2,0,P|139:68|189:79,1,100,0|2,0:0|0:0,0:0:0:0:
271,109,71263,2,0,P|318:123|367:117,1,100,0|0,0:0|3:0,0:0:0:0:
465,94,71957,1,2,0:0:0:0:
459,193,72303,1,8,0:0:0:0:
444,292,72650,6,0,P|361:263|276:307,1,150,2|2,3:2|3:2,0:0:0:0:
164,335,73691,1,2,3:2:0:0:
127,241,74038,2,0,P|115:174|116:120,1,100,0|0,0:0|0:0,0:0:0:0:
151,49,74731,1,2,0:0:0:0:
245,80,75078,1,8,0:0:0:0:
340,110,75425,6,0,P|363:180|337:259,1,150,2|0,3:2|3:0,0:0:0:0:
318,294,76118,2,0,P|255:280|185:288,1,100,0|0,0:0|3:0,0:0:0:0:
119,288,76812,2,0,L|94:175,1,100,0|0,0:0|3:0,0:0:0:0:
150,108,77506,1,2,0:0:0:0:
239,152,77853,1,10,0:0:0:0:
323,99,78199,6,0,P|402:81|470:127,1,150,6|0,0:0|3:0,0:0:0:0:
494,148,78893,2,0,L|489:259,1,100,8|2,0:0|0:0,0:0:0:0:
483,297,79413,1,2,0:0:0:0:
450,335,79587,2,0,P|399:356|311:337,1,100,2|8,0:0|0:0,0:0:0:0:
308,336,80107,1,2,0:0:0:0:
273,300,80280,2,0,L|285:170,1,100,8|2,0:0|0:0,0:0:0:0:
310,158,80801,1,0,3:0:0:0:
256,192,80974,12,0,83055,3:0:0:0:
345,127,83748,6,0,L|356:263,1,110.000003356934,6|0,3:2|0:0,0:0:0:0:
293,329,84442,2,0,P|230:347|168:329,1,110.000003356934,8|2,0:0|0:0,0:0:0:0:
142,307,84962,2,0,B|120:154,1,110.000003356934,2|2,3:2|3:2,0:0:0:0:
147,146,85483,2,0,P|201:147|259:119,1,110.000003356934,0|8,3:0|0:0,0:0:0:0:
296,93,86003,1,10,0:0:0:0:
437,177,86523,6,0,P|452:226|444:286,1,110.000003356934,2|2,3:2|0:0,0:0:0:0:
403,319,87043,1,2,0:0:0:0:
347,321,87217,2,0,L|236:309,1,110.000003356934,8|0,0:0|0:0,0:0:0:0:
182,301,87737,1,2,0:0:0:0:
127,293,87910,2,0,P|113:235|127:164,1,110.000003356934,0|0,0:0|0:0,0:0:0:0:
196,107,88604,2,0,P|142:76|82:83,1,110.000003356934,8|2,0:0|3:2,0:0:0:0:
41,88,89124,1,2,0:0:0:0:
9,133,89298,6,0,P|-4:210|9:257,1,110.000003356934,6|0,3:2|0:0,0:0:0:0:
37,347,89991,2,0,L|161:357,1,110.000003356934,8|2,0:0|0:0,0:0:0:0:
189,319,90512,1,2,3:2:0:0:
214,270,90685,2,0,P|273:220|362:237,1,165.000005035401,2|2,0:0|3:2,0:0:0:0:
457,271,91552,2,0,L|516:259,2,55.0000016784668,10|2|2,0:0|3:2|0:0,0:0:0:0:
457,215,92072,6,0,P|473:158|456:94,1,110.000003356934,0|2,3:0|0:0,0:0:0:0:
438,59,92592,1,2,0:0:0:0:
383,51,92766,2,0,L|307:43,1,55.0000016784668,8|8,0:0|0:0,0:0:0:0:
277,65,93113,1,2,3:2:0:0:
168,47,93459,2,0,P|174:108|153:169,1,110.000003356934,12|6,0:0|0:0,0:0:0:0:
132,201,93980,1,0,3:0:0:0:
115,253,94153,2,0,L|197:271,1,55.0000016784668,14|0,0:0|3:0,0:0:0:0:
215,234,94500,2,0,L|270:222,1,55.0000016784668,2|2,0:0|3:2,0:0:0:0:
299,269,94847,6,0,P|355:276|418:257,1,110.000003356934,6|0,3:2|3:0,0:0:0:0:
500,204,95540,2,0,L|489:87,1,110.000003356934,8|2,0:0|3:2,0:0:0:0:
453,52,96061,1,2,0:0:0:0:
407,21,96234,2,0,P|351:13|295:45,1,110.000003356934,0|0,0:0|0:0,0:0:0:0:
288,88,96754,2,0,L|299:161,1,55.0000016784668,2|8,3:2|0:0,0:0:0:0:
274,193,97101,1,8,0:0:0:0:
181,329,97621,6,0,P|105:339|59:318,1,110.000003356934,8|2,0:0|0:0,0:0:0:0:
24,304,98142,2,0,L|38:195,1,110.000003356934,10|2,0:0|3:2,0:0:0:0:
49,140,98662,1,2,3:2:0:0:
60,88,98835,2,0,P|123:57|219:93,1,165.000005035401,8|8,0:0|0:0,0:0:0:0:
253,117,99529,1,0,0:0:0:0:
262,171,99702,2,0,L|250:255,1,55.0000016784668,8|0,0:0|3:0,0:0:0:0:
282,272,100049,1,0,3:2:0:0:
371,335,100396,6,0,P|429:348|484:344,2,110.000003356934,6|2|10,0:0|0:0|0:0,0:0:0:0:
405,231,101436,2,0,P|358:187|245:174,1,165.000005035401,6|2,3:2|0:0,0:0:0:0:
207,180,102130,2,0,L|223:312,1,110.000003356934,10|0,0:0|2:2,0:0:0:0:
128,354,102824,1,8,2:2:0:0:
52,272,103170,6,0,P|36:209|44:160,1,110.000003356934,6|2,3:2|0:0,0:0:0:0:
67,115,103691,2,0,P|124:94|206:118,1,110.000003356934,2|10,0:0|0:0,0:0:0:0:
224,115,104211,1,2,3:2:0:0:
266,84,104384,1,6,3:2:0:0:
266,84,105945,6,0,L|268:199,1,104.999996795654,6|0,0:0|0:0,0:0:0:0:
269,241,106465,1,0,3:0:0:0:
273,293,106639,2,0,P|353:299|395:285,1,104.999996795654,8|0,0:0|3:0,0:0:0:0:
424,273,107159,2,0,B|449:172|449:172|424:119,1,157.499995193482,6|8,0:0|0:0,0:0:0:0:
362,43,108026,2,0,P|294:41|242:60,1,104.999996795654,10|0,3:2|3:0,0:0:0:0:
220,87,108546,1,0,0:0:0:0:
183,124,108720,6,0,P|131:140|65:135,1,104.999996795654,6|0,3:2|3:0,0:0:0:0:
18,223,109413,2,0,L|26:335,1,104.999996795654,8|2,0:0|3:2,0:0:0:0:
74,307,109933,2,0,P|160:289|230:340,1,157.499995193482,10|8,0:0|0:0,0:0:0:0:
260,352,110627,1,0,3:0:0:0:
309,372,110801,2,0,P|371:366|425:338,1,104.999996795654,2|8,0:0|0:0,0:0:0:0:
452,253,111494,6,0,L|441:132,1,104.999996795654,4|0,3:2|3:0,0:0:0:0:
433,96,112014,1,0,3:0:0:0:
394,60,112188,2,0,L|333:44,1,52.4999983978272,8|2,3:2|3:2,0:0:0:0:
292,33,112535,1,0,3:0:0:0:
250,64,112708,2,0,P|200:86|139:75,1,104.999996795654,6|0,0:0|3:0,0:0:0:0:
100,58,113228,1,8,0:0:0:0:
10,113,113575,2,0,P|0:173|13:223,1,104.999996795654,8|0,2:2|2:2,0:0:0:0:
82,289,114269,6,0,P|157:262|237:287,1,157.499995193482,6|2,0:0|3:2,0:0:0:0:
270,315,114962,1,10,0:0:0:0:
307,352,115136,2,0,L|373:340,1,52.4999983978272,10|2,0:0|0:0,0:0:0:0:
394,304,115483,2,0,P|381:233|395:187,1,104.999996795654,2|8,3:2|0:0,0:0:0:0:
405,152,116003,2,0,L|473:160,1,52.4999983978272,8|0,0:0|3:0,0:0:0:0:
509,163,116350,6,0,P|521:103|506:54,1,104.999996795654,0|0,0:0|3:0,0:0:0:0:
256,192,117043,12,2,119644,0:0:0:0:
