osu file format v14

[General]
AudioFilename: audio.mp3
AudioLeadIn: 0
PreviewTime: 83067
Countdown: 0
SampleSet: Soft
StackLeniency: 0.7
Mode: 0
LetterboxInBreaks: 0
WidescreenStoryboard: 1

[Editor]
DistanceSpacing: 1.1
BeatDivisor: 4
GridSize: 4
TimelineZoom: 0.9999999

[Metadata]
Title:Azurite no Hitsugi
TitleUnicode:アズライトの棺
Artist:Ayane
ArtistUnicode:アヤネ
Creator:Xexxar
Version:Little's Hard
Source:水葬銀貨のイストリア
Tags:eroge visual novel tv size suisouginka めと meto metomate uguisukagura ウグイスカグラ joker- little cloudsplash16
BeatmapID:1252788
BeatmapSetID:583650

[Difficulty]
HPDrainRate:5
CircleSize:3.8
OverallDifficulty:6
ApproachRate:7.5
SliderMultiplier:1.4
SliderTickRate:1

[Events]
//Background and Video events
Video,261,"optc.flv"
0,0,"nisechino.png",0,0
//Break Periods
//Storyboard Layer 0 (Background)
//Storyboard Layer 1 (Fail)
//Storyboard Layer 2 (Pass)
//Storyboard Layer 3 (Foreground)
//Storyboard Sound Samples

[TimingPoints]
512,346.820809248555,4,2,1,50,1,0
512,-166.666666666667,4,2,1,50,0,0
22708,-100,4,2,1,78,0,0
39355,-166.666666666667,4,2,1,40,0,0
42130,-166.666666666667,4,2,1,25,0,0
43170,-166.666666666667,4,2,1,15,0,0
43517,-166.666666666667,4,2,1,30,0,0
44211,-166.666666666667,4,2,1,15,0,0
44905,-166.666666666667,4,2,1,40,0,0
47679,-166.666666666667,4,2,1,25,0,0
48720,-166.666666666667,4,2,1,15,0,0
49066,-166.666666666667,4,2,1,30,0,0
49760,-166.666666666667,4,2,1,15,0,0
50454,-166.666666666667,4,2,1,40,0,0
53228,-166.666666666667,4,2,1,25,0,0
54269,-166.666666666667,4,2,1,15,0,0
54616,-166.666666666667,4,2,1,30,0,0
55309,-166.666666666667,4,2,1,15,0,0
56003,-166.666666666667,4,2,1,40,0,0
59818,-166.666666666667,4,2,1,20,0,0
60165,-166.666666666667,4,2,1,35,0,0
60858,-166.666666666667,4,2,1,25,0,0
61379,-166.666666666667,4,2,1,35,0,0
61552,-125,4,2,1,55,0,0
72650,-111.111111111111,4,2,1,65,0,0
76639,-111.111111111111,4,2,1,70,0,0
78199,-100,4,2,1,78,0,0
83055,-90.9090909090909,4,2,1,78,0,0
83748,-90.9090909090909,4,2,1,85,0,1
94500,-90.9090909090909,4,2,1,85,0,0
94847,-90.9090909090909,4,2,1,85,0,1
104384,-100,4,2,1,78,0,0
115309,-100,4,2,1,85,0,0
115483,-100,4,2,1,95,0,0
116350,-100,4,2,1,75,0,0
116870,-100,4,2,1,50,0,0
119124,-100,4,2,1,40,0,0
119644,-100,4,2,1,20,0,0

[Colours]
Combo1 : 240,228,147
Combo2 : 115,199,249
Combo3 : 185,200,194
Combo4 : 137,128,255
SliderTrackOverride : 35,35,35
SliderBorder : 255,255,255

[HitObjects]
428,236,512,5,2,0:0:0:0:
460,340,858,1,0,0:0:0:0:
353,315,1205,1,0,0:0:0:0:
428,236,1552,2,0,P|433:215|435:194,1,41.9999987182618,2|0,0:0|0:0,0:0:0:0:
420,112,1899,2,0,P|365:83|308:106,1,125.999996154785,2|0,0:0|0:0,0:0:0:0:
283,128,2592,2,0,P|248:151|207:153,1,83.9999974365235,2|0,0:0|0:0,0:0:0:0:
88,116,3286,5,2,0:0:0:0:
104,224,3633,1,0,0:0:0:0:
120,332,3980,1,0,0:0:0:0:
206,265,4327,1,2,0:0:0:0:
307,305,4673,2,0,B|352:320|352:320|468:290,1,167.999994873047,2|2,0:0|0:0,0:0:0:0:
472,88,6061,6,0,P|432:74|391:80,1,83.9999974365235,2|0,0:0|0:0,0:0:0:0:
295,131,6754,1,0,0:0:0:0:
207,67,7101,1,2,0:0:0:0:
207,67,7275,1,0,0:0:0:0:
207,67,7448,2,0,L|123:59,1,83.9999974365235,2|0,0:0|0:0,0:0:0:0:
43,183,8142,2,0,L|127:175,1,83.9999974365235,2|0,0:0|0:0,0:0:0:0:
267,163,8835,6,0,P|306:232|261:297,1,167.999994873047,2|2,0:0|0:0,0:0:0:0:
143,307,9876,1,0,0:0:0:0:
232,228,10222,2,0,B|304:200|324:256|396:228,1,167.999994873047,2|2,0:0|0:0,0:0:0:0:
404,64,11436,1,0,0:0:0:0:
404,64,11610,6,0,P|364:50|323:56,1,83.9999974365235,2|0,0:0|0:0,0:0:0:0:
232,116,12303,2,0,P|192:129|151:123,1,83.9999974365235,0|2,0:0|0:0,0:0:0:0:
48,84,12997,2,0,L|33:209,1,125.999996154785,2|0,0:0|0:0,0:0:0:0:
56,232,13691,2,0,L|65:315,1,83.9999974365235,2|0,0:0|0:0,0:0:0:0:
156,376,14384,5,2,0:0:0:0:
248,316,14731,2,0,P|261:276|256:235,1,83.9999974365235,0|0,0:0|0:0,0:0:0:0:
192,148,15425,2,0,L|197:106,1,41.9999987182618,2|0,0:0|0:0,0:0:0:0:
256,48,15772,6,0,B|322:21|383:59|383:59|369:68|357:81,1,167.999994873047,2|0,0:0|0:0,0:0:0:0:
300,176,16812,2,0,P|302:196|306:217,1,41.9999987182618,2|0,0:0|0:0,0:0:0:0:
351,287,17159,6,0,P|288:240|221:280,1,167.999994873047,2|0,0:0|0:0,0:0:0:0:
128,344,18199,1,0,0:0:0:0:
36,284,18546,6,0,B|8:212|64:192|36:120,1,167.999994873047,2|0,0:0|0:0,0:0:0:0:
36,120,19587,1,0,0:0:0:0:
256,192,19933,12,0,22014,0:0:0:0:
68,288,22708,6,0,L|208:304,1,140,6|0,3:2|3:0,0:0:0:0:
312,264,23228,1,0,0:0:0:0:
312,264,23402,2,0,P|327:232|327:197,1,70,0|0,3:0|0:0,0:0:0:0:
332,104,23748,2,0,P|297:107|266:124,1,70,0|0,3:3|0:0,0:0:0:0:
184,179,24095,6,0,P|119:199|63:160,1,140,0|0,3:3|3:0,0:0:0:0:
56,60,24616,2,0,B|100:44|100:44|192:58,1,140,6|0,0:0|0:0,0:0:0:0:
266,124,25136,2,0,P|297:107|332:104,1,70,2|0,3:2|2:0,0:0:0:0:
440,168,25483,6,0,L|424:308,1,140,2|0,3:2|3:0,0:0:0:0:
320,352,26003,1,2,0:0:0:0:
320,352,26176,2,0,P|257:324|189:332,1,140,10|0,3:2|3:0,0:0:0:0:
80,300,26696,1,2,0:0:0:0:
80,300,26783,1,0,0:0:0:0:
80,300,26870,6,0,P|52:240|100:195,1,140,10|0,3:2|3:0,0:0:0:0:
208,168,27390,1,10,3:2:0:0:
208,168,27564,2,0,L|220:96,1,70,2|0,3:2|0:0,0:0:0:0:
320,48,27910,2,0,L|332:120,1,70,0|0,3:0|3:0,0:0:0:0:
368,224,28257,6,0,P|431:249|494:222,1,140,6|0,3:2|3:0,0:0:0:0:
392,356,28777,1,2,0:0:0:0:
392,356,28951,2,0,P|329:329|265:354,1,140,2|0,3:2|3:2,0:0:0:0:
136,300,29471,1,2,0:0:0:0:
136,300,29558,1,0,0:0:0:0:
136,300,29644,6,0,B|128:252|128:252|136:232|136:232|124:163,1,140,2|0,3:2|3:0,0:0:0:0:
224,64,30165,1,10,0:0:0:0:
224,64,30338,2,0,P|289:80|307:145,1,140,2|0,3:2|3:0,0:0:0:0:
232,264,30858,1,10,0:0:0:0:
232,264,30945,1,0,0:0:0:0:
232,264,31032,6,0,B|296:240|304:288|368:264,1,140,6|0,3:2|3:0,0:0:0:0:
484,184,31552,1,2,0:0:0:0:
484,184,31725,2,0,P|451:125|384:124,1,140,2|0,3:2|3:0,0:0:0:0:
264,160,32246,1,2,0:0:0:0:
264,160,32332,1,0,0:0:0:0:
264,160,32419,6,0,L|194:148,1,70,10|0,3:2|0:0,0:0:0:0:
81,130,32766,1,0,3:0:0:0:
64,268,32939,2,0,B|108:284|108:284|200:270,1,140,10|0,0:0|3:0,0:0:0:0:
308,252,33459,2,0,L|296:321,1,70,0|0,3:0|3:0,0:0:0:0:
412,364,33806,6,0,P|450:308|430:243,1,140,6|0,3:2|0:0,0:0:0:0:
364,168,34327,2,0,L|352:98,1,70,2|8,3:2|2:2,0:0:0:0:
484,188,34673,1,8,2:2:0:0:
376,297,34847,2,0,L|236:281,1,140,2|0,0:0|0:0,0:0:0:0:
72,176,35540,5,2,3:2:0:0:
263,136,35887,2,0,P|275:103|274:68,1,70,2|0,3:2|3:2,0:0:0:0:
168,32,36234,2,0,P|156:64|157:99,1,70,2|0,3:2|3:2,0:0:0:0:
211,199,36581,6,0,P|277:217|334:179,1,140,6|0,0:0|0:0,0:0:0:0:
380,92,37101,2,0,L|368:22,1,70,2|8,3:2|0:0,0:0:0:0:
479,89,37448,1,8,0:0:0:0:
432,176,37621,2,0,L|408:313,1,140,6|0,0:0|0:0,0:0:0:0:
216,356,38315,5,2,0:0:0:0:
176,348,38662,1,2,0:0:0:0:
136,340,39009,1,2,0:0:0:0:
103,236,39355,6,0,P|153:199|213:210,1,125.999996154785,2|2,3:2|0:0,0:0:0:0:
213,210,40743,2,0,L|224:126,1,83.9999974365235,0|0,0:0|0:0,0:0:0:0:
236,32,41436,1,0,0:0:0:0:
388,100,42130,6,0,L|377:184,1,83.9999974365235,2|2,0:0|0:0,0:0:0:0:
276,252,42997,1,0,0:0:0:0:
276,252,43170,2,0,L|281:293,1,41.9999987182618,0|0,3:0|3:0,0:0:0:0:
200,316,43517,1,2,0:0:0:0:
200,316,43690,2,0,L|205:357,1,41.9999987182618,0|0,0:0|0:0,0:0:0:0:
76,248,44211,1,0,3:0:0:0:
76,248,44384,2,0,L|70:206,1,41.9999987182618,0|0,3:0|3:0,0:0:0:0:
116,108,44905,6,0,B|161:87|161:87|236:100,2,125.999996154785,2|2|0,0:0|0:0|0:0,0:0:0:0:
272,168,46292,2,0,P|310:120|301:59,1,125.999996154785,0|0,0:0|0:0,0:0:0:0:
320,32,46985,2,0,L|404:21,1,83.9999974365235,0|0,0:0|0:0,0:0:0:0:
484,72,47506,1,0,0:0:0:0:
512,92,47679,6,0,L|501:176,1,83.9999974365235,2|2,0:0|0:0,0:0:0:0:
324,304,48719,2,0,P|303:309|282:311,1,41.9999987182618,0|0,3:0|3:0,0:0:0:0:
200,296,49066,2,0,P|171:241|194:184,1,125.999996154785,2|0,0:0|0:0,0:0:0:0:
215,160,49760,2,0,P|228:120|221:79,1,83.9999974365235,0|0,3:0|3:0,0:0:0:0:
100,44,50454,6,0,P|63:94|74:154,1,125.999996154785,2|2,0:0|0:0,0:0:0:0:
245,237,51494,2,0,L|287:232,1,41.9999987182618,0|0,0:0|0:0,0:0:0:0:
368,252,51841,2,0,P|390:216|394:175,1,83.9999974365235,0|0,0:0|0:0,0:0:0:0:
464,128,52361,2,0,P|444:91|410:66,1,83.9999974365235,0|0,0:0|0:0,0:0:0:0:
328,48,52881,1,0,0:0:0:0:
200,128,53228,6,0,L|211:212,1,83.9999974365235,2|2,0:0|0:0,0:0:0:0:
408,303,54269,2,0,P|416:284|419:264,1,41.9999987182618,0|0,3:0|3:0,0:0:0:0:
360,204,54616,2,0,L|318:199,2,41.9999987182618,2|0|0,0:0|0:0|0:0,0:0:0:0:
468,124,55309,2,0,L|510:119,2,41.9999987182618,0|0|0,3:0|3:0|3:0,0:0:0:0:
345,78,56003,6,0,L|360:204,1,125.999996154785,2|2,0:0|0:0,0:0:0:0:
348,236,56696,1,0,0:0:0:0:
240,300,57043,2,0,P|219:297|200:288,1,41.9999987182618,0|0,0:0|0:0,0:0:0:0:
128,244,57390,2,0,P|121:202|133:163,1,83.9999974365235,2|2,0:0|0:0,0:0:0:0:
220,84,58084,1,2,0:0:0:0:
332,124,58431,6,0,P|422:79|329:40,1,251.999992309571,0|0,0:0|0:0,0:0:0:0:
220,84,59818,1,0,3:0:0:0:
220,84,59991,1,0,3:0:0:0:
220,84,60165,2,0,P|178:90|139:78,1,83.9999974365235,2|0,0:0|0:0,0:0:0:0:
32,144,60858,1,0,3:0:0:0:
44,180,61032,1,0,3:0:0:0:
92,248,61205,1,0,3:0:0:0:
80,284,61379,1,8,0:0:0:0:
128,351,61552,6,0,P|179:331|233:342,1,112,2|0,0:0|0:0,0:0:0:0:
384,300,62246,2,0,B|396:260|396:260|381:191,1,112,2|0,0:0|0:0,0:0:0:0:
312,144,62766,1,2,0:0:0:0:
251,201,62939,2,0,P|273:217|299:226,1,56,2|0,0:0|0:0,0:0:0:0:
228,304,63286,2,0,P|201:312|179:329,1,56,0|0,0:0|0:0,0:0:0:0:
83,319,63633,2,0,P|59:270|72:217,1,112,2|8,0:0|0:0,0:0:0:0:
208,116,64327,6,0,L|320:108,1,112,2|0,0:0|0:0,0:0:0:0:
436,228,65020,2,0,P|386:252|333:239,1,112,2|0,0:0|0:0,0:0:0:0:
260,196,65540,1,2,0:0:0:0:
192,248,65714,2,0,L|185:303,1,56,2|0,0:0|0:0,0:0:0:0:
92,236,66061,2,0,L|85:180,1,56,0|0,0:0|0:0,0:0:0:0:
176,104,66407,2,0,L|182:48,1,56,0|0,0:0|0:0,0:0:0:0:
40,76,66754,1,10,0:0:0:0:
92,236,67101,6,0,P|145:248|194:224,1,112,2|0,3:2|0:0,0:0:0:0:
300,120,67795,2,0,L|308:232,1,112,2|2,0:0|0:0,0:0:0:0:
380,276,68315,1,2,0:0:0:0:
452,232,68488,2,0,P|461:206|463:179,1,56,0|0,0:0|0:0,0:0:0:0:
464,88,68835,2,0,P|437:92|412:104,1,56,2|0,0:0|0:0,0:0:0:0:
300,120,69182,2,0,P|273:115|248:103,1,56,2|0,0:0|0:0,0:0:0:0:
140,36,69529,1,8,0:0:0:0:
20,156,69876,6,0,B|8:196|8:196|23:265,1,112,2|0,3:2|0:0,0:0:0:0:
80,328,70396,2,0,P|129:352|182:340,1,112,2|0,0:0|0:0,0:0:0:0:
256,296,70916,2,0,P|282:288|310:288,1,56,2|0,0:0|0:0,0:0:0:0:
394,303,71263,1,0,0:0:0:0:
424,136,71610,1,0,3:0:0:0:
284,176,71957,1,2,0:0:0:0:
479,195,72303,1,8,0:0:0:0:
479,195,72650,6,0,P|503:138|482:80,1,125.999996154785,2|0,3:2|0:0,0:0:0:0:
400,32,73170,2,0,B|348:12|328:52|276:32,1,125.999996154785,2|0,3:2|0:0,0:0:0:0:
184,104,73691,1,2,3:2:0:0:
224,196,73864,6,0,P|285:201|333:163,1,125.999996154785,0|0,0:0|3:0,0:0:0:0:
432,188,74384,2,0,L|441:250,1,62.9999980773926,0|0,0:0|0:0,0:0:0:0:
376,328,74731,2,0,P|345:335|314:331,1,62.9999980773926,2|0,0:0|3:0,0:0:0:0:
208,284,75078,1,8,0:0:0:0:
208,284,75425,6,0,P|151:260|93:281,1,125.999996154785,2|0,3:2|0:0,0:0:0:0:
16,216,75945,2,0,L|0:92,1,125.999996154785,0|0,3:0|0:0,0:0:0:0:
80,28,76465,1,0,3:0:0:0:
167,75,76639,6,0,P|230:83|290:66,1,125.999996154785,2|0,0:0|3:0,0:0:0:0:
408,104,77159,2,0,L|398:166,1,62.9999980773926,0|0,3:0|3:0,0:0:0:0:
284,240,77506,2,0,L|274:177,1,62.9999980773926,2|0,0:0|3:0,0:0:0:0:
358,282,77853,1,10,0:0:0:0:
353,292,78026,1,0,0:0:0:0:
348,302,78199,6,0,P|285:329|221:304,1,140,6|0,0:0|0:0,0:0:0:0:
136,240,78720,1,0,3:0:0:0:
44,288,78893,2,0,P|29:320|29:355,1,70,8|0,0:0|2:0,0:0:0:0:
136,240,79240,2,0,P|135:205|120:173,1,70,2|2,0:0|0:0,0:0:0:0:
40,104,79587,6,0,P|103:131|167:106,1,140,2|8,0:0|0:0,0:0:0:0:
256,48,80107,1,2,0:0:0:0:
340,112,80280,2,0,L|352:184,1,70,8|0,0:0|3:0,0:0:0:0:
248,252,80627,1,2,0:0:0:0:
352,296,80801,1,0,3:0:0:0:
227,359,80974,6,0,P|160:342|90:342,1,140,6|0,3:2|0:0,0:0:0:0:
0,288,81494,1,0,0:0:0:0:
92,236,81668,2,0,P|91:201|76:169,1,70,8|0,0:0|3:2,0:0:0:0:
4,92,82014,1,2,3:2:0:0:
48,308,83055,6,0,P|84:320|122:314,1,77.0000023498536,0|2,3:0|3:2,0:0:0:0:
216,260,83402,2,0,P|252:247|290:253,1,77.0000023498536,2|2,3:2|0:0,0:0:0:0:
376,320,83748,6,0,P|331:260|351:188,1,154.000004699707,6|0,3:2|0:0,0:0:0:0:
488,237,84269,1,0,3:0:0:0:
488,237,84442,2,0,P|452:249|415:244,1,77.0000023498536,8|0,0:0|0:0,0:0:0:0:
324,168,84789,2,0,L|312:91,1,77.0000023498536,2|2,0:0|0:2,0:0:0:0:
200,40,85136,6,0,L|176:192,2,154.000004699707,0|0|8,3:0|3:0|0:0,0:0:0:0:
64,172,86003,1,10,0:0:0:0:
133,264,86176,2,0,P|169:276|207:270,1,77.0000023498536,0|0,3:2|0:0,0:0:0:0:
328,292,86523,6,0,L|340:369,1,77.0000023498536,2|0,3:2|0:0,0:0:0:0:
440,240,86870,2,0,L|452:163,1,77.0000023498536,2|2,0:0|0:0,0:0:0:0:
380,64,87217,2,0,P|344:52|306:58,1,77.0000023498536,8|0,0:0|0:0,0:0:0:0:
220,116,87564,1,0,0:0:0:0:
311,161,87737,1,2,0:0:0:0:
226,217,87910,6,0,P|190:229|152:223,1,77.0000023498536,0|0,0:0|3:0,0:0:0:0:
44,316,88257,2,0,P|81:310|117:322,1,77.0000023498536,0|2,0:0|0:0,0:0:0:0:
224,368,88604,1,8,0:0:0:0:
224,368,88777,1,8,0:0:0:0:
317,301,88951,1,2,3:2:0:0:
317,301,89124,1,2,0:0:0:0:
211,254,89298,6,0,P|191:182|236:122,1,154.000004699707,6|0,3:2|0:0,0:0:0:0:
344,117,89818,1,2,0:0:0:0:
274,198,89991,2,0,B|210:226|190:170|124:197,1,154.000004699707,8|2,0:0|0:0,0:0:0:0:
40,266,90512,1,2,3:2:0:0:
103,351,90685,6,0,P|176:371|240:332,1,154.000004699707,2|0,0:0|0:0,0:0:0:0:
274,198,91205,1,2,3:2:0:0:
156,201,91379,2,0,P|150:238|163:275,1,77.0000023498536,8|10,0:0|0:0,0:0:0:0:
274,198,91725,2,0,P|286:162|280:124,1,77.0000023498536,2|2,3:2|0:0,0:0:0:0:
214,38,92072,6,0,P|274:83|346:63,1,154.000004699707,0|2,3:0|0:0,0:0:0:0:
452,84,92592,1,2,0:0:0:0:
508,176,92766,2,0,L|496:253,1,77.0000023498536,8|8,0:0|0:0,0:0:0:0:
424,332,93113,2,0,P|387:344|350:338,1,77.0000023498536,2|2,3:2|0:0,0:0:0:0:
248,288,93459,5,8,0:0:0:0:
248,288,93633,1,0,3:0:0:0:
342,224,93806,1,2,0:0:0:0:
342,224,93980,1,0,3:0:0:0:
240,175,94153,1,10,0:0:0:0:
231,62,94327,1,0,3:0:0:0:
333,111,94500,1,2,0:0:0:0:
426,47,94673,1,2,3:2:0:0:
473,198,94847,6,0,P|413:243|341:223,1,154.000004699707,6|0,3:2|3:0,0:0:0:0:
240,175,95367,1,0,3:0:0:0:
147,239,95540,2,0,L|135:316,1,77.0000023498536,8|2,0:0|0:0,0:0:0:0:
240,175,95887,2,0,L|228:98,1,77.0000023498536,2|2,3:2|0:0,0:0:0:0:
124,32,96234,6,0,P|65:78|65:153,2,154.000004699707,0|0|8,0:0|0:0|0:0,0:0:0:0:
228,98,97101,1,8,0:0:0:0:
320,43,97275,2,0,P|356:32|393:37,1,77.0000023498536,2|10,3:2|0:0,0:0:0:0:
452,172,97621,6,0,B|400:192|400:192|302:178,1,154.000004699707,8|2,0:0|0:0,0:0:0:0:
228,98,98142,1,10,0:0:0:0:
140,160,98315,2,0,P|128:196|133:233,1,77.0000023498536,0|2,3:0|3:2,0:0:0:0:
216,304,98662,1,2,3:2:0:0:
115,341,98835,2,0,L|38:329,1,77.0000023498536,8|6,0:0|3:2,0:0:0:0:
0,228,99182,5,0,3:0:0:0:
0,228,99269,1,0,3:0:0:0:
0,228,99355,2,0,L|77:216,1,77.0000023498536,8|0,0:0|0:0,0:0:0:0:
188,196,99702,2,0,P|208:164|212:126,1,77.0000023498536,8|0,0:0|3:0,0:0:0:0:
312,64,100049,2,0,L|317:102,3,38.5000011749268,2|0|0|0,3:2|0:0|3:0|0:0,0:0:0:0:
356,168,100396,6,0,P|424:195|489:158,1,154.000004699707,6|2,0:0|0:0,0:0:0:0:
312,64,101090,1,10,0:0:0:0:
176,188,101436,2,0,B|171:239|171:239|177:264|177:264|170:340,1,154.000004699707,6|0,3:2|0:0,0:0:0:0:
88,272,101957,5,2,0:0:0:0:
260,232,102130,2,0,L|334:214,1,77.0000023498536,10|0,0:0|3:0,0:0:0:0:
444,188,102477,2,0,L|453:137,2,51.3333348999024,0|0|0,3:2|3:2|3:2,0:0:0:0:
428,272,102824,1,8,3:2:0:0:
215,161,103170,6,0,P|177:225|204:294,1,154.000004699707,6|2,3:2|0:0,0:0:0:0:
334,214,103691,1,2,0:0:0:0:
258,95,103864,2,0,P|222:83|184:89,1,77.0000023498536,8|10,0:0|0:0,0:0:0:0:
88,140,104211,1,2,3:2:0:0:
88,140,104384,1,6,3:2:0:0:
88,140,105945,6,0,L|72:280,1,140,6|0,0:0|0:0,0:0:0:0:
152,348,106465,1,0,3:0:0:0:
152,348,106639,2,0,P|186:347|218:332,1,70,8|0,0:0|3:0,0:0:0:0:
296,264,106985,1,0,3:0:0:0:
200,220,107159,6,0,P|180:155|219:99,1,140,6|0,0:0|3:0,0:0:0:0:
320,68,107679,2,0,L|392:56,1,70,8|0,0:0|3:0,0:0:0:0:
303,172,108026,2,0,L|257:167,2,46.6666666666667,10|8|8,3:2|0:0|0:0,0:0:0:0:
396,236,108373,2,0,L|442:230,2,46.6666666666667,0|0|0,3:0|0:0|0:0,0:0:0:0:
304,300,108720,6,0,P|241:272|173:280,1,140,6|0,3:2|3:0,0:0:0:0:
72,228,109240,1,0,0:0:0:0:
72,228,109413,2,0,P|57:196|56:161,1,70,8|2,0:0|0:0,0:0:0:0:
196,116,109760,1,2,3:2:0:0:
196,116,109933,6,0,B|212:160|212:160|198:252,1,140,10|0,0:0|3:0,0:0:0:0:
84,320,110454,2,0,P|49:319|17:304,1,70,8|0,0:0|3:0,0:0:0:0:
51,188,110801,2,0,P|83:173|118:172,1,70,2|8,0:0|3:0,0:0:0:0:
224,232,111147,2,0,P|255:246|290:247,1,70,8|8,0:0|0:0,0:0:0:0:
380,175,111494,6,0,P|334:128|275:156,1,140,4|0,3:2|3:0,0:0:0:0:
376,264,112014,1,0,3:0:0:0:
468,228,112188,2,0,L|480:156,1,70,8|2,3:2|3:2,0:0:0:0:
432,72,112535,1,0,3:0:0:0:
324,128,112708,6,0,B|260:152|252:104|188:128,1,140,6|0,0:0|3:0,0:0:0:0:
96,164,113228,1,8,0:0:0:0:
96,164,113402,1,0,0:0:0:0:
176,228,113575,2,0,L|222:223,2,46.6666666666667,8|8|0,3:2|3:2|3:2,0:0:0:0:
88,280,113922,2,0,L|42:274,2,46.6666666666667,0|0|0,3:2|3:2|3:2,0:0:0:0:
172,340,114269,6,0,B|220:332|220:332|240:340|240:340|309:328,1,140,6|2,0:0|0:0,0:0:0:0:
408,264,114789,1,2,3:2:0:0:
308,216,114962,2,0,L|296:146,2,70,10|10|2,0:0|0:0|0:0,0:0:0:0:
364,109,115483,6,0,P|308:70|243:90,1,140,2|8,3:2|0:0,0:0:0:0:
168,164,116003,1,8,0:0:0:0:
240,248,116176,1,0,3:0:0:0:
240,248,116263,1,0,0:0:0:0:
240,248,116350,2,0,B|304:272|312:224|376:248,1,140,2|0,0:0|3:0,0:0:0:0:
456,292,116870,2,0,L|460:326,2,35,0|0|2,0:0|0:0|0:0,0:0:0:0:
256,192,117130,12,2,119644,0:0:0:0:
