osu file format v14

[General]
AudioFilename: audio.mp3
AudioLeadIn: 0
PreviewTime: 83067
Countdown: 0
SampleSet: Soft
StackLeniency: 0.7
Mode: 0
LetterboxInBreaks: 0
WidescreenStoryboard: 1

[Editor]
Bookmarks: 50466
DistanceSpacing: 1.1
BeatDivisor: 4
GridSize: 8
TimelineZoom: 1

[Metadata]
Title:Azurite no Hitsugi
TitleUnicode:アズライトの棺
Artist:Ayane
ArtistUnicode:アヤネ
Creator:Xexxar
Version:Easy
Source:水葬銀貨のイストリア
Tags:eroge visual novel tv size suisouginka めと meto metomate uguisukagura ウグイスカグラ joker- little cloudsplash16
BeatmapID:1235719
BeatmapSetID:583650

[Difficulty]
HPDrainRate:2
CircleSize:2.5
OverallDifficulty:2
ApproachRate:3
SliderMultiplier:0.8
SliderTickRate:1

[Events]
//Background and Video events
Video,261,"optc.flv"
0,0,"nisechino.png",0,0
//Break Periods
2,40755,60004
//Storyboard Layer 0 (Background)
//Storyboard Layer 1 (Fail)
//Storyboard Layer 2 (Pass)
//Storyboard Layer 3 (Foreground)
//Storyboard Sound Samples

[TimingPoints]
512,346.820809248555,4,2,1,50,1,0
512,-100,4,2,1,50,0,0
10222,-100,4,2,1,50,0,0
11610,-100,4,2,1,50,0,0
15772,-100,4,2,1,50,0,0
22708,-100,4,2,1,78,0,0
26696,-100,4,2,1,78,0,0
27390,-100,4,2,1,78,0,0
28257,-100,4,2,1,78,0,0
29471,-100,4,2,1,78,0,0
30165,-100,4,2,1,78,0,0
30858,-100,4,2,1,78,0,0
31552,-100,4,2,1,78,0,0
32246,-100,4,2,1,78,0,0
32939,-100,4,2,1,78,0,0
33806,-100,4,2,1,78,0,0
35540,-100,4,2,1,78,0,0
36581,-100,4,2,1,78,0,0
38315,-100,4,2,1,78,0,0
39355,-100,4,2,1,40,0,0
42130,-100,4,2,1,25,0,0
43170,-100,4,2,1,15,0,0
43517,-100,4,2,1,30,0,0
44211,-100,4,2,1,15,0,0
44905,-100,4,2,1,40,0,0
47679,-100,4,2,1,25,0,0
48720,-100,4,2,1,15,0,0
49066,-100,4,2,1,30,0,0
49760,-100,4,2,1,15,0,0
50454,-100,4,2,1,40,0,0
53228,-100,4,2,1,25,0,0
54269,-100,4,2,1,15,0,0
54616,-100,4,2,1,30,0,0
55309,-100,4,2,1,15,0,0
56003,-100,4,2,1,40,0,0
59818,-100,4,2,1,20,0,0
60165,-100,4,2,1,35,0,0
60858,-100,4,2,1,25,0,0
61379,-100,4,2,1,35,0,0
61552,-100,4,2,1,55,0,0
72650,-100,4,2,1,65,0,0
76639,-100,4,2,1,70,0,0
78199,-100,4,2,1,78,0,0
83575,-100,4,2,1,78,0,0
83748,-90.9090909090909,4,2,1,85,0,1
94500,-90.9090909090909,4,2,1,85,0,0
94847,-90.9090909090909,4,2,1,85,0,1
104384,-100,4,2,1,78,0,0
104484,-100,4,2,1,78,0,0
105251,-100,4,2,1,50,0,0
105945,-100,4,2,1,78,0,0
106292,-100,4,2,1,78,0,0
115309,-100,4,2,1,85,0,0
115483,-100,4,2,1,95,0,0
116350,-100,4,2,1,75,0,0
116436,-100,4,2,1,72,0,0
116523,-100,4,2,1,69,0,0
116610,-100,4,2,1,66,0,0
116696,-100,4,2,1,63,0,0
116783,-100,4,2,1,60,0,0
116870,-100,4,2,1,57,0,0
116957,-100,4,2,1,54,0,0
117043,-100,4,2,1,51,0,0
117217,-100,4,2,1,40,0,0
118777,-100,4,2,1,25,0,0
119644,-100,4,2,1,14,0,0

[Colours]
Combo1 : 240,228,147
Combo2 : 115,199,249
Combo3 : 185,200,194
Combo4 : 137,128,255
SliderTrackOverride : 35,35,35
SliderBorder : 255,255,255

[HitObjects]
151,90,512,6,0,P|124:160|143:256,1,160,2|0,0:0|0:0,0:0:0:0:
212,286,1552,2,0,L|309:289,2,80,2|2|2,0:0|0:0|0:0,0:0:0:0:
136,330,2592,1,0,0:0:0:0:
228,178,3286,6,0,L|401:182,2,160,2|0|2,0:0|0:0|0:0,0:0:0:0:
276,347,5367,1,2,0:0:0:0:
128,251,6061,6,0,P|106:174|137:95,1,160,2|0,0:0|0:0,0:0:0:0:
212,64,7101,2,0,L|307:67,2,80,2|2|2,0:0|0:0|0:0,0:0:0:0:
139,14,8142,1,0,0:0:0:0:
212,174,8835,6,0,L|385:178,1,160,2|2,0:0|0:0,0:0:0:0:
476,319,10222,2,0,L|303:315,1,160,2|2,0:0|0:0,0:0:0:0:
465,221,11610,6,0,P|486:154|466:57,1,160,2|0,0:0|0:0,0:0:0:0:
390,100,12650,2,0,P|397:143|387:181,2,80,2|2|2,0:0|0:0|0:0,0:0:0:0:
340,26,13691,1,0,0:0:0:0:
180,101,14384,6,0,L|13:98,1,160,2|0,0:0|0:0,0:0:0:0:
30,185,15425,1,2,0:0:0:0:
43,272,15772,2,0,L|221:273,1,160,0|0,0:0|0:0,0:0:0:0:
368,334,17159,5,2,0:0:0:0:
148,59,18546,1,2,0:0:0:0:
256,192,19933,12,2,21321,0:0:0:0:
95,80,22708,6,0,P|71:139|247:80,1,440,6|6,3:2|0:0,0:0:0:0:
371,27,25136,1,6,3:2:0:0:
445,75,25483,6,0,B|466:152|466:152|452:233|452:233,2,160,2|10|10,3:2|3:2|3:2,0:0:0:0:
354,171,27390,2,0,P|297:179|236:169,1,120,10|0,3:2|3:0,0:0:0:0:
158,126,28257,6,0,B|78:110|78:110|-2:126,2,160,6|2|2,3:2|3:2|3:2,0:0:0:0:
275,64,30165,2,0,P|292:123|274:189,1,120,10|0,0:0|3:0,0:0:0:0:
328,252,31032,6,0,B|402:283|402:283|496:280,2,160,6|2|10,3:2|3:2|3:2,0:0:0:0:
209,309,32939,2,0,P|146:321|89:309,1,120,10|0,0:0|3:0,0:0:0:0:
31,245,33806,6,0,B|13:186|13:186|31:125,2,120,6|2|2,3:2|3:2|0:0,0:0:0:0:
132,101,35540,2,0,P|185:93|223:107,2,80,2|2|2,3:2|3:2|3:2,0:0:0:0:
173,178,36581,6,0,B|155:237|155:237|173:298,2,120,6|2|6,0:0|3:2|0:0,0:0:0:0:
296,303,38315,2,0,L|377:309,2,80,2|2|2,0:0|0:0|0:0,0:0:0:0:
208,296,39355,1,2,3:2:0:0:
416,36,61552,6,0,L|401:210,1,160,2|2,0:0|0:0,0:0:0:0:
395,283,62592,1,0,0:0:0:0:
321,235,62939,2,0,P|242:219|160:233,1,160,2|2,0:0|0:0,0:0:0:0:
111,302,63980,1,8,0:0:0:0:
76,220,64327,6,0,B|58:145|58:145|79:49,1,160,2|2,0:0|0:0,0:0:0:0:
161,45,65367,1,0,0:0:0:0:
247,26,65714,2,0,L|339:25,2,80,2|0|0,0:0|0:0|0:0,0:0:0:0:
220,109,66754,1,10,0:0:0:0:
187,190,67101,6,0,P|171:271|192:361,1,160,2|2,3:2|0:0,0:0:0:0:
271,324,68142,1,2,0:0:0:0:
356,345,68488,2,0,P|397:354|450:342,2,80,0|2|2,0:0|0:0|0:0,0:0:0:0:
333,259,69529,1,8,0:0:0:0:
363,176,69876,6,0,B|390:124|390:124|386:55,2,120,2|2|2,3:2|0:0|0:0,0:0:0:0:
276,193,71263,2,0,P|231:196|183:185,1,80,0|0,0:0|3:0,0:0:0:0:
130,131,71957,2,0,P|81:122|41:129,1,80,2|8,0:0|0:0,0:0:0:0:
1,198,72650,6,0,B|-14:257|-14:257|-5:331,2,120,2|2|2,3:2|3:2|3:2,0:0:0:0:
88,211,74038,1,0,0:0:0:0:
174,223,74384,2,0,P|214:228|266:219,2,80,0|2|8,0:0|0:0|0:0,0:0:0:0:
142,140,75425,6,0,B|137:82|137:82|154:11,2,120,2|0|0,3:2|3:0|3:0,0:0:0:0:
88,211,76812,1,0,0:0:0:0:
33,280,77159,2,0,P|28:320|37:368,1,80,0|2,3:0|0:0,0:0:0:0:
122,362,77853,1,10,0:0:0:0:
209,358,78199,6,0,B|287:341|287:341|374:356,1,160,6|8,0:0|0:0,0:0:0:0:
453,342,79240,1,2,0:0:0:0:
399,271,79587,2,0,P|382:208|394:146,2,120,2|2|2,0:0|0:0|0:0,0:0:0:0:
366,354,80974,2,0,B|288:362|288:362|205:347|205:347|121:353,1,240,6|2,3:2|3:2,0:0:0:0:
102,98,83748,6,0,B|84:184|84:184|111:283,1,176.000005371094,6|8,3:2|0:0,0:0:0:0:
176,324,84789,2,0,P|215:327|268:319,1,88.000002685547,2|0,0:0|3:0,0:0:0:0:
330,263,85483,1,0,3:0:0:0:
390,199,85829,2,0,P|399:149|388:102,1,88.000002685547,8|0,0:0|3:2,0:0:0:0:
344,38,86523,6,0,L|247:35,1,88.000002685547,2|2,3:2|0:0,0:0:0:0:
178,77,87217,2,0,P|92:92|8:68,2,176.000005371094,8|0|8,0:0|0:0|0:0,0:0:0:0:
253,122,88951,1,2,3:2:0:0:
331,161,89298,6,0,B|352:247|352:247|333:344,1,176.000005371094,6|8,3:2|0:0,0:0:0:0:
247,343,90338,1,2,0:0:0:0:
172,296,90685,2,0,L|31:295,2,132.00000402832,2|2|2,0:0|3:2|3:2,0:0:0:0:
250,256,92072,6,0,L|349:257,2,88.000002685547,0|2|8,3:0|0:0|0:0,0:0:0:0:
175,208,93113,1,2,3:2:0:0:
252,167,93459,2,0,L|356:169,1,88.000002685547,12|6,0:0|0:0,0:0:0:0:
384,92,94153,1,14,0:0:0:0:
447,153,94500,1,2,0:0:0:0:
511,216,94847,6,0,P|520:262|505:315,1,88.000002685547,6|0,3:2|3:0,0:0:0:0:
435,346,95540,2,0,L|340:344,1,88.000002685547,8|2,0:0|3:2,0:0:0:0:
261,321,96234,2,0,P|169:311|73:331,1,176.000005371094,0|8,0:0|0:0,0:0:0:0:
17,268,97275,1,2,3:2:0:0:
0,181,97621,6,0,B|-10:115|-10:115|2:40,2,132.00000402832,8|10|2,0:0|0:0|3:2,0:0:0:0:
84,205,99009,1,6,3:2:0:0:
170,220,99355,2,0,L|266:222,1,88.000002685547,8|8,0:0|0:0,0:0:0:0:
340,253,100049,1,0,3:2:0:0:
328,166,100396,6,0,P|340:122|331:70,1,88.000002685547,6|2,0:0|0:0,0:0:0:0:
283,9,101090,1,10,0:0:0:0:
195,14,101436,2,0,L|91:17,2,88.000002685547,6|0|10,3:2|0:0|0:0,0:0:0:0:
241,89,102477,2,0,P|251:133|243:193,1,88.000002685547,0|8,2:2|2:2,0:0:0:0:
199,248,103170,6,0,L|94:249,1,88.000002685547,6|2,3:2|0:0,0:0:0:0:
36,201,103864,2,0,P|17:132|36:57,1,132.00000402832,8|6,0:0|3:2,0:0:0:0:
491,8,105945,6,0,P|497:67|493:92,1,80,6|0,0:0|0:0,0:0:0:0:
469,172,106639,2,0,B|459:233|459:233|477:292,2,120,8|6|8,0:0|0:0|0:0,0:0:0:0:
405,110,108026,2,0,P|364:106|324:109,1,80,10|0,3:2|3:0,0:0:0:0:
255,163,108720,2,0,P|216:166|168:158,1,80,6|0,3:2|3:0,0:0:0:0:
96,122,109413,2,0,B|79:59|79:59|92:-3,2,120,8|10|8,0:0|0:0|0:0,0:0:0:0:
102,210,110801,2,0,L|107:296,1,80,2|8,0:0|0:0,0:0:0:0:
184,331,111494,6,0,P|227:341|263:334,1,80,4|0,3:2|3:0,0:0:0:0:
345,305,112188,2,0,B|404:292|404:292|477:307,2,120,8|6|8,3:2|0:0|0:0,0:0:0:0:
278,247,113575,2,0,P|252:170|275:80,1,160,8|6,2:2|0:0,0:0:0:0:
326,29,114616,1,2,0:0:0:0:
353,113,114962,2,0,B|411:125|411:125|483:110,2,120,10|2|8,0:0|3:2|0:0,0:0:0:0:
266,94,116350,5,0,0:0:0:0:
256,192,117043,12,2,119644,0:0:0:0:
