osu file format v14

[General]
AudioFilename: audio.mp3
AudioLeadIn: 0
PreviewTime: 83067
Countdown: 0
SampleSet: Soft
StackLeniency: 0.7
Mode: 0
LetterboxInBreaks: 0
WidescreenStoryboard: 1

[Editor]
Bookmarks: 50466
DistanceSpacing: 0.8
BeatDivisor: 2
GridSize: 8
TimelineZoom: 2.1

[Metadata]
Title:Azurite no Hitsugi
TitleUnicode:アズライトの棺
Artist:Ayane
ArtistUnicode:アヤネ
Creator:Xexxar
Version:Fate
Source:水葬銀貨のイストリア
Tags:eroge visual novel tv size suisouginka めと meto metomate uguisukagura ウグイスカグラ joker- little cloudsplash16
BeatmapID:1235037
BeatmapSetID:583650

[Difficulty]
HPDrainRate:6
CircleSize:3.9
OverallDifficulty:8.5
ApproachRate:8.8
SliderMultiplier:1.4
SliderTickRate:1

[Events]
//Background and Video events
Video,261,"optc.flv"
0,0,"nisechino.png",0,0
//Break Periods
//Storyboard Layer 0 (Background)
//Storyboard Layer 1 (Fail)
//Storyboard Layer 2 (Pass)
//Storyboard Layer 3 (Foreground)
//Storyboard Sound Samples

[TimingPoints]
512,346.820809248555,4,2,1,50,1,0
512,-142.857142857143,4,2,1,50,0,0
10222,-166.666666666667,4,2,1,50,0,0
11610,-142.857142857143,4,2,1,50,0,0
15772,-166.666666666667,4,2,1,50,0,0
22708,-66.6666666666667,4,2,1,78,0,0
26696,-58.8235294117647,4,2,1,78,0,0
27390,-52.6315789473684,4,2,1,78,0,0
28257,-66.6666666666667,4,2,1,78,0,0
29471,-60.6060606060606,4,2,1,78,0,0
30165,-57.1428571428571,4,2,1,78,0,0
30858,-52.6315789473684,4,2,1,78,0,0
31552,-57.1428571428571,4,2,1,78,0,0
32246,-62.5,4,2,1,78,0,0
32939,-66.6666666666667,4,2,1,78,0,0
33806,-100,4,2,1,78,0,0
35540,-78.125,4,2,1,78,0,0
36581,-100,4,2,1,78,0,0
38315,-125,4,2,1,78,0,0
39355,-166.666666666667,4,2,1,40,0,0
42130,-166.666666666667,4,2,1,25,0,0
43170,-166.666666666667,4,2,1,15,0,0
43517,-166.666666666667,4,2,1,30,0,0
44211,-166.666666666667,4,2,1,15,0,0
44905,-166.666666666667,4,2,1,40,0,0
47679,-166.666666666667,4,2,1,25,0,0
48720,-166.666666666667,4,2,1,15,0,0
49066,-166.666666666667,4,2,1,30,0,0
49760,-166.666666666667,4,2,1,15,0,0
50454,-166.666666666667,4,2,1,40,0,0
53228,-166.666666666667,4,2,1,25,0,0
54269,-166.666666666667,4,2,1,15,0,0
54616,-166.666666666667,4,2,1,30,0,0
55309,-166.666666666667,4,2,1,15,0,0
56003,-166.666666666667,4,2,1,40,0,0
59818,-166.666666666667,4,2,1,20,0,0
60165,-166.666666666667,4,2,1,35,0,0
60858,-166.666666666667,4,2,1,25,0,0
61379,-166.666666666667,4,2,1,35,0,0
61552,-100,4,2,1,55,0,0
72650,-90.9090909090909,4,2,1,65,0,0
76639,-86.9565217391304,4,2,1,70,0,0
78199,-83.3333333333333,4,2,1,78,0,0
83575,-100,4,2,1,78,0,0
83748,-76.9230769230769,4,2,1,85,0,1
94500,-76.9230769230769,4,2,1,85,0,0
94847,-76.9230769230769,4,2,1,85,0,1
104384,-100,4,2,1,78,0,0
104484,-71.4285714285714,4,2,1,78,0,0
105251,-71.4285714285714,4,2,1,50,0,0
105945,-71.4285714285714,4,2,1,78,0,0
106292,-80,4,2,1,78,0,0
115309,-80,4,2,1,85,0,0
115483,-80,4,2,1,95,0,0
116350,-80,4,2,1,75,0,0
116436,-80,4,2,1,72,0,0
116523,-80,4,2,1,69,0,0
116610,-80,4,2,1,66,0,0
116696,-80,4,2,1,63,0,0
116783,-80,4,2,1,60,0,0
116870,-80,4,2,1,57,0,0
116957,-80,4,2,1,54,0,0
117043,-80,4,2,1,51,0,0
117217,-80,4,2,1,40,0,0
118777,-80,4,2,1,25,0,0
119644,-80,4,2,1,14,0,0

[Colours]
Combo1 : 240,228,147
Combo2 : 115,199,249
Combo3 : 185,200,194
Combo4 : 137,128,255
SliderTrackOverride : 35,35,35
SliderBorder : 255,255,255

[HitObjects]
78,134,512,5,2,0:0:0:0:
82,228,858,1,0,0:0:0:0:
87,322,1205,1,0,0:0:0:0:
255,258,1552,5,2,0:0:0:0:
257,336,1725,1,2,0:0:0:0:
324,295,1899,2,0,P|353:289|391:294,1,48.9999985046387,2|0,0:0|0:0,0:0:0:0:
257,336,2246,1,2,0:0:0:0:
189,298,2419,2,0,P|168:220|184:190,1,97.9999970092774,2|0,0:0|0:0,0:0:0:0:
229,153,2939,2,0,P|257:155|299:147,1,48.9999985046387,2|0,0:0|0:0,0:0:0:0:
362,102,3286,5,2,0:0:0:0:
367,196,3633,1,0,0:0:0:0:
371,290,3979,1,0,0:0:0:0:
376,384,4327,1,0,0:0:0:0:
180,334,4673,5,2,0:0:0:0:
503,198,5367,1,2,0:0:0:0:
43,49,6061,5,2,0:0:0:0:
39,143,6407,1,0,0:0:0:0:
34,237,6754,1,0,0:0:0:0:
239,196,7101,5,2,0:0:0:0:
317,198,7274,1,2,0:0:0:0:
276,265,7448,2,0,P|270:294|275:332,1,48.9999985046387,2|0,0:0|0:0,0:0:0:0:
317,198,7795,1,2,0:0:0:0:
279,130,7968,2,0,P|201:109|171:125,1,97.9999970092774,2|0,0:0|0:0,0:0:0:0:
134,170,8488,2,0,P|136:198|127:238,1,48.9999985046387,2|0,0:0|0:0,0:0:0:0:
44,297,8835,5,2,0:0:0:0:
34,38,9528,1,2,0:0:0:0:
126,73,9876,5,2,0:0:0:0:
217,40,10222,2,0,P|289:33|353:50,1,125.999996154785,2|0,0:0|0:0,0:0:0:0:
389,105,10916,2,0,L|395:250,1,125.999996154785,2|0,0:0|0:0,0:0:0:0:
477,256,11610,5,2,0:0:0:0:
472,162,11957,1,0,0:0:0:0:
468,68,12303,1,0,0:0:0:0:
317,198,12650,5,2,0:0:0:0:
240,202,12823,1,2,0:0:0:0:
277,133,12997,2,0,P|280:103|272:66,1,48.9999985046387,2|0,0:0|0:0,0:0:0:0:
240,202,13344,1,2,0:0:0:0:
282,268,13517,2,0,P|361:283|390:265,1,97.9999970092774,2|0,0:0|0:0,0:0:0:0:
446,254,14037,2,0,P|482:249|508:258,1,48.9999985046387,2|0,0:0|0:0,0:0:0:0:
477,349,14384,5,2,0:0:0:0:
383,353,14730,1,0,0:0:0:0:
289,358,15077,1,0,0:0:0:0:
128,246,15425,5,2,0:0:0:0:
171,185,15598,1,2,0:0:0:0:
169,111,15772,2,0,L|166:11,2,83.9999974365235,0|0|0,0:0|0:0|0:0,0:0:0:0:
128,246,16812,1,2,0:0:0:0:
135,365,17159,5,2,0:0:0:0:
116,45,18546,1,2,0:0:0:0:
256,192,19933,12,2,21321,0:0:0:0:
38,184,22014,5,0,0:0:0:0:
59,190,22101,1,0,0:0:0:0:
78,203,22188,1,0,0:0:0:0:
93,220,22275,1,0,0:0:0:0:
102,241,22361,1,0,0:0:0:0:
106,263,22448,1,0,0:0:0:0:
104,287,22535,1,0,0:0:0:0:
95,309,22621,1,0,0:0:0:0:
81,327,22708,5,6,3:2:0:0:
112,354,22795,1,0,0:0:0:0:
152,365,22881,1,0,0:0:0:0:
193,359,22968,1,0,0:0:0:0:
228,337,23055,1,0,3:0:0:0:
251,302,23142,1,0,0:0:0:0:
258,261,23228,1,0,0:0:0:0:
248,220,23315,1,0,0:0:0:0:
228,182,23402,1,0,3:0:0:0:
223,140,23488,1,0,0:0:0:0:
232,98,23575,1,0,0:0:0:0:
255,63,23662,1,0,0:0:0:0:
288,37,23748,1,0,3:3:0:0:
328,23,23835,1,0,0:0:0:0:
370,25,23922,1,0,0:0:0:0:
408,41,24009,1,0,0:0:0:0:
438,68,24095,1,0,3:3:0:0:
458,105,24182,1,0,0:0:0:0:
465,146,24269,1,0,0:0:0:0:
457,187,24355,1,0,0:0:0:0:
436,223,24442,1,0,3:0:0:0:
404,250,24529,1,0,0:0:0:0:
363,262,24616,6,0,P|329:263|280:238,5,52.5000020027161,6|0|0|0|0|0,0:0|0:0|3:0|0:0|0:0|0:0,0:0:0:0:
190,289,25135,2,0,P|153:297|119:289,3,52.5000020027161,2|0|0|0,3:2|0:0|0:0|0:0,0:0:0:0:
345,167,25483,5,2,3:2:0:0:
353,142,25569,1,0,0:0:0:0:
358,118,25656,1,0,0:0:0:0:
358,91,25743,1,0,0:0:0:0:
352,66,25829,1,0,3:0:0:0:
344,43,25916,1,0,0:0:0:0:
331,18,26003,6,0,P|363:12|399:21,1,52.5000020027161,2|0,0:0|0:0,0:0:0:0:
211,104,26176,2,0,P|236:107|262:102,1,52.5000020027161,10|0,3:2|0:0,0:0:0:0:
123,16,26350,1,0,0:0:0:0:
97,44,26436,1,0,0:0:0:0:
82,78,26523,1,0,3:0:0:0:
82,121,26610,1,0,0:0:0:0:
101,161,26696,6,0,P|105:191|97:226,1,59.5000011348725,2|0,0:0|0:0,0:0:0:0:
211,104,26870,2,0,P|222:131|223:167,1,59.5000011348725,10|0,0:0|0:0,0:0:0:0:
149,319,27043,1,0,0:0:0:0:
192,340,27130,1,0,0:0:0:0:
238,339,27217,1,0,3:0:0:0:
284,325,27303,1,0,0:0:0:0:
315,294,27390,6,0,L|309:182,1,66.4999982242585,10|0,3:2|0:0,0:0:0:0:
211,104,27564,2,0,L|215:171,1,66.4999982242585,2|0,3:2|0:0,0:0:0:0:
396,353,27737,1,0,0:0:0:0:
420,305,27824,1,0,0:0:0:0:
419,252,27910,1,0,3:0:0:0:
391,206,27997,1,0,3:0:0:0:
371,156,28084,1,0,3:0:0:0:
377,103,28170,1,0,3:0:0:0:
414,63,28257,5,6,3:2:0:0:
409,104,28344,1,0,0:0:0:0:
384,138,28431,1,0,0:0:0:0:
348,159,28517,1,0,0:0:0:0:
305,160,28604,1,0,3:0:0:0:
267,140,28691,1,0,0:0:0:0:
243,105,28777,6,0,P|237:75|249:33,1,52.5000020027161,2|0,0:0|0:0,0:0:0:0:
238,248,28951,1,2,3:2:0:0:
272,274,29038,1,0,0:0:0:0:
311,288,29124,1,0,0:0:0:0:
355,291,29211,1,0,0:0:0:0:
396,280,29298,1,0,3:2:0:0:
432,258,29384,1,0,0:0:0:0:
461,227,29471,6,0,P|473:191|467:141,1,57.7500005507469,2|0,0:0|0:0,0:0:0:0:
360,59,29644,1,2,3:2:0:0:
320,44,29731,1,0,0:0:0:0:
277,44,29818,1,0,0:0:0:0:
237,58,29905,1,0,0:0:0:0:
197,72,29991,1,0,3:0:0:0:
155,67,30078,1,0,0:0:0:0:
119,44,30165,6,0,P|91:34|36:40,1,61.2500005841255,10|0,0:0|0:0,0:0:0:0:
156,190,30338,1,2,3:2:0:0:
178,225,30425,1,0,0:0:0:0:
176,267,30512,1,0,0:0:0:0:
161,306,30598,1,0,0:0:0:0:
128,332,30685,1,0,3:0:0:0:
86,338,30772,1,0,0:0:0:0:
45,327,30858,6,0,P|18:323|-20:328,1,66.4999982242585,10|0,0:0|0:0,0:0:0:0:
267,367,31032,2,0,P|293:367|335:351,1,66.4999982242585,6|0,3:2|0:0,0:0:0:0:
91,253,31205,1,0,0:0:0:0:
67,212,31292,1,0,0:0:0:0:
58,166,31379,1,0,3:0:0:0:
70,121,31465,1,0,0:0:0:0:
93,85,31552,6,0,P|99:51|88:10,1,61.2500005841255,2|0,0:0|0:0,0:0:0:0:
176,256,31725,2,0,P|164:299|133:327,1,61.2500005841255,2|0,3:2|0:0,0:0:0:0:
260,120,31899,1,8,0:0:0:0:
299,91,31985,1,0,0:0:0:0:
345,76,32072,1,0,3:0:0:0:
393,83,32159,1,0,0:0:0:0:
433,102,32246,6,0,P|463:106|526:87,1,56,2|0,0:0|0:0,0:0:0:0:
225,49,32419,2,0,P|203:64|185:92,1,56,10|0,3:2|0:0,0:0:0:0:
350,202,32592,1,0,0:0:0:0:
368,236,32679,1,0,0:0:0:0:
376,274,32766,1,0,3:0:0:0:
371,313,32853,1,0,0:0:0:0:
356,346,32939,6,0,P|324:351|261:340,1,52.5000020027161,10|0,0:0|0:0,0:0:0:0:
452,227,33113,2,0,P|440:192|418:163,1,52.5000020027161,2|0,3:2|0:0,0:0:0:0:
210,306,33286,1,0,3:0:0:0:
161,326,33373,1,0,3:0:0:0:
109,318,33459,1,0,3:0:0:0:
68,284,33546,1,0,3:0:0:0:
51,234,33633,1,0,3:0:0:0:
61,182,33720,1,0,3:0:0:0:
96,143,33806,6,0,B|113:78|113:78|91:8,1,140,6|0,3:2|0:0,0:0:0:0:
148,227,34327,1,2,3:2:0:0:
280,222,34500,1,8,2:2:0:0:
412,216,34673,1,8,2:2:0:0:
179,339,34847,2,0,L|32:345,1,140,2|0,0:0|0:0,0:0:0:0:
280,222,35367,5,0,3:0:0:0:
287,210,35454,1,0,0:0:0:0:
293,197,35540,2,0,P|300:144|283:99,1,89.6,2|0,3:2|3:0,0:0:0:0:
99,23,35887,2,0,P|87:75|100:121,1,89.6,2|0,3:2|3:2,0:0:0:0:
352,34,36234,2,0,P|302:13|254:18,1,89.6,2|0,3:2|3:2,0:0:0:0:
153,219,36581,6,0,B|138:293|138:293|161:367,1,140,6|0,0:0|0:0,0:0:0:0:
289,110,37101,1,2,3:2:0:0:
160,116,37274,1,8,0:0:0:0:
30,122,37447,1,8,0:0:0:0:
367,250,37621,5,6,0:0:0:0:
367,250,38315,1,2,0:0:0:0:
370,174,38662,1,2,0:0:0:0:
374,99,39009,1,2,0:0:0:0:
364,324,39355,5,2,3:2:0:0:
289,321,39529,1,0,0:0:0:0:
215,318,39702,1,0,0:0:0:0:
141,316,39876,1,2,0:0:0:0:
141,316,40396,6,0,L|84:319,1,41.9999987182618,0|0,0:0|0:0,0:0:0:0:
180,252,40743,2,0,P|187:211|170:158,1,83.9999974365235,0|0,0:0|0:0,0:0:0:0:
124,118,41263,2,0,P|113:78|122:23,1,83.9999974365235,0|0,0:0|0:0,0:0:0:0:
64,166,41783,2,0,L|11:168,1,41.9999987182618,0|0,0:0|0:0,0:0:0:0:
265,182,42130,5,2,0:0:0:0:
266,99,42303,1,0,0:0:0:0:
267,17,42477,1,2,0:0:0:0:
267,17,43170,5,0,3:0:0:0:
267,22,43344,1,0,3:0:0:0:
265,182,43517,1,2,0:0:0:0:
265,182,44211,5,0,3:0:0:0:
286,183,44384,1,0,3:0:0:0:
307,184,44558,1,0,3:0:0:0:
372,228,44731,1,0,0:0:0:0:
454,120,44905,5,2,0:0:0:0:
452,194,45079,1,0,0:0:0:0:
449,268,45252,1,0,0:0:0:0:
446,343,45426,1,2,0:0:0:0:
446,343,45945,6,0,P|443:370|447:393,1,41.9999987182618,0|0,0:0|0:0,0:0:0:0:
381,304,46292,2,0,P|340:294|284:308,1,83.9999974365235,0|0,0:0|0:0,0:0:0:0:
238,346,46812,2,0,P|187:355|142:346,1,83.9999974365235,0|0,0:0|0:0,0:0:0:0:
92,309,47332,2,0,P|86:289|92:255,1,41.9999987182618,0|0,0:0|0:0,0:0:0:0:
188,210,47679,5,2,0:0:0:0:
187,127,47852,1,0,0:0:0:0:
186,45,48026,1,2,0:0:0:0:
186,45,48719,5,0,3:0:0:0:
186,50,48893,1,0,3:0:0:0:
188,210,49066,1,2,0:0:0:0:
188,210,49760,5,0,3:0:0:0:
179,243,49933,1,0,3:0:0:0:
155,268,50107,1,0,3:0:0:0:
90,301,50280,1,0,0:0:0:0:
257,349,50454,5,2,0:0:0:0:
332,352,50628,1,0,0:0:0:0:
406,355,50801,1,0,0:0:0:0:
480,357,50975,1,2,0:0:0:0:
480,357,51494,6,0,P|483:332|480:305,1,41.9999987182618,0|0,0:0|0:0,0:0:0:0:
447,247,51841,2,0,P|437:211|453:156,1,83.9999974365235,0|0,0:0|0:0,0:0:0:0:
491,104,52361,2,0,P|499:72|489:11,1,83.9999974365235,0|0,0:0|0:0,0:0:0:0:
417,8,52881,2,0,P|385:9|358:1,1,41.9999987182618,0|0,0:0|0:0,0:0:0:0:
289,125,53228,5,2,0:0:0:0:
290,208,53401,1,0,0:0:0:0:
291,290,53575,1,2,0:0:0:0:
291,290,54268,5,0,3:0:0:0:
291,285,54442,1,0,3:0:0:0:
289,125,54615,1,2,0:0:0:0:
289,125,55309,5,0,3:0:0:0:
263,121,55483,1,0,3:0:0:0:
242,107,55656,1,0,3:0:0:0:
228,85,55829,1,0,3:0:0:0:
122,133,56003,5,2,0:0:0:0:
125,208,56177,1,0,0:0:0:0:
128,282,56350,1,0,0:0:0:0:
130,356,56524,1,2,0:0:0:0:
130,356,57043,6,0,P|154:358|183:355,1,41.9999987182618,0|0,0:0|0:0,0:0:0:0:
249,254,57390,1,2,0:0:0:0:
173,256,57564,1,0,0:0:0:0:
97,260,57737,1,0,0:0:0:0:
21,262,57910,1,2,0:0:0:0:
58,194,58084,2,0,P|67:156|58:113,1,83.9999974365235,2|0,0:0|0:0,0:0:0:0:
0,35,58604,1,0,0:0:0:0:
166,95,58777,5,2,0:0:0:0:
240,93,58951,1,0,0:0:0:0:
314,90,59124,1,2,0:0:0:0:
389,87,59298,1,2,0:0:0:0:
389,87,59818,5,0,3:0:0:0:
384,87,59991,1,0,3:0:0:0:
166,95,60165,1,2,0:0:0:0:
166,95,60858,5,0,3:0:0:0:
211,154,61032,1,0,3:0:0:0:
208,229,61205,1,0,3:0:0:0:
218,39,61379,5,8,0:0:0:0:
204,304,61552,6,0,B|137:314|137:314|56:293,1,140,2|0,0:0|0:0,0:0:0:0:
373,274,62246,2,0,P|433:274|510:321,1,140,2|0,0:0|0:0,0:0:0:0:
280,241,62766,1,2,0:0:0:0:
262,143,62939,6,0,B|252:76|252:76|273:-5,1,140,2|0,0:0|0:0,0:0:0:0:
204,304,63633,2,0,P|165:328|67:322,1,140,2|8,0:0|0:0,0:0:0:0:
280,241,64153,1,2,0:0:0:0:
373,274,64327,6,0,B|437:293|437:293|502:346,1,140,2|0,0:0|0:0,0:0:0:0:
262,143,65020,2,0,P|262:75|309:12,1,140,2|0,0:0|0:0,0:0:0:0:
280,241,65540,1,2,0:0:0:0:
373,274,65714,6,0,B|438:295|438:295|521:288,1,140,2|0,0:0|0:0,0:0:0:0:
280,241,66407,1,0,0:0:0:0:
467,182,66754,1,10,0:0:0:0:
467,182,67101,6,0,P|477:108|448:39,1,140,2|0,3:2|0:0,0:0:0:0:
280,241,67795,2,0,L|186:243,1,70,2|0,0:0|0:0,0:0:0:0:
121,198,68142,1,2,0:0:0:0:
124,291,68315,1,2,0:0:0:0:
52,354,68488,1,0,0:0:0:0:
386,306,68835,6,0,L|384:210,1,70,2|0,0:0|0:0,0:0:0:0:
474,270,69182,2,0,L|476:366,1,70,2|0,0:0|0:0,0:0:0:0:
297,273,69529,2,0,L|295:203,1,70,8|0,0:0|0:0,0:0:0:0:
226,338,69876,6,0,P|156:354|77:337,1,140,2|0,3:2|0:0,0:0:0:0:
18,279,70396,2,0,L|17:201,1,70,2|0,0:0|0:0,0:0:0:0:
15,113,70743,1,0,0:0:0:0:
99,160,70916,1,2,0:0:0:0:
181,207,71090,2,0,L|269:205,1,70,0|0,0:0|0:0,0:0:0:0:
351,258,71436,5,0,3:0:0:0:
349,161,71610,1,0,3:0:0:0:
348,65,71783,1,0,3:0:0:0:
448,209,71957,6,0,B|470:275|470:275|446:367,1,140,2|8,0:0|0:0,0:0:0:0:
122,179,72650,6,0,L|120:96,1,77.0000023498536,2|0,3:2|0:0,0:0:0:0:
119,8,72997,1,0,0:0:0:0:
222,136,73170,2,0,P|259:145|305:134,1,77.0000023498536,2|0,3:2|0:0,0:0:0:0:
360,59,73517,1,0,0:0:0:0:
457,59,73691,1,2,3:2:0:0:
409,145,73864,6,0,L|409:234,1,77.0000023498536,0|0,0:0|0:0,0:0:0:0:
408,319,74211,1,0,3:0:0:0:
325,270,74384,2,0,P|279:264|224:284,1,77.0000023498536,0|0,0:0|0:0,0:0:0:0:
162,318,74731,1,2,0:0:0:0:
161,188,74905,1,0,3:0:0:0:
2,75,75078,1,8,0:0:0:0:
2,75,75425,6,0,L|3:175,1,77.0000023498536,2|0,3:2|0:0,0:0:0:0:
6,281,75772,1,0,0:0:0:0:
112,110,75945,2,0,P|117:61|94:7,1,77.0000023498536,0|0,3:0|0:0,0:0:0:0:
2,152,76292,1,0,0:0:0:0:
101,236,76465,1,0,3:0:0:0:
218,188,76639,6,0,P|260:182|318:194,1,80.5000015354157,2|0,0:0|0:0,0:0:0:0:
390,283,76985,1,0,3:0:0:0:
390,188,77159,1,0,3:0:0:0:
391,93,77332,1,0,3:0:0:0:
474,241,77506,2,0,P|482:282|468:334,1,80.5000015354157,2|0,0:0|3:0,0:0:0:0:
391,93,77853,2,0,L|392:0,1,80.5000015354157,10|0,0:0|0:0,0:0:0:0:
390,283,78199,6,0,P|314:303|200:272,1,167.999994873047,6|0,0:0|0:0,0:0:0:0:
83,154,78720,1,0,3:0:0:0:
91,343,78893,1,8,0:0:0:0:
158,232,79066,1,0,2:0:0:0:
0,74,79240,5,2,0:0:0:0:
9,300,79413,1,2,0:0:0:0:
191,109,79587,2,0,P|237:98|301:120,1,83.9999974365235,2|0,0:0|0:0,0:0:0:0:
399,260,79933,1,8,0:0:0:0:
406,134,80107,1,2,0:0:0:0:
412,7,80280,1,8,0:0:0:0:
484,208,80454,1,0,3:0:0:0:
290,311,80627,5,2,0:0:0:0:
406,134,80801,1,0,3:0:0:0:
397,384,80974,1,6,3:2:0:0:
397,384,81321,5,0,0:0:0:0:
400,260,81494,1,0,0:0:0:0:
406,134,81668,1,8,0:0:0:0:
269,312,81841,5,0,3:2:0:0:
279,86,82014,1,2,3:2:0:0:
287,93,82881,5,0,3:0:0:0:
287,93,82968,1,0,3:0:0:0:
287,93,83055,1,0,3:0:0:0:
283,313,83228,1,2,3:2:0:0:
173,201,83402,1,2,3:2:0:0:
401,204,83575,1,0,0:0:0:0:
95,285,83748,6,0,P|63:210|104:111,1,181.999991668702,6|0,3:2|0:0,0:0:0:0:
170,339,84269,1,0,3:0:0:0:
312,216,84442,2,0,P|356:208|408:229,1,90.9999958343508,8|0,0:0|0:0,0:0:0:0:
455,339,84789,1,2,0:0:0:0:
239,270,84962,6,0,P|222:227|238:164,1,90.9999958343508,2|0,3:2|2:0,0:0:0:0:
413,44,85309,2,0,P|422:89|395:148,1,90.9999958343508,2|0,3:2|2:0,0:0:0:0:
204,91,85656,1,0,3:0:0:0:
250,10,85829,1,8,0:0:0:0:
351,252,86003,1,10,0:0:0:0:
207,341,86176,2,0,L|91:348,1,90.9999958343508,0|0,3:2|0:0,0:0:0:0:
417,315,86523,6,0,P|441:241|417:195,1,90.9999958343508,2|0,3:2|0:0,0:0:0:0:
371,89,86870,1,2,0:0:0:0:
278,208,87043,1,2,0:0:0:0:
456,121,87217,2,0,P|457:59|424:18,1,90.9999958343508,8|0,0:0|0:0,0:0:0:0:
310,22,87564,1,0,0:0:0:0:
402,193,87737,6,0,P|443:211|508:197,1,90.9999958343508,2|0,0:0|0:0,0:0:0:0:
246,113,88084,2,0,L|127:120,1,90.9999958343508,0|0,3:0|0:0,0:0:0:0:
9,57,88431,1,2,0:0:0:0:
9,57,88517,1,0,0:0:0:0:
9,57,88604,1,8,0:0:0:0:
14,252,88777,1,8,0:0:0:0:
134,189,88951,1,2,3:2:0:0:
130,28,89124,1,2,0:0:0:0:
138,351,89298,6,0,P|214:324|338:364,1,181.999991668702,6|0,3:2|0:0,0:0:0:0:
449,279,89818,1,2,0:0:0:0:
347,153,89991,1,8,0:0:0:0:
389,34,90165,1,0,3:0:0:0:
436,188,90338,1,2,0:0:0:0:
313,7,90512,1,2,3:2:0:0:
439,192,90685,6,0,P|454:238|442:299,1,90.9999958343508,2|0,0:0|3:0,0:0:0:0:
266,250,91032,1,0,0:0:0:0:
347,153,91205,1,2,3:2:0:0:
352,341,91379,1,8,0:0:0:0:
179,251,91552,1,10,0:0:0:0:
350,249,91725,1,2,3:2:0:0:
183,348,91899,1,2,0:0:0:0:
177,157,92072,6,0,L|174:51,1,90.9999958343508,0|0,3:0|0:0,0:0:0:0:
54,189,92419,1,2,0:0:0:0:
179,251,92592,1,2,0:0:0:0:
54,63,92766,1,8,0:0:0:0:
57,320,92939,1,8,0:0:0:0:
87,188,93113,1,2,3:2:0:0:
25,64,93286,1,2,0:0:0:0:
159,344,93459,5,12,0:0:0:0:
314,227,93633,1,0,3:0:0:0:
326,183,93720,1,0,0:0:0:0:
317,137,93806,1,6,0:0:0:0:
129,24,93980,1,0,3:3:0:0:
133,68,94066,1,0,0:3:0:0:
137,113,94153,1,14,0:0:0:0:
343,13,94327,1,0,3:0:0:0:
219,202,94500,5,2,0:0:0:0:
199,243,94587,1,2,0:0:0:0:
204,288,94673,1,2,3:2:0:0:
228,327,94760,1,2,0:0:0:0:
270,345,94847,6,0,B|359:364|359:364|448:336,1,181.999991668702,6|0,3:2|3:0,0:0:0:0:
204,288,95367,2,0,L|85:293,1,90.9999958343508,0|8,3:0|0:0,0:0:0:0:
355,363,95714,1,2,3:2:0:0:
462,206,95887,1,2,0:0:0:0:
290,138,96061,6,0,P|264:197|274:247,1,90.9999958343508,2|0,0:0|0:0,0:0:0:0:
416,285,96407,1,2,3:2:0:0:
261,323,96581,1,0,0:0:0:0:
358,202,96754,1,2,3:2:0:0:
355,363,96928,1,8,0:0:0:0:
418,125,97101,1,8,0:0:0:0:
416,285,97275,1,2,3:2:0:0:
500,116,97448,1,10,0:0:0:0:
256,108,97621,6,0,P|202:117|145:101,1,90.9999958343508,8|0,0:0|3:0,0:0:0:0:
43,6,97968,1,2,0:0:0:0:
89,201,98142,2,0,L|92:298,1,90.9999958343508,10|0,0:0|3:0,0:0:0:0:
235,364,98488,1,2,3:2:0:0:
17,377,98662,1,2,3:2:0:0:
17,377,98748,1,0,3:0:0:0:
17,377,98835,1,8,0:0:0:0:
189,271,99009,6,0,P|203:217|176:149,1,90.9999958343508,6|0,3:2|3:0,0:0:0:0:
126,118,99269,1,0,3:0:0:0:
94,104,99355,2,0,L|-25:111,1,90.9999958343508,8|0,0:0|0:0,0:0:0:0:
308,157,99702,2,0,P|325:120|319:76,2,60.6666638895672,0|8|8,0:0|0:0|2:0,0:0:0:0:
253,66,100049,1,2,3:2:0:0:
257,260,100222,1,0,3:0:0:0:
447,102,100396,6,0,P|450:50|409:-8,1,90.9999958343508,6|0,0:0|3:0,0:0:0:0:
413,288,100743,2,0,L|409:192,1,90.9999958343508,2|0,0:0|3:0,0:0:0:0:
249,367,101090,2,0,P|295:372|358:343,1,90.9999958343508,10|0,0:0|3:0,0:0:0:0:
63,351,101436,6,0,P|63:265|28:297,1,181.999991668702,6|0,3:2|0:0,0:0:0:0:
238,86,101957,1,2,0:0:0:0:
200,173,102130,2,0,P|195:225|208:270,1,90.9999958343508,10|0,0:0|3:0,0:0:0:0:
327,326,102477,2,0,L|414:331,2,60.6666638895672,0|8|8,2:2|2:2|2:2,0:0:0:0:
422,258,102824,2,0,L|518:263,1,90.9999958343508,2|0,3:2|3:0,0:0:0:0:
293,143,103170,6,0,P|282:80|313:24,1,90.9999958343508,6|0,3:2|0:0,0:0:0:0:
449,27,103517,1,2,0:0:0:0:
346,241,103691,1,2,0:0:0:0:
192,157,103864,1,8,0:0:0:0:
512,181,104038,1,10,0:0:0:0:
335,364,104211,1,2,3:2:0:0:
364,15,104384,1,6,3:2:0:0:
379,28,105251,5,0,0:0:0:0:
394,43,105338,1,0,0:0:0:0:
404,64,105425,1,0,0:0:0:0:
408,86,105512,1,0,0:0:0:0:
405,109,105598,1,0,0:0:0:0:
398,130,105685,1,0,0:0:0:0:
384,150,105772,1,0,0:0:0:0:
365,164,105858,1,0,0:0:0:0:
344,173,105945,6,0,B|272:170|272:170|217:185|217:185|135:181,1,195.999994018555,6|0,0:0|0:0,0:0:0:0:
17,91,106465,1,0,3:0:0:0:
134,262,106639,2,0,L|234:267,1,87.5,8|0,0:0|3:0,0:0:0:0:
234,74,106985,1,0,3:0:0:0:
30,170,107159,6,0,P|4:221|23:347,1,175,6|0,0:0|3:0,0:0:0:0:
112,132,107679,2,0,P|75:90|15:82,1,87.5,8|0,0:0|3:0,0:0:0:0:
234,74,108026,2,0,L|238:-16,2,58.3333333333333,10|8|8,3:2|0:0|0:0,0:0:0:0:
306,138,108373,2,0,P|368:145|424:123,1,87.5,0|0,3:0|0:0,0:0:0:0:
507,8,108720,6,0,L|502:197,1,175,6|0,3:2|3:0,0:0:0:0:
497,317,109240,1,0,0:0:0:0:
307,351,109413,1,8,0:0:0:0:
387,243,109587,1,2,0:0:0:0:
212,301,109760,1,2,3:2:0:0:
501,321,109933,1,10,0:0:0:0:
501,321,110280,5,0,3:0:0:0:
212,301,110454,1,8,0:0:0:0:
387,243,110627,1,0,3:0:0:0:
300,344,110801,5,2,0:0:0:0:
294,249,110974,1,8,3:0:0:0:
288,154,111147,1,8,0:0:0:0:
282,58,111321,1,8,0:0:0:0:
425,321,111494,5,4,3:2:0:0:
457,231,111668,1,0,3:0:0:0:
388,122,111841,1,0,3:0:0:0:
428,33,112014,1,0,3:0:0:0:
428,33,112101,1,0,3:0:0:0:
428,33,112188,1,8,3:2:0:0:
391,126,112361,1,2,3:2:0:0:
492,110,112535,1,0,3:0:0:0:
247,32,112708,5,6,0:0:0:0:
255,40,113055,1,0,3:0:0:0:
255,40,113142,1,0,3:0:0:0:
255,40,113228,1,8,0:0:0:0:
252,136,113402,1,0,0:0:0:0:
251,231,113575,2,0,L|251:301,2,58.3333333333333,8|8|0,2:2|3:2|3:2,0:0:0:0:
166,290,113922,2,0,L|166:366,2,58.3333333333333,0|0|0,2:2|3:2|3:2,0:0:0:0:
39,143,114269,1,6,0:0:0:0:
422,95,114616,5,2,0:0:0:0:
417,225,114789,1,2,3:2:0:0:
412,356,114962,1,10,0:0:0:0:
508,82,115136,1,10,0:0:0:0:
499,293,115309,1,2,0:0:0:0:
259,175,115483,1,2,3:2:0:0:
259,175,115829,5,8,0:0:0:0:
260,366,116003,1,8,0:0:0:0:
344,213,116176,1,0,3:0:0:0:
351,199,116263,1,0,0:0:0:0:
357,182,116350,1,0,0:0:0:0:
357,164,116436,1,0,0:0:0:0:
353,142,116523,1,0,0:0:0:0:
343,122,116610,1,0,0:0:0:0:
332,98,116696,1,0,3:0:0:0:
330,67,116783,1,0,0:0:0:0:
343,39,116870,1,0,0:0:0:0:
371,18,116957,1,0,0:0:0:0:
408,20,117043,1,0,0:0:0:0:
256,192,117130,12,2,119644,0:0:0:0:
