osu file format v14

[General]
AudioFilename: audio.mp3
AudioLeadIn: 0
PreviewTime: 82998
Countdown: 0
SampleSet: Soft
StackLeniency: 0.7
Mode: 2
LetterboxInBreaks: 0
WidescreenStoryboard: 1

[Editor]
DistanceSpacing: 1
BeatDivisor: 4
GridSize: 32
TimelineZoom: 1.8

[Metadata]
Title:Azurite no Hitsugi
TitleUnicode:アズライトの棺
Artist:Ayane
ArtistUnicode:アヤネ
Creator:Jemzuu
Version:Salad
Source:水葬銀貨のイストリア
Tags:ajamez sinnoh riana -hex- clsw minato yukina fushimi rio imoutosan eroge visual novel tv size suisouginka めと meto metomate uguisukagura ウグイスカグラ japanese video game uguisu kagura op opening theme istoria of suisou ginka
BeatmapID:2263460
BeatmapSetID:1081721

[Difficulty]
HPDrainRate:4
CircleSize:3
OverallDifficulty:7
ApproachRate:7
SliderMultiplier:1.4
SliderTickRate:1

[Events]
//Background and Video events
0,0,"smiler.jpg",0,0
//Break Periods
//Storyboard Layer 0 (Background)
//Storyboard Layer 1 (Fail)
//Storyboard Layer 2 (Pass)
//Storyboard Layer 3 (Foreground)
//Storyboard Layer 4 (Overlay)
//Storyboard Sound Samples

[TimingPoints]
455,346.820809248555,4,2,1,50,1,0
11553,-100,4,2,1,50,0,0
14327,-100,4,2,1,50,0,0
22651,-100,4,3,1,50,0,0
22738,-100,4,3,1,50,0,0
33056,-100,4,3,1,50,0,0
33749,-100,4,2,1,50,0,0
39241,-100,4,2,1,78,0,0
39298,-100,4,2,1,40,0,0
39819,-100,4,2,1,40,0,0
43460,-100,4,2,1,30,0,0
44848,-100,4,2,1,40,0,0
49009,-100,4,2,1,30,0,0
50223,-100,4,2,1,30,0,0
50397,-100,4,2,1,40,0,0
51090,-100,4,2,1,40,0,0
54559,-100,4,2,1,30,0,0
55946,-100,4,2,1,40,0,0
60108,-100,4,2,1,35,0,0
61495,-100,4,2,1,55,0,0
72593,-100,4,2,1,65,0,0
74674,-100,4,2,1,65,0,0
75368,-100,4,2,1,65,0,0
76582,-100,4,2,1,70,0,0
76755,-100,4,2,1,70,0,0
78142,-100,4,2,1,78,0,0
80223,-100,4,2,1,78,0,0
81957,-100,4,2,1,78,0,0
82651,-100,4,2,1,78,0,0
82824,-100,4,2,1,78,0,0
83171,-100,4,2,1,78,0,0
83345,-100,4,2,1,78,0,0
83691,-100,4,2,1,78,0,1
83748,-100,4,2,1,85,0,1
93749,-100,4,2,1,85,0,0
94790,-100,4,2,1,85,0,1
104154,-100,4,2,1,85,0,1
104327,-100,4,2,1,78,0,0
105194,-100,4,2,1,50,0,0
105801,-100,4,2,1,50,0,0
105888,-100,4,2,1,78,0,1
111437,-100,4,2,1,78,0,1
114212,-100,4,2,1,78,0,1
115252,-100,4,2,1,85,0,1
115426,-100,4,2,1,95,0,1
116293,-100,4,2,1,75,0,1
116379,-100,4,2,1,72,0,1
116466,-100,4,2,1,69,0,1
116553,-100,4,2,1,66,0,1
116639,-100,4,2,1,63,0,1
116726,-100,4,2,1,60,0,1
116813,-100,4,2,1,57,0,1
116900,-100,4,2,1,54,0,1
116986,-100,4,2,1,51,0,0
117073,-100,4,2,1,51,0,0
117160,-100,4,2,1,40,0,0
118720,-100,4,2,1,25,0,0
119530,-100,4,2,1,14,0,0

[Colours]
Combo1 : 92,192,235
Combo2 : 192,192,192
Combo3 : 181,181,255
Combo4 : 217,167,213

[HitObjects]
285,126,455,6,0,L|435:111,2,140,2|0|0,0:0|0:0|0:0,0:0:0:0:
148,140,1495,1,0,0:0:0:0:
305,169,1842,2,0,B|314:307|314:307|321:155,1,280,2|0,0:0|0:0,0:0:0:0:
42,109,3229,6,0,L|186:91,2,140,2|0|0,0:0|0:0|0:0,0:0:0:0:
189,188,4270,1,0,0:0:0:0:
31,238,4616,2,0,B|16:375|16:375|41:230,1,280,2|0,0:0|0:0,0:0:0:0:
317,146,6004,6,0,L|168:117,2,140,2|0|0,0:0|0:0|0:0,0:0:0:0:
452,168,7044,2,0,L|461:260,1,70,0|0,0:0|0:0,0:0:0:0:
376,245,7391,2,0,P|285:257|218:95,1,280,2|0,0:0|0:0,0:0:0:0:
474,49,8778,6,0,P|481:169|337:259,1,280,2|2,0:0|0:0,0:0:0:0:
103,342,10165,2,0,L|69:196,2,140,2|0|2,0:0|0:0|0:0,0:0:0:0:
369,360,11553,1,2,0:0:0:0:
240,324,11899,1,0,0:0:0:0:
206,195,12246,1,0,0:0:0:0:
301,101,12593,6,0,L|404:93,1,70,0|0,0:0|0:0,0:0:0:0:
297,59,12940,2,0,P|159:69|132:197,1,280,2|0,0:0|0:0,0:0:0:0:
375,47,14327,1,2,0:0:0:0:
489,117,14673,1,0,0:0:0:0:
486,250,15020,1,0,0:0:0:0:
368,314,15367,6,0,L|266:293,1,70,0|0,0:0|0:0,0:0:0:0:
226,306,15715,2,0,P|156:295|270:96,1,420,2|0,0:0|0:0,0:0:0:0:
81,89,17102,2,0,P|23:162|234:315,1,420,2|0,0:0|0:0,0:0:0:0:
386,328,18489,2,0,P|443:247|232:116,1,420,2|0,0:0|0:0,0:0:0:0:
256,192,19876,12,0,21957,0:0:0:0:
99,120,22304,5,0,0:0:0:0:
415,67,22651,6,0,P|452:129|368:223,1,210,4|8,1:0|0:0,0:0:0:0:
303,235,23345,1,0,0:0:0:0:
143,234,23691,1,8,0:0:0:0:
294,291,24038,2,0,P|377:320|445:302,1,140,8|0,0:2|0:0,0:0:0:0:
253,364,24559,2,0,P|203:355|192:267,1,140,8|0,0:0|0:0,0:0:0:0:
254,234,25079,2,0,L|332:241,1,70,4|0,0:0|0:0,0:0:0:0:
156,300,25426,6,0,P|86:306|86:175,1,210,4|4,0:1|0:0,0:0:0:0:
140,162,26119,1,10,0:2:0:0:
301,119,26466,2,0,L|379:111,1,70,0|4,0:0|0:0,0:0:0:0:
291,79,26813,2,0,P|252:101|250:198,1,140,4|0,0:0|0:0,0:0:0:0:
315,224,27333,1,4,0:0:0:0:
489,231,27507,2,0,L|489:389,1,140,8|0,0:0|0:0,0:0:0:0:
413,371,28027,1,0,0:0:0:0:
241,357,28200,6,0,P|168:338|216:218,1,210,4|4,0:1|0:0,0:0:0:0:
265,200,28894,1,10,0:2:0:0:
114,152,29241,2,0,L|23:137,1,70,0|4,0:0|0:0,0:0:0:0:
130,115,29587,6,0,P|188:128|225:213,1,140,4|0,0:0|0:0,0:0:0:0:
154,231,30108,1,4,0:0:0:0:
74,242,30281,1,8,0:3:0:0:
234,320,30628,2,0,L|325:326,1,70,0|4,0:0|0:0,0:0:0:0:
121,375,30975,6,0,P|66:380|73:254,1,210,4|0,0:1|0:0,0:0:0:0:
135,251,31668,2,0,L|142:165,1,70,8|8,0:0|0:0,0:0:0:0:
305,118,32189,1,4,0:0:0:0:
231,93,32362,2,0,L|79:69,1,140,4|0,0:0|0:0,0:0:0:0:
169,39,32882,1,4,0:0:0:0:
263,39,33056,2,0,P|290:77|232:167,1,140,4|0,1:3|1:0,0:0:0:0:
183,170,33576,1,0,3:0:0:0:
357,167,33749,6,0,P|442:180|463:306,1,210,4|0,1:2|0:0,0:0:0:0:
401,329,34443,2,0,L|318:346,1,70,0|0,1:0|1:0,0:0:0:0:
161,351,34790,6,0,P|130:284|250:217,1,210,4|0,0:0|0:0,0:0:0:0:
298,212,35483,1,0,1:0:0:0:
27,195,35830,2,0,L|51:113,1,70,8|0,0:0|0:0,0:0:0:0:
123,82,36177,2,0,L|198:55,1,70,0|0,1:0|1:0,0:0:0:0:
364,44,36524,6,0,P|401:97|294:177,1,210,4|0,0:0|0:0,0:0:0:0:
225,183,37218,1,0,1:0:0:0:
499,289,37564,1,4,0:0:0:0:
256,192,37911,12,8,39298,0:0:0:0:
58,312,40686,6,0,L|43:168,1,140,2|0,0:0|0:0,0:0:0:0:
182,110,41379,1,0,2:2:0:0:
447,60,42073,1,8,0:0:0:0:
475,121,42246,1,0,0:0:0:0:
446,182,42419,1,0,0:0:0:0:
380,197,42593,5,0,0:0:0:0:
178,247,43113,2,0,L|154:330,2,70,0|0|2,3:0|3:0|0:0,0:0:0:0:
450,166,44154,2,0,L|484:249,2,70,0|0|0,3:0|3:0|3:0,0:0:0:0:
288,137,44848,5,0,0:0:0:0:
353,155,45021,1,0,0:0:0:0:
378,217,45194,1,0,0:0:0:0:
345,276,45368,1,0,0:0:0:0:
149,320,45888,6,0,L|17:257,2,140,2|2|0,0:0|0:0|0:0,0:0:0:0:
306,360,46928,2,0,P|317:315|243:235,1,140,0|0,0:0|0:0,0:0:0:0:
201,223,47449,1,0,0:0:0:0:
127,217,47622,5,8,0:0:0:0:
279,148,47969,2,0,L|379:135,1,70,0|0,0:0|0:0,0:0:0:0:
487,29,48663,2,0,L|405:15,1,70,0|0,3:0|3:0,0:0:0:0:
339,18,49009,6,0,P|310:49|445:180,1,280,2|0,0:0|3:0,0:0:0:0:
285,252,50050,1,0,3:0:0:0:
127,327,50397,2,0,L|132:239,1,70,0|0,0:0|0:0,0:0:0:0:
221,251,50744,2,0,L|241:155,1,70,0|2,0:0|0:0,0:0:0:0:
33,148,51437,1,0,0:0:0:0:
195,88,51784,6,0,L|345:71,2,140,2|0|0,0:0|2:0|2:0,0:0:0:0:
324,181,52824,1,2,0:0:0:0:
482,210,53171,6,0,L|496:301,1,70,8|0,0:0|0:0,0:0:0:0:
408,290,53518,2,0,L|395:382,1,70,2|0,2:0|0:0,0:0:0:0:
206,377,54212,2,0,L|110:368,1,70,0|0,2:0|2:0,0:0:0:0:
55,351,54559,6,0,P|90:273|283:228,1,280,2|0,0:0|2:0,0:0:0:0:
123,188,55599,1,0,2:0:0:0:
268,124,55946,6,0,L|432:105,1,140,8|0,0:0|0:0,0:0:0:0:
330,80,56466,1,0,0:0:0:0:
134,71,56986,2,0,L|117:170,1,70,0|0,0:0|0:0,0:0:0:0:
205,164,57333,2,0,P|263:166|317:253,1,140,2|0,0:0|0:0,0:0:0:0:
141,237,58027,2,0,L|129:399,1,140,0|0,0:0|0:0,0:0:0:0:
415,364,58720,5,8,0:0:0:0:
456,311,58893,1,0,0:0:0:0:
436,246,59066,1,0,0:0:0:0:
372,226,59240,1,0,0:0:0:0:
180,188,59761,2,0,L|265:177,1,70,0|0,3:0|3:0,0:0:0:0:
324,168,60108,6,0,P|337:215|284:298,1,140,2|0,0:0|0:0,0:0:0:0:
141,331,60801,2,0,P|72:327|7:275,1,140,8|2,0:0|3:0,0:0:0:0:
83,248,61322,1,0,1:0:0:0:
257,205,61495,6,0,L|404:181,2,140,8|0|2,0:0|0:0|0:0,0:0:0:0:
401,272,62535,1,0,0:0:0:0:
238,309,62882,2,0,L|82:288,2,140,2|0|2,0:0|0:0|0:0,0:0:0:0:
86,356,63923,1,0,1:0:0:0:
257,349,64270,6,0,L|403:373,2,140,0|0|2,0:0|0:0|0:0,0:0:0:0:
415,277,65310,2,0,L|497:257,1,70,0|0,0:0|0:0,0:0:0:0:
408,231,65657,2,0,L|261:200,1,140,8|0,0:0|0:0,0:0:0:0:
128,98,66350,1,2,0:0:0:0:
283,69,66697,1,0,1:0:0:0:
14,276,67044,5,0,0:0:0:0:
61,160,67391,1,0,0:0:0:0:
191,106,67738,1,2,0:0:0:0:
339,104,68085,2,0,L|352:20,1,70,0|0,0:0|0:0,0:0:0:0:
272,19,68431,2,0,P|185:38|162:110,1,140,2|0,0:0|0:0,0:0:0:0:
325,175,69125,2,0,L|171:201,1,140,2|0,0:0|1:0,0:0:0:0:
359,257,69819,6,0,L|505:279,1,140,0|0,0:0|0:0,0:0:0:0:
425,310,70339,2,0,L|270:332,1,140,0|0,0:0|0:0,0:0:0:0:
361,356,70859,1,0,0:0:0:0:
196,343,71206,6,0,L|114:353,2,70,8|0|0,0:0|0:0|0:0,0:0:0:0:
37,346,71900,2,0,L|34:178,1,140,2|0,0:0|1:0,0:0:0:0:
325,108,72593,6,0,L|101:77,2,210,8|0|2,0:0|0:0|0:0,0:0:0:0:
389,117,73807,1,0,0:0:0:0:
460,119,73981,1,0,0:0:0:0:
306,202,74327,1,0,0:0:0:0:
467,215,74674,2,0,P|478:274|472:370,1,140,2|0,0:0|1:0,0:0:0:0:
174,319,75368,6,0,L|398:288,2,210,8|0|2,0:0|0:0|0:0,0:0:0:0:
101,322,76582,1,0,0:0:0:0:
257,249,76928,1,0,0:0:0:0:
328,249,77102,2,0,L|347:95,1,140,8|0,0:0|0:0,0:0:0:0:
186,69,77796,2,0,L|102:57,1,70,0|8,1:0|3:0,0:0:0:0:
292,25,78142,6,0,P|343:29|398:100,1,140,4|0,0:0|0:0,0:0:0:0:
328,140,78663,1,0,3:0:0:0:
256,153,78836,1,0,1:0:0:0:
414,219,79183,2,0,L|506:233,1,70,0|0,0:0|0:0,0:0:0:0:
406,286,79530,6,0,L|261:303,1,140,2|0,0:0|1:0,0:0:0:0:
434,358,80223,1,0,1:0:0:0:
460,296,80396,1,0,1:0:0:0:
426,238,80569,1,4,3:0:0:0:
359,232,80743,1,8,3:0:0:0:
188,279,80917,6,0,P|150:224|204:157,1,140,4|0,0:0|0:0,0:0:0:0:
265,140,81437,2,0,L|356:129,2,70,0|0|0,0:0|1:0|0:0,0:0:0:0:
88,111,81957,1,4,3:0:0:0:
256,192,82304,12,0,83345,1:0:0:0:
81,93,83691,6,0,L|237:77,1,140,4|0,0:0|0:0,0:0:0:0:
299,92,84212,1,0,3:0:0:0:
227,122,84385,1,0,1:0:0:0:
65,185,84732,1,0,0:0:0:0:
145,192,84905,6,0,L|167:357,1,140,2|2,0:0|0:0,0:0:0:0:
246,351,85426,1,0,3:0:0:0:
403,317,85772,2,0,L|308:289,1,70,0|0,1:0|1:0,0:0:0:0:
248,269,86119,2,0,L|241:167,1,70,0|0,0:0|0:0,0:0:0:0:
416,100,86466,6,0,P|469:118|472:216,1,140,0|0,3:0|0:0,0:0:0:0:
414,224,86986,1,0,0:0:0:0:
332,242,87160,2,0,L|166:222,1,140,0|2,1:0|0:0,0:0:0:0:
263,186,87680,1,0,0:0:0:0:
433,151,87853,6,0,L|459:306,1,140,0|0,0:0|1:0,0:0:0:0:
298,342,88547,2,0,L|198:327,2,70,0|0|0,1:0|1:0|0:0,0:0:0:0:
370,348,89067,1,0,0:0:0:0:
208,246,89241,6,0,L|53:226,1,140,8|0,3:2|0:0,0:0:0:0:
146,197,89761,1,0,3:0:0:0:
225,182,89934,1,0,1:0:0:0:
57,119,90281,2,0,L|30:41,1,70,2|0,0:0|0:0,0:0:0:0:
206,20,90628,5,8,0:0:0:0:
277,28,90801,2,0,P|296:89|245:157,1,140,0|0,0:0|3:0,0:0:0:0:
182,167,91322,1,0,1:0:0:0:
341,223,91668,2,0,L|444:236,1,70,0|0,0:0|0:0,0:0:0:0:
232,343,92015,6,0,P|171:338|186:258,1,140,8|0,0:0|3:0,0:0:0:0:
239,235,92535,1,0,0:0:0:0:
322,224,92709,1,0,1:0:0:0:
489,95,93056,2,0,L|406:82,1,70,0|0,0:0|0:0,0:0:0:0:
250,88,93402,5,4,1:0:0:0:
218,147,93575,1,0,1:0:0:0:
247,207,93748,1,4,1:2:0:0:
314,217,93922,1,0,1:0:0:0:
237,238,94096,1,0,1:0:0:0:
60,322,94443,2,0,L|139:337,1,70,0|0,0:0|1:0,0:0:0:0:
305,342,94790,6,0,L|448:320,2,140,4|0|0,0:0|0:0|1:0,0:0:0:0:
237,341,95656,1,0,0:0:0:0:
199,286,95829,1,0,0:0:0:0:
223,223,96004,6,0,L|373:212,1,140,2|2,0:0|0:0,0:0:0:0:
286,179,96524,1,0,0:0:0:0:
121,154,96871,2,0,P|119:200|190:252,1,140,0|2,1:0|0:0,0:0:0:0:
262,255,97391,1,0,0:0:0:0:
92,307,97564,6,0,P|41:294|28:202,1,140,4|2,1:0|0:0,0:0:0:0:
105,180,98085,2,0,L|267:165,1,140,4|0,0:0|1:0,0:0:0:0:
260,107,98605,1,0,0:0:0:0:
89,66,98778,5,4,1:0:0:0:
237,21,99125,2,0,L|324:8,2,70,0|0|0,0:0|1:0|1:0,0:0:0:0:
163,49,99645,2,0,P|146:108|200:182,1,140,0|2,3:2|3:2,0:0:0:0:
260,193,100165,1,0,0:0:0:0:
430,195,100339,6,0,L|486:334,2,140,8|0|0,0:0|0:0|1:0,0:0:0:0:
130,124,101379,6,0,P|149:184|291:212,1,210,4|0,0:0|0:0,0:0:0:0:
197,256,102073,1,0,1:0:0:0:
47,322,102420,2,0,L|38:169,1,140,0|4,1:0|3:0,0:0:0:0:
330,223,103113,6,0,P|282:181|193:161,1,140,4|0,0:0|0:0,0:0:0:0:
297,131,103634,2,0,L|454:116,1,140,0|0,0:0|3:0,0:0:0:0:
363,84,104154,1,4,1:2:0:0:
182,78,104327,5,0,1:0:0:0:
363,84,104848,2,0,P|420:123|287:282,1,350,0|0,0:0|0:0,0:0:0:0:
108,360,105888,6,0,P|51:347|83:209,1,210,4|0,0:0|0:0,0:0:0:0:
134,190,106582,2,0,L|223:179,2,70,0|8|4,1:0|0:3|0:3,0:0:0:0:
303,99,107102,6,0,P|406:102|463:135,1,140,4|0,1:0|0:0,0:0:0:0:
367,157,107622,1,0,1:0:0:0:
199,190,107969,2,0,L|180:266,1,70,0|0,1:0|0:0,0:0:0:0:
266,299,108316,2,0,L|353:310,1,70,0|0,3:0|0:0,0:0:0:0:
162,353,108663,6,0,L|15:301,2,140,4|0|0,0:0|0:0|1:0,0:0:0:0:
86,337,109530,1,0,0:0:0:0:
159,320,109703,1,0,3:0:0:0:
334,264,109876,5,4,1:0:0:0:
472,237,110223,2,0,L|492:153,2,70,0|0|0,0:0|1:0|1:2,0:0:0:0:
411,247,110744,1,8,3:2:0:0:
372,309,110917,1,0,3:0:0:0:
415,362,111090,1,0,3:0:0:0:
482,361,111264,1,8,3:0:0:0:
309,371,111437,6,0,L|226:364,1,70,4|0,1:0|0:0,0:0:0:0:
80,365,111957,1,0,1:0:0:0:
37,313,112130,1,4,3:1:0:0:
57,248,112303,1,0,1:0:0:0:
121,230,112477,1,0,0:0:0:0:
296,251,112651,6,0,L|306:97,1,140,4|0,0:2|0:0,0:0:0:0:
221,84,113171,1,0,1:0:0:0:
304,61,113345,1,0,3:0:0:0:
389,66,113518,2,0,P|431:90|422:191,1,140,4|0,1:0|3:0,0:0:0:0:
132,303,114212,6,0,L|119:147,1,140,4|0,0:2|0:0,0:0:0:0:
285,114,114905,2,0,L|368:119,2,70,4|0|0,1:1|1:0|1:0,0:0:0:0:
112,162,115426,2,0,P|115:214|203:265,1,140,4|0,0:0|1:0,0:0:0:0:
258,275,115946,1,0,1:0:0:0:
184,328,116119,1,0,3:0:0:0:
101,343,116293,2,0,P|47:319|26:235,1,140,8|4,0:0|0:3,0:0:0:0:
311,194,116986,5,4,0:0:0:0:
256,192,117333,12,0,119587,0:0:0:0:
