osu file format v14

[General]
AudioFilename: audio.mp3
AudioLeadIn: 0
PreviewTime: 196300
Countdown: 0
SampleSet: Drum
StackLeniency: 0.3
Mode: 0
LetterboxInBreaks: 0
WidescreenStoryboard: 1

[Editor]
Bookmarks: 620,6169,11718,17267,20041,22816,28365,33914,36689,39463,50562,61660,67209,72758,78307,82122,83856,89406,94955,97729,98250,98943,100504,106053,111602,114377,117151,128250,139348,144897,150446,151833,155995,159810,161544,167093,172643,175417,175937,176631,178192,182180,183741,189290,194839,200388,205937,208712,211487,214261,217036,222585,227440,230215,236458,242007,244781,245302,245995,247556,252065,253105,258654,264203,266978,267498,268192,269752,272527,276689,279463,282238,285013,287787,290562
DistanceSpacing: 1.8
BeatDivisor: 16
GridSize: 16
TimelineZoom: 2.2

[Metadata]
Title:Azurite no Hitsugi
TitleUnicode:アズライトの棺
Artist:Ayane
ArtistUnicode:アヤネ
Creator:Fushimi Rio
Version:Tears
Source:水葬銀貨のイストリア
Tags:suisouginka no istoria めと meto metomate uguisukagura ウグイスカグラ visual novel eroge Japanese pop jpop
BeatmapID:1252286
BeatmapSetID:591816

[Difficulty]
HPDrainRate:8
CircleSize:4
OverallDifficulty:8.3
ApproachRate:9
SliderMultiplier:3.6
SliderTickRate:1

[Events]
//Background and Video events
0,0,"BG1.jpg",0,0
//Break Periods
//Storyboard Layer 0 (Background)
//Storyboard Layer 1 (Fail)
//Storyboard Layer 2 (Pass)
//Storyboard Layer 3 (Foreground)
//Storyboard Layer 4 (Overlay)
//Storyboard Sound Samples

[TimingPoints]
1040,693.64161849711,4,2,1,40,1,0
1040,-200,4,2,1,40,0,0
23236,-125,4,3,1,70,0,0
34334,-100,4,2,1,70,0,0
39883,-200,4,2,1,50,0,0
61386,-133.333333333333,4,2,1,50,0,0
62080,-125,4,2,2,50,0,0
73178,-111.111111111111,4,2,1,60,0,0
81502,-83.3333333333333,4,2,2,60,0,0
82542,-200,4,2,1,60,0,0
84276,-100,4,2,1,70,0,1
93987,-100,4,2,1,70,0,0
95375,-100,4,2,1,70,0,1
104912,-200,4,2,1,70,0,0
105433,-125,4,2,1,70,0,0
106473,-100,4,2,1,70,0,1
116878,-133.333333333333,4,2,1,70,0,1
117571,-200,4,2,1,50,0,0
138814,-125,4,2,1,60,0,0
139768,-133.333333333333,4,2,1,60,0,0
150866,-200,4,2,1,60,0,0
152427,-111.111111111111,4,2,1,70,0,0
153641,-111.111111111111,4,2,1,60,0,0
156415,-100,4,2,1,60,0,0
159450,-100,4,2,1,5,0,0
159537,-100,4,2,1,60,0,0
160230,-133.333333333333,4,2,1,60,0,0
161964,-100,4,2,1,70,0,1
171675,-100,4,2,1,70,0,0
173063,-100,4,2,1,70,0,1
182600,-100,4,2,1,70,0,0
183034,-100,4,2,1,5,0,0
183120,-133.333333333333,4,2,1,70,0,0
184161,-200,4,2,2,40,0,0
185288,-200,4,2,2,5,0,0
185375,-200,4,2,2,40,0,0
186155,-200,4,2,2,5,0,0
186242,-200,4,2,2,40,0,0
186762,-200,4,2,2,5,0,0
186935,-200,4,2,2,40,0,0
188149,-200,4,2,2,40,0,0
190924,-166.666666666667,4,2,2,40,0,0
191357,-200,4,2,2,5,0,0
191444,-200,4,2,2,40,0,0
193438,-200,4,2,2,5,0,0
193525,-200,4,2,2,40,0,0
194479,-200,4,2,2,5,0,0
194566,-200,4,2,2,40,0,0
195086,-200,4,2,2,5,0,0
195259,-200,4,2,2,40,0,0
197427,-200,4,2,2,5,0,0
197513,-133.333333333333,4,2,2,40,0,0
198034,-200,4,2,2,40,0,0
200028,-200,4,2,2,5,0,0
200115,-200,4,2,2,40,0,0
200722,-200,4,2,2,5,0,0
200808,-200,4,2,2,40,0,0
200982,-200,4,2,2,5,0,0
202022,-166.666666666667,4,2,2,40,0,0
202196,-200,4,2,2,5,0,0
202889,-133.333333333333,4,2,2,40,0,0
203063,-200,4,2,2,5,0,0
203409,-200,4,2,2,40,0,0
203583,-200,4,2,2,40,0,0
203843,-200,4,2,2,5,0,0
203930,-200,4,2,2,40,0,0
204190,-200,4,2,2,5,0,0
204276,-200,4,2,2,40,0,0
204537,-200,4,2,2,5,0,0
204623,-200,4,2,2,40,0,0
205230,-200,4,2,2,5,0,0
205317,-200,4,2,2,40,0,0
205577,-200,4,2,2,5,0,0
205664,-200,4,2,2,40,0,0
206357,-133.333333333333,4,2,2,55,0,0
206618,-200,4,2,2,5,0,0
206704,-133.333333333333,4,2,2,55,0,0
206878,-200,4,2,2,5,0,0
207051,-133.333333333333,4,2,2,55,0,0
207224,-200,4,2,2,5,0,0
207398,-133.333333333333,4,2,2,55,0,0
208265,-133.333333333333,4,2,2,5,0,0
208438,-133.333333333333,4,2,2,55,0,0
208612,-200,4,2,2,5,0,0
208785,-133.333333333333,4,2,2,55,0,0
209652,-200,4,2,2,5,0,0
209826,-133.333333333333,4,2,2,55,0,0
209999,-200,4,2,2,5,0,0
210172,-133.333333333333,4,2,2,55,0,0
211040,-200,4,2,2,5,0,0
211213,-133.333333333333,4,2,2,55,0,0
211386,-200,4,2,2,5,0,0
211560,-133.333333333333,4,2,2,55,0,0
214594,-133.333333333333,4,2,2,5,0,0
214681,-133.333333333333,4,2,2,55,0,0
215375,-133.333333333333,4,2,2,5,0,0
215462,-133.333333333333,4,2,2,55,0,0
216068,-133.333333333333,4,2,2,5,0,0
216155,-133.333333333333,4,2,2,55,0,0
217369,-133.333333333333,4,2,2,5,0,0
217456,-200,4,2,2,40,0,0
218843,-133.333333333333,4,2,2,50,0,0
219623,-133.333333333333,4,2,2,5,0,0
219710,-133.333333333333,4,2,2,50,0,0
220230,-200,4,2,2,50,0,0
221444,-133.333333333333,4,2,2,50,0,0
221878,-200,4,2,2,5,0,0
221964,-133.333333333333,4,2,2,50,0,0
222658,-142.857142857143,4,2,1,60,0,0
223005,-142.857142857143,4,2,2,60,0,0
223959,-142.857142857143,4,2,2,5,0,0
224046,-142.857142857143,4,2,2,60,0,0
224826,-142.857142857143,4,2,2,5,0,0
224913,-142.857142857143,4,2,2,60,0,0
225259,-133.333333333333,4,2,2,60,0,0
226040,-133.333333333333,4,2,2,5,0,0
226127,-133.333333333333,4,2,2,70,0,0
226993,-133.333333333333,4,2,1,70,0,0
228467,-133.333333333333,4,2,2,5,0,0
230461,-133.333333333333,4,2,1,70,0,0
231329,-100,4,2,1,80,0,1
241040,-100,4,2,1,80,0,0
242427,-100,4,2,1,80,0,1
251444,-100,4,2,1,90,0,1
252485,-100,4,2,1,90,0,0
253525,-100,4,2,1,80,0,1
263236,-100,4,2,1,80,0,0
264623,-100,4,2,1,80,0,1
274161,-200,4,2,1,80,0,0
276242,-255,4,2,1,80,0,0
277022,-255,4,2,1,5,0,0
277109,-100,4,2,1,80,0,1
288120,-100,4,2,1,80,0,0
288207,-100,4,2,1,80,0,1
288294,-100,4,2,1,80,0,0
291675,718.562874251497,4,2,1,70,1,0
292250,1153.84615384615,4,2,1,70,1,0
293340,1176.47058823529,4,2,1,70,1,0
294520,1188.11881188119,4,2,1,80,1,0
294668,-100,4,2,1,5,0,0
297490,-100,4,2,1,30,0,0
297564,-100,4,1,2,5,0,0

[Colours]
Combo1 : 128,191,255
Combo2 : 255,128,255
Combo3 : 194,128,255

[HitObjects]
279,159,1040,6,0,P|307:203|359:232,1,90,2|0,0:0|0:0,0:0:0:0:
428,226,1733,1,0,0:0:0:0:
384,61,2080,1,0,0:0:0:0:
264,181,2427,1,8,0:0:0:0:
251,203,3120,5,0,0:0:0:0:
236,226,3814,6,0,P|208:182|156:152,1,90,2|0,0:0|0:0,0:0:0:0:
87,159,4508,1,0,0:0:0:0:
131,323,4855,1,0,0:0:0:0:
251,203,5201,1,2,0:0:0:0:
264,181,5895,5,0,0:0:0:0:
279,159,6589,6,0,P|314:185|337:224,1,90,2|0,0:0|0:0,0:0:0:0:
232,321,7282,1,0,0:0:0:0:
188,157,7629,1,0,0:0:0:0:
352,201,7976,1,8,0:0:0:0:
378,211,8670,1,0,0:0:0:0:
402,223,9363,5,2,0:0:0:0:
378,211,10057,1,0,0:0:0:0:
352,201,10750,2,0,L|259:228,1,90,8|0,0:0|0:0,0:0:0:0:
181,83,11444,2,0,L|250:150,1,90,2|0,0:0|0:0,0:0:0:0:
149,292,12138,6,0,P|156:248|181:212,1,90,2|0,0:0|0:0,0:0:0:0:
303,318,12831,1,0,0:0:0:0:
124,281,13178,1,0,0:0:0:0:
245,145,13525,1,8,0:0:0:0:
266,127,14219,5,0,0:0:0:0:
287,110,14912,6,0,P|279:154|254:190,1,90,2|0,0:0|0:0,0:0:0:0:
133,84,15606,1,0,0:0:0:0:
312,121,15953,1,0,0:0:0:0:
191,257,16300,1,2,0:0:0:0:
170,275,16993,5,0,0:0:0:0:
154,297,17687,5,8,0:0:0:0:
154,297,19074,1,2,0:0:0:0:
256,192,20461,12,8,21849,0:0:0:0:
11,158,23236,5,4,1:0:0:0:
46,164,23323,1,0,0:0:0:0:
84,166,23409,1,0,0:0:0:0:
122,155,23496,1,0,0:0:0:0:
155,137,23583,1,0,0:0:0:0:
189,117,23670,1,0,0:0:0:0:
216,90,23756,1,0,0:0:0:0:
249,71,23843,1,0,0:0:0:0:
287,63,23930,1,0,0:0:0:0:
322,70,24016,1,0,0:0:0:0:
349,96,24103,1,0,0:0:0:0:
355,134,24190,1,0,0:0:0:0:
341,167,24276,1,0,0:0:0:0:
308,186,24363,1,0,0:0:0:0:
272,186,24450,1,0,0:0:0:0:
242,163,24537,1,0,0:0:0:0:
235,128,24623,5,8,0:2:0:0:
236,113,24710,1,0,0:0:0:0:
237,97,24797,1,0,0:0:0:0:
239,81,24883,1,0,0:0:0:0:
240,64,24970,1,0,0:0:0:0:
242,49,25057,1,0,0:0:0:0:
243,33,25144,5,8,0:0:0:0:
229,68,25230,1,0,0:0:0:0:
202,95,25317,1,0,0:0:0:0:
166,108,25404,1,0,0:0:0:0:
129,105,25490,1,0,0:0:0:0:
94,88,25577,1,0,0:0:0:0:
71,57,25664,5,4,0:0:0:0:
109,62,25750,1,0,0:0:0:0:
141,84,25837,1,0,0:0:0:0:
158,117,25924,1,0,0:0:0:0:
159,155,26011,5,4,0:1:0:0:
172,190,26097,1,0,0:0:0:0:
200,215,26184,1,0,0:0:0:0:
239,219,26271,1,0,0:0:0:0:
272,201,26357,1,0,0:0:0:0:
290,169,26444,1,0,0:0:0:0:
287,130,26531,1,4,0:0:0:0:
265,101,26618,1,0,0:0:0:0:
230,88,26704,5,10,0:2:0:0:
184,93,26791,1,0,0:0:0:0:
145,121,26878,1,0,0:0:0:0:
128,165,26964,1,0,0:0:0:0:
136,212,27051,1,0,0:0:0:0:
168,247,27138,1,0,0:0:0:0:
212,260,27224,1,4,0:0:0:0:
258,249,27311,1,0,0:0:0:0:
290,216,27398,5,4,0:0:0:0:
318,182,27485,1,0,0:0:0:0:
359,170,27571,1,0,0:0:0:0:
399,184,27658,1,0,0:0:0:0:
425,218,27745,1,0,0:0:0:0:
426,259,27831,1,0,0:0:0:0:
404,296,27918,1,4,0:0:0:0:
364,313,28005,1,0,0:0:0:0:
323,303,28092,5,8,0:0:0:0:
272,294,28178,1,0,0:0:0:0:
219,303,28265,1,0,0:0:0:0:
171,323,28352,1,0,0:0:0:0:
122,343,28438,1,0,0:0:0:0:
69,345,28525,1,0,0:0:0:0:
28,314,28612,1,0,0:0:0:0:
26,262,28698,1,0,0:0:0:0:
64,229,28785,5,4,0:1:0:0:
28,205,28872,1,0,0:0:0:0:
13,166,28959,1,0,0:0:0:0:
19,123,29045,1,0,0:0:0:0:
49,93,29132,1,0,0:0:0:0:
89,82,29219,1,0,0:0:0:0:
130,96,29305,1,4,0:0:0:0:
156,128,29392,1,0,0:0:0:0:
160,171,29479,5,10,0:2:0:0:
116,145,29566,1,0,0:0:0:0:
95,97,29652,1,0,0:0:0:0:
106,45,29739,1,0,0:0:0:0:
142,10,29826,1,0,0:0:0:0:
193,0,29912,1,0,0:0:0:0:
240,21,29999,1,4,0:0:0:0:
267,65,30086,1,0,0:0:0:0:
264,118,30172,5,4,0:0:0:0:
252,163,30259,1,0,0:0:0:0:
265,209,30346,1,0,0:0:0:0:
301,239,30433,1,0,0:0:0:0:
347,247,30519,1,0,0:0:0:0:
391,229,30606,1,0,0:0:0:0:
418,190,30693,1,4,0:0:0:0:
421,143,30779,1,0,0:0:0:0:
399,102,30866,5,8,0:3:0:0:
353,126,30953,1,0,0:0:0:0:
328,172,31040,1,0,0:0:0:0:
332,224,31126,1,0,0:0:0:0:
364,265,31213,1,0,0:0:0:0:
413,282,31300,1,0,0:0:0:0:
463,271,31386,1,4,0:0:0:0:
499,233,31473,1,0,0:0:0:0:
510,182,31560,5,4,0:1:0:0:
496,121,31646,1,0,0:0:0:0:
456,75,31733,1,0,0:0:0:0:
398,54,31820,1,0,0:0:0:0:
338,65,31907,1,0,0:0:0:0:
290,106,31993,1,0,0:0:0:0:
271,164,32080,1,8,0:0:0:0:
281,225,32167,1,0,0:0:0:0:
321,273,32253,5,8,0:0:0:0:
360,237,32340,1,0,0:0:0:0:
376,188,32427,1,0,0:0:0:0:
366,138,32513,1,0,0:0:0:0:
331,98,32600,1,0,0:0:0:0:
282,81,32687,1,0,0:0:0:0:
231,92,32774,1,4,0:0:0:0:
192,125,32860,1,0,0:0:0:0:
176,175,32947,5,4,0:0:0:0:
158,219,33034,1,0,0:0:0:0:
121,248,33120,1,0,0:0:0:0:
73,253,33207,1,0,0:0:0:0:
32,234,33294,1,0,0:0:0:0:
4,194,33381,1,0,0:0:0:0:
1,148,33467,1,4,0:0:0:0:
23,106,33554,1,0,0:0:0:0:
64,82,33641,5,4,1:3:0:0:
107,73,33727,1,0,1:0:0:0:
149,76,33814,1,0,1:0:0:0:
190,92,33901,1,0,1:0:0:0:
227,113,33987,1,0,1:0:0:0:
266,130,34074,1,0,1:0:0:0:
308,140,34161,1,0,3:0:0:0:
351,136,34248,1,0,3:0:0:0:
392,122,34334,6,0,P|434:81|313:77,1,270,4|0,1:2|0:0,0:0:0:0:
343,249,35028,1,0,1:0:0:0:
428,134,35201,1,0,1:0:0:0:
398,339,35375,6,0,B|273:385|258:272|138:321,1,270,4|0,0:0|0:0,0:0:0:0:
65,272,36068,2,0,P|52:329|70:379,1,90,0|0,1:0|0:0,0:0:0:0:
189,166,36415,1,8,0:0:0:0:
34,126,36589,1,0,0:0:0:0:
140,237,36762,1,0,1:0:0:0:
180,82,36935,1,0,1:0:0:0:
266,277,37109,6,0,P|333:309|334:175,1,270,4|0,0:0|0:0,0:0:0:0:
187,311,37803,1,0,1:0:0:0:
275,105,37976,1,0,1:0:0:0:
110,347,38149,6,0,P|152:233|266:277,1,270,4|0,0:0|0:0,0:0:0:0:
64,192,38843,1,2,0:0:0:0:
43,183,39190,5,0,0:0:0:0:
22,175,39537,5,0,0:0:0:0:
1,167,39883,6,0,L|83:136,2,45,4|0|0,0:1|0:0|0:0,0:0:0:0:
121,170,40404,2,0,L|267:115,1,135,0|2,0:0|0:0,0:0:0:0:
142,256,41097,1,0,0:0:0:0:
142,256,41271,2,0,L|226:224,1,90,0|2,0:0|0:0,0:0:0:0:
333,183,41791,1,2,0:0:0:0:
333,183,41964,2,0,P|283:154|267:121,1,90,0|0,0:0|0:0,0:0:0:0:
295,41,42485,1,2,0:0:0:0:
410,164,42658,6,0,L|453:179,2,45,8|0|0,0:0|0:0|0:0,0:0:0:0:
333,183,43178,2,0,L|188:128,1,135
122,170,43872,1,0,0:0:0:0:
122,170,44045,6,0,P|154:226|104:326,1,180,2|0,0:0|0:0,0:0:0:0:
28,344,44912,1,0,0:0:0:0:
28,344,45086,1,0,0:0:0:0:
255,274,45433,6,0,L|298:258,2,45,0|0|0,0:0|0:0|0:0,0:0:0:0:
375,277,45953,2,0,L|520:222,1,135,0|2,0:0|0:0,0:0:0:0:
488,321,46646,1,0,0:0:0:0:
488,321,46820,2,0,L|384:281,1,90,0|0,0:0|0:0,0:0:0:0:
321,300,47340,1,2,0:0:0:0:
321,300,47513,2,0,L|217:260,1,90,2|0,0:0|0:0,0:0:0:0:
209,342,48034,1,0,0:0:0:0:
263,193,48207,6,0,L|281:138,2,45,8|0|0,0:0|0:0|0:0,0:0:0:0:
177,203,48727,2,0,L|231:37,1,135,0|0,0:0|0:0,0:0:0:0:
237,268,49421,1,0,0:0:0:0:
237,268,49594,6,0,P|175:292|91:230,1,180,2|0,0:0|0:0,0:0:0:0:
82,151,50461,1,0,0:0:0:0:
82,151,50635,1,2,0:0:0:0:
177,203,50808,1,8,0:0:0:0:
263,136,50982,6,0,P|285:129|307:127,2,45,0|0|0,0:0|0:0|0:0,0:0:0:0:
294,47,51502,2,0,P|358:63|388:121,1,135,2|0,0:0|0:0,0:0:0:0:
382,205,52196,1,0,0:0:0:0:
382,205,52369,2,0,P|412:263|474:279,1,90,2|0,0:0|0:0,0:0:0:0:
512,268,52889,1,0,0:0:0:0:
512,268,53063,2,0,P|483:209|420:194,1,90,0|2,0:0|0:0,0:0:0:0:
346,323,53583,1,0,0:0:0:0:
268,345,53756,6,0,P|234:345|200:332,2,45,8|0|0,0:0|0:0|0:0,0:0:0:0:
346,323,54276,2,0,P|392:270|401:206,1,135,0|0,0:0|0:0,0:0:0:0:
389,130,54970,1,0,0:0:0:0:
389,130,55144,6,0,B|328:98|288:171|215:133,1,180,2|0,0:0|0:0,0:0:0:0:
156,79,56011,1,0,0:0:0:0:
156,79,56184,1,0,0:0:0:0:
96,293,56531,6,0,P|74:311|45:319,2,45,8|0|0,0:0|0:0|0:0,0:0:0:0:
140,213,57051,2,0,P|188:179|263:186,1,135,0|0,0:0|0:0,0:0:0:0:
351,266,57745,1,0,0:0:0:0:
376,187,57918,6,0,P|400:161|420:152,2,45,0|0|0,0:0|0:0|0:0,0:0:0:0:
512,330,58438,2,0,P|502:265|446:230,1,135
284,336,59132,1,0,0:0:0:0:
220,283,59305,6,0,P|213:247|222:208,2,45,8|0|0,0:0|0:0|0:0,0:0:0:0:
284,336,59826,2,0,L|134:311,1,135,0|0,0:0|0:0,0:0:0:0:
68,352,60519,1,0,0:0:0:0:
290,249,60693,6,0,P|312:186|220:93,1,180,2|8,0:0|0:0,0:0:0:0:
217,189,61560,1,0,0:0:0:0:
326,161,61733,1,0,0:0:0:0:
334,48,61907,1,0,3:0:0:0:
229,6,62080,5,8,0:0:0:0:
72,197,62427,2,0,P|107:197|142:187,1,72,0|0,0:0|0:0,0:0:0:0:
303,139,62774,2,0,P|268:149|232:148,1,72,2|0,0:0|0:0,0:0:0:0:
37,76,63120,2,0,P|61:101|93:118,1,72,0|0,0:0|0:0,0:0:0:0:
258,59,63467,5,0,0:0:0:0:
377,327,63814,2,0,P|341:327|307:316,1,72,0|0,0:0|0:0,0:0:0:0:
145,270,64161,2,0,P|179:280|215:279,1,72,2|0,0:0|0:0,0:0:0:0:
411,208,64508,2,0,P|386:233|354:250,1,72,0|0,3:0|0:0,0:0:0:0:
132,355,64855,5,0,0:0:0:0:
234,107,65201,2,0,P|238:143|230:178,1,72,0|0,0:0|0:0,0:0:0:0:
224,348,65548,2,0,P|225:312|215:278,1,72,2|0,0:0|0:0,0:0:0:0:
91,88,65895,2,0,P|123:106|147:133,1,72,0|0,0:0|0:0,0:0:0:0:
314,311,66242,6,0,P|339:285|356:254,1,72,8|0,0:0|0:0,0:0:0:0:
392,48,66589,2,0,P|401:82|400:118,1,72,0|0,0:0|0:0,0:0:0:0:
204,251,66935,2,0,P|239:251|274:241,1,72,2|0,0:0|0:0,0:0:0:0:
481,139,67282,2,0,P|463:170|436:194,1,72,0|0,3:0|0:0,0:0:0:0:
121,217,67629,5,0,0:0:0:0:
471,60,67976,2,0,P|471:95|461:130,1,72,0|0,0:0|0:0,0:0:0:0:
413,291,68323,2,0,P|423:256|422:220,1,72,2|0,0:0|0:0,0:0:0:0:
350,26,68669,2,0,P|375:50|392:82,1,72,0|0,0:0|0:0,0:0:0:0:
357,356,69016,5,0,0:0:0:0:
433,100,69363,2,0,P|397:99|363:110,1,72,0|0,0:0|0:0,0:0:0:0:
201,158,69710,2,0,P|235:147|271:148,1,72,2|0,0:0|0:0,0:0:0:0:
467,220,70057,2,0,P|442:194|410:177,1,72,0|0,3:0|0:0,0:0:0:0:
146,232,70404,5,0,0:0:0:0:
389,132,70750,2,0,P|389:167|378:202,1,72,0|0,0:0|0:0,0:0:0:0:
329,363,71097,2,0,P|339:328|338:292,1,72,2|0,0:0|0:0,0:0:0:0:
259,101,71444,2,0,P|284:125|301:157,1,72,0|0,0:0|0:0,0:0:0:0:
111,62,71791,6,0,P|146:70|177:90,1,72,8|0,0:0|0:0,0:0:0:0:
309,250,72138,2,0,P|301:215|282:185,1,72,0|0,0:0|0:0,0:0:0:0:
44,167,72485,2,0,P|75:149|110:141,1,72,2|0,0:0|0:0,0:0:0:0:
342,123,72832,2,0,P|312:105|277:97,1,72,0|0,3:0|0:0,0:0:0:0:
110,141,73178,6,0,P|174:206|269:179,1,161.999995056153,8|0,0:0|0:0,0:0:0:0:
199,119,73698,2,0,P|179:195|109:230,1,161.999995056153
273,292,74219,1,2,0:0:0:0:
109,230,74392,2,0,P|84:306|110:382,1,161.999995056153,0|0,0:0|0:0,0:0:0:0:
264,202,74912,2,0,P|229:182|188:179,1,80.9999975280763,0|0,0:0|0:0,0:0:0:0:
240,287,75259,2,0,B|328:301|308:245|395:261,1,161.999995056153,2|0,0:0|1:0,0:0:0:0:
394,260,75953,6,0,P|450:205|444:127,1,161.999995056153,8|0,0:0|0:0,0:0:0:0:
367,174,76473,2,0,P|445:187|484:255,1,161.999995056153,0|0,0:0|0:0,0:0:0:0:
444,359,76993,1,2,0:0:0:0:
444,127,77167,2,0,P|425:82|324:80,1,161.999995056153
152,184,77687,2,0,P|104:175|62:142,1,80.9999975280763,8|0,0:0|0:0,0:0:0:0:
218,44,78034,2,0,P|235:90|227:143,1,80.9999975280763,0|0,0:0|0:0,0:0:0:0:
152,279,78381,1,0,1:0:0:0:
346,138,78554,1,0,1:0:0:0:
355,369,78727,6,0,P|295:317|286:239,1,161.999995056153,4|0,0:0|0:0,0:0:0:0:
346,138,79248,1,0,0:0:0:0:
180,342,79421,2,0,L|84:350,1,80.9999975280763,0|0,1:0|0:0,0:0:0:0:
131,159,79768,5,0,3:0:0:0:
284,222,79941,1,0,0:0:0:0:
262,58,80115,2,0,P|353:47|395:66,1,121.499996292114,2|0,0:0|0:0,0:0:0:0:
436,125,80461,2,0,P|434:173|399:227,1,80.9999975280763,0|0,1:0|0:0,0:0:0:0:
323,142,80808,5,2,0:0:0:0:
317,306,80982,1,0,1:0:0:0:
187,232,81155,5,0,1:0:0:0:
296,291,81329,1,0,0:0:0:0:
106,199,81502,6,0,B|41:168|58:56|167:60|227:129|224:174|108:211|115:269|138:297|161:346|220:314,1,431.999986816407,4|0,0:0|3:0,0:0:0:0:
267,147,82369,1,0,0:0:0:0:
332,340,82542,6,0,P|426:316|369:240,1,225
349,244,83496,1,0,0:0:0:0:
329,254,83583,5,4,1:0:0:0:
267,147,83756,1,0,0:0:0:0:
332,340,83930,1,0,1:0:0:0:
467,187,84103,1,0,3:0:0:0:
254,257,84276,6,0,B|203:274|166:245|166:245|147:201|105:185,1,180,4|0,0:0|0:0,0:0:0:0:
168,341,84797,1,0,0:0:0:0:
106,185,84970,2,0,P|34:192|-6:287,1,180,0|0,1:0|0:0,0:0:0:0:
219,184,85490,6,0,P|249:117|187:35,1,180,2|2,0:0|0:0,0:0:0:0:
282,258,86011,2,0,P|324:273|368:266,1,90
165,119,86357,5,0,1:0:0:0:
368,266,86531,2,0,P|416:226|407:118,1,180,0|0,1:0|0:0,0:0:0:0:
228,322,87051,6,0,B|148:357|127:291|54:328,1,180,2|0,0:0|0:0,0:0:0:0:
231,145,87571,1,0,0:0:0:0:
76,222,87745,5,0,1:0:0:0:
157,68,87918,1,0,0:0:0:0:
181,240,88092,1,0,0:0:0:0:
61,116,88265,6,0,B|82:157|129:172|129:172|170:146|216:160,1,180,2|2,0:0|0:0,0:0:0:0:
238,304,88785,2,0,P|199:323|154:321,1,90,0|0,0:0|3:0,0:0:0:0:
132,313,89045,1,0,3:0:0:0:
115,299,89132,1,0,1:0:0:0:
292,235,89305,1,0,1:0:0:0:
144,112,89479,1,0,3:0:0:0:
115,299,89652,1,0,0:0:0:0:
323,221,89826,6,0,P|341:139|279:66,1,180,4|0,0:0|0:0,0:0:0:0:
400,281,90346,1,0,0:0:0:0:
237,161,90519,2,0,P|221:203|223:248,1,90,0|0,1:0|0:0,0:0:0:0:
340,135,90866,1,2,0:0:0:0:
119,202,91040,1,0,0:0:0:0:
307,334,91213,6,0,P|283:272|223:248,1,135,2|0,0:0|0:0,0:0:0:0:
151,281,91560,2,0,P|91:282|61:264,1,90,0|0,0:0|0:0,0:0:0:0:
228,330,91907,5,0,1:0:0:0:
119,202,92080,1,0,0:0:0:0:
297,140,92253,5,0,1:0:0:0:
228,330,92427,1,0,0:0:0:0:
98,176,92600,6,0,P|90:106|168:40,1,180,8|0,0:0|0:0,0:0:0:0:
136,281,93120,1,0,0:0:0:0:
24,212,93294,5,0,1:0:0:0:
169,302,93467,1,0,0:0:0:0:
176,133,93641,1,0,1:0:0:0:
316,219,93814,1,0,1:0:0:0:
188,55,93987,5,4,1:0:0:0:
94,289,94161,1,0,3:0:0:0:
79,302,94248,1,0,3:0:0:0:
59,314,94334,1,0,1:0:0:0:
138,117,94508,1,0,0:0:0:0:
221,313,94681,5,4,0:0:0:0:
5,226,94855,1,0,3:0:0:0:
241,125,95028,5,0,1:0:0:0:
138,382,95201,1,0,1:0:0:0:
31,108,95375,6,0,P|61:32|150:5,1,180,4|0,0:0|0:0,0:0:0:0:
235,220,95895,1,0,0:0:0:0:
77,188,96068,2,0,P|32:119|61:32,1,180,0|0,1:0|0:0,0:0:0:0:
318,167,96589,6,0,P|331:246|267:314,1,180,2|2,0:0|0:0,0:0:0:0:
77,188,97109,2,0,P|31:199|-5:238,1,90
235,220,97456,1,0,1:0:0:0:
103,112,97629,1,0,1:0:0:0:
75,280,97803,5,2,0:0:0:0:
108,81,97976,1,0,0:0:0:0:
192,308,98149,6,0,P|279:309|332:241,1,180,4|2,1:0|0:0,0:0:0:0:
51,375,98670,2,0,P|105:307|192:308,1,180,4|0,0:0|0:0,0:0:0:0:
151,144,99190,1,0,1:0:0:0:
192,308,99363,6,0,P|259:278|194:229,1,180,4|0,1:0|0:0,0:0:0:0:
39,352,99883,1,0,1:0:0:0:
20,158,100057,1,0,1:0:0:0:
100,280,100230,5,0,3:0:0:0:
172,312,100346,1,0,3:0:0:0:
248,296,100461,1,0,3:0:0:0:
312,248,100577,5,0,3:0:0:0:
388,232,100693,1,0,3:0:0:0:
452,276,100808,1,0,3:0:0:0:
464,356,100924,6,0,P|399:333|373:273,1,135,4|0,1:0|0:0,0:0:0:0:
361,122,101271,2,0,P|337:159|336:204,1,89.9999976158143,0|0,0:0|0:0,0:0:0:0:
476,208,101618,2,0,P|479:163|457:125,1,89.9999976158143,0|0,1:0|0:0,0:0:0:0:
292,276,101964,6,0,P|220:284|156:204,1,179.999995231629,4|0,0:0|0:0,0:0:0:0:
168,100,102485,1,0,0:0:0:0:
120,332,102658,2,0,P|68:356|20:348,1,89.9999976158143,0|0,1:0|0:0,0:0:0:0:
0,176,103005,5,0,1:0:0:0:
61,228,103120,1,0,3:0:0:0:
140,243,103236,1,0,3:0:0:0:
215,216,103352,5,0,3:0:0:0:
266,154,103467,1,0,3:0:0:0:
287,78,103583,1,0,3:0:0:0:
283,0,103698,6,0,P|216:52|237:131,1,135,4|0,0:0|0:0,0:0:0:0:
266,154,104045,1,0,0:0:0:0:
142,26,104219,1,0,1:0:0:0:
345,135,104392,5,0,1:0:0:0:
98,196,104566,1,0,0:0:0:0:
287,78,104739,5,4,1:0:0:0:
207,364,104912,1,0,0:0:0:0:
287,78,105433,6,0,B|338:50|358:92|378:116|384:165|284:197|282:236|333:295|426:298|441:202|385:177,1,360,8|0,0:0|0:0,0:0:0:0:
257,153,106473,6,0,B|174:114|166:193|85:153,1,180,4|0,0:0|0:0,0:0:0:0:
287,78,106993,1,0,0:0:0:0:
214,225,107167,1,0,1:0:0:0:
128,86,107340,2,0,P|80:74|43:85,1,90,0|0,0:0|0:0,0:0:0:0:
121,236,107687,6,0,P|166:163|128:86,1,180,4|0,1:0|0:0,0:0:0:0:
228,283,108207,2,0,P|277:307|313:306,1,90,0|0,1:0|0:0,0:0:0:0:
434,210,108554,5,4,0:0:0:0:
469,138,108670,1,0,0:0:0:0:
469,58,108785,1,0,0:0:0:0:
416,0,108901,5,0,3:0:0:0:
395,77,109016,1,0,3:0:0:0:
414,155,109132,1,0,0:0:0:0:
469,214,109248,6,0,B|387:164|371:246|290:198,1,180,4|0,1:0|0:0,0:0:0:0:
417,285,109768,1,0,0:0:0:0:
384,45,109941,5,0,1:0:0:0:
297,202,110115,1,0,0:0:0:0:
199,21,110288,5,0,0:1:0:0:
345,290,110461,2,0,P|292:352|178:325,1,180,4|0,1:0|0:0,0:0:0:0:
121,197,110982,1,0,1:0:0:0:
165,331,111155,5,0,3:0:0:0:
127,340,111242,1,0,3:0:0:0:
93,326,111329,1,0,3:0:0:0:
74,293,111415,1,0,3:0:0:0:
77,256,111502,1,0,3:0:0:0:
102,228,111589,1,0,0:0:0:0:
121,197,111675,1,0,0:0:0:0:
117,159,111762,1,0,0:0:0:0:
92,132,111849,1,0,0:0:0:0:
54,128,111935,1,0,0:0:0:0:
26,156,112022,5,4,1:0:0:0:
240,62,112196,1,0,0:0:0:0:
188,259,112542,5,0,1:0:0:0:
188,259,112629,1,0,1:0:0:0:
188,259,112716,1,4,1:0:0:0:
339,87,112889,1,0,3:0:0:0:
115,42,113063,1,0,3:0:0:0:
255,314,113236,6,0,P|270:229|206:173,1,180,4|0,0:0|0:0,0:0:0:0:
183,171,113670,1,0,0:0:0:0:
161,176,113756,1,0,1:0:0:0:
339,87,113930,1,0,0:0:0:0:
188,260,114103,5,4,1:0:0:0:
171,316,114219,1,0,3:0:0:0:
203,367,114334,1,0,3:0:0:0:
262,372,114450,5,0,3:0:0:0:
304,327,114566,1,0,0:0:0:0:
294,268,114681,1,0,0:0:0:0:
240,240,114797,5,4,0:0:0:0:
424,328,114970,1,0,0:0:0:0:
190,38,115317,5,0,1:0:0:0:
190,38,115404,1,0,1:0:0:0:
190,38,115490,1,4,1:0:0:0:
270,277,115664,1,0,0:0:0:0:
436,87,115837,1,0,0:0:0:0:
203,340,116011,6,0,P|128:325|91:272,1,135,4|0,0:0|0:0,0:0:0:0:
80,205,116357,1,0,1:0:0:0:
291,317,116531,1,0,1:0:0:0:
282,78,116704,1,4,0:1:0:0:
261,107,116791,1,0,0:0:0:0:
258,143,116878,2,0,P|305:69|179:72,1,270.000010299683,0|8,0:0|0:0,0:0:0:0:
434,304,118612,6,0,P|451:289|464:271,1,45,2|0,0:0|0:0,0:0:0:0:
385,228,118959,2,0,L|417:312,1,90,0|2,0:0|0:0,0:0:0:0:
289,206,119479,1,2,0:0:0:0:
289,206,119652,2,0,L|321:290,1,90,0|0,0:0|0:0,0:0:0:0:
227,265,120173,1,2,0:0:0:0:
192,341,120346,6,0,P|171:352|148:356,2,45,8|0|0,0:0|0:0|0:0,0:0:0:0:
160,201,120866,2,0,P|92:223|68:283,1,135,0|0,0:0|0:0,0:0:0:0:
28,179,121560,1,0,0:0:0:0:
28,179,121733,6,0,P|112:201|147:281,1,180,2|0,0:0|0:0,0:0:0:0:
90,338,122600,1,0,0:0:0:0:
168,358,122774,1,0,0:0:0:0:
246,378,122947,1,0,0:0:0:0:
292,311,123121,6,0,L|335:295,2,45,0|0|0,0:0|0:0|0:0,0:0:0:0:
226,263,123641,2,0,L|81:208,1,135,0|2,0:0|0:0,0:0:0:0:
153,93,124334,1,0,0:0:0:0:
153,93,124508,2,0,P|190:133|200:180,1,90,0|0,0:0|0:0,0:0:0:0:
286,170,125028,1,2,0:0:0:0:
286,170,125202,2,0,P|306:118|344:89,1,90,2|0,0:0|0:0,0:0:0:0:
408,95,125722,1,0,0:0:0:0:
445,205,125895,6,0,L|458:247,2,45,8|0|0,0:0|0:0|0:0,0:0:0:0:
373,254,126415,2,0,L|244:295,1,135,0|0,0:0|0:0,0:0:0:0:
205,212,127109,1,2,0:0:0:0:
205,212,127282,6,0,P|143:188|59:250,1,180,2|0,0:0|0:0,0:0:0:0:
34,148,128149,1,0,0:0:0:0:
14,69,128323,1,2,0:0:0:0:
93,90,128496,1,8,0:0:0:0:
151,26,128670,6,0,P|173:19|195:17,2,45,0|0|0,0:0|0:0|0:0,0:0:0:0:
170,164,129190,2,0,P|234:148|264:90,1,135,2|0,0:0|0:0,0:0:0:0:
335,43,129884,1,0,0:0:0:0:
335,43,130057,2,0,P|365:101|427:117,1,90,2|0,0:0|0:0,0:0:0:0:
382,199,130577,1,0,0:0:0:0:
382,199,130751,2,0,P|316:194|271:241,1,90,0|2,0:0|0:0,0:0:0:0:
344,267,131271,1,0,0:0:0:0:
240,309,131444,6,0,P|206:309|172:296,2,45,8|0|0,0:0|0:0|0:0,0:0:0:0:
224,230,131964,2,0,P|178:283|169:347,1,135,0|0,0:0|0:0,0:0:0:0:
22,299,132658,1,0,0:0:0:0:
97,265,132832,6,0,B|129:204|56:164|94:91,1,180,2|0,0:0|0:0,0:0:0:0:
149,36,133699,1,0,0:0:0:0:
197,101,133872,2,0,P|184:119|167:133,1,45
293,193,134219,6,0,P|275:171|267:142,2,45,8|0|0,0:0|0:0|0:0,0:0:0:0:
422,169,134739,2,0,P|430:103|394:47,1,135
366,225,135433,1,0,0:0:0:0:
447,282,135606,6,0,P|465:269|479:251,2,45,2|0|0,0:0|0:0|0:0,0:0:0:0:
289,237,136126,2,0,P|237:278|235:344,1,135,0|0,0:0|0:0,0:0:0:0:
309,315,136820,1,0,0:0:0:0:
177,209,136993,6,0,P|170:173|179:134,2,45,8|0|0,0:0|0:0|0:0,0:0:0:0:
149,288,137513,2,0,L|60:302,1,90,0|2,0:0|0:0,0:0:0:0:
46,224,138034,1,0,0:0:0:0:
33,145,138207,1,2,0:0:0:0:
33,145,138814,5,0,0:0:0:0:
33,145,138901,1,0,0:0:0:0:
33,145,138987,2,0,B|94:177|134:104|207:142,1,180,8|0,0:0|1:0,0:0:0:0:
292,142,139595,1,0,3:0:0:0:
228,6,139768,6,0,P|156:92|216:188,1,135.000005149842,4|0,0:0|0:0,0:0:0:0:
217,189,140288,1,0,0:0:0:0:
217,189,140462,2,0,P|108:163|50:260,1,135.000005149842,2|0,0:0|3:0,0:0:0:0:
274,259,140982,2,0,P|300:149|203:91,1,135.000005149842
384,248,141502,2,0,L|476:231,1,67.5000025749208,2|0,0:0|0:0,0:0:0:0:
217,189,141849,2,0,L|61:163,1,135.000005149842,8|0,0:0|3:0,0:0:0:0:
274,259,142369,1,0,0:0:0:0:
293,136,142543,6,0,P|343:91|409:90,1,135.000005149842,0|0,3:0|0:0,0:0:0:0:
254,216,143063,1,0,0:0:0:0:
254,216,143236,2,0,P|210:166|209:100,1,135.000005149842,2|0,0:0|3:0,0:0:0:0:
333,265,143756,1,0,0:0:0:0:
173,179,143930,2,0,P|149:176|95:193,1,67.5000025749208,8|0,0:0|0:0,0:0:0:0:
120,336,144277,2,0,P|145:338|199:321,1,67.5000025749208,0|0,0:0|0:0,0:0:0:0:
336,144,144623,2,0,P|361:141|415:158,1,67.5000025749208,2|0,0:0|0:0,0:0:0:0:
389,298,144970,2,0,P|365:300|311:283,1,67.5000025749208,0|0,3:0|0:0,0:0:0:0:
209,100,145317,6,0,P|151:68|87:81,1,135.000005149842,2|0,3:2|0:0,0:0:0:0:
206,208,145837,1,0,0:0:0:0:
206,208,146011,2,0,B|262:213|303:166|303:166|310:208|289:242,1,135.000005149842,2|0,0:0|3:0,0:0:0:0:
186,330,146531,2,0,P|173:265|206:208,1,135.000005149842
387,315,147051,2,0,P|320:318|267:279,2,135.000005149842,0|8|0,0:0|0:0|3:0,0:0:0:0:
496,139,147918,1,0,0:0:0:0:
496,139,148092,6,0,P|456:192|460:258,1,135.000005149842,0|0,3:0|0:0,0:0:0:0:
455,383,148612,2,0,P|480:321|460:258,1,135.000005149842,0|2,0:0|0:0,0:0:0:0:
352,207,149132,1,0,3:0:0:0:
272,272,149305,1,0,0:0:0:0:
85,124,149479,2,0,P|121:104|150:102,1,67.5000025749208,8|0,0:0|0:0,0:0:0:0:
190,239,149826,2,0,P|155:258|126:260,1,67.5000025749208
335,145,150172,2,0,P|368:149|396:167,1,67.5000025749208,2|0,0:0|3:0,0:0:0:0:
354,303,150519,2,0,P|320:298|291:281,1,67.5000025749208,0|0,3:0|0:0,0:0:0:0:
256,48,150866,5,2,0:1:0:0:
256,48,151907,1,0,1:0:0:0:
256,192,152080,2,0,L|256:283,1,67.5000025749208,0|0,3:0|0:0,0:0:0:0:
256,259,152427,5,0,1:0:0:0:
172,219,152600,1,4,0:0:0:0:
99,286,152774,1,0,3:0:0:0:
102,289,152860,1,0,3:0:0:0:
105,292,152947,1,0,1:0:0:0:
18,243,153120,1,0,3:0:0:0:
37,145,153294,1,0,3:0:0:0:
128,133,153467,1,0,0:0:0:0:
177,241,153641,6,0,B|265:255|245:199|332:215,1,161.999995056153,4|0,0:0|0:0,0:0:0:0:
341,363,154161,2,0,P|314:332|304:293,1,80.9999975280763,0|0,3:0|0:0,0:0:0:0:
415,198,154508,2,0,P|450:214|477:244,1,80.9999975280763,2|0,0:0|0:0,0:0:0:0:
342,110,154855,1,0,3:0:0:0:
304,293,155028,6,0,P|237:263|302:214,1,161.999995056153,8|0,0:0|0:0,0:0:0:0:
155,271,155548,1,0,3:0:0:0:
155,271,155635,1,0,3:0:0:0:
155,271,155722,1,0,1:0:0:0:
95,126,155895,1,0,0:0:0:0:
52,228,156068,1,0,1:0:0:0:
197,168,156241,1,0,1:0:0:0:
112,43,156415,6,0,P|41:63|18:163,1,180,4|2,0:0|0:0,0:0:0:0:
132,260,156935,1,0,0:0:0:0:
232,102,157109,2,0,L|221:208,1,90,0|0,1:0|0:0,0:0:0:0:
265,298,157456,1,0,3:0:0:0:
428,242,157629,1,0,0:0:0:0:
392,323,157803,6,0,B|369:314|355:294|355:294|348:247|312:221,1,135,8|0,0:0|0:0,0:0:0:0:
290,210,158149,2,0,P|236:213|203:232,1,90,0|0,3:0|0:0,0:0:0:0:
218,32,158496,1,0,1:0:0:0:
298,126,158669,1,0,1:0:0:0:
176,149,158843,1,4,1:0:0:0:
218,32,159016,1,0,0:0:0:0:
148,140,159190,6,0,P|68:154|76:230,1,135,4|0,0:0|0:0,0:0:0:0:
117,245,159537,1,0,3:0:0:0:
148,140,159710,1,0,0:0:0:0:
179,35,159883,1,0,3:0:0:0:
254,115,160057,1,0,0:0:0:0:
148,140,160230,6,0,B|120:132|104:92|116:64|116:64|176:72|200:152|160:200|160:200|200:176|236:192,1,337.500012874604,2|0,0:0|3:0,0:0:0:0:
248,204,161184,1,0,3:0:0:0:
256,224,161271,1,4,1:0:0:0:
131,279,161444,1,0,0:0:0:0:
40,179,161618,1,0,1:0:0:0:
107,60,161791,1,0,3:0:0:0:
241,88,161964,6,0,P|284:139|265:251,1,180,4|0,0:0|0:0,0:0:0:0:
148,140,162485,1,0,0:0:0:0:
370,125,162658,2,0,P|411:60|337:41,1,180,0|0,1:0|0:0,0:0:0:0:
381,217,163178,6,0,P|444:275|539:262,1,180,2|2,0:0|0:0,0:0:0:0:
370,125,163698,2,0,P|326:145|300:178,1,90
272,360,164045,1,0,1:0:0:0:
202,194,164219,1,0,1:0:0:0:
381,217,164392,2,0,P|396:258|390:302,1,90,0|0,0:0|0:0,0:0:0:0:
188,173,164739,6,0,P|185:106|267:39,1,180,2|0,0:0|0:0,0:0:0:0:
244,276,165259,1,0,0:0:0:0:
277,137,165433,1,0,1:0:0:0:
96,192,165606,1,0,0:0:0:0:
234,321,165779,1,0,0:0:0:0:
230,117,165953,6,0,P|156:162|155:249,2,180,2|2|0,0:0|0:0|3:0,0:0:0:0:
252,118,166733,1,0,3:0:0:0:
273,123,166820,1,0,1:0:0:0:
376,216,166993,1,0,1:0:0:0:
405,100,167167,1,0,3:0:0:0:
292,134,167340,1,0,0:0:0:0:
356,292,167513,6,0,P|428:270|377:216,1,180,4|0,0:0|0:0,0:0:0:0:
281,322,168034,1,0,0:0:0:0:
140,231,168207,2,0,P|117:192|116:148,1,90,0|0,1:0|0:0,0:0:0:0:
270,211,168554,1,2,0:0:0:0:
137,313,168727,1,0,0:0:0:0:
197,169,168901,6,0,P|251:129|316:141,1,135,2|0,0:0|0:0,0:0:0:0:
336,159,169248,1,0,0:0:0:0:
231,56,169421,1,0,0:0:0:0:
270,211,169594,1,0,1:0:0:0:
385,100,169768,1,0,0:0:0:0:
197,169,169941,2,0,P|188:197|200:258,1,90,0|0,1:0|0:0,0:0:0:0:
269,127,170288,6,0,P|217:87|121:135,1,180,8|0,0:0|0:0,0:0:0:0:
83,267,170808,1,0,0:0:0:0:
83,44,170982,1,0,1:0:0:0:
197,169,171155,1,0,0:0:0:0:
32,205,171329,1,0,1:0:0:0:
269,127,171502,1,0,1:0:0:0:
188,359,171675,5,4,1:0:0:0:
127,183,171849,1,0,3:0:0:0:
129,151,171935,1,0,3:0:0:0:
147,123,172022,1,0,1:0:0:0:
98,291,172196,5,0,0:0:0:0:
328,186,172369,1,4,0:0:0:0:
199,312,172542,5,0,3:0:0:0:
173,104,172716,1,0,1:0:0:0:
240,384,172889,1,0,1:0:0:0:
116,222,173063,6,0,P|48:255|108:303,1,180,4|0,0:0|0:0,0:0:0:0:
137,137,173583,1,0,0:0:0:0:
193,314,173756,1,0,1:0:0:0:
252,223,173930,1,0,0:0:0:0:
107,303,174103,1,0,0:0:0:0:
276,211,174276,6,0,P|351:206|417:282,1,180,2|2,0:0|0:0,0:0:0:0:
353,119,174797,1,0,0:0:0:0:
320,299,174970,1,0,0:0:0:0:
360,88,175144,1,0,1:0:0:0:
181,181,175317,1,0,1:0:0:0:
345,297,175490,1,2,0:0:0:0:
324,106,175664,1,0,0:0:0:0:
249,332,175837,6,0,P|262:267|224:214,1,135,4|0,1:0|0:0,0:0:0:0:
148,193,176184,1,2,0:0:0:0:
345,297,176357,6,0,P|408:292|431:280,1,90,4|0,0:0|0:0,0:0:0:0:
182,287,176704,1,0,0:0:0:0:
304,159,176878,1,0,1:0:0:0:
352,327,177051,6,0,P|292:290|292:201,1,135,4|0,1:0|0:0,0:0:0:0:
304,159,177398,1,0,0:0:0:0:
240,371,177571,1,0,1:0:0:0:
363,243,177745,1,0,1:0:0:0:
172,324,177918,5,0,3:0:0:0:
93,325,178034,1,0,3:0:0:0:
27,282,178149,1,0,3:0:0:0:
0,209,178265,5,0,3:0:0:0:
18,134,178381,1,0,3:0:0:0:
76,83,178496,1,0,3:0:0:0:
154,75,178612,6,0,P|202:96|235:170,1,135,4|0,1:0|0:0,0:0:0:0:
101,235,178959,2,0,P|115:192|148:164,1,90
320,178,179305,2,0,P|353:148|366:106,1,90,0|0,1:0|0:0,0:0:0:0:
184,236,179652,6,0,P|269:247|320:178,1,180,4|0,0:0|0:0,0:0:0:0:
275,98,180172,1,0,0:0:0:0:
346,296,180346,2,0,P|387:310|431:301,1,90,0|0,1:0|0:0,0:0:0:0:
512,93,180693,5,0,1:0:0:0:
460,33,180808,1,0,3:0:0:0:
386,7,180924,1,0,3:0:0:0:
309,17,181040,5,0,3:0:0:0:
246,64,181155,1,0,3:0:0:0:
211,134,181271,1,0,3:0:0:0:
214,213,181386,6,0,P|233:276|283:321,1,135,4|0,0:0|0:0,0:0:0:0:
361,336,181733,1,0,0:0:0:0:
159,324,181907,1,0,1:0:0:0:
344,207,182080,1,0,1:0:0:0:
365,340,182253,5,0,0:0:0:0:
176,147,182427,1,0,1:0:0:0:
438,79,182600,2,0,P|385:169|282:146,1,225,2|0,0:0|0:0,0:0:0:0:
258,54,183120,6,0,P|316:31|347:85,1,135.000005149842,8|0,0:0|0:0,0:0:0:0:
336,106,183554,1,0,0:0:0:0:
320,118,183641,1,2,0:0:0:0:
258,54,183814,5,0,3:0:0:0:
302,123,183987,1,2,0:0:0:0:
301,206,184161,2,0,B|312:242|340:246|340:246|380:198|460:222|468:282|440:338|388:338,1,292.5,4|0,0:0|0:0,0:0:0:0:
388,338,185375,6,0,P|331:270|421:235,1,202.5,2|0,0:0|0:0,0:0:0:0:
408,228,186242,2,0,P|471:209|485:126,1,135
420,156,186935,6,0,B|351:158|349:101|276:102|276:102|290:133|327:144,1,225,8|0,0:0|0:0,0:0:0:0:
326,143,187976,1,0,0:0:0:0:
420,156,188149,2,0,P|484:87|394:61,1,225,0|0,0:0|3:0,0:0:0:0:
347,195,189190,1,4,0:3:0:0:
347,195,189537,5,0,0:0:0:0:
314,271,189710,2,0,B|242:300|209:245|141:263|120:321|129:351,1,225,4|0,0:1|0:0,0:0:0:0:
127,339,190750,1,0,0:0:0:0:
136,241,190924,6,0,B|124:190|82:175|82:175|80:203|97:215,1,134.999995880127,2|0,0:0|0:0,0:0:0:0:
136,241,191444,2,0,P|179:255|223:247,2,90,0|0|0,3:0|0:0|0:0,0:0:0:0:
149,106,192485,6,0,P|255:140|223:247,1,247.5,8|0,0:0|0:0,0:0:0:0:
222,246,193525,1,2,0:0:0:0:
341,294,193698,2,0,P|437:278|476:189,1,202.5,0|0,3:0|0:0,0:0:0:0:
476,189,194566,2,0,P|410:186|398:128,1,135,8|0,0:0|0:0,0:0:0:0:
354,62,195259,5,2,0:0:0:0:
141,319,196300,1,0,0:0:0:0:
97,246,196473,2,0,B|143:226|185:248|185:248|201:226|194:202,1,135,0|0,3:0|0:0,0:0:0:0:
187,131,197167,2,0,P|172:101|147:80,1,67.5
146,80,197513,2,0,P|211:93|268:60,1,135.000005149842,8|0,0:0|0:0,0:0:0:0:
195,206,198034,5,0,0:0:0:0:
412,145,198901,2,0,P|393:166|362:179,1,45,2|0,0:0|0:0,0:0:0:0:
349,104,199248,2,0,P|437:73|486:154,1,202.5
486,153,200115,2,0,B|491:187|518:222|518:222|470:216|445:245,1,157.5,2|0,0:0|0:0,0:0:0:0:
459,318,200808,6,0,P|480:310|498:298,1,45,0|0,3:0|0:0,0:0:0:0:
212,208,202022,2,0,P|189:222|163:228,1,53.9999983520508,0|0,3:0|0:0,0:0:0:0:
426,90,202889,2,0,P|394:80|361:86,1,67.5000025749208,2|0,3:2|0:0,0:0:0:0:
286,221,203409,1,0,0:0:0:0:
357,151,203583,6,0,P|367:119|361:86,1,67.5000025749208,8|0,0:0|0:0,0:0:0:0:
361,86,203930,2,0,P|336:109|325:140,1,67.5000025749208,0|0,3:0|0:0,0:0:0:0:
428,211,204276,2,0,P|419:178|398:152,1,67.5000025749208
351,211,204623,6,0,P|276:201|251:131,1,157.5,2|0,0:0|0:0,0:0:0:0:
251,131,205317,2,0,P|228:160|191:173,1,67.5
115,169,205664,2,0,P|70:204|134:260,1,157.5,8|0,0:0|0:0,0:0:0:0:
197,243,206357,6,0,P|254:257|316:222,1,101.250003862381,4|0,0:0|0:0,0:0:0:0:
355,150,206704,2,0,P|370:188|370:219,1,67.5000025749208,0|0,3:0|0:0,0:0:0:0:
373,357,207051,2,0,P|358:319|358:288,1,67.5000025749208,0|0,3:0|0:0,0:0:0:0:
512,254,207398,2,0,P|505:313|444:304,1,135.000005149842,0|0,3:0|3:0,0:0:0:0:
512,144,208092,6,0,P|478:149|445:142,1,67.5000025749208,0|0,3:0|0:0,0:0:0:0:
312,96,208438,2,0,P|352:91|382:99,1,67.5000025749208,0|0,3:0|0:0,0:0:0:0:
416,215,208785,2,0,P|345:251|293:236,1,135.000005149842,0|0,3:0|3:0,0:0:0:0:
168,44,209479,6,0,P|153:82|153:113,1,67.5000025749208,0|0,3:0|0:0,0:0:0:0:
150,251,209826,2,0,P|165:213|165:182,1,67.5000025749208,0|0,3:0|0:0,0:0:0:0:
0,148,210172,2,0,P|17:207|79:197,1,135.000005149842,0|0,3:0|3:0,0:0:0:0:
368,96,210866,6,0,P|327:91|297:99,1,67.5000025749208,0|0,3:0|0:0,0:0:0:0:
168,144,211213,2,0,P|201:149|234:142,1,67.5000025749208,0|0,3:0|0:0,0:0:0:0:
431,43,211560,1,0,3:0:0:0:
444,63,211646,1,0,0:0:0:0:
451,87,211733,1,0,0:0:0:0:
450,113,211820,1,0,0:0:0:0:
442,136,211907,6,0,P|422:163|395:184,1,67.5000025749208,4|0,0:0|0:0,0:0:0:0:
131,291,212947,2,0,P|162:278|196:276,1,67.5000025749208,0|0,3:0|3:0,0:0:0:0:
164,132,213987,2,0,B|244:148|277:75|277:75|288:132|332:152,1,236.250009012223,10|0,0:0|0:0,0:0:0:0:
330,151,214681,5,2,0:0:0:0:
428,120,214855,1,0,0:0:0:0:
320,176,215028,1,0,3:0:0:0:
446,133,215201,2,0,L|512:110,1,67.5000025749208
338,189,215548,5,0,0:0:0:0:
440,151,215722,1,0,3:0:0:0:
319,175,215895,2,0,L|253:197,1,67.5000025749208,4|0,0:3|0:0,0:0:0:0:
387,226,216242,5,0,0:0:0:0:
344,100,216415,1,0,3:0:0:0:
387,226,216589,2,0,L|431:359,1,135.000005149842,2|0,0:0|0:0,0:0:0:0:
444,332,217022,1,0,0:0:0:0:
440,304,217109,2,0,P|426:280|336:268,1,101.250003862381,0|0,3:0|0:0,0:0:0:0:
298,300,217456,6,0,P|143:335|126:177,1,360,4|0,0:1|3:0,0:0:0:0:
189,128,219016,5,0,0:0:0:0:
117,100,219190,1,0,0:0:0:0:
127,176,219363,2,0,P|168:203|217:200,1,101.250003862381,8|0,0:0|0:0,0:0:0:0:
219,200,219710,2,0,P|285:195|337:236,1,135.000005149842
303,383,220230,6,0,P|249:348|256:284,1,135.000005149842,2|0,0:0|0:0,0:0:0:0:
248,304,220837,1,0,0:0:0:0:
232,320,220924,1,0,3:0:0:0:
144,316,221097,1,0,0:0:0:0:
80,256,221271,1,0,3:0:0:0:
72,160,221444,6,0,B|73:134|88:120|88:120|116:152|116:208|80:256,1,168.750006437302,4|0,0:0|0:0,0:0:0:0:
80,256,221964,1,8,0:3:0:0:
207,188,222138,2,0,B|264:173|285:209|339:195,1,135.000005149842,4|0,0:3|0:0,0:0:0:0:
351,65,222658,2,0,P|327:84|312:112,1,62.9999980773926,0|0,1:0|0:0,0:0:0:0:
378,298,223005,6,0,B|409:336|473:319|483:271|483:271|451:237|389:253|371:325|282:284,1,346.49998942566,4|0,0:0|0:0,0:0:0:0:
233,225,224045,2,0,P|233:185|245:161,1,62.9999980773926,0|0,3:0|0:0,0:0:0:0:
213,304,224392,2,0,P|148:343|82:305,1,157.499995193482,2|0,0:0|0:0,0:0:0:0:
83,306,224912,2,0,P|35:261|-29:269,1,125.999996154785,8|4,0:3|0:3,0:0:0:0:
12,334,225433,1,0,3:0:0:0:
127,233,225606,1,0,0:0:0:0:
52,77,225779,6,0,P|74:141|121:178,1,101.250003862381,8|0,0:0|0:0,0:0:0:0:
125,181,226126,2,0,P|192:189|251:160,2,135.000005149842,0|0|0,0:0|0:0|3:0,0:0:0:0:
250,209,226993,6,0,B|305:186|333:222|385:198,1,135.000005149842,0|0,1:0|0:0,0:0:0:0:
293,294,227513,1,2,0:0:0:0:
289,110,227687,1,0,0:0:0:0:
405,290,227860,5,0,1:2:0:0:
250,209,228034,1,0,3:3:0:0:
412,84,228207,1,0,1:0:0:0:
295,327,228381,6,0,P|292:310|293:294,1,33.7500012874604,2|0,1:2|0:0,0:0:0:0:
408,104,230461,5,0,1:0:0:0:
408,104,230548,1,0,1:0:0:0:
408,104,230635,5,4,1:0:0:0:
384,135,230722,1,0,3:0:0:0:
349,153,230808,1,0,3:0:0:0:
310,155,230895,1,0,3:0:0:0:
274,140,230982,1,0,3:0:0:0:
237,125,231068,1,0,3:0:0:0:
198,127,231155,1,0,3:0:0:0:
164,145,231242,1,0,3:0:0:0:
140,176,231329,6,0,P|128:240|204:320,1,179.999995231629,4|0,0:0|0:0,0:0:0:0:
237,125,231849,1,0,0:0:0:0:
40,200,232022,2,0,P|0:140|84:112,1,179.999995231629,0|0,1:0|0:0,0:0:0:0:
224,224,232542,6,0,P|288:236|368:160,1,179.999995231629,2|2,0:0|0:0,0:0:0:0:
264,54,233063,2,0,P|256:98|272:140,1,90,0|0,1:0|0:0,0:0:0:0:
408,268,233409,1,0,1:0:0:0:
224,224,233583,1,0,1:0:0:0:
354,86,233756,2,0,P|369:127|361:171,1,90,0|0,0:0|0:0,0:0:0:0:
217,305,234103,6,0,P|157:259|224:224,1,180,2|0,0:0|0:0,0:0:0:0:
308,340,234623,1,0,0:0:0:0:
166,142,234797,1,0,1:0:0:0:
217,305,234970,1,0,0:0:0:0:
334,181,235144,1,0,0:0:0:0:
159,257,235317,6,0,P|150:342|226:380,2,180,2|2|0,0:0|0:0|3:0,0:0:0:0:
181,243,236097,1,0,3:0:0:0:
207,239,236184,1,0,1:0:0:0:
117,356,236357,1,0,1:0:0:0:
64,218,236531,2,0,P|63:165|81:131,1,90,0|0,0:0|0:0,0:0:0:0:
277,195,236878,6,0,P|209:244|145:191,1,180,4|0,0:0|0:0,0:0:0:0:
203,53,237398,1,0,0:0:0:0:
284,263,237571,2,0,P|322:277|387:262,1,90,0|0,1:0|0:0,0:0:0:0:
455,203,237918,1,2,0:0:0:0:
385,370,238092,1,0,0:0:0:0:
455,203,238265,6,0,P|400:165|335:177,1,135,2|0,0:0|0:0,0:0:0:0:
457,289,238612,2,0,P|467:245|455:203,1,90
317,90,238959,1,0,1:0:0:0:
455,203,239132,1,0,1:0:0:0:
499,69,239305,1,0,0:0:0:0:
381,248,239479,1,0,0:0:0:0:
235,118,239652,6,0,P|256:44|317:90,1,180,8|0,0:0|0:0,0:0:0:0:
167,171,240172,1,0,0:0:0:0:
399,116,240346,5,0,1:0:0:0:
341,264,240519,1,0,0:0:0:0:
242,139,240693,5,0,1:0:0:0:
435,236,240866,1,0,1:0:0:0:
423,21,241040,5,4,1:2:0:0:
341,264,241213,1,0,3:0:0:0:
342,304,241300,1,0,3:0:0:0:
363,338,241386,1,0,1:0:0:0:
428,144,241560,1,0,1:0:0:0:
227,246,241733,5,4,1:0:0:0:
459,324,241907,1,0,3:0:0:0:
338,84,242080,5,0,1:0:0:0:
249,356,242253,1,0,3:0:0:0:
420,82,242427,6,0,P|377:19|338:83,1,180,4|0,0:0|0:0,0:0:0:0:
432,212,242947,1,0,0:0:0:0:
241,105,243120,1,0,1:0:0:0:
358,231,243294,1,0,0:0:0:0:
309,48,243467,1,0,0:0:0:0:
365,259,243641,6,0,P|421:295|511:231,1,180,2|2,0:0|0:0,0:0:0:0:
384,162,244161,1,0,0:0:0:0:
312,343,244334,2,0,P|263:353|223:341,1,90,0|0,0:0|1:0,0:0:0:0:
432,212,244681,5,0,1:0:0:0:
298,306,244855,1,0,0:0:0:0:
241,105,245028,1,0,0:0:0:0:
213,328,245201,6,0,P|179:363|96:366,1,135,4|0,1:0|0:0,0:0:0:0:
17,334,245548,1,0,0:0:0:0:
311,286,245722,6,0,P|351:242|354:188,1,90,4|0,0:0|0:0,0:0:0:0:
135,285,246068,1,0,1:0:0:0:
283,142,246242,1,0,1:0:0:0:
376,383,246415,6,0,P|319:350|311:286,1,135,4|0,1:0|0:0,0:0:0:0:
357,214,246762,1,0,3:0:0:0:
213,328,246935,1,0,1:0:0:0:
319,128,247109,1,0,1:0:0:0:
387,308,247282,5,0,3:0:0:0:
444,258,247398,1,0,3:0:0:0:
447,182,247513,1,0,3:0:0:0:
395,128,247629,5,0,3:0:0:0:
319,128,247745,1,0,3:0:0:0:
267,184,247860,1,0,0:0:0:0:
272,260,247976,6,0,P|343:197|319:131,1,135,4|0,0:0|0:0,0:0:0:0:
204,227,248323,2,0,P|202:292|249:332,1,90,0|0,0:0|0:0,0:0:0:0:
414,135,248670,2,0,P|385:100|342:88,1,90,0|0,1:0|0:0,0:0:0:0:
272,260,249016,6,0,P|353:288|418:232,1,180,4|0,1:0|0:0,0:0:0:0:
325,134,249537,1,0,0:0:0:0:
250,284,249710,2,0,P|201:308|165:307,1,90,0|0,1:0|0:0,0:0:0:0:
33,228,250057,5,0,1:0:0:0:
0,160,250172,1,0,3:0:0:0:
0,84,250288,1,0,3:0:0:0:
51,28,250404,5,0,3:0:0:0:
71,102,250519,1,0,3:0:0:0:
53,176,250635,1,0,0:0:0:0:
0,232,250750,6,0,B|49:200|82:236|129:208,1,135,4|0,0:0|0:0,0:0:0:0:
168,140,251097,1,0,0:0:0:0:
81,296,251271,1,0,0:0:0:0:
43,51,251444,5,0,1:0:0:0:
130,207,251618,1,0,0:0:0:0:
227,27,251791,5,0,1:0:0:0:
81,296,251964,2,0,P|134:358|248:331,1,180,4|0,1:0|0:0,0:0:0:0:
248,329,252398,1,0,3:0:0:0:
257,298,252485,1,0,1:0:0:0:
227,192,252658,1,0,0:0:0:0:
248,329,252831,5,4,1:0:0:0:
302,352,252918,5,0,3:0:0:0:
359,338,253005,5,0,3:0:0:0:
396,292,253092,5,0,3:0:0:0:
399,234,253178,5,4,3:1:0:0:
366,185,253265,5,0,3:0:0:0:
342,132,253352,5,0,3:0:0:0:
357,75,253438,5,0,3:0:0:0:
404,39,253525,6,0,P|499:72|488:171,1,180,4|0,0:0|0:0,0:0:0:0:
461,239,254045,1,0,0:0:0:0:
281,116,254219,2,0,B|208:93|151:124|151:124|263:186,1,180,0|0,1:0|0:0,0:0:0:0:
353,181,254739,6,0,P|382:109|304:16,1,180,2|2,0:0|0:0,0:0:0:0:
284,230,255259,2,0,P|274:273|289:315,1,90,0|0,0:0|0:0,0:0:0:0:
492,187,255606,1,0,1:0:0:0:
281,116,255779,1,0,1:0:0:0:
359,267,255953,2,0,P|368:223|353:181,1,90,0|0,0:0|0:0,0:0:0:0:
177,62,256300,6,0,P|168:149|222:218,1,180,2|0,0:0|0:0,0:0:0:0:
330,253,256820,1,0,0:0:0:0:
127,129,256993,1,0,1:0:0:0:
252,201,257167,1,0,0:0:0:0:
131,283,257340,1,0,0:0:0:0:
292,87,257513,6,0,P|344:55|441:104,1,180,2|2,0:0|0:0,0:0:0:0:
397,294,258034,1,0,0:0:0:0:
349,194,258207,1,0,3:0:0:0:
350,167,258294,1,0,3:0:0:0:
362,143,258381,1,0,1:0:0:0:
218,223,258554,1,0,0:0:0:0:
435,196,258727,1,0,1:0:0:0:
242,97,258901,1,0,1:0:0:0:
253,315,259074,6,0,P|303:270|286:149,1,180,4|0,0:0|0:0,0:0:0:0:
337,371,259594,1,0,0:0:0:0:
218,223,259768,2,0,P|159:204|123:214,1,90,0|0,1:0|0:0,0:0:0:0:
298,164,260115,1,0,0:0:0:0:
223,316,260288,1,0,0:0:0:0:
226,111,260461,6,0,P|285:75|346:87,1,135,2|0,0:0|0:0,0:0:0:0:
369,109,260808,1,2,0:0:0:0:
240,4,260982,1,0,0:0:0:0:
298,164,261155,1,0,1:0:0:0:
373,7,261329,5,0,1:0:0:0:
149,82,261502,1,0,3:0:0:0:
326,238,261675,1,0,3:0:0:0:
329,83,261849,6,0,P|387:34|408:107,1,180,8|0,0:0|0:0,0:0:0:0:
350,212,262369,1,0,0:0:0:0:
236,45,262542,2,0,P|185:36|141:50,1,90,0|0,1:0|0:0,0:0:0:0:
329,83,262889,1,0,1:0:0:0:
186,247,263063,1,0,1:0:0:0:
236,45,263236,5,4,1:2:0:0:
284,271,263409,1,0,3:0:0:0:
274,300,263496,1,0,3:0:0:0:
253,323,263583,1,0,1:0:0:0:
265,122,263756,1,0,3:0:0:0:
100,270,263930,5,4,1:0:0:0:
341,284,264103,1,0,1:0:0:0:
166,87,264276,5,0,1:0:0:0:
150,369,264450,1,0,3:0:0:0:
309,136,264623,6,0,P|251:72|167:87,1,180,4|0,0:0|3:0,3:3:0:0:
90,251,265144,1,0,0:0:0:0:
103,31,265317,2,0,P|143:50|167:88,1,90,0|0,1:0|0:0,0:0:0:0:
182,275,265664,1,0,0:0:0:0:
89,111,265837,6,0,P|36:119|103:182,1,180,2|2,0:0|0:0,0:0:0:0:
264,109,266357,1,0,0:0:0:0:
180,262,266531,1,0,0:0:0:0:
89,111,266704,1,0,1:0:0:0:
208,378,266878,5,0,1:0:0:0:
6,288,267051,1,0,0:0:0:0:
188,148,267224,1,0,0:0:0:0:
71,232,267398,6,0,P|54:171|111:146,1,135,4|0,1:0|0:0,0:0:0:0:
157,222,267745,1,0,1:0:0:0:
280,69,267918,6,0,P|279:135|240:189,1,134.999996423721,4|0,0:0|0:0,0:0:0:0:
157,222,268265,1,0,1:0:0:0:
369,278,268438,1,0,1:0:0:0:
183,106,268612,6,0,P|211:31|281:71,1,179.999995231629,4|0,1:0|0:0,0:0:0:0:
248,200,269132,2,0,P|252:178|261:158,1,44.9999988079071,0|0,1:0|0:0,0:0:0:0:
421,76,269305,2,0,P|428:97|431:119,1,44.9999988079071,0|0,1:0|0:0,0:0:0:0:
387,273,269479,5,0,1:0:0:0:
315,305,269594,1,0,3:0:0:0:
239,289,269710,1,0,3:0:0:0:
175,241,269826,5,0,3:0:0:0:
99,225,269941,1,0,3:0:0:0:
35,269,270057,1,0,0:0:0:0:
23,349,270172,6,0,P|84:327|109:267,1,134.999996423721,4|0,0:0|0:0,0:0:0:0:
126,115,270519,2,0,P|150:152|151:197,1,89.9999976158143,0|0,0:0|0:0,0:0:0:0:
11,201,270866,2,0,P|8:156|30:118,1,89.9999976158143,0|0,1:0|0:0,0:0:0:0:
195,269,271213,6,0,P|267:277|331:197,1,179.999995231629,4|0,1:0|0:0,0:0:0:0:
319,93,271733,1,0,0:0:0:0:
367,325,271907,2,0,P|419:349|467:341,1,89.9999976158143,0|0,1:0|0:0,0:0:0:0:
496,172,272253,5,0,1:0:0:0:
424,207,272369,1,0,3:0:0:0:
344,201,272485,1,0,3:0:0:0:
278,155,272600,5,0,3:0:0:0:
245,82,272716,1,0,3:0:0:0:
244,4,272831,1,0,3:0:0:0:
314,41,272947,6,0,P|322:106|279:155,1,134.999996423721,4|0,0:0|0:0,0:0:0:0:
198,147,273294,1,0,0:0:0:0:
285,321,273467,1,0,1:0:0:0:
245,82,273641,5,0,1:0:0:0:
141,291,273814,1,2,0:0:0:0:
412,164,273987,5,0,1:2:0:0:
64,224,274161,2,0,B|-11:190|9:62|132:66|201:145|197:197|65:239|74:305|99:337|126:393|193:356,1,494.999986886978,4|0,0:0|0:0,0:0:0:0:
285,161,276242,6,0,P|223:195|261:256,1,158.823529411765,8|0,0:0|0:0,0:0:0:0:
260,256,277109,6,0,P|336:244|380:152,1,179.999995231628,4|0,0:0|0:0,0:0:0:0:
300,360,277629,1,0,0:0:0:0:
173,183,277803,2,0,P|130:171|86:173,1,89.9999976158142,0|0,1:0|0:0,0:0:0:0:
116,300,278149,1,0,0:0:0:0:
216,103,278323,6,0,P|130:100|85:174,1,179.999995231628,4|0,1:0|0:0,0:0:0:0:
368,72,278843,2,0,P|420:68|460:84,1,89.9999976158142,0|0,1:0|0:0,0:0:0:0:
360,284,279190,5,4,0:0:0:0:
344,207,279305,1,0,0:0:0:0:
403,154,279421,1,0,0:0:0:0:
420,232,279537,5,0,3:0:0:0:
360,284,279652,1,0,3:0:0:0:
284,304,279768,1,0,0:0:0:0:
208,288,279883,6,0,B|148:272|124:200|124:200|110:250,1,179.999995231629,4|0,1:0|0:0,0:0:0:0:
88,360,280404,1,0,0:0:0:0:
248,168,280577,1,0,1:0:0:0:
2,126,280750,1,0,0:0:0:0:
110,251,280924,1,0,0:1:0:0:
180,88,281097,6,0,P|256:64|340:120,1,179.999995231629,4|0,1:0|0:0,0:0:0:0:
246,212,281618,2,0,P|244:189|248:167,1,44.9999988079071,0|0,1:0|3:0,0:0:0:0:
432,76,281791,2,0,P|438:97|440:119,1,44.9999988079071,0|0,3:0|3:0,0:0:0:0:
340,288,281964,5,0,3:0:0:0:
353,238,282051,1,0,3:0:0:0:
392,204,282138,1,0,3:0:0:0:
440,344,282311,1,0,0:0:0:0:
437,327,282398,1,0,0:0:0:0:
428,312,282485,1,0,0:0:0:0:
300,364,282658,5,4,1:0:0:0:
324,144,282831,1,0,0:0:0:0:
260,223,283178,5,0,1:0:0:0:
292,184,283265,1,0,1:0:0:0:
324,144,283352,1,4,1:0:0:0:
373,254,283525,5,0,3:0:0:0:
275,34,283698,1,0,3:0:0:0:
149,282,283872,6,0,P|81:293|106:214,1,179.999995231629,4|0,0:0|0:0,0:0:0:0:
102,214,284305,1,0,0:0:0:0:
102,214,284392,1,0,1:0:0:0:
203,352,284566,1,0,0:0:0:0:
200,208,284739,5,4,1:0:0:0:
200,129,284855,1,0,3:0:0:0:
132,90,284970,1,0,3:0:0:0:
64,129,285086,5,0,3:0:0:0:
63,207,285201,1,0,0:0:0:0:
132,247,285317,1,0,0:0:0:0:
200,208,285433,5,4,0:0:0:0:
439,268,285606,1,0,0:0:0:0:
378,176,285953,5,0,1:0:0:0:
408,222,286040,1,0,1:0:0:0:
439,268,286126,1,4,1:0:0:0:
483,156,286300,5,0,0:0:0:0:
327,297,286473,1,0,0:0:0:0:
345,93,286646,6,0,P|431:87|483:157,1,179.999995231629,4|0,0:0|1:0,0:0:0:0:
250,56,287167,1,0,1:0:0:0:
232,268,287340,2,0,P|219:302|199:325,1,44.9999988079071,4|0,0:1|0:0,0:0:0:0:
112,324,287513,1,0,3:0:0:0:
83,296,287600,1,0,3:0:0:0:
71,257,287687,1,0,3:0:0:0:
79,218,287774,1,0,3:0:0:0:
106,188,287860,5,0,3:0:0:0:
149,173,287947,1,0,0:0:0:0:
149,129,288034,1,0,0:0:0:0:
106,115,288120,1,0,0:0:0:0:
80,151,288207,5,4,1:0:0:0:
346,58,288381,1,0,0:0:0:0:
277,205,288727,5,0,1:0:0:0:
310,131,288814,1,0,1:0:0:0:
346,58,288901,1,4,1:2:0:0:
213,105,289074,5,0,0:0:0:0:
341,305,289248,1,0,0:0:0:0:
103,315,289421,6,0,P|141:257|264:253,1,179.999995231629,4|0,1:0|0:0,0:0:0:0:
281,384,289941,2,0,P|238:372|206:342,1,89.9999976158143,0|0,1:0|0:0,0:0:0:0:
209,82,290288,5,0,1:0:0:0:
286,49,290404,1,0,3:0:0:0:
369,65,290519,1,0,3:0:0:0:
429,124,290635,5,0,3:0:0:0:
449,205,290750,1,0,3:0:0:0:
422,284,290866,1,0,3:0:0:0:
362,353,290982,5,4,0:0:0:0:
409,83,291155,1,0,0:0:0:0:
410,223,291502,5,0,1:0:0:0:
340,195,291589,1,0,1:0:0:0:
270,167,291675,1,4,1:0:0:0:
429,124,291854,5,0,1:0:0:0:
250,266,292034,1,0,0:0:0:0:
105,70,292213,5,12,0:0:0:0:
178,47,292826,5,0,0:0:0:0:
222,109,293340,5,10,0:0:0:0:
178,171,293928,5,0,0:0:0:0:
104,145,294520,6,0,B|64:112|2:123|-10:181|44:277|133:287|133:287|196:238|205:155|180:107|180:107|267:190|340:188|395:117|454:137|454:137|472:162|472:162|453:186|453:186|424:176|424:176|424:147,1,900,8|10,0:0|0:0,0:0:0:0:
256,192,297638,12,0,304024,0:0:0:0:
