osu file format v14

[General]
AudioFilename: audio.mp3
AudioLeadIn: 0
PreviewTime: 138602
Countdown: 0
SampleSet: Soft
StackLeniency: 0.5
Mode: 0
LetterboxInBreaks: 0
WidescreenStoryboard: 1

[Editor]
Bookmarks: 0,2781,11797,24354,40533,62106,78286,80983,82668,82752,82921,83089,83342,83679,94466,105253,110646,113258,113342,113343,113427,115196,115280,115365,116039,125309,125393,125477,126825,134241,137612,138539,148399,156488,159185,169972,172668,183455,194241,205028,217163,217500,227949,238736,241432,244129,246825,249522
DistanceSpacing: 1
BeatDivisor: 4
GridSize: 32
TimelineZoom: 2.4

[Metadata]
Title:Azurite no Hitsugi (Artethia Remix)
TitleUnicode:アズライトの棺 (Artethia Remix)
Artist:Ayane
ArtistUnicode:アヤネ
Creator:Lasse
Version:Normal
Source:水葬銀貨のイストリア
Tags:japanese electronic drumstep dnb Suisou Ginka no Istoria opening eroge visual novel meto
BeatmapID:4479249
BeatmapSetID:2129263

[Difficulty]
HPDrainRate:2.8
CircleSize:3.4
OverallDifficulty:4.8
ApproachRate:6
SliderMultiplier:1.04
SliderTickRate:1

[Events]
//Background and Video events
0,0,"CG12_06.jpg",0,0
//Break Periods
2,83679,87686
//Storyboard Layer 0 (Background)
//Storyboard Layer 1 (Fail)
//Storyboard Layer 2 (Pass)
//Storyboard Layer 3 (Foreground)
//Storyboard Layer 4 (Overlay)
//Storyboard Sound Samples

[TimingPoints]
2781,337.078651685393,4,2,1,65,1,0
3033,-100,4,2,1,30,0,0
3118,-100,4,2,1,65,0,0
4045,-100,4,2,1,30,0,0
4129,-100,4,2,1,65,0,0
5730,-100,4,2,1,30,0,0
5814,-100,4,2,1,65,0,0
8427,-100,4,2,1,30,0,0
8511,-100,4,2,1,65,0,0
11123,-100,4,2,1,30,0,0
11207,-100,4,2,1,65,0,0
13820,-100,4,2,1,30,0,0
13904,-100,4,2,1,65,0,0
18960,-100,4,2,1,54,0,0
19297,-100,4,2,1,56,0,0
19634,-100,4,2,1,58,0,0
19972,-100,4,2,1,60,0,0
20309,-100,4,2,1,62,0,0
20646,-100,4,2,1,64,0,0
20983,-100,4,2,1,66,0,0
21320,-100,4,2,1,68,0,0
21657,-100,4,2,1,70,0,0
22668,-100,4,2,1,65,0,0
23005,-100,4,2,1,70,0,0
23342,-100,4,2,1,65,0,0
23511,-100,4,2,1,70,0,0
23848,-100,4,2,1,60,0,0
24185,-100,4,2,1,65,0,0
24354,-100,4,2,1,70,0,0
24606,-100,4,2,1,30,0,0
24691,-100,4,2,1,70,0,0
35140,-100,4,2,1,65,0,0
35477,-100,4,2,1,55,0,0
36151,-100,4,2,1,60,0,0
36236,-100,4,2,1,5,0,0
36825,-100,4,2,1,50,0,0
37837,-100,4,2,1,55,0,0
38174,-100,4,2,1,45,0,0
38848,-100,4,2,1,55,0,0
39016,-100,4,2,1,5,0,0
39522,-100,4,2,1,45,0,0
39859,-100,4,2,1,40,0,0
40196,-100,4,2,1,35,0,0
40533,-111.111111111111,4,2,1,55,0,0
40618,-111.111111111111,4,2,2,55,0,0
50224,-111.111111111111,4,2,2,20,0,0
50309,-111.111111111111,4,2,2,55,0,0
52921,-111.111111111111,4,2,2,20,0,0
53005,-111.111111111111,4,2,2,55,0,0
55618,-111.111111111111,4,2,2,20,0,0
55701,-111.111111111111,4,2,2,55,0,0
58314,-111.111111111111,4,2,2,20,0,0
58398,-111.111111111111,4,2,2,55,0,0
59410,-111.111111111111,4,2,1,60,0,0
59747,-111.111111111111,4,2,1,62,0,0
60084,-111.111111111111,4,2,1,64,0,0
60421,-111.111111111111,4,2,1,66,0,0
60758,-111.111111111111,4,2,1,68,0,0
61264,-111.111111111111,4,2,1,64,0,0
61769,-111.111111111111,4,2,1,70,0,0
62106,-100,4,2,1,65,0,0
62359,-100,4,2,1,30,0,0
62443,-100,4,2,1,60,0,0
65056,-100,4,2,1,30,0,0
65140,-100,4,2,1,60,0,0
67752,-100,4,2,1,30,0,0
67837,-100,4,2,1,60,0,0
70449,-100,4,2,1,30,0,0
70534,-100,4,2,1,60,0,0
73146,-100,4,2,1,30,0,0
73230,-100,4,2,1,60,0,0
75842,-100,4,2,1,30,0,0
75926,-100,4,2,1,60,0,0
78286,-100,4,2,1,65,0,0
78539,-100,4,2,1,30,0,0
78623,-100,4,2,1,65,0,0
79634,-100,4,2,1,70,0,0
79972,-100,4,2,1,65,0,0
80309,-100,4,2,1,66,0,0
80646,-100,4,2,1,72,0,0
80983,-100,4,2,1,70,0,0
82668,-100,4,2,1,10,0,0
82752,-100,4,2,1,10,0,0
83174,-100,4,2,1,25,0,0
83679,-100,4,2,2,50,0,0
88736,-100,4,2,1,45,0,0
89073,-125,4,2,1,48,0,0
94297,-117.647058823529,4,2,1,48,0,0
94466,-117.647058823529,4,2,1,50,0,0
99859,-117.647058823529,4,2,1,52,0,0
102556,-117.647058823529,4,2,1,54,0,0
104241,-117.647058823529,4,2,1,55,0,0
104578,-117.647058823529,4,2,1,40,0,0
104747,-117.647058823529,4,2,1,44,0,0
104915,-117.647058823529,4,2,1,42,0,0
105252,-100,4,2,1,65,0,0
105505,-100,4,2,1,30,0,0
105589,-100,4,2,3,65,0,0
105927,-100,4,2,1,65,0,0
106938,-100,4,2,3,65,0,0
107275,-100,4,2,1,65,0,0
107612,-100,4,2,3,65,0,0
107949,-100,4,2,1,65,0,0
108286,-100,4,2,3,65,0,0
108455,-100,4,2,1,65,0,0
108876,-100,4,2,1,30,0,0
108960,-100,4,2,3,65,0,0
109297,-100,4,2,1,65,0,0
109634,-100,4,2,3,65,0,0
109803,-100,4,2,1,65,0,0
110224,-100,4,2,1,30,0,0
110309,-100,4,2,3,60,0,0
110646,-100,4,2,1,60,0,0
110983,-100,4,2,1,62,0,0
111320,-100,4,2,1,64,0,0
111657,-100,4,2,1,66,0,0
111994,-100,4,2,2,68,0,0
112247,-100,4,2,2,50,0,0
112331,-100,4,2,2,68,0,0
112415,-100,4,2,2,50,0,0
112500,-100,4,2,2,68,0,0
112584,-100,4,2,2,50,0,0
112668,-100,4,2,2,60,0,0
112752,-100,4,2,2,61,0,0
112837,-100,4,2,2,62,0,0
112921,-100,4,2,2,63,0,0
113005,-100,4,2,2,64,0,0
113089,-100,4,2,2,65,0,0
113174,-100,4,2,2,66,0,0
113258,-100,4,2,2,67,0,0
113342,-100,4,2,2,68,0,0
116039,-90.9090909090909,4,2,3,75,0,1
116292,-90.9090909090909,4,2,1,30,0,1
116376,-90.9090909090909,4,2,1,75,0,1
116629,-90.9090909090909,4,2,1,30,0,1
116713,-90.9090909090909,4,2,1,75,0,1
119157,-90.9090909090909,4,2,1,30,0,1
119241,-90.9090909090909,4,2,1,75,0,1
119410,-90.9090909090909,4,2,3,75,0,1
119747,-90.9090909090909,4,2,1,75,0,1
121095,-90.9090909090909,4,2,3,75,0,1
121179,-90.9090909090909,4,2,3,60,0,1
121263,-90.9090909090909,4,2,3,70,0,1
121432,-90.9090909090909,4,2,1,75,0,1
122359,-90.9090909090909,4,2,1,30,0,1
122443,-90.9090909090909,4,2,1,75,0,1
123539,-90.9090909090909,4,2,1,60,0,1
123623,-90.9090909090909,4,2,1,65,0,0
123792,-90.9090909090909,4,2,1,70,0,0
124129,-90.9090909090909,4,2,1,75,0,1
124382,-90.9090909090909,4,2,1,30,0,1
124466,-90.9090909090909,4,2,1,75,0,1
124972,-90.9090909090909,4,2,1,70,0,0
125224,-90.9090909090909,4,2,1,30,0,0
125309,-90.9090909090909,4,2,1,80,0,1
125477,-90.9090909090909,4,2,1,80,0,0
125814,-100,4,2,1,65,0,0
126151,-100,4,2,1,70,0,0
126488,-100,4,2,1,60,0,0
126825,-90.9090909090909,4,2,3,75,0,1
127078,-90.9090909090909,4,2,1,30,0,1
127163,-90.9090909090909,4,2,1,75,0,1
127415,-90.9090909090909,4,2,1,30,0,1
127499,-90.9090909090909,4,2,1,75,0,1
129943,-90.9090909090909,4,2,1,30,0,1
130028,-90.9090909090909,4,2,1,75,0,1
131882,-90.9090909090909,4,2,3,75,0,1
132219,-90.9090909090909,4,2,1,75,0,1
135168,-90.9090909090909,4,2,1,30,0,1
135252,-90.9090909090909,4,2,1,75,0,1
135842,-90.9090909090909,4,2,1,30,0,1
135926,-90.9090909090909,4,2,1,75,0,1
136348,-90.9090909090909,4,2,1,30,0,1
136432,-90.9090909090909,4,2,1,60,0,0
137612,-90.9090909090909,4,2,3,75,0,1
137865,-90.9090909090909,4,2,1,30,0,1
137949,-90.9090909090909,4,2,1,75,0,1
138202,-90.9090909090909,4,2,1,30,0,1
138286,-90.9090909090909,4,2,1,75,0,1
139045,-90.9090909090909,4,2,1,50,0,1
139129,-90.9090909090909,4,2,1,75,0,1
140561,-90.9090909090909,4,2,1,30,0,1
140646,-90.9090909090909,4,2,1,75,0,1
140898,-90.9090909090909,4,2,1,30,0,1
140983,-90.9090909090909,4,2,1,75,0,1
141741,-90.9090909090909,4,2,1,30,0,1
141825,-90.9090909090909,4,2,1,75,0,1
143932,-90.9090909090909,4,2,1,30,0,1
144016,-90.9090909090909,4,2,1,75,0,1
145280,-90.9090909090909,4,2,1,30,0,1
145365,-90.9090909090909,4,2,1,75,0,1
145955,-90.9090909090909,4,2,1,30,0,1
146039,-90.9090909090909,4,2,1,75,0,1
146629,-90.9090909090909,4,2,1,30,0,1
146713,-90.9090909090909,4,2,1,75,0,1
148061,-90.9090909090909,4,2,4,75,0,1
148314,-90.9090909090909,4,2,4,75,0,0
148398,-90.9090909090909,4,2,3,75,0,1
148651,-90.9090909090909,4,2,1,30,0,1
148736,-90.9090909090909,4,2,1,75,0,1
148988,-90.9090909090909,4,2,1,30,0,1
149072,-90.9090909090909,4,2,1,75,0,1
151348,-90.9090909090909,4,2,1,30,0,1
151432,-90.9090909090909,4,2,1,75,0,1
151685,-90.9090909090909,4,2,1,30,0,1
151770,-90.9090909090909,4,2,1,75,0,1
152528,-90.9090909090909,4,2,1,30,0,1
152612,-90.9090909090909,4,2,1,75,0,1
153623,-90.9090909090909,4,2,1,65,0,1
153792,-90.9090909090909,4,2,1,75,0,1
154719,-90.9090909090909,4,2,1,30,0,1
154803,-90.9090909090909,4,2,1,75,0,1
156067,-90.9090909090909,4,2,1,30,0,1
156151,-90.9090909090909,4,2,1,75,0,0
156488,-90.9090909090909,4,2,1,70,0,1
156573,-90.9090909090909,4,2,1,70,0,0
158511,-90.9090909090909,4,2,1,40,0,0
159185,-100,4,2,4,65,0,0
159522,-100,4,2,4,60,0,0
160533,-100,4,2,4,62,0,0
161882,-100,4,2,4,64,0,0
163230,-100,4,2,4,66,0,0
164578,-100,4,2,4,70,0,0
164831,-100,4,2,4,30,0,0
164915,-100,4,2,4,68,0,0
165927,-100,4,2,4,70,0,0
167275,-100,4,2,4,72,0,0
167949,-100,4,2,4,74,0,0
168623,-100,4,2,4,76,0,0
169972,-100,4,2,4,40,0,0
171994,-100,4,2,43,70,0,0
172668,-90.9090909090909,4,2,3,75,0,1
172674,-90.9090909090909,4,2,2,50,0,1
173342,-90.9090909090909,4,2,1,70,0,1
174101,-90.9090909090909,4,2,1,30,0,1
174185,-90.9090909090909,4,2,1,75,0,1
181011,-90.9090909090909,4,2,1,30,0,1
181095,-90.9090909090909,4,2,1,75,0,1
182191,-90.9090909090909,4,2,1,30,0,1
182275,-90.9090909090909,4,2,1,75,0,1
183118,-90.9090909090909,4,2,1,60,0,0
183455,-90.9090909090909,4,2,3,75,0,1
183461,-90.9090909090909,4,2,2,50,0,1
184129,-90.9090909090909,4,2,1,75,0,1
184887,-90.9090909090909,4,2,1,30,0,1
184972,-90.9090909090909,4,2,1,75,0,1
186404,-90.9090909090909,4,2,1,30,0,1
186488,-90.9090909090909,4,2,1,75,0,1
188511,-90.9090909090909,4,2,4,75,0,1
188848,-90.9090909090909,4,2,1,75,0,1
189101,-90.9090909090909,4,2,1,30,0,1
189185,-90.9090909090909,4,2,1,75,0,1
189866,-90.9090909090909,4,2,2,70,0,1
190534,-90.9090909090909,4,2,1,75,0,1
191797,-90.9090909090909,4,2,1,30,0,1
191882,-90.9090909090909,4,2,1,75,0,1
192050,-90.9090909090909,4,2,1,65,0,1
192219,-90.9090909090909,4,2,1,75,0,1
192724,-90.9090909090909,4,2,1,75,0,0
193061,-90.9090909090909,4,2,4,66,0,0
193230,-90.9090909090909,4,2,4,68,0,0
193567,-90.9090909090909,4,2,4,72,0,0
193904,-90.9090909090909,4,2,4,76,0,0
194241,-90.9090909090909,4,2,3,75,0,1
194494,-90.9090909090909,4,2,3,30,0,1
194578,-90.9090909090909,4,2,1,75,0,1
195674,-90.9090909090909,4,2,3,30,0,1
195758,-90.9090909090909,4,2,1,75,0,1
199887,-90.9090909090909,4,2,3,30,0,1
199971,-90.9090909090909,4,2,1,75,0,1
204691,-90.9090909090909,4,2,1,65,0,0
205028,-90.9090909090909,4,2,3,75,0,1
205280,-90.9090909090909,4,2,3,30,0,1
205365,-90.9090909090909,4,2,1,75,0,1
206460,-90.9090909090909,4,2,3,30,0,1
206544,-90.9090909090909,4,2,1,75,0,1
207977,-90.9090909090909,4,2,3,30,0,1
208061,-90.9090909090909,4,2,1,75,0,1
208483,-90.9090909090909,4,2,3,30,0,1
208567,-90.9090909090909,4,2,1,75,0,1
209157,-90.9090909090909,4,2,3,30,0,1
209241,-90.9090909090909,4,2,1,75,0,1
210674,-90.9090909090909,4,2,3,30,0,1
210758,-90.9090909090909,4,2,1,75,0,1
213370,-90.9090909090909,4,2,3,30,0,1
213455,-90.9090909090909,4,2,1,75,0,1
216151,-90.9090909090909,4,2,1,70,0,1
216657,-90.9090909090909,4,2,1,65,0,1
216993,-90.9090909090909,4,2,1,60,0,1
217163,-90.9090909090909,4,2,1,60,0,0
217500,-90.9090909090909,4,2,1,75,0,1
217584,-90.9090909090909,4,2,1,75,0,0
217668,-100,4,2,1,70,0,0
217921,-100,4,2,1,30,0,0
218005,-100,4,2,1,70,0,0
225505,-100,4,2,1,30,0,0
225589,-100,4,2,1,70,0,0
226601,-111.111111111111,4,2,1,60,0,0
227949,-100,4,2,1,70,0,1
228033,-100,4,2,1,70,0,0
228202,-100,4,2,1,30,0,0
228286,-100,4,2,1,70,0,0
238736,-100,4,2,1,65,0,0
240084,-100,4,2,1,5,0,0
240927,-100,4,2,1,60,0,0
241011,-100,4,2,1,20,0,0
241095,-100,4,2,1,65,0,0
241432,-100,4,2,1,70,0,0

[Colours]
Combo1 : 148,157,248
Combo2 : 4,136,200
Combo3 : 113,113,255
Combo4 : 61,174,194

[HitObjects]
7,199,2781,6,0,P|57:206|105:187,1,104,6|8,1:2|2:0,2:0:0:0:
152,165,3286,1,2,2:0:0:0:
200,262,3623,1,0,1:2:0:0:
200,262,3792,2,0,P|247:280|298:273,1,104,10|2,2:0|1:2,2:0:0:0:
387,218,4466,2,0,L|400:92,1,104,8|2,2:0|2:0,2:0:0:0:
404,66,4972,1,0,1:2:0:0:
404,66,5140,1,8,2:0:0:0:
300,50,5477,6,0,L|287:176,1,104,2|8,1:2|2:0,2:0:0:0:
267,200,5983,2,0,L|256:303,1,104,2|0,2:0|1:2,2:0:0:0:
239,352,6488,1,10,2:0:0:0:
139,380,6825,1,2,1:2:0:0:
63,308,7163,2,0,L|74:205,1,104,8|2,2:0|2:0,2:0:0:0:
83,157,7668,1,0,1:2:0:0:
83,157,7836,1,8,2:0:0:0:
165,220,8174,6,0,B|216:228|216:228|268:198,1,104,2|8,1:2|2:0,2:0:0:0:
304,173,8679,1,2,2:0:0:0:
393,236,9016,1,0,1:2:0:0:
393,236,9185,2,0,L|384:341,1,104,10|2,2:0|1:2,2:0:0:0:
481,376,9859,2,0,L|490:271,1,104,8|2,2:0|2:0,2:0:0:0:
499,224,10365,1,0,1:2:0:0:
499,224,10533,1,8,2:0:0:0:
445,134,10870,6,0,P|396:117|344:119,1,104,2|8,1:2|2:0,2:0:0:0:
295,137,11376,2,0,P|243:139|194:122,1,104,2|0,2:0|1:2,2:0:0:0:
152,93,11881,1,10,2:0:0:0:
53,127,12219,2,0,P|34:171|36:240,2,104,2|8|0,1:2|2:0|2:0,2:0:0:0:
93,94,13061,1,0,1:2:0:0:
93,94,13229,1,8,2:0:0:0:
189,133,13567,6,0,B|240:147|240:147|301:129,1,104,2|8,1:2|2:0,2:0:0:0:
335,110,14072,1,2,2:0:0:0:
437,146,14409,1,0,1:2:0:0:
437,146,14578,2,0,B|451:198|451:198|430:252,1,104,10|2,2:0|1:2,2:0:0:0:
364,322,15252,2,0,B|328:314|328:314|305:321|305:321|248:308,1,104,8|2,2:0|2:0,2:0:0:0:
212,298,15758,1,0,1:2:0:0:
212,298,15926,1,8,2:0:0:0:
125,355,16263,6,0,P|76:365|41:330,1,104,2|8,1:2|2:0,2:0:0:0:
31,278,16769,2,0,P|25:221|14:166,1,104,2|0,2:0|1:2,2:0:0:0:
40,129,17274,1,10,2:0:0:0:
135,88,17611,1,2,1:2:0:0:
204,165,17949,2,0,P|194:216|189:267,1,104,8|0,2:0|2:0,2:0:0:0:
224,305,18454,1,0,1:2:0:0:
224,305,18622,1,8,2:0:0:0:
318,261,18960,6,0,P|379:253|444:254,1,104,2|0,1:2|1:2,2:0:0:0:
505,191,19634,1,0,1:2:0:0:
506,86,19972,1,0,1:2:0:0:
411,41,20309,1,2,1:2:0:0:
331,108,20646,1,0,1:2:0:0:
345,210,20983,1,0,1:2:0:0:
269,280,21320,1,0,1:2:0:0:
269,280,21488,1,0,1:2:0:0:
269,280,21657,6,0,B|230:269|230:269|206:277|206:277|153:263,1,104,14|0,2:0|1:2,2:0:0:0:
132,304,22163,2,0,B|93:293|93:293|69:301|69:301|16:287,1,104,10|0,2:0|1:2,2:0:0:0:
3,248,22668,2,0,P|5:178|31:144,1,104,0|14,1:2|2:0,2:0:0:0:
102,84,23342,1,0,1:2:0:0:
102,84,23511,1,8,2:0:0:0:
177,155,23848,2,0,L|174:206,2,52,0|8|8,1:2|2:0|2:0,2:0:0:0:
215,120,24354,6,0,B|275:110|267:140|317:138,2,104,6|8|0,1:2|2:0|2:0,2:0:0:0:
181,88,25196,1,2,1:2:0:0:
181,88,25365,1,8,2:0:0:0:
101,155,25702,2,0,P|91:199|107:278,1,104,2|8,1:2|2:0,2:0:0:0:
119,303,26207,1,2,2:0:0:0:
213,358,26545,1,0,1:2:0:0:
213,358,26713,1,10,2:0:0:0:
304,308,27050,6,0,B|364:298|356:328|406:326,1,104,2|8,1:2|2:0,2:0:0:0:
457,346,27556,1,2,2:0:0:0:
457,346,27724,2,0,P|463:294|479:234,1,104,2|8,2:0|2:0,2:0:0:0:
445,208,28230,1,2,2:0:0:0:
445,208,28398,2,0,P|439:156|423:96,1,104,2|8,1:2|2:0,2:0:0:0:
453,63,28904,1,2,2:0:0:0:
453,63,29073,2,0,P|393:58|344:38,1,104,2|8,2:0|2:0,2:0:0:0:
252,14,29747,6,0,B|239:62|281:77|265:128,1,104,2|8,1:2|2:0,2:0:0:0:
257,168,30253,1,2,2:0:0:0:
257,168,30421,2,0,B|244:216|286:231|270:282,1,104,2|8,2:0|2:0,2:0:0:0:
257,318,30927,1,2,2:0:0:0:
257,318,31095,2,0,P|204:328|135:353,1,104,2|8,1:2|2:0,2:0:0:0:
112,368,31601,1,2,2:0:0:0:
112,368,31769,2,0,P|59:358|-10:333,1,104,2|8,2:0|2:0,2:0:0:0:
47,244,32443,6,0,P|100:234|169:209,1,104,2|8,1:2|2:0,2:0:0:0:
196,200,32949,1,2,2:0:0:0:
196,200,33118,2,0,P|199:152|218:81,1,104,2|8,2:0|2:0,2:0:0:0:
247,59,33623,1,2,2:0:0:0:
247,59,33792,2,0,P|298:71|357:74,1,104,2|8,1:2|2:0,2:0:0:0:
391,113,34297,1,2,2:0:0:0:
391,113,34466,2,0,P|441:101|493:97,1,104,2|8,2:0|2:0,2:0:0:0:
509,199,35140,6,0,P|459:211|407:215,1,104,6|8,1:2|2:0,2:0:0:0:
354,208,35646,1,2,1:2:0:0:
271,333,36151,2,0,B|256:354|256:354|208:365|129:304|176:227,1,208,6|2,1:2|2:0,2:0:0:0:
245,158,37163,1,2,1:2:0:0:
331,215,37500,1,2,1:2:0:0:
422,165,37837,6,0,P|442:122|421:55,1,104,6|8,1:2|2:0,2:0:0:0:
394,31,38342,1,2,1:2:0:0:
245,79,38848,2,0,B|196:91|130:77|183:44|108:15|57:64|89:98,1,208,6|2,1:2|2:0,2:0:0:0:
125,181,39859,1,2,2:0:0:0:
78,262,40196,1,2,2:0:0:0:
136,335,40533,6,0,P|184:342|237:314,1,93.5999971435548,6|8,1:2|2:0,2:0:0:0:
270,336,41039,2,0,P|275:294|289:239,1,93.5999971435548,2|0,2:0|1:2,2:0:0:0:
312,204,41545,1,8,2:0:0:0:
369,277,41882,2,0,P|409:296|462:285,1,93.5999971435548,2|8,1:2|2:0,2:0:0:0:
489,255,42387,1,2,2:0:0:0:
509,166,42724,1,0,1:2:0:0:
509,166,42893,1,8,2:0:0:0:
450,93,43230,6,0,L|461:30,2,46.7999985717774,2|0|8,1:2|2:0|2:0,2:0:0:0:
413,122,43736,2,0,B|368:130|368:130|316:107,1,93.5999971435548,2|0,2:0|1:2,2:0:0:0:
281,91,44241,1,8,2:0:0:0:
211,153,44578,2,0,L|100:157,2,93.5999971435548,2|8|0,1:2|2:0|2:0,2:0:0:0:
256,179,45421,1,0,1:2:0:0:
256,179,45589,1,8,2:0:0:0:
317,250,45927,6,0,P|319:272|309:310,1,46.7999985717774,2|0,1:2|2:0,2:0:0:0:
300,341,46264,1,8,2:0:0:0:
300,341,46432,2,0,P|247:343|189:359,1,93.5999971435548,2|0,2:0|1:2,2:0:0:0:
167,376,46938,1,8,2:0:0:0:
90,322,47275,1,2,1:2:0:0:
142,246,47612,1,8,2:0:0:0:
142,246,47780,2,0,P|188:244|234:234,1,93.5999971435548,0|0,2:0|1:2,2:0:0:0:
276,212,48286,1,8,2:0:0:0:
326,133,48623,6,0,P|348:140|390:141,2,46.7999985717774,2|0|8,1:2|2:0|2:0,2:0:0:0:
288,104,49129,2,0,P|242:93|195:91,1,93.5999971435548,2|0,2:0|1:2,2:0:0:0:
149,94,49634,1,8,2:0:0:0:
102,175,49972,2,0,P|56:164|9:162,2,93.5999971435548,2|8|0,1:2|2:0|2:0,2:0:0:0:
128,219,50814,1,0,1:2:0:0:
128,219,50983,1,8,2:0:0:0:
214,190,51320,6,0,L|223:127,1,46.7999985717774,2|0,1:2|2:0,2:0:0:0:
251,108,51657,1,8,2:0:0:0:
251,108,51825,2,0,B|295:120|295:120|348:106,1,93.5999971435548,2|0,2:0|1:2,2:0:0:0:
383,86,52331,1,8,2:0:0:0:
470,118,52668,2,0,L|477:217,1,93.5999971435548,2|8,1:2|2:0,2:0:0:0:
475,258,53173,1,2,2:0:0:0:
406,321,53510,1,0,1:2:0:0:
406,321,53679,1,8,2:0:0:0:
334,260,54016,6,0,L|269:254,2,46.7999985717774,2|0|8,1:2|2:0|2:0,2:0:0:0:
370,230,54522,2,0,P|388:198|370:132,1,93.5999971435548,2|0,2:0|1:2,2:0:0:0:
342,114,55027,1,8,2:0:0:0:
249,98,55364,2,0,L|235:-4,2,93.5999971435548,2|8|0,1:2|2:0|2:0,2:0:0:0:
238,146,56207,1,0,1:2:0:0:
238,146,56375,1,8,2:0:0:0:
155,101,56713,6,0,P|129:95|101:92,1,46.7999985717774,2|0,1:2|2:0,2:0:0:0:
68,110,57050,1,8,2:0:0:0:
68,110,57219,2,0,P|44:166|42:209,1,93.5999971435548,2|0,2:0|1:2,2:0:0:0:
46,244,57724,1,8,2:0:0:0:
126,291,58061,2,0,L|113:392,2,93.5999971435548,2|8|0,1:2|2:0|2:0,2:0:0:0:
162,260,58904,1,0,1:2:0:0:
162,260,59072,1,8,2:0:0:0:
235,318,59410,5,4,1:2:0:0:
325,292,59747,1,0,1:2:0:0:
296,203,60084,1,0,1:2:0:0:
386,180,60421,1,0,1:2:0:0:
357,90,60758,2,0,L|344:36,2,46.7999985717774,4|0|8,1:2|1:2|2:0,2:0:0:0:
317,115,61264,2,0,B|281:106|281:106|258:110|258:110|208:97,1,93.5999971435548,0|0,1:2|1:2,2:0:0:0:
181,85,61769,1,8,2:1:0:0:
99,149,62106,6,0,B|63:153|63:153|36:167|36:167|-22:174,2,104,6|8|2,1:2|2:0|2:0,2:0:0:0:
154,145,62949,1,0,1:2:0:0:
154,145,63118,1,8,2:0:0:0:
199,238,63455,1,0,1:2:0:0:
296,201,63792,2,0,L|310:98,1,104,8|0,2:0|2:0,2:0:0:0:
349,63,64297,1,0,1:2:0:0:
349,63,64466,1,8,2:0:0:0:
430,127,64803,6,0,L|415:229,1,104,2|8,1:2|2:0,2:0:0:0:
417,333,65477,2,0,P|394:324|354:322,1,52,2|0,2:0|1:2,2:0:0:0:
320,344,65814,2,0,P|294:341|270:331,1,52,8|0,2:0|2:0,2:0:0:0:
234,293,66151,1,2,1:2:0:0:
144,346,66488,2,0,P|92:353|32:329,1,104,8|0,2:0|2:0,2:0:0:0:
8,306,66994,1,0,1:2:0:0:
8,306,67163,1,8,2:0:0:0:
47,209,67500,6,0,L|39:104,2,104,2|8|2,1:2|2:0|2:0,2:0:0:0:
90,246,68343,1,0,1:2:0:0:
90,246,68512,1,8,2:0:0:0:
184,202,68849,1,2,1:2:0:0:
260,272,69186,2,0,B|309:289|309:289|368:277,1,104,8|0,2:0|2:0,2:0:0:0:
411,262,69691,1,0,1:2:0:0:
411,262,69860,1,8,2:0:0:0:
470,176,70197,6,0,P|459:123|455:68,1,104,2|8,1:2|2:0,2:0:0:0:
372,10,70871,2,0,P|369:38|361:68,1,52,2|0,2:0|1:2,2:0:0:0:
321,92,71208,2,0,P|297:87|267:83,1,52,8|0,2:0|2:0,2:0:0:0:
219,95,71545,1,2,1:2:0:0:
253,192,71882,2,0,B|259:215|255:240|255:240|229:259|226:289,1,104,8|2,2:0|2:0,2:0:0:0:
230,341,72388,1,0,1:2:0:0:
230,341,72557,1,8,2:0:0:0:
128,364,72893,6,0,L|15:370,2,104,6|8|2,1:2|2:0|2:0,2:0:0:0:
177,343,73736,1,0,1:2:0:0:
177,343,73905,1,8,2:0:0:0:
119,256,74242,1,2,1:2:0:0:
212,209,74579,2,0,P|222:158|225:106,1,104,8|0,2:0|2:0,2:0:0:0:
211,61,75084,1,0,1:2:0:0:
211,61,75253,1,8,2:0:0:0:
110,84,75589,6,0,P|51:74|-1:69,2,104,2|8|2,1:2|2:0|2:0,2:0:0:0:
154,111,76432,1,0,1:2:0:0:
154,111,76601,1,8,2:0:0:0:
83,187,76938,2,0,P|69:219|97:297,1,104,2|8,1:2|2:0,2:0:0:0:
124,316,77443,1,2,1:2:0:0:
226,333,77780,2,0,L|219:385,2,52,0|8|0,1:2|2:0|1:2,2:0:0:0:
265,298,78286,6,0,B|258:262|258:262|265:235|265:235|253:184,1,104,4|0,1:2|1:2,2:0:0:0:
341,136,78960,2,0,B|348:172|348:172|341:199|341:199|353:250,1,104,0|0,1:2|1:2,2:0:0:0:
429,304,79634,1,6,1:2:0:0:
510,238,79972,1,0,1:2:0:0:
431,171,80309,1,2,1:2:0:0:
350,237,80646,1,10,2:0:0:0:
256,192,80983,1,4,1:0:0:0:
256,192,81067,12,0,82668,2:0:0:0:
58,261,88736,5,0,2:0:0:0:
124,314,89073,2,0,B|230:297|181:346|297:329,1,166.4,2|0,2:0|2:0,2:0:0:0:
365,356,90084,1,0,2:0:0:0:
434,310,90421,2,0,P|456:257|451:185,1,124.8,2|0,2:0|2:0,2:0:0:0:
393,131,91264,2,0,P|352:143|300:136,1,83.2,0|0,2:0|2:0,2:0:0:0:
272,127,91769,6,0,P|244:180|254:258,1,124.8,2|0,2:0|2:0,2:0:0:0:
294,358,92780,1,0,2:0:0:0:
294,358,92949,2,0,P|230:336|83:326,1,208,2|0,2:0|2:0,2:0:0:0:
36,255,94129,5,0,2:0:0:0:
36,255,94297,2,0,P|72:273|173:163,1,221.000004215241,2|0,2:0|2:0,2:0:0:0:
179,119,95309,2,0,P|140:115|85:102,1,88.4000016860962,0|2,2:0|2:0,2:0:0:0:
92,104,96825,5,0,2:0:0:0:
143,175,97163,2,0,P|186:182|233:182,1,88.4000016860962,2|0,2:0|2:0,2:0:0:0:
268,205,97668,2,0,P|296:189|390:239,1,132.600002529144,0|0,2:0|2:0,2:0:0:0:
412,254,98342,2,0,P|418:203|449:120,1,132.600002529144,2|2,2:0|2:0,2:0:0:0:
300,25,99522,5,0,2:0:0:0:
268,107,99859,2,0,L|277:210,2,88.4000016860962,2|0|0,2:0|2:0|2:0,2:0:0:0:
190,65,100870,2,0,P|128:63|58:156,1,176.800003372192,2|0,2:0|2:0,2:0:0:0:
94,318,102219,5,0,2:0:0:0:
175,353,102556,2,0,B|257:341|230:372|321:356,1,132.600002529144,2|0,2:0|2:0,2:0:0:0:
393,374,103398,2,0,P|402:334|396:270,1,88.4000016860962,2|2,2:0|2:0,2:0:0:0:
282,224,104241,2,0,P|217:254|103:226,1,176.800003372192,2|0,2:0|2:0,2:0:0:0:
27,180,105252,6,0,B|29:137|48:133|58:66,1,104,4|8,1:2|2:0,2:0:0:0:
150,36,105927,1,10,2:0:0:0:
240,87,106264,1,2,2:0:0:0:
235,194,106601,1,2,1:2:0:0:
321,251,106938,1,8,2:0:0:0:
415,208,107275,1,10,2:0:0:0:
422,104,107612,1,8,2:0:0:0:
334,47,107949,6,0,P|287:54|229:50,1,104,2|8,1:2|2:0,2:0:0:0:
185,70,108455,1,0,1:2:0:0:
185,70,108623,2,0,P|133:66|82:73,1,104,10|8,2:0|2:0,2:0:0:0:
13,151,109297,2,0,P|5:184|18:273,1,104,2|8,1:2|2:0,2:0:0:0:
42,301,109803,1,0,1:2:0:0:
42,301,109972,2,0,B|76:315|112:302|112:302|118:300|118:300|130:303|130:303|146:300,1,104,10|10,2:0|2:1,2:0:0:0:
240,250,110646,5,2,1:2:0:0:
303,339,110983,1,2,1:2:0:0:
407,307,111320,1,2,1:2:0:0:
407,198,111657,1,2,1:2:0:0:
305,162,111994,1,2,3:2:0:0:
256,192,112078,12,4,113342,1:3:0:0:
262,110,116039,6,2,B|221:188|292:222|335:276|296:331|266:326,1,228.800006982422,6|8,1:0|2:0,2:1:0:0:
185,379,117050,2,0,P|94:357|50:350,1,114.400003491211,2|0,3:2|1:2,2:0:0:0:
32,321,117556,1,2,2:0:0:0:
32,321,117724,1,2,2:0:0:0:
114,242,118061,2,2,P|128:226|141:191,1,57.2000017456055,10|0,2:0|2:0,2:1:0:0:
141,135,118398,2,2,P|131:108|114:85,1,57.2000017456055,2|0,2:0|2:0,2:1:0:0:
77,40,118736,5,2,1:0:0:0:
77,40,118904,2,2,B|116:54|116:54|140:29|181:24,1,114.400003491211,2|2,2:2|2:0,2:1:0:0:
235,43,119410,1,10,2:0:0:0:
314,124,119747,1,2,3:2:0:0:
239,211,120084,2,0,P|217:237|265:308,1,114.400003491211,2|2,1:2|1:2,2:0:0:0:
336,372,120758,1,10,2:0:0:0:
445,338,121095,2,2,P|455:307|453:266,1,57.2000017456055,10|8,2:1|2:0,2:1:0:0:
440,227,121432,6,2,B|423:211|402:202|381:257|343:249|323:221,1,114.400003491211,6|0,1:2|2:0,2:1:0:0:
289,195,121938,1,0,1:2:0:0:
289,195,122106,2,0,L|268:322,1,114.400003491211,8|0,2:0|2:0,2:0:0:0:
236,354,122612,1,2,1:2:0:0:
124,379,122949,1,0,1:2:0:0:
35,315,123286,1,0,1:2:0:0:
35,315,123455,2,0,L|54:202,1,114.400003491211,8|2,2:0|2:1,2:0:0:0:
159,152,124129,6,2,B|153:195|153:195|157:204|157:204|232:220,1,114.400003491211,6|0,1:2|2:0,2:1:0:0:
273,224,124634,2,0,L|282:167,1,57.2000017456055,2|8,2:0|2:0,2:0:0:0:
292,110,124972,2,2,B|301:67|301:67|308:60|308:60|384:72,1,114.400003491211,2|6,2:0|1:2,2:0:0:0:
463,204,125814,2,0,L|454:261,2,52,2|2|8,1:2|2:1|2:0,2:0:0:0:
470,152,126320,1,0,1:2:0:0:
479,101,126488,1,2,1:0:0:0:
394,24,126825,6,2,B|353:0|275:116|423:83|358:214|329:204,1,228.800006982422,6|8,1:0|2:0,2:1:0:0:
276,207,127668,2,0,L|267:125,2,57.2000017456055,2|2|2,1:2|3:2|1:2,2:0:0:0:
229,311,128342,1,2,3:2:0:0:
229,311,128511,2,2,P|182:342|131:310,1,114.400003491211,2|8,1:2|2:0,2:0:0:0:
98,275,129016,2,2,L|37:268,1,57.2000017456055,0|2,1:2|2:1,2:0:0:0:
24,159,129522,5,2,1:1:0:0:
24,159,129691,2,2,L|154:173,1,114.400003491211,2|2,2:1|1:2,2:1:0:0:
192,185,130196,2,2,B|204:163|219:153|219:153|208:108|232:63,1,114.400003491211,10|2,2:0|3:2,2:1:0:0:
265,43,130702,1,2,1:2:0:0:
377,20,131039,1,10,3:2:0:0:
377,20,131207,1,0,1:2:0:0:
456,102,131545,2,2,P|454:138|440:179,1,57.2000017456055,8|0,2:0|2:1,2:1:0:0:
402,190,131882,2,0,B|381:193|381:193|377:196|377:196|372:194|372:194|335:198,1,57.2000017456055,10|0,2:0|1:2,2:0:0:0:
296,224,132219,6,2,B|262:203|220:218|220:218|177:196,1,114.400003491211,6|0,1:2|2:0,2:1:0:0:
141,181,132724,1,0,1:2:0:0:
141,181,132893,2,0,P|104:236|117:304,1,114.400003491211,8|2,2:0|2:1,2:0:0:0:
132,332,133398,1,2,1:2:0:0:
237,376,133736,1,0,1:2:0:0:
352,354,134073,1,0,1:2:0:0:
352,354,134241,2,0,P|389:299|376:231,1,114.400003491211,8|0,2:0|2:0,2:0:0:0:
407,139,134915,6,2,P|351:152|297:170,1,114.400003491211,6|0,1:2|2:0,2:1:0:0:
263,217,135421,1,2,2:0:0:0:
263,217,135589,2,0,P|208:235|153:248,1,114.400003491211,8|0,2:0|2:0,2:0:0:0:
102,274,136095,2,2,P|68:230|90:180,1,114.400003491211,2|2,1:2|2:1,2:1:0:0:
4,45,137612,6,2,B|51:40|94:65|94:65|112:59|129:62|129:62|165:94|243:88,1,228.800006982422,6|8,1:0|2:0,2:1:0:0:
330,50,138623,1,2,1:2:0:0:
330,50,138792,2,0,B|333:92|333:92|340:98|340:98|327:132|346:183,1,114.400003491211,2|2,3:2|3:2,2:0:0:0:
351,215,139297,1,2,1:2:0:0:
258,281,139634,2,0,P|224:270|191:267,1,57.2000017456055,8|2,2:0|2:0,2:0:0:0:
155,234,139972,2,2,P|121:245|88:248,1,57.2000017456055,2|0,2:1|2:0,2:1:0:0:
43,235,140309,6,2,B|13:304|13:304|21:330|21:330|157:345,1,228.800006982422,2|8,1:2|2:0,2:0:0:0:
256,376,141320,1,0,2:0:0:0:
256,376,141488,2,0,P|280:327|254:250,1,114.400003491211,2|0,1:2|2:0,2:0:0:0:
232,226,141994,1,2,1:2:0:0:
308,140,142331,1,10,2:0:0:0:
390,219,142668,2,2,L|380:292,1,57.2000017456055,2|0,2:0|2:0,2:0:0:0:
413,323,143005,6,2,B|443:341|443:341|485:337|507:279,1,114.400003491211,2|2,1:2|2:0,2:0:0:0:
491,240,143511,1,0,1:2:0:0:
491,240,143679,2,2,P|477:183|469:116,1,114.400003491211,8|2,2:0|2:0,2:0:0:0:
477,70,144185,1,0,1:2:0:0:
371,25,144522,1,2,1:2:0:0:
303,117,144859,1,0,1:2:0:0:
303,117,145028,2,2,P|255:103|176:92,1,114.400003491211,10|2,2:0|2:0,2:0:0:0:
87,45,145702,6,0,P|57:95|75:156,1,114.400003491211,6|2,1:2|2:0,2:1:0:0:
106,197,146207,1,0,1:2:0:0:
106,197,146376,2,0,P|162:205|217:220,1,114.400003491211,10|2,2:0|2:0,2:0:0:0:
268,245,146882,1,6,1:2:0:0:
245,360,147219,1,8,2:0:0:0:
245,360,147387,1,2,1:2:0:0:
138,319,147724,2,0,L|67:303,1,57.2000017456055,10|0,2:0|1:2,2:0:0:0:
35,272,148061,2,0,P|40:235|64:200,1,57.2000017456055,10|0,2:0|1:2,2:0:0:0:
29,163,148398,6,2,B|53:180|93:176|127:158|115:44|190:39|226:74,1,228.800006982422,6|8,1:0|2:0,2:1:0:0:
249,174,149410,1,2,1:2:0:0:
249,174,149579,2,0,P|233:232|223:303,1,114.400003491211,2|2,3:2|3:2,2:0:0:0:
233,341,150084,1,0,1:2:0:0:
343,370,150421,2,2,P|371:365|398:356,1,57.2000017456055,10|0,2:0|2:0,2:1:0:0:
444,322,150758,2,2,P|465:290|474:266,1,57.2000017456055,2|0,2:1|2:0,2:1:0:0:
473,214,151096,6,2,B|462:215|462:215|405:172|405:172|422:98|367:35,1,228.800006982422,2|8,1:2|2:0,2:0:0:0:
257,61,152107,1,0,3:2:0:0:
257,61,152275,2,0,P|211:40|127:46,1,114.400003491211,2|0,1:2|2:0,2:0:0:0:
91,49,152781,1,2,1:2:0:0:
29,145,153118,1,10,2:0:0:0:
100,234,153455,2,2,L|173:225,1,57.2000017456055,2|0,2:0|2:1,2:1:0:0:
212,212,153792,6,2,B|207:253|207:253|197:267|197:267|203:290|192:325,1,114.400003491211,2|2,1:2|2:0,2:0:0:0:
157,367,154298,1,0,1:2:0:0:
157,367,154466,2,2,P|107:353|31:345,1,114.400003491211,8|2,2:0|2:1,2:0:0:0:
5,303,154972,1,2,1:2:0:0:
60,203,155309,1,0,1:2:0:0:
168,253,155646,1,0,1:2:0:0:
168,253,155814,2,2,P|218:267|294:275,1,114.400003491211,10|2,2:0|2:1,2:1:0:0:
387,234,156488,5,4,1:0:0:0:
256,192,156573,12,0,158511,2:0:0:0:
403,245,159185,6,0,L|393:359,1,104,14|8,1:2|2:0,2:0:0:0:
291,366,159859,2,0,L|301:252,1,104,8|8,2:0|2:0,2:0:0:0:
250,171,160533,1,10,2:0:0:0:
341,120,160870,1,8,2:0:0:0:
290,29,161207,1,8,2:0:0:0:
199,80,161545,1,8,2:0:0:0:
250,171,161882,6,0,P|287:171|356:191,2,104,10|8|10,2:0|2:0|2:0,2:0:0:0:
173,241,162893,1,8,2:0:0:0:
230,327,163230,2,0,P|279:342|331:344,1,104,10|8,2:0|2:0,2:0:0:0:
379,375,163736,1,0,2:0:0:0:
379,375,163904,2,0,P|390:326|409:264,1,104,10|8,2:0|2:0,2:0:0:0:
448,179,164578,6,0,P|433:129|421:78,2,104,14|8|10,1:2|1:2|1:2,2:0:0:0:
500,268,165589,1,8,1:2:0:0:
404,309,165927,2,0,B|359:296|359:296|345:301|345:301|285:286,1,104,10|8,1:2|1:2,2:0:0:0:
265,323,166432,1,0,1:2:0:0:
265,323,166601,2,0,B|220:310|220:310|206:315|206:315|146:300,1,104,10|8,1:2|1:2,2:0:0:0:
112,215,167275,6,0,L|48:222,1,52,10|8,1:2|1:2,2:0:0:0:
16,192,167612,2,0,L|9:128,1,52,8|8,1:2|1:2,2:0:0:0:
39,96,167949,2,0,L|103:89,1,52,10|8,1:2|1:2,2:0:0:0:
135,119,168286,2,0,L|142:183,1,52,8|8,1:2|1:2,2:0:0:0:
178,206,168623,5,10,1:2:0:0:
256,192,168707,12,2,169972,2:2:0:0:
351,31,171994,5,12,2:0:0:0:
182,182,172668,6,2,B|78:146|78:146|68:150|68:150|39:272,1,228.800006982422,4|8,1:0|2:0,2:1:0:0:
112,352,173679,1,2,2:0:0:0:
112,352,173848,2,2,B|154:346|154:346|167:340|167:340|184:343|184:343|224:339,1,114.400003491211,2|2,1:2|2:1,2:1:0:0:
281,333,174354,1,0,1:2:0:0:
390,365,174691,1,8,2:0:0:0:
390,365,174859,2,0,P|415:328|382:248,1,114.400003491211,2|0,1:2|2:0,2:0:0:0:
418,208,175365,6,2,P|388:204|288:176,1,114.400003491211,2|0,1:2|2:0,2:0:0:0:
269,147,175870,1,2,2:0:0:0:
269,147,176039,2,0,P|214:162|157:171,1,114.400003491211,10|0,2:0|2:0,2:0:0:0:
101,183,176545,1,2,1:2:0:0:
101,183,176713,1,2,2:0:0:0:
26,96,177050,1,0,1:2:0:0:
114,23,177387,2,0,P|145:33|179:40,1,57.2000017456055,10|0,2:0|1:2,2:0:0:0:
219,65,177724,2,2,P|246:58|274:49,1,57.2000017456055,2|0,2:0|1:2,2:1:0:0:
328,67,178061,6,0,B|397:19|481:43|501:120|461:145|435:133,1,228.800006982422,6|8,1:2|2:0,2:0:0:0:
333,179,179073,1,2,2:0:0:0:
333,179,179241,2,2,B|305:167|305:167|290:168|290:168|279:162|279:162|266:162|266:162|251:156|251:156|241:159|241:159|210:154,1,114.400003491211,0|0,1:2|2:0,2:1:0:0:
170,175,179747,2,0,P|134:168|87:233,1,114.400003491211,0|8,1:2|2:0,2:0:0:0:
73,276,180252,2,0,B|48:280|48:280|41:285|41:285|15:289,2,57.2000017456055,2|0|0,2:0|2:0|2:1,2:0:0:0:
118,311,180758,6,2,P|147:357|201:356,1,114.400003491211,2|0,1:2|2:0,2:0:0:0:
261,370,181263,1,2,2:0:0:0:
261,370,181432,2,0,P|271:317|289:249,1,114.400003491211,10|2,2:0|2:0,2:0:0:0:
282,201,181938,2,2,B|310:215|310:215|357:211|365:150,1,114.400003491211,6|2,1:2|2:0,2:1:0:0:
355,103,182443,1,0,1:2:0:0:
460,59,182780,2,0,P|486:75|531:80,2,57.2000017456055,8|0|2,2:0|1:2|1:2,2:0:0:0:
357,6,183455,6,2,B|394:49|280:140|426:162|391:223,1,228.800006982422,4|8,1:0|2:0,2:1:0:0:
341,249,184297,2,2,P|316:239|284:238,1,57.2000017456055,2|0,2:0|2:0,2:0:0:0:
236,269,184635,2,2,B|219:293|219:293|211:297|211:297|124:282,1,114.400003491211,2|0,1:2|2:0,2:0:0:0:
79,295,185141,1,2,1:2:0:0:
6,206,185478,1,8,2:0:0:0:
6,206,185646,2,0,P|0:153|43:101,1,114.400003491211,0|0,1:2|2:0,2:0:0:0:
81,73,186151,6,2,B|135:90|135:90|191:66,1,114.400003491211,2|0,1:2|2:0,2:1:0:0:
240,43,186657,1,2,2:0:0:0:
240,43,186825,2,0,B|294:60|294:60|350:36,1,114.400003491211,8|0,2:0|2:0,2:0:0:0:
401,18,187332,1,2,1:2:0:0:
498,87,187668,1,2,2:0:0:0:
498,87,187837,1,2,1:2:0:0:
406,156,188174,2,0,P|375:146|341:139,1,57.2000017456055,8|0,2:0|1:2,2:0:0:0:
295,125,188511,2,0,P|268:134|240:140,1,57.2000017456055,8|0,2:0|1:2,2:0:0:0:
188,165,188848,6,0,B|182:141|182:141|168:134|168:134|74:152,1,114.400003491211,2|2,1:2|2:0,2:0:0:0:
44,167,189354,1,0,2:0:0:0:
44,167,189522,1,8,2:0:0:0:
48,286,189859,2,2,B|55:326|55:326|63:329|63:329|189:316,1,171.600005236817,2|0,1:2|2:0,2:1:0:0:
235,343,190534,2,0,P|239:290|251:225,1,114.400003491211,2|8,1:2|2:0,2:0:0:0:
270,179,191039,1,2,2:0:0:0:
270,179,191207,1,2,2:1:0:0:
345,265,191545,6,2,P|396:299|460:288,1,114.400003491211,2|2,1:2|2:0,2:0:0:0:
486,254,192050,1,0,2:0:0:0:
486,254,192219,2,0,P|472:199|461:142,1,114.400003491211,8|0,2:0|3:2,2:0:0:0:
465,85,192724,1,8,3:2:0:0:
375,23,193061,5,0,1:2:0:0:
375,23,193230,1,8,2:0:0:0:
299,93,193567,1,8,2:0:0:0:
206,48,193904,1,8,2:0:0:0:
102,96,194241,6,0,P|67:147|98:208,1,114.400003491211,4|8,1:0|2:0,2:0:0:0:
71,249,194747,2,0,P|128:235|192:232,1,114.400003491211,2|0,2:0|1:2,2:0:0:0:
228,274,195252,1,8,2:0:0:0:
228,274,195421,2,0,P|285:277|340:291,1,114.400003491211,2|0,2:0|1:2,2:0:0:0:
373,337,195927,1,8,2:0:0:0:
484,301,196264,1,2,2:0:0:0:
484,301,196432,2,0,P|497:247|463:203,1,114.400003491211,0|0,1:2|2:0,2:0:0:0:
414,173,196938,6,0,L|412:106,2,57.2000017456055,2|0|8,1:2|1:2|2:0,2:0:0:0:
367,205,197443,1,2,2:0:0:0:
256,177,197780,1,0,1:2:0:0:
145,205,198118,1,2,2:0:0:0:
34,177,198455,1,2,1:2:0:0:
34,177,198623,2,0,B|23:137|23:137|34:105|34:105|77:93,1,114.400003491211,8|0,2:0|2:0,2:0:0:0:
125,73,199129,2,0,L|114:9,2,57.2000017456055,0|8|0,1:2|2:0|1:2,2:0:0:0:
163,115,199634,6,0,B|154:159|154:159|160:186|160:186|147:238,2,114.400003491211,6|8|2,1:2|2:0|2:0,2:0:0:0:
213,86,200477,1,0,1:2:0:0:
213,86,200646,1,8,2:0:0:0:
297,163,200983,2,0,P|356:190|404:166,1,114.400003491211,2|8,2:0|2:0,2:0:0:0:
447,142,201488,1,2,2:0:0:0:
500,249,201825,1,2,1:2:0:0:
500,249,201994,1,8,2:0:0:0:
419,330,202331,6,0,P|390:319|358:314,1,57.2000017456055,2|0,1:2|1:2,2:0:0:0:
310,293,202668,1,8,2:0:0:0:
310,293,202837,2,0,P|247:336|206:327,1,114.400003491211,2|2,2:0|1:2,2:0:0:0:
169,366,203342,2,0,P|113:366|72:328,2,114.400003491211,8|0|12,2:0|1:2|2:0,2:0:0:0:
213,330,204185,2,0,P|219:302|238:259,1,57.2000017456055,0|2,1:2|2:0,2:0:0:0:
266,232,204522,1,0,1:2:0:0:
266,232,204691,1,12,2:0:0:0:
363,292,205028,6,0,B|411:320|411:320|491:304,2,114.400003491211,4|8|2,1:0|2:0|2:0,2:0:0:0:
313,263,205870,1,0,1:2:0:0:
396,184,206207,2,0,P|431:142|403:87,1,114.400003491211,2|2,2:0|1:2,2:0:0:0:
405,34,206713,2,0,P|312:52|281:50,1,114.400003491211,8|2,2:0|2:0,2:0:0:0:
240,43,207219,1,0,1:2:0:0:
240,43,207387,1,10,2:0:0:0:
141,100,207724,6,2,L|147:232,1,114.400003491211,6|8,1:2|2:0,2:0:0:0:
198,238,208230,2,0,L|312:233,1,114.400003491211,2|0,2:0|1:2,2:0:0:0:
364,268,208736,1,8,2:0:0:0:
364,268,208904,2,2,B|384:340|384:340|377:361|342:377,1,114.400003491211,2|0,2:0|1:2,2:0:0:0:
296,368,209410,2,2,P|251:356|180:351,1,114.400003491211,10|0,2:0|2:0,2:0:0:0:
132,370,209915,1,0,1:2:0:0:
132,370,210084,1,8,2:0:0:0:
37,305,210421,6,0,P|30:265|34:176,1,114.400003491211,6|8,1:2|2:0,2:0:0:0:
98,98,211095,1,2,2:0:0:0:
206,132,211432,2,0,B|234:223|165:213|194:297,1,171.600005236817,10|0,2:0|1:2,2:0:0:0:
234,337,212106,1,8,2:0:0:0:
234,337,212275,2,0,P|283:317|364:325,1,114.400003491211,2|2,2:0|1:2,2:0:0:0:
395,342,212780,1,10,2:0:0:0:
484,270,213118,6,0,L|468:131,1,114.400003491211,6|8,1:2|2:0,2:0:0:0:
470,99,213623,2,0,B|444:135|444:135|362:125,1,114.400003491211,2|0,2:0|1:2,2:0:0:0:
323,152,214129,1,8,2:0:0:0:
323,152,214297,2,0,B|215:138|215:138|187:195,1,171.600005236817,2|8,1:2|2:0,2:0:0:0:
140,298,215140,1,2,2:0:0:0:
233,363,215477,1,8,2:0:0:0:
332,306,215814,6,0,L|319:236,1,57.2000017456055,12|0,2:0|1:2,2:0:0:0:
340,195,216151,1,0,1:2:0:0:
340,195,216320,2,0,P|395:215|428:155,1,114.400003491211,8|0,2:0|1:2,2:0:0:0:
450,126,216825,2,0,L|521:140,2,57.2000017456055,8|8|0,2:0|2:0|1:2,2:0:0:0:
371,57,217500,5,12,2:0:0:0:
371,57,217668,2,0,B|322:73|322:73|268:38,1,104,2|0,2:0|1:2,2:0:0:0:
234,26,218174,1,8,2:0:0:0:
234,26,218342,2,2,L|249:142,1,104,2|0,2:0|2:0,2:0:0:0:
255,180,218848,1,10,2:0:0:0:
154,207,219185,1,2,2:0:0:0:
51,189,219522,1,10,2:0:0:0:
0,279,219859,6,0,P|62:309|98:295,1,104,2|8,1:2|2:0,2:0:0:0:
135,327,220365,2,2,P|176:355|226:347,1,104,2|0,2:0|1:2,2:0:0:0:
278,370,220870,1,8,2:0:0:0:
278,370,221039,2,2,P|289:295|299:262,1,104,2|0,2:0|2:0,2:0:0:0:
337,235,221545,1,10,2:0:0:0:
406,311,221882,1,2,2:1:0:0:
488,247,222219,1,8,2:0:0:0:
419,171,222556,6,0,B|410:138|410:138|415:112|415:112|398:51,1,104,4|8,1:2|2:0,2:0:0:0:
364,35,223061,1,2,2:0:0:0:
364,35,223230,2,0,P|341:58|258:59,1,104,2|8,2:0|2:0,2:0:0:0:
223,49,223736,2,2,P|234:107|235:170,1,104,2|0,2:0|2:0,2:1:0:0:
233,203,224241,1,10,2:0:0:0:
303,279,224578,1,2,2:0:0:0:
233,356,224915,1,10,2:0:0:0:
163,280,225252,6,0,B|137:273|137:273|98:297|40:271,1,104,2|8,1:2|2:0,2:0:0:0:
21,256,225758,1,0,2:0:0:0:
21,256,225927,2,2,P|5:201|37:153,1,104,0|10,2:0|2:0,2:1:0:0:
112,105,226601,6,0,P|183:122|259:134,1,140.399995715332,4|4,1:2|1:2,2:0:0:0:
341,105,227443,1,0,1:2:0:0:
341,105,227612,1,8,2:0:0:0:
431,156,227949,6,0,P|446:210|414:258,1,104,4|8,1:2|2:0,2:0:0:0:
439,300,228455,2,0,P|400:310|321:349,1,104,2|0,2:0|1:2,2:0:0:0:
300,366,228960,1,8,2:0:0:0:
300,366,229129,2,2,P|284:311|253:254,1,104,2|2,2:0|2:0,2:0:0:0:
229,230,229634,1,10,2:0:0:0:
307,161,229972,1,2,2:0:0:0:
401,203,230309,1,10,2:0:0:0:
469,125,230646,6,0,P|480:74|446:37,1,104,0|8,1:2|2:0,2:0:0:0:
397,25,231151,2,2,P|357:39|293:42,1,104,2|0,2:0|1:2,2:0:0:0:
258,77,231657,1,8,2:0:0:0:
258,77,231825,2,2,B|227:72|196:99|196:99|160:94,1,104,2|0,2:1|1:2,2:1:0:0:
109,86,232331,1,10,2:1:0:0:
17,136,232668,1,2,2:0:0:0:
8,239,233005,1,10,2:0:0:0:
77,316,233342,6,0,P|127:323|173:300,1,104,6|10,1:2|2:0,2:0:0:0:
225,306,233848,1,0,2:0:0:0:
225,306,234016,2,2,P|230:254|245:202,1,104,2|8,2:1|2:0,2:1:0:0:
288,176,234522,2,2,P|273:126|268:74,1,104,2|2,2:0|2:0,2:1:0:0:
288,26,235028,1,8,2:0:0:0:
288,26,235196,2,2,P|341:44|398:45,1,104,2|0,2:0|1:2,2:1:0:0:
440,38,235702,1,10,2:0:0:0:
496,124,236039,6,0,B|491:171|491:171|497:190|497:190|488:244,2,104,6|8|2,1:2|2:0|2:0,2:0:0:0:
473,76,236882,1,0,1:2:0:0:
473,76,237050,1,8,2:0:0:0:
379,122,237387,1,2,2:0:0:0:
280,88,237724,1,10,2:0:0:0:
189,138,238061,1,2,2:0:0:0:
89,107,238398,1,10,2:0:0:0:
10,175,238736,5,4,1:0:0:0:
256,192,238820,12,0,240084,2:0:0:0:
100,197,240927,6,0,L|159:194,1,52,0|8,1:2|2:0,2:0:0:0:
256,192,241432,1,6,1:2:0:0:
