osu file format v14

[General]
AudioFilename: audio.mp3
AudioLeadIn: 0
PreviewTime: 138602
Countdown: 0
SampleSet: Soft
StackLeniency: 0.7
Mode: 0
LetterboxInBreaks: 0
WidescreenStoryboard: 1

[Editor]
Bookmarks: 0,2781,24354,40533,62106,78286,82668,83679,94466,105253,110646,113343,115533,115702,116039,125309,125393,125477,126825,137612,138539,148399,156488,159185,163567,172668,183455,194241,205028,217163,217500,227949,238736,241432,244129,246825,249522
DistanceSpacing: 0.4
BeatDivisor: 4
GridSize: 32
TimelineZoom: 2.4

[Metadata]
Title:Azurite no Hitsugi (Artethia Remix)
TitleUnicode:アズライトの棺 (Artethia Remix)
Artist:Ayane
ArtistUnicode:アヤネ
Creator:Lasse
Version:Insane
Source:水葬銀貨のイストリア
Tags:japanese electronic drumstep dnb Suisou Ginka no Istoria opening eroge visual novel meto
BeatmapID:4502105
BeatmapSetID:2129263

[Difficulty]
HPDrainRate:5
CircleSize:4
OverallDifficulty:8
ApproachRate:9
SliderMultiplier:1.6
SliderTickRate:1

[Events]
//Background and Video events
0,0,"CG12_06.jpg",0,0
//Break Periods
//Storyboard Layer 0 (Background)
//Storyboard Layer 1 (Fail)
//Storyboard Layer 2 (Pass)
//Storyboard Layer 3 (Foreground)
//Storyboard Layer 4 (Overlay)
//Storyboard Sound Samples

[TimingPoints]
2781,337.078651685393,4,2,1,65,1,0
3033,-100,4,2,1,30,0,0
3118,-100,4,2,1,65,0,0
4044,-100,4,2,1,30,0,0
4129,-100,4,2,1,65,0,0
5392,-100,4,2,1,30,0,0
5477,-100,4,2,1,65,0,0
5730,-100,4,2,1,30,0,0
5814,-100,4,2,1,65,0,0
6741,-100,4,2,1,30,0,0
6825,-100,4,2,1,65,0,0
8089,-100,4,2,1,30,0,0
8174,-100,4,2,1,65,0,0
8427,-100,4,2,1,30,0,0
8511,-100,4,2,1,65,0,0
10785,-100,4,2,1,30,0,0
10870,-100,4,2,1,65,0,0
11123,-100,4,2,1,30,0,0
11207,-100,4,2,1,65,0,0
12134,-100,4,2,1,30,0,0
12219,-100,4,2,1,65,0,0
13483,-100,4,2,1,30,0,0
13567,-100,4,2,1,65,0,0
13820,-100,4,2,1,30,0,0
13904,-100,4,2,1,65,0,0
15168,-100,4,2,1,30,0,0
15252,-100,4,2,1,65,0,0
16179,-100,4,2,1,30,0,0
16264,-100,4,2,1,65,0,0
18960,-133.333333333333,4,2,1,54,0,0
19297,-133.333333333333,4,2,1,56,0,0
19634,-121.951219512195,4,2,1,58,0,0
19972,-121.951219512195,4,2,1,60,0,0
20309,-111.111111111111,4,2,1,62,0,0
20646,-111.111111111111,4,2,1,64,0,0
20983,-99.9999999999999,4,2,1,66,0,0
21320,-99.9999999999999,4,2,1,68,0,0
21657,-99.9999999999999,4,2,1,70,0,0
22668,-99.9999999999999,4,2,1,65,0,0
23005,-99.9999999999999,4,2,1,70,0,0
23173,-99.9999999999999,4,2,1,65,0,0
23511,-120.481927710843,4,2,1,70,0,0
23679,-120.481927710843,4,2,1,50,0,0
23848,-120.481927710843,4,2,1,60,0,0
24185,-120.481927710843,4,2,1,65,0,0
24354,-99.9999999999999,4,2,1,70,0,0
24606,-99.9999999999999,4,2,1,30,0,0
24691,-99.9999999999999,4,2,1,70,0,0
26965,-99.9999999999999,4,2,1,30,0,0
27050,-99.9999999999999,4,2,1,70,0,0
29662,-99.9999999999999,4,2,1,30,0,0
29747,-99.9999999999999,4,2,1,70,0,0
35140,-111.111111111111,4,2,1,65,0,0
35477,-111.111111111111,4,2,1,55,0,0
35646,-142.857142857143,4,2,1,55,0,0
36151,-111.111111111111,4,2,1,60,0,0
36236,-111.111111111111,4,2,1,5,0,0
36825,-111.111111111111,4,2,1,50,0,0
37163,-125,4,2,1,50,0,0
37331,-125,4,2,1,40,0,0
37500,-125,4,2,1,50,0,0
37668,-125,4,2,1,40,0,0
37837,-111.111111111111,4,2,1,55,0,0
38174,-111.111111111111,4,2,1,45,0,0
38342,-142.857142857143,4,2,1,45,0,0
38848,-111.111111111111,4,2,1,55,0,0
39016,-111.111111111111,4,2,1,5,0,0
39522,-111.111111111111,4,2,1,45,0,0
39859,-111.111111111111,4,2,1,40,0,0
40196,-111.111111111111,4,2,1,35,0,0
40533,-111.111111111111,4,2,1,55,0,0
40618,-111.111111111111,4,2,2,55,0,0
43145,-111.111111111111,4,2,2,20,0,0
43230,-111.111111111111,4,2,2,55,0,0
45842,-111.111111111111,4,2,2,20,0,0
45927,-111.111111111111,4,2,2,55,0,0
47528,-111.111111111111,4,2,2,20,0,0
47612,-111.111111111111,4,2,2,55,0,0
50224,-111.111111111111,4,2,2,20,0,0
50309,-111.111111111111,4,2,2,55,0,0
51235,-111.111111111111,4,2,2,20,0,0
51320,-111.111111111111,4,2,2,55,0,0
52921,-111.111111111111,4,2,2,20,0,0
53005,-111.111111111111,4,2,2,55,0,0
53931,-111.111111111111,4,2,2,20,0,0
54016,-111.111111111111,4,2,2,55,0,0
55618,-111.111111111111,4,2,2,20,0,0
55702,-111.111111111111,4,2,2,55,0,0
56628,-111.111111111111,4,2,2,20,0,0
56713,-111.111111111111,4,2,2,55,0,0
58314,-111.111111111111,4,2,2,20,0,0
58398,-111.111111111111,4,2,2,55,0,0
59410,-125,4,2,1,60,0,0
59747,-125,4,2,1,62,0,0
60084,-125,4,2,1,64,0,0
60421,-125,4,2,1,66,0,0
60758,-125,4,2,1,68,0,0
61264,-125,4,2,1,64,0,0
61348,-111.111111111111,4,2,1,64,0,0
61769,-133.333333333333,4,2,1,70,0,0
61853,-133.333333333333,4,2,1,60,0,0
61937,-133.333333333333,4,2,1,50,0,0
62106,-100,4,2,1,65,0,0
62358,-100,4,2,1,30,0,0
62443,-100,4,2,1,60,0,0
65056,-100,4,2,1,30,0,0
65140,-100,4,2,1,60,0,0
67752,-100,4,2,1,30,0,0
67837,-100,4,2,1,60,0,0
70449,-100,4,2,1,30,0,0
70533,-100,4,2,1,60,0,0
71797,-100,4,2,1,30,0,0
71882,-100,4,2,1,60,0,0
72808,-100,4,2,1,30,0,0
72893,-100,4,2,1,60,0,0
73146,-100,4,2,1,30,0,0
73230,-100,4,2,1,60,0,0
74156,-100,4,2,1,30,0,0
74241,-100,4,2,1,60,0,0
75842,-100,4,2,1,30,0,0
75927,-100,4,2,1,60,0,0
76854,-100,4,2,1,30,0,0
76938,-100,4,2,1,60,0,0
78286,-90.9090909090909,4,2,1,65,0,0
78538,-90.9090909090909,4,2,1,30,0,0
78623,-90.9090909090909,4,2,1,65,0,0
79634,-90.9090909090909,4,2,1,70,0,0
79886,-90.9090909090909,4,2,1,30,0,0
79972,-90.9090909090909,4,2,1,65,0,0
80140,-90.9090909090909,4,2,1,64,0,0
80309,-90.9090909090909,4,2,1,66,0,0
80351,-90.9090909090909,4,2,1,60,0,0
80646,-90.9090909090909,4,2,1,72,0,0
80688,-90.9090909090909,4,2,1,64,0,0
80983,-133.333333333333,4,2,1,70,0,0
81067,-133.333333333333,4,2,1,5,0,0
82668,-133.333333333333,4,2,1,10,0,0
83174,-250,4,2,1,25,0,0
83679,-200,4,2,2,50,0,0
83764,-200,4,2,1,45,0,0
89073,-166.666666666667,4,2,1,48,0,0
94466,-153.846153846154,4,2,1,50,0,0
99859,-153.846153846154,4,2,1,52,0,0
100870,-142.857142857143,4,2,1,52,0,0
102556,-133.333333333333,4,2,1,54,0,0
104241,-166.666666666667,4,2,1,55,0,0
104578,-166.666666666667,4,2,1,40,0,0
104747,-166.666666666667,4,2,1,44,0,0
104915,-166.666666666667,4,2,1,42,0,0
105084,-166.666666666667,4,2,1,40,0,0
105252,-83.3333333333333,4,2,1,65,0,0
105504,-83.3333333333333,4,2,1,30,0,0
105589,-111.111111111111,4,2,3,65,0,0
105674,-111.111111111111,4,2,1,65,0,0
105927,-90.9090909090909,4,2,1,65,0,0
106179,-83.3333333333333,4,2,1,30,0,0
106264,-111.111111111111,4,2,1,65,0,0
106601,-100,4,2,1,65,0,0
106938,-100,4,2,3,65,0,0
107106,-100,4,2,1,65,0,0
107612,-111.111111111111,4,2,3,65,0,0
107864,-111.111111111111,4,2,1,30,0,0
107949,-90.9090909090909,4,2,1,65,0,0
108202,-83.3333333333333,4,2,1,30,0,0
108286,-90.9090909090909,4,2,3,65,0,0
108370,-90.9090909090909,4,2,1,65,0,0
108455,-90.9090909090909,4,2,1,65,0,0
108875,-90.9090909090909,4,2,1,30,0,0
108960,-111.111111111111,4,2,3,65,0,0
109297,-100,4,2,1,65,0,0
109634,-100,4,2,3,65,0,0
109803,-100,4,2,1,65,0,0
109972,-90.9090909090909,4,2,1,65,0,0
110224,-90.9090909090909,4,2,1,30,0,0
110309,-142.857142857143,4,2,3,60,0,0
110561,-142.857142857143,4,2,3,20,0,0
110646,-125,4,2,1,60,0,0
110983,-111.111111111111,4,2,1,62,0,0
111320,-100,4,2,1,64,0,0
111657,-90.9090909090909,4,2,1,66,0,0
111994,-111.111111111111,4,2,2,68,0,0
112078,-111.111111111111,4,2,2,50,0,0
112163,-111.111111111111,4,2,2,68,0,0
112247,-111.111111111111,4,2,2,50,0,0
112331,-111.111111111111,4,2,2,68,0,0
112415,-111.111111111111,4,2,2,50,0,0
112500,-111.111111111111,4,2,2,68,0,0
112584,-111.111111111111,4,2,2,50,0,0
112668,-111.111111111111,4,2,2,60,0,0
112752,-111.111111111111,4,2,2,61,0,0
112836,-111.111111111111,4,2,2,62,0,0
112920,-111.111111111111,4,2,2,63,0,0
113005,-111.111111111111,4,2,2,64,0,0
113089,-111.111111111111,4,2,2,65,0,0
113173,-111.111111111111,4,2,2,66,0,0
113257,-111.111111111111,4,2,2,67,0,0
113342,-111.111111111111,4,2,2,68,0,0
113427,-111.111111111111,4,2,2,30,0,0
114016,-111.111111111111,4,2,2,40,0,0
114691,-111.111111111111,4,2,2,50,0,0
115533,-111.111111111111,4,2,3,50,0,0
115702,-133.333333333333,4,2,1,60,0,0
115954,-133.333333333333,4,2,1,30,0,0
116039,-66.6666666666667,4,2,3,75,0,1
116291,-66.6666666666667,4,2,1,30,0,1
116376,-90.9090909090909,4,2,1,75,0,1
116629,-90.9090909090909,4,2,1,30,0,1
116713,-76.9230769230769,4,2,1,75,0,1
117387,-90.9090909090909,4,2,1,75,0,1
117724,-111.111111111111,4,2,1,75,0,1
118061,-76.9230769230769,4,2,1,75,0,1
118313,-76.9230769230769,4,2,1,30,0,1
118398,-100,4,2,1,75,0,1
118736,-83.3333333333333,4,2,1,75,0,1
119156,-83.3333333333333,4,2,1,30,0,1
119241,-83.3333333333333,4,2,1,75,0,1
119410,-83.3333333333333,4,2,3,75,0,1
119578,-83.3333333333333,4,2,1,75,0,1
120673,-83.3333333333333,4,2,1,30,0,1
120758,-76.9230769230769,4,2,1,75,0,1
121010,-76.9230769230769,4,2,1,30,0,1
121095,-76.9230769230769,4,2,3,75,0,1
121179,-76.9230769230769,4,2,3,60,0,1
121264,-76.9230769230769,4,2,3,70,0,1
121432,-71.4285714285714,4,2,1,75,0,1
122106,-90.9090909090909,4,2,1,75,0,1
122359,-90.9090909090909,4,2,1,30,0,1
122443,-90.9090909090909,4,2,1,75,0,1
122612,-76.9230769230769,4,2,1,75,0,1
122864,-76.9230769230769,4,2,1,30,0,1
122949,-76.9230769230769,4,2,1,75,0,1
123539,-76.9230769230769,4,2,1,60,0,1
123623,-166.666666666667,4,2,1,65,0,0
123792,-142.857142857143,4,2,1,70,0,0
123960,-125,4,2,1,75,0,0
124129,-66.6666666666667,4,2,1,75,0,1
124382,-66.6666666666667,4,2,1,30,0,1
124466,-66.6666666666667,4,2,1,75,0,1
124634,-90.9090909090909,4,2,1,75,0,1
124972,-111.111111111111,4,2,1,70,0,0
125224,-111.111111111111,4,2,1,30,0,0
125309,-50,4,2,1,80,0,1
125477,-50,4,2,1,55,0,0
125814,-50,4,2,1,65,0,0
126151,-50,4,2,1,70,0,0
126488,-133.333333333333,4,2,1,60,0,0
126740,-133.333333333333,4,2,1,30,0,0
126825,-66.6666666666667,4,2,3,75,0,1
127077,-66.6666666666667,4,2,1,30,0,1
127163,-90.9090909090909,4,2,1,75,0,1
127415,-90.9090909090909,4,2,1,30,0,1
127500,-90.9090909090909,4,2,1,75,0,1
128005,-100,4,2,1,75,0,1
128173,-100,4,2,1,65,0,1
128342,-100,4,2,1,75,0,1
129185,-111.111111111111,4,2,1,75,0,1
129437,-111.111111111111,4,2,1,30,0,1
129522,-90.9090909090909,4,2,1,75,0,1
129943,-90.9090909090909,4,2,1,30,0,1
130028,-90.9090909090909,4,2,1,75,0,1
130702,-83.3333333333333,4,2,1,75,0,1
130955,-83.3333333333333,4,2,1,30,0,1
131039,-83.3333333333333,4,2,1,75,0,1
131882,-83.3333333333333,4,2,3,75,0,1
132219,-71.4285714285714,4,2,1,75,0,1
132893,-90.9090909090909,4,2,1,75,0,1
133398,-76.9230769230769,4,2,1,75,0,1
133650,-76.9230769230769,4,2,1,30,0,1
133736,-83.3333333333333,4,2,1,75,0,1
134410,-90.9090909090909,4,2,1,75,0,1
134662,-90.9090909090909,4,2,1,30,0,1
134747,-90.9090909090909,4,2,1,75,0,1
134915,-76.9230769230769,4,2,1,75,0,1
135167,-76.9230769230769,4,2,1,30,0,1
135252,-100,4,2,1,75,0,1
135589,-90.9090909090909,4,2,1,75,0,1
135842,-90.9090909090909,4,2,1,30,0,1
135926,-90.9090909090909,4,2,1,75,0,1
136095,-83.3333333333333,4,2,1,75,0,1
136347,-83.3333333333333,4,2,1,30,0,1
136432,-111.111111111111,4,2,1,60,0,0
136516,-111.111111111111,4,2,1,50,0,0
136769,-111.111111111111,4,2,1,60,0,0
137106,-111.111111111111,4,2,2,55,0,0
137275,-111.111111111111,4,2,2,50,0,0
137443,-111.111111111111,4,2,2,45,0,0
137612,-66.6666666666667,4,2,3,75,0,1
137864,-66.6666666666667,4,2,1,30,0,1
137949,-90.9090909090909,4,2,1,75,0,1
138202,-90.9090909090909,4,2,1,30,0,1
138286,-76.9230769230769,4,2,1,75,0,1
138960,-100,4,2,1,75,0,1
139044,-100,4,2,1,50,0,1
139129,-100,4,2,1,75,0,1
139213,-100,4,2,1,50,0,1
139297,-83.3333333333333,4,2,1,75,0,1
139972,-90.9090909090909,4,2,1,75,0,1
140224,-90.9090909090909,4,2,1,30,0,1
140309,-83.3333333333333,4,2,1,75,0,1
140561,-83.3333333333333,4,2,1,30,0,1
140646,-100,4,2,1,75,0,1
140898,-100,4,2,1,30,0,1
140983,-90.9090909090909,4,2,1,75,0,1
141740,-90.9090909090909,4,2,1,30,0,1
141825,-111.111111111111,4,2,1,75,0,1
141994,-90.9090909090909,4,2,1,75,0,1
142246,-90.9090909090909,4,2,1,30,0,1
142331,-83.3333333333333,4,2,1,75,0,1
142668,-100,4,2,1,75,0,1
143005,-111.111111111111,4,2,1,75,0,1
143679,-83.3333333333333,4,2,1,75,0,1
143931,-83.3333333333333,4,2,1,30,0,1
144016,-83.3333333333333,4,2,1,75,0,1
144185,-90.9090909090909,4,2,1,75,0,1
144438,-90.9090909090909,4,2,1,30,0,1
144522,-90.9090909090909,4,2,1,75,0,1
144775,-90.9090909090909,4,2,1,30,0,1
144859,-90.9090909090909,4,2,1,75,0,1
145028,-76.9230769230769,4,2,1,75,0,1
145280,-76.9230769230769,4,2,1,30,0,1
145365,-100,4,2,1,75,0,1
145533,-100,4,2,1,65,0,1
145702,-71.4285714285714,4,2,1,75,0,1
145955,-71.4285714285714,4,2,1,30,0,1
146039,-71.4285714285714,4,2,1,75,0,1
146376,-90.9090909090909,4,2,1,75,0,1
146628,-90.9090909090909,4,2,1,30,0,1
146713,-90.9090909090909,4,2,1,75,0,1
146882,-66.6666666666667,4,2,1,75,0,1
147134,-66.6666666666667,4,2,1,30,0,1
147219,-66.6666666666667,4,2,1,75,0,1
147387,-83.3333333333333,4,2,1,75,0,1
147639,-83.3333333333333,4,2,1,30,0,1
147724,-83.3333333333333,4,2,1,75,0,1
148061,-83.3333333333333,4,2,4,75,0,1
148314,-83.3333333333333,4,2,1,75,0,0
148398,-66.6666666666667,4,2,3,75,0,1
148650,-66.6666666666667,4,2,1,30,0,1
148736,-90.9090909090909,4,2,1,75,0,1
148988,-90.9090909090909,4,2,1,30,0,1
149073,-76.9230769230769,4,2,1,75,0,1
150084,-100,4,2,1,75,0,1
150421,-76.9230769230769,4,2,1,75,0,1
150673,-76.9230769230769,4,2,1,30,0,1
150758,-100,4,2,1,75,0,1
151095,-83.3333333333333,4,2,1,75,0,1
151347,-83.3333333333333,4,2,1,30,0,1
151432,-100,4,2,1,75,0,1
151684,-100,4,2,1,30,0,1
151769,-76.9230769230769,4,2,1,75,0,1
152275,-90.9090909090909,4,2,1,75,0,1
152528,-90.9090909090909,4,2,1,30,0,1
152612,-90.9090909090909,4,2,1,75,0,1
153032,-90.9090909090909,4,2,1,30,0,1
153118,-76.9230769230769,4,2,1,75,0,1
153455,-100,4,2,1,75,0,1
153623,-100,4,2,1,65,0,1
153792,-76.9230769230769,4,2,1,75,0,1
154297,-90.9090909090909,4,2,1,75,0,1
154466,-71.4285714285714,4,2,1,75,0,1
154718,-71.4285714285714,4,2,1,30,0,1
154803,-100,4,2,1,75,0,1
154972,-83.3333333333333,4,2,1,75,0,1
155224,-83.3333333333333,4,2,1,30,0,1
155309,-83.3333333333333,4,2,1,75,0,1
155561,-83.3333333333333,4,2,1,30,0,1
155646,-90.9090909090909,4,2,1,75,0,1
155814,-71.4285714285714,4,2,1,75,0,1
156066,-71.4285714285714,4,2,1,30,0,1
156151,-111.111111111111,4,2,1,75,0,0
156320,-111.111111111111,4,2,1,65,0,0
156488,-166.666666666667,4,2,1,70,0,1
156573,-166.666666666667,4,2,1,5,0,0
158847,-166.666666666667,4,2,2,40,0,0
159185,-133.333333333333,4,2,4,65,0,0
159522,-133.333333333333,4,2,4,60,0,0
160533,-125,4,2,4,62,0,0
161882,-125,4,2,4,64,0,0
163230,-117.647058823529,4,2,4,66,0,0
164578,-100,4,2,4,70,0,0
164831,-100,4,2,4,30,0,0
164915,-111.111111111111,4,2,4,68,0,0
165842,-111.111111111111,4,2,4,30,0,0
165927,-100,4,2,4,70,0,0
167275,-100,4,2,4,72,0,0
167949,-100,4,2,4,74,0,0
168623,-100,4,2,4,76,0,0
171994,-33.3333333333333,4,2,43,70,0,0
172036,-33.3333333333333,4,2,43,5,0,0
172668,-66.6666666666667,4,2,3,75,0,1
172674,-66.6666666666667,4,2,2,50,0,1
172921,-66.6666666666667,4,2,1,30,0,1
173005,-100,4,2,1,75,0,1
173342,-83.3333333333333,4,2,1,75,0,1
173848,-71.4285714285714,4,2,1,75,0,1
174101,-100,4,2,1,30,0,1
174185,-100,4,2,1,75,0,1
174522,-83.3333333333333,4,2,1,75,0,1
175028,-100,4,2,1,75,0,1
175365,-76.9230769230769,4,2,1,75,0,1
175702,-111.111111111111,4,2,1,75,0,1
177387,-90.9090909090909,4,2,1,75,0,1
177724,-111.111111111111,4,2,1,75,0,1
178061,-71.4285714285714,4,2,1,75,0,1
178904,-111.111111111111,4,2,1,75,0,1
179241,-90.9090909090909,4,2,1,75,0,1
179747,-100,4,2,1,75,0,1
180252,-111.111111111111,4,2,1,75,0,1
180758,-90.9090909090909,4,2,1,75,0,1
181011,-90.9090909090909,4,2,1,30,0,1
181095,-111.111111111111,4,2,1,75,0,1
181432,-76.9230769230769,4,2,1,75,0,1
181938,-71.4285714285714,4,2,1,75,0,1
182191,-71.4285714285714,4,2,1,30,0,1
182275,-71.4285714285714,4,2,1,75,0,1
182443,-90.9090909090909,4,2,1,75,0,1
183118,-200,4,2,1,60,0,0
183202,-200,4,2,1,50,0,0
183455,-62.5,4,2,3,75,0,1
183461,-62.5,4,2,2,50,0,1
184129,-100,4,2,1,75,0,1
184634,-76.9230769230769,4,2,1,75,0,1
184887,-76.9230769230769,4,2,1,30,0,1
184972,-76.9230769230769,4,2,1,75,0,1
185140,-90.9090909090909,4,2,1,75,0,1
186151,-76.9230769230769,4,2,1,75,0,1
186404,-76.9230769230769,4,2,1,30,0,1
186488,-100,4,2,1,75,0,1
186994,-90.9090909090909,4,2,1,75,0,1
187331,-83.3333333333333,4,2,1,75,0,1
187584,-83.3333333333333,4,2,1,30,0,1
187668,-83.3333333333333,4,2,1,75,0,1
187837,-90.9090909090909,4,2,1,75,0,1
188511,-90.9090909090909,4,2,4,75,0,1
188848,-83.3333333333333,4,2,1,75,0,1
189101,-83.3333333333333,4,2,1,30,0,1
189185,-111.111111111111,4,2,1,75,0,1
189522,-90.9090909090909,4,2,1,75,0,1
189859,-76.9230769230769,4,2,1,75,0,1
189866,-76.9230769230769,4,2,2,70,0,1
190449,-76.9230769230769,4,2,1,30,0,1
190533,-90.9090909090909,4,2,1,75,0,1
191039,-100,4,2,1,75,0,1
191207,-111.111111111111,4,2,1,75,0,1
191545,-83.3333333333333,4,2,1,75,0,1
191797,-100,4,2,1,30,0,1
191882,-100,4,2,1,75,0,1
192050,-100,4,2,1,65,0,1
192219,-83.3333333333333,4,2,1,75,0,1
192724,-166.666666666667,4,2,1,75,0,0
193061,-166.666666666667,4,2,4,66,0,0
193230,-166.666666666667,4,2,4,68,0,0
193398,-166.666666666667,4,2,4,70,0,0
193567,-166.666666666667,4,2,4,72,0,0
193736,-166.666666666667,4,2,4,74,0,0
193904,-166.666666666667,4,2,4,76,0,0
194073,-166.666666666667,4,2,4,60,0,0
194241,-66.6666666666667,4,2,3,75,0,1
194494,-66.6666666666667,4,2,3,30,0,1
194578,-90.9090909090909,4,2,1,75,0,1
195674,-90.9090909090909,4,2,3,30,0,1
195758,-90.9090909090909,4,2,1,75,0,1
198370,-90.9090909090909,4,2,3,30,0,1
198455,-90.9090909090909,4,2,1,75,0,1
199634,-71.4285714285714,4,2,1,75,0,1
199887,-71.4285714285714,4,2,3,30,0,1
199972,-90.9090909090909,4,2,1,75,0,1
203679,-76.9230769230769,4,2,1,75,0,1
204016,-90.9090909090909,4,2,1,75,0,1
204438,-71.4285714285714,4,2,3,30,0,1
204522,-90.9090909090909,4,2,1,75,0,1
204691,-200,4,2,1,65,0,0
204943,-200,4,2,1,20,0,0
205028,-66.6666666666667,4,2,3,75,0,1
205280,-66.6666666666667,4,2,3,30,0,1
205365,-90.9090909090909,4,2,1,75,0,1
206460,-90.9090909090909,4,2,3,30,0,1
206545,-90.9090909090909,4,2,1,75,0,1
207724,-71.4285714285714,4,2,1,75,0,1
207977,-71.4285714285714,4,2,3,30,0,1
208061,-90.9090909090909,4,2,1,75,0,1
208483,-90.9090909090909,4,2,3,30,0,1
208567,-90.9090909090909,4,2,1,75,0,1
209157,-90.9090909090909,4,2,3,30,0,1
209241,-90.9090909090909,4,2,1,75,0,1
210421,-66.6666666666667,4,2,1,75,0,1
210674,-66.6666666666667,4,2,3,30,0,1
210758,-90.9090909090909,4,2,1,75,0,1
211432,-83.3333333333333,4,2,1,75,0,1
211769,-90.9090909090909,4,2,1,75,0,1
213118,-71.4285714285714,4,2,1,75,0,1
213370,-71.4285714285714,4,2,3,30,0,1
213455,-90.9090909090909,4,2,1,75,0,1
214297,-83.3333333333333,4,2,1,75,0,1
214634,-90.9090909090909,4,2,1,75,0,1
215224,-90.9090909090909,4,2,1,30,0,1
215309,-90.9090909090909,4,2,1,75,0,1
216151,-90.9090909090909,4,2,1,70,0,1
216657,-90.9090909090909,4,2,1,65,0,1
216994,-90.9090909090909,4,2,1,60,0,1
217163,-166.666666666667,4,2,1,60,0,0
217169,-166.666666666667,4,2,2,30,0,0
217415,-166.666666666667,4,2,1,5,0,0
217500,-66.6666666666667,4,2,1,75,0,1
217584,-166.666666666667,4,2,1,20,0,0
217668,-76.9230769230769,4,2,1,70,0,0
217921,-76.9230769230769,4,2,1,30,0,0
218005,-100,4,2,1,70,0,0
219775,-100,4,2,1,30,0,0
219859,-100,4,2,1,70,0,0
224157,-100,4,2,1,30,0,0
224241,-100,4,2,1,70,0,0
225168,-100,4,2,1,30,0,0
225252,-83.3333333333333,4,2,1,70,0,0
225505,-83.3333333333333,4,2,1,30,0,0
225589,-100,4,2,1,70,0,0
226516,-100,4,2,1,30,0,0
226601,-133.333333333333,4,2,1,60,0,0
227949,-76.923076923077,4,2,1,70,0,1
228033,-90.909090909091,4,2,1,70,0,0
228202,-90.909090909091,4,2,1,30,0,0
228286,-90.909090909091,4,2,1,70,0,0
233258,-90.909090909091,4,2,1,30,0,0
233342,-90.909090909091,4,2,1,70,0,0
235955,-90.909090909091,4,2,1,30,0,0
236039,-90.909090909091,4,2,1,70,0,0
238651,-90.909090909091,4,2,1,20,0,0
238736,-200,4,2,1,65,0,0
238820,-200,4,2,1,5,0,0
240758,-200,4,2,1,30,0,0
240842,-200,4,2,1,5,0,0
240927,-76.9230769230769,4,2,1,60,0,0
241011,-76.9230769230769,4,2,1,20,0,0
241095,-76.9230769230769,4,2,1,65,0,0
241348,-76.9230769230769,4,2,1,20,0,0
241432,-90.9090909090909,4,2,1,70,0,0
241685,-90.9090909090909,4,2,1,30,0,0
241769,-111.111111111111,4,2,1,65,0,0
242443,-117.647058823529,4,2,1,60,0,0
243118,-117.647058823529,4,2,1,55,0,0
244129,-125,4,2,1,50,0,0
244634,-125,4,2,1,45,0,0
245140,-133.333333333333,4,2,1,40,0,0
245814,-133.333333333333,4,2,1,35,0,0
246151,-133.333333333333,4,2,1,30,0,0
246488,-133.333333333333,4,2,1,25,0,0
246825,-142.857142857143,4,2,1,20,0,0
247837,-153.846153846154,4,2,1,15,0,0
248848,-166.666666666667,4,2,1,10,0,0
249185,-166.666666666667,4,2,1,5,0,0
249354,-166.666666666667,4,2,99,5,0,0

[Colours]
Combo1 : 148,157,248
Combo2 : 4,136,200
Combo3 : 113,113,255
Combo4 : 61,174,194

[HitObjects]
224,179,2275,5,0,1:2:0:0:
224,179,2359,1,0,1:2:0:0:
224,179,2443,2,0,B|189:169|189:169|172:173|172:173|134:163,1,80,8|0,0:2|1:2,0:0:0:0:
56,83,2781,6,0,P|18:144|32:234,1,160,6|8,1:2|0:2,0:2:0:0:
155,173,3286,1,2,0:2:0:0:
155,173,3370,1,0,0:2:0:0:
155,173,3455,2,0,P|152:127|148:79,1,80,0|0,0:2|1:2,0:0:0:0:
283,12,3792,2,0,P|270:69|256:160,1,120,10|0,0:2|0:2,0:2:0:0:
261,143,4129,6,0,P|298:156|350:147,1,80,2|0,1:2|0:2,0:2:0:0:
234,264,4466,2,0,P|196:250|157:255,1,80,8|2,0:2|0:2,0:2:0:0:
157,255,4719,1,2,0:2:0:0:
157,255,4803,1,2,0:2:0:0:
208,375,4972,1,0,1:2:0:0:
309,332,5140,2,0,P|335:255|323:212,1,120,8|0,0:2|0:2,0:2:0:0:
307,145,5477,6,0,B|393:133,1,80,2|0,1:2|0:0,0:2:0:0:
244,41,5814,2,0,B|158:29,1,80,8|2,0:2|0:2,0:2:0:0:
164,29,6067,1,0,0:2:0:0:
164,29,6151,1,0,0:2:0:0:
71,110,6320,1,0,1:2:0:0:
143,204,6488,2,0,B|229:216,1,80,10|0,0:2|0:0,0:2:0:0:
325,330,6825,5,2,1:2:0:0:
430,233,6994,1,0,0:2:0:0:
398,384,7163,1,8,0:2:0:0:
348,252,7331,1,2,0:2:0:0:
348,252,7415,1,2,0:2:0:0:
348,252,7500,2,0,P|306:233|254:228,1,80,2|0,0:2|1:2,0:2:0:0:
185,353,7837,2,0,P|123:367|65:306,1,120,8|0,0:2|0:2,0:2:0:0:
63,344,8174,6,0,P|57:247|39:156,1,160,2|8,1:2|0:2,0:2:0:0:
155,56,8679,1,2,0:2:0:0:
155,56,8764,1,0,0:2:0:0:
155,56,8848,2,0,P|137:107|133:138,1,80,0|0,0:2|1:2,0:0:0:0:
251,179,9185,1,10,0:2:0:0:
155,261,9354,1,0,0:2:0:0:
267,171,9522,6,0,P|281:133|288:94,1,80,2|0,1:2|0:2,0:2:0:0:
443,66,9859,2,0,P|429:104|422:143,1,80,8|2,0:2|0:2,0:2:0:0:
422,142,10112,1,2,0:2:0:0:
422,142,10196,1,2,0:2:0:0:
498,234,10365,1,0,1:2:0:0:
417,303,10533,2,0,P|374:305|286:317,1,120,8|0,0:2|0:2,0:2:0:0:
258,381,10870,6,0,L|241:210,1,160,2|8,1:2|0:2,0:2:0:0:
258,78,11376,1,2,0:2:0:0:
258,78,11460,1,0,0:2:0:0:
258,78,11545,1,0,0:2:0:0:
375,156,11713,1,0,1:2:0:0:
242,221,11882,2,0,P|211:213|117:204,1,120,10|0,0:2|0:2,0:2:0:0:
46,193,12219,5,2,1:2:0:0:
107,297,12387,1,0,0:2:0:0:
183,127,12556,1,8,0:2:0:0:
250,229,12724,1,2,0:2:0:0:
250,229,12809,1,0,0:2:0:0:
250,229,12893,2,0,P|295:244|348:245,1,80,0|0,0:2|1:2,0:0:0:0:
183,127,13230,2,0,P|169:82|137:22,1,80,8|0,0:2|0:0,0:2:0:0:
369,16,13567,6,0,P|329:36|307:143,1,160,2|8,1:2|0:2,0:2:0:0:
433,84,14073,1,2,0:2:0:0:
433,84,14157,1,0,0:2:0:0:
433,84,14241,2,0,P|477:75|533:75,1,80,0|0,0:2|1:2,0:0:0:0:
414,182,14578,1,10,0:2:0:0:
504,253,14747,1,0,0:2:0:0:
403,170,14915,6,0,P|363:161|324:159,1,80,2|0,1:2|0:0,0:2:0:0:
306,325,15252,2,0,P|346:334|385:336,1,80,8|2,0:2|0:2,0:2:0:0:
384,336,15505,1,2,0:2:0:0:
384,336,15589,1,2,0:2:0:0:
300,241,15758,1,0,1:2:0:0:
228,352,15927,2,0,P|179:371|95:361,1,120,8|0,2:2|0:2,0:2:0:0:
94,377,16264,6,0,P|87:337|75:299,1,80,2|0,1:2|0:2,0:2:0:0:
190,159,16601,2,0,P|177:197|171:236,1,80,8|2,0:2|0:2,0:2:0:0:
171,236,16854,1,0,0:2:0:0:
171,236,16938,1,0,0:2:0:0:
284,201,17106,1,0,1:2:0:0:
241,84,17275,1,10,0:2:0:0:
290,218,17443,1,0,0:2:0:0:
228,68,17612,6,0,P|201:59|140:51,1,80,2|0,1:2|0:2,0:0:0:0:
98,208,17949,2,0,P|58:202|20:191,1,80,8|2,0:2|0:2,0:0:0:0:
21,191,18202,1,0,0:2:0:0:
21,191,18286,1,0,0:2:0:0:
118,128,18455,1,0,1:2:0:0:
82,294,18623,1,8,0:2:0:0:
179,231,18792,1,0,0:2:0:0:
232,369,18960,6,0,L|211:306,1,60.0000022888184,2|0,1:2|0:2,0:2:0:0:
348,351,19297,2,0,L|347:285,1,60.0000022888184,0|0,1:2|0:2,0:2:0:0:
214,312,19634,6,0,L|181:254,1,65.6000010009766,0|0,1:2|0:2,0:2:0:0:
348,291,19972,2,0,L|361:226,1,65.6000010009766,0|0,1:2|0:2,0:2:0:0:
182,255,20309,6,0,L|130:197,1,71.9999978027344,2|0,1:2|0:2,0:2:0:0:
361,226,20646,2,0,L|391:155,1,71.9999978027344,0|0,1:2|0:2,0:2:0:0:
274,260,20983,6,0,L|258:165,1,80,0|0,1:2|0:2,0:2:0:0:
241,71,21320,1,0,1:2:0:0:
241,71,21488,1,0,1:2:0:0:
327,20,21657,5,14,0:2:0:0:
317,118,21825,1,0,1:2:0:0:
317,118,21994,1,0,1:2:0:0:
149,47,22163,5,10,0:2:0:0:
193,139,22331,1,0,1:2:0:0:
193,139,22500,1,0,1:2:0:0:
74,128,22668,5,0,1:2:0:0:
54,142,22752,1,0,1:2:0:0:
40,161,22837,1,0,1:2:0:0:
30,182,22921,1,0,1:2:0:0:
25,205,23005,2,0,P|25:250|43:282,1,80,14|0,0:2|1:2,0:0:0:0:
148,366,23342,5,0,1:2:0:0:
148,366,23427,1,0,1:2:0:0:
148,366,23511,2,0,L|158:278,1,66.4000009625244,8|0,0:2|0:2,0:2:0:0:
256,192,23848,5,0,1:2:0:0:
256,192,23932,1,0,1:2:0:0:
256,192,24016,1,8,0:2:0:0:
349,307,24185,5,8,0:2:0:0:
349,307,24269,1,8,0:2:0:0:
349,307,24354,2,0,B|388:315|424:336|424:336|455:310|493:296,2,160,6|8|0,1:2|0:2|0:2,0:2:0:0:
234,223,25196,5,2,1:2:0:0:
134,301,25365,1,8,0:2:0:0:
114,168,25533,1,0,0:2:0:0:
245,233,25702,6,0,P|289:233|339:207,1,80,2|0,1:2|0:2,0:2:0:0:
391,34,26039,1,8,0:2:0:0:
480,90,26207,1,2,0:2:0:0:
480,90,26292,1,0,0:2:0:0:
480,90,26376,1,0,0:2:0:0:
384,136,26545,1,0,1:2:0:0:
304,12,26713,2,0,P|279:53|285:128,1,120,10|0,0:2|0:2,0:2:0:0:
284,138,27050,6,0,B|196:107|221:181|130:146,1,160,2|8,1:2|0:2,0:2:0:0:
22,45,27556,1,2,0:2:0:0:
22,45,27640,1,2,0:2:0:0:
22,45,27724,1,2,0:2:0:0:
132,1,27893,1,0,1:2:0:0:
118,136,28061,1,8,0:2:0:0:
221,73,28230,6,0,P|244:66|270:64,1,40,2|2,0:2|0:2,0:0:0:0:
259,64,28398,2,0,P|279:113|264:232,1,160,2|8,1:2|0:2,0:2:0:0:
129,285,28904,5,2,0:2:0:0:
129,285,28988,1,2,0:2:0:0:
129,285,29073,1,2,0:2:0:0:
31,236,29241,1,0,1:2:0:0:
90,371,29410,2,0,P|150:381|213:334,1,120,8|0,0:2|0:2,0:2:0:0:
272,299,29747,6,0,P|320:333|436:308,1,160,2|8,1:2|0:2,0:2:0:0:
478,133,30252,1,2,0:2:0:0:
478,133,30337,1,2,0:2:0:0:
478,133,30421,1,2,0:2:0:0:
512,256,30589,1,0,1:2:0:0:
376,201,30758,1,8,0:2:0:0:
478,101,30927,6,0,P|459:94|428:89,1,40,2|0,0:2|0:2,0:2:0:0:
439,90,31095,2,0,P|387:106|289:67,1,160,2|8,1:2|0:2,0:2:0:0:
113,98,31601,5,2,0:2:0:0:
113,98,31685,1,2,0:2:0:0:
113,98,31769,1,2,0:2:0:0:
184,179,31938,1,0,1:2:0:0:
214,19,32106,1,8,0:2:0:0:
334,155,32275,5,2,0:2:0:0:
334,155,32359,1,2,0:2:0:0:
334,155,32443,2,0,L|325:335,1,160,2|8,1:2|0:2,0:0:0:0:
151,383,32949,5,2,0:2:0:0:
151,383,33033,1,2,0:2:0:0:
151,383,33118,1,2,0:2:0:0:
212,272,33286,1,0,1:2:0:0:
96,209,33455,1,8,0:2:0:0:
231,294,33623,6,0,P|263:288|286:275,1,40,2|0,0:2|0:2,0:2:0:0:
269,285,33792,2,0,P|279:215|298:122,1,160,2|8,1:2|0:2,0:2:0:0:
467,25,34297,5,2,0:2:0:0:
467,25,34382,1,2,0:2:0:0:
467,25,34466,1,2,0:2:0:0:
409,152,34634,1,0,1:2:0:0:
367,36,34803,1,8,0:2:0:0:
509,138,34972,1,2,0:2:0:0:
420,244,35140,6,0,P|335:217|250:202,1,143.999995605469,6|8,1:2|0:2,0:2:0:0:
211,168,35646,2,0,P|199:175|180:176,2,27.9999991455078,2|0|0,1:2|0:2|0:2,0:2:0:0:
185,176,36151,6,0,P|235:196|147:346,1,287.999991210938,6|2,1:2|0:2,0:2:0:0:
161,350,37163,2,0,L|155:274,1,64,2|0,1:2|0:2,0:2:0:0:
241,367,37500,2,0,L|235:291,1,64,2|0,1:2|0:2,0:2:0:0:
293,208,37837,6,0,P|344:255|414:249,1,143.999995605469,6|8,1:2|0:2,0:2:0:0:
471,199,38342,2,0,P|480:181|493:167,2,27.9999991455078,2|0|0,1:2|0:2|0:2,0:2:0:0:
485,174,38848,6,0,B|322:104|368:244|208:171,1,287.999991210938,6|2,1:2|0:2,0:2:0:0:
133,95,39859,5,2,0:2:0:0:
173,0,40196,5,2,0:2:0:0:
264,121,40533,6,0,B|250:173|250:173|262:208|262:208|250:259,1,143.999995605469,6|8,1:2|0:2,0:2:0:0:
293,352,41039,2,0,P|241:307|172:319,1,143.999995605469,2|0,0:2|1:2,0:2:0:0:
85,339,41545,2,0,L|-19:323,1,71.9999978027344,8|0,0:2|0:2,0:2:0:0:
87,197,41882,6,0,L|-17:213,1,71.9999978027344,2|0,1:2|0:2,0:2:0:0:
169,234,42219,2,0,B|178:198|178:198|169:138,1,71.9999978027344,8|0,0:2|0:2,0:2:0:0:
172,163,42472,1,0,0:2:0:0:
172,163,42556,1,0,0:2:0:0:
121,88,42724,1,0,1:2:0:0:
204,35,42893,2,0,B|251:55|251:55|301:28,1,107.999996704102,8|0,0:2|0:2,0:2:0:0:
316,21,43230,5,2,1:2:0:0:
358,117,43398,1,0,0:2:0:0:
439,42,43567,1,8,0:2:0:0:
346,129,43736,2,0,P|326:166|377:252,1,143.999995605469,2|0,0:2|1:2,0:2:0:0:
445,161,44241,2,0,L|457:82,1,71.9999978027344,8|0,0:2|0:2,0:2:0:0:
326,142,44578,6,0,P|259:177|193:167,1,143.999995605469,2|8,1:2|0:2,0:2:0:0:
174,50,45084,2,0,P|235:15|306:24,1,143.999995605469,0|0,0:2|1:2,0:2:0:0:
399,73,45589,2,0,P|433:82|476:84,1,71.9999978027344,8|0,0:2|0:0,0:2:0:0:
383,191,45927,5,2,1:2:0:0:
461,225,46095,1,0,0:2:0:0:
396,282,46264,1,8,0:2:0:0:
327,249,46432,1,2,0:2:0:0:
327,249,46516,1,0,0:2:0:0:
327,249,46601,2,0,L|332:174,1,71.9999978027344,0|0,0:2|1:2,0:0:0:0:
282,83,46938,1,8,0:2:0:0:
282,83,47106,1,0,0:2:0:0:
190,183,47275,6,0,L|199:326,1,143.999995605469,2|8,1:2|0:2,0:2:0:0:
93,384,47780,2,0,L|83:240,1,143.999995605469,0|0,0:2|1:2,0:2:0:0:
78,140,48286,2,0,L|-2:124,1,71.9999978027344,8|0,0:2|0:2,0:2:0:0:
134,32,48623,5,2,1:2:0:0:
213,110,48792,1,0,0:2:0:0:
256,17,48960,1,8,0:2:0:0:
201,126,49129,2,0,P|206:164|235:219,1,71.9999978027344,2|0,0:2|0:2,0:2:0:0:
344,271,49466,1,0,1:2:0:0:
250,304,49634,1,8,0:2:0:0:
312,178,49803,1,0,0:2:0:0:
360,283,49972,6,0,P|397:295|436:299,1,71.9999978027344,2|0,1:2|0:0,0:2:0:0:
428,135,50309,2,0,P|465:123|504:119,1,71.9999978027344,8|0,0:2|0:2,0:2:0:0:
497,119,50561,1,0,0:2:0:0:
497,119,50646,1,0,0:2:0:0:
444,219,50814,1,0,1:2:0:0:
344,176,50983,2,0,P|335:121|359:69,1,107.999996704102,8|0,0:2|0:2,0:2:0:0:
368,58,51320,5,2,1:2:0:0:
290,126,51488,1,0,0:2:0:0:
252,11,51657,1,8,0:2:0:0:
174,79,51825,2,0,P|197:136|155:219,1,143.999995605469,2|0,0:2|1:2,0:2:0:0:
66,132,52331,1,8,0:2:0:0:
66,132,52500,1,0,0:2:0:0:
169,225,52668,6,0,B|200:258|254:252|254:252|280:221|320:216,1,143.999995605469,2|8,1:2|0:2,0:2:0:0:
388,331,53174,2,0,P|349:307|310:297,1,71.9999978027344,0|0,0:2|0:2,0:2:0:0:
238,372,53511,1,0,1:2:0:0:
170,281,53679,2,0,P|193:232|196:179,1,107.999996704102,8|0,0:2|0:2,0:2:0:0:
188,156,54016,5,2,1:2:0:0:
96,93,54185,1,0,0:2:0:0:
162,42,54354,1,8,0:2:0:0:
112,186,54522,1,2,0:2:0:0:
112,186,54606,1,0,0:2:0:0:
112,186,54691,2,0,L|30:205,1,71.9999978027344,0|0,0:2|1:2,0:0:0:0:
0,303,55028,1,8,0:2:0:0:
0,303,55196,1,0,0:2:0:0:
100,383,55365,6,0,L|108:292,1,71.9999978027344,2|0,1:2|0:0,0:2:0:0:
273,334,55702,2,0,L|185:346,1,71.9999978027344,8|0,0:2|0:2,0:2:0:0:
201,343,55955,1,0,0:2:0:0:
201,343,56039,1,0,0:2:0:0:
121,284,56207,1,0,1:2:0:0:
186,210,56376,2,0,B|231:214|231:214|249:228|249:228|312:233,1,107.999996704102,8|0,0:2|0:2,0:2:0:0:
314,237,56713,5,2,1:2:0:0:
386,155,56882,1,0,0:2:0:0:
296,94,57050,1,8,0:2:0:0:
403,168,57219,2,0,B|422:123|475:117|475:117|426:65,1,143.999995605469,2|0,0:2|1:2,0:2:0:0:
310,113,57724,2,0,P|275:115|212:137,1,71.9999978027344,8|0,0:2|0:2,0:2:0:0:
188,257,58061,6,0,P|153:255|90:233,1,71.9999978027344,2|0,1:2|0:0,0:2:0:0:
290,207,58398,2,0,P|293:238|304:282,1,71.9999978027344,8|0,0:2|0:2,0:2:0:0:
303,277,58651,1,0,0:2:0:0:
303,277,58736,1,0,0:2:0:0:
412,228,58904,1,0,1:2:0:0:
367,132,59073,1,8,0:2:0:0:
422,249,59241,1,0,0:2:0:0:
354,107,59410,6,0,P|318:91|264:86,1,64,4|0,1:2|0:2,0:2:0:0:
332,229,59747,2,0,P|310:195|267:162,1,64,0|0,1:2|0:2,0:2:0:0:
236,317,60084,2,0,P|235:277|218:226,1,64,0|0,1:2|0:2,0:2:0:0:
102,354,60421,2,0,P|123:320|136:268,1,64,0|0,1:2|0:2,0:2:0:0:
118,162,60758,5,4,1:2:0:0:
6,196,60927,1,0,1:2:0:0:
29,66,61095,1,8,0:2:0:0:
126,170,61264,5,0,1:2:0:0:
126,170,61348,2,0,P|173:186|230:154,1,107.999996704102,0|0,1:2|1:2,0:0:0:0:
284,94,61769,6,2,P|289:74|302:56,2,30.0000011444092,8|0|0,0:1|0:2|0:2,0:1:0:0:
294,66,62106,6,0,P|335:68|387:151,1,120,6|0,1:2|0:2,0:2:0:0:
395,141,62443,2,0,L|444:150,2,40,8|0|0,2:2|2:2|2:2,2:2:0:0:
284,207,62780,1,2,0:2:0:0:
361,257,62949,1,0,1:2:0:0:
268,194,63118,1,8,0:2:0:0:
281,319,63286,1,0,0:2:0:0:
254,179,63455,6,0,P|218:157|156:161,1,80,0|0,1:2|2:2,2:2:0:0:
181,153,63707,1,0,2:2:0:0:
181,153,63792,1,8,2:2:0:0:
77,197,63960,2,0,L|34:180,2,40,2|0|0,2:2|2:2|2:2,0:0:0:0:
159,258,64297,1,0,1:2:0:0:
77,308,64466,1,8,2:2:0:0:
191,376,64634,5,0,0:2:0:0:
191,376,64719,1,0,0:2:0:0:
191,376,64803,2,0,L|183:280,1,80,2|0,1:2|0:0,0:2:0:0:
360,199,65140,2,0,L|353:278,1,80,8|2,0:2|2:2,0:2:0:0:
345,297,65393,1,0,2:2:0:0:
330,310,65477,1,0,2:2:0:0:
311,318,65561,1,0,2:2:0:0:
290,316,65646,1,0,1:2:0:0:
261,186,65814,2,0,P|209:156|135:169,1,120,8|0,0:2|0:0,0:2:0:0:
73,188,66151,5,2,1:2:0:0:
147,81,66320,1,0,0:2:0:0:
40,19,66488,1,8,0:2:0:0:
147,81,66657,1,2,0:2:0:0:
147,81,66741,1,0,0:2:0:0:
147,81,66825,2,0,P|188:79|238:62,1,80,0|0,0:2|1:2,0:0:0:0:
325,21,67163,1,8,0:2:0:0:
325,21,67331,1,0,0:2:0:0:
357,150,67500,6,0,P|399:199|481:191,1,120,2|0,1:2|0:2,0:2:0:0:
470,198,67837,2,0,L|479:134,2,40,8|0|0,0:2|0:2|0:2,0:2:0:0:
347,266,68174,1,2,0:2:0:0:
440,303,68342,1,0,1:2:0:0:
375,379,68511,1,8,0:2:0:0:
282,342,68679,1,0,0:2:0:0:
355,248,68848,6,0,P|372:205|364:152,1,80,2|0,1:2|0:2,0:2:0:0:
370,171,69101,1,0,0:2:0:0:
370,171,69185,1,8,0:2:0:0:
334,61,69354,2,0,L|352:20,2,40,2|0|0,0:2|0:2|0:2,0:0:0:0:
254,157,69691,1,0,1:2:0:0:
216,33,69859,1,8,0:2:0:0:
130,141,70028,5,0,0:2:0:0:
130,141,70112,1,0,0:2:0:0:
130,141,70196,2,0,L|42:119,1,80,2|0,1:2|0:0,0:2:0:0:
152,262,70533,2,0,L|74:242,1,80,8|0,0:2|0:2,0:2:0:0:
54,242,70786,1,0,0:2:0:0:
35,248,70870,1,2,0:2:0:0:
23,264,70955,1,0,0:2:0:0:
19,283,71039,1,0,1:2:0:0:
132,370,71207,2,0,P|174:357|238:349,1,80,8|0,0:2|0:2,0:2:0:0:
360,290,71545,6,0,P|413:319|489:307,1,120,2|0,1:2|0:1,0:2:0:0:
508,245,71882,2,0,P|493:202|486:158,1,80,8|0,0:2|0:2,0:2:0:0:
486,168,72134,1,0,0:2:0:0:
486,168,72219,1,2,0:2:0:0:
409,123,72387,1,0,1:2:0:0:
342,201,72556,2,0,P|282:204|231:175,1,120,8|0,0:2|0:2,0:2:0:0:
165,129,72893,6,0,P|192:89|200:45,1,80,6|0,1:2|0:0,0:2:0:0:
64,122,73230,1,8,0:2:0:0:
45,129,73314,1,0,0:2:0:0:
29,141,73398,1,0,0:2:0:0:
18,158,73483,1,0,0:2:0:0:
10,176,73567,1,2,0:2:0:0:
43,293,73736,1,0,1:2:0:0:
144,220,73904,2,0,P|208:206|280:198,1,120,8|0,0:2|0:2,0:2:0:0:
347,236,74241,6,0,L|361:132,1,80,2|0,1:2|0:2,0:2:0:0:
357,156,74494,1,0,0:2:0:0:
357,156,74578,1,8,0:2:0:0:
459,253,74747,1,2,0:2:0:0:
459,253,74831,1,0,0:2:0:0:
459,253,74915,2,0,L|445:357,1,80,0|0,0:2|1:2,0:0:0:0:
335,383,75252,1,8,0:2:0:0:
257,274,75421,5,0,0:2:0:0:
257,274,75505,1,0,0:2:0:0:
257,274,75589,2,0,L|161:254,1,80,2|0,1:2|0:0,0:2:0:0:
309,181,75927,2,0,P|350:150|373:114,1,80,8|0,0:2|0:2,0:2:0:0:
366,127,76179,1,0,0:2:0:0:
366,127,76264,1,2,0:2:0:0:
317,18,76432,1,0,1:2:0:0:
236,112,76601,2,0,P|184:105|128:53,1,120,8|0,0:2|0:0,0:2:0:0:
84,2,76938,5,2,1:2:0:0:
98,153,77106,1,0,0:2:0:0:
133,62,77275,1,8,0:2:0:0:
19,158,77443,1,2,1:2:0:0:
19,158,77528,1,0,0:2:0:0:
19,158,77612,1,0,0:2:0:0:
157,217,77780,1,0,1:2:0:0:
71,314,77949,5,8,0:2:0:0:
63,287,78033,1,8,0:2:0:0:
55,259,78118,1,0,1:2:0:0:
191,309,78286,6,0,B|236:321|236:321|276:302|276:302|325:316,1,132.00000402832,4|0,1:2|0:2,0:2:0:0:
383,346,78623,2,0,L|407:261,1,88.000002685547,0|0,1:2|0:2,0:2:0:0:
406,261,78876,1,0,0:2:0:0:
406,261,78960,1,0,1:2:0:0:
320,183,79129,1,2,0:2:0:0:
426,152,79297,1,0,1:2:0:0:
347,70,79466,1,0,0:2:0:0:
308,201,79634,6,0,P|261:230|186:194,1,132.00000402832,6|0,1:2|0:2,0:2:0:0:
120,234,79972,2,0,L|110:127,1,88.000002685547,0|2,1:2|0:2,0:2:0:0:
104,135,80224,1,2,0:2:0:0:
96,124,80309,2,2,L|68:132,6,22.0000006713867,2|0|2|0|2|0|2,1:2|0:0|0:2|0:0|0:2|0:0|0:2,0:2:0:0:
137,61,80646,2,2,L|165:53,6,22.0000006713867,10|0|2|0|2|0|2,2:2|0:0|0:2|0:0|0:2|0:0|0:2,0:2:0:0:
69,15,80983,6,0,B|52:47|69:124|166:195|212:128|350:145|407:289|309:391|234:407|173:358|170:290|217:265,1,600.000022888184,4|0,1:1|0:2,0:2:0:0:
214,266,83174,6,0,L|179:254,2,32,2|0|0,0:2|0:2|0:2,0:2:0:0:
281,222,83679,6,0,P|302:270|412:280,1,160,4|0,1:1|0:2,0:2:0:0:
464,239,84522,1,0,0:2:0:0:
464,239,84691,1,0,0:2:0:0:
464,239,84859,2,0,P|455:207|443:146,1,80,2|0,0:2|0:2,0:2:0:0:
376,120,85365,2,0,P|337:130|298:138,1,80,0|0,0:2|0:2,0:2:0:0:
257,208,85870,2,0,P|267:246|275:285,1,80,0|0,0:2|0:2,0:2:0:0:
165,342,86376,6,0,P|126:331|87:324,1,80,2|0,0:2|0:2,0:2:0:0:
30,272,86882,2,0,P|64:277|292:130,1,320,2|0,0:2|0:2,0:2:0:0:
295,139,88736,1,0,0:2:0:0:
295,139,88904,1,0,0:2:0:0:
348,203,89073,6,0,P|398:237|503:178,1,191.999994140625,2|0,0:2|0:2,0:2:0:0:
502,180,90084,2,0,P|483:146|478:118,1,47.9999985351563,0|0,0:2|0:2,0:2:0:0:
495,61,90421,2,0,P|462:91|398:73,1,95.9999970703126,2|0,0:2|0:2,0:2:0:0:
336,90,90927,2,0,P|331:60|322:37,1,47.9999985351563,0|0,0:2|0:2,0:2:0:0:
221,19,91264,5,0,0:2:0:0:
221,19,91432,2,0,P|226:49|235:72,1,47.9999985351563,0|0,0:2|0:2,0:2:0:0:
222,152,91769,2,0,P|201:145|122:136,1,95.9999970703126,2|0,0:2|0:2,0:2:0:0:
112,225,92275,2,0,P|133:232|212:241,1,95.9999970703126,0|0,0:2|0:2,0:2:0:0:
307,211,92780,5,0,0:2:0:0:
307,211,92949,2,0,P|306:260|473:325,1,239.999992675781,2|0,0:2|0:2,0:2:0:0:
454,335,94129,2,0,L|397:323,1,47.9999985351563,0|0,0:2|0:2,0:2:0:0:
335,269,94466,6,0,P|313:305|146:334,1,207.999990478516,2|0,0:2|0:2,0:2:0:0:
89,373,95309,1,0,0:2:0:0:
89,373,95477,1,0,0:2:0:0:
89,373,95646,2,0,P|137:299|112:177,1,207.999990478516,2|0,0:2|0:2,0:2:0:0:
122,189,96825,1,0,0:2:0:0:
122,189,96994,1,0,0:2:0:0:
189,248,97163,6,0,P|223:256|291:222,1,103.999995239258,2|0,0:2|0:2,0:2:0:0:
319,154,97668,2,0,P|268:147|223:172,1,103.999995239258,0|0,0:2|0:2,0:2:0:0:
189,248,98174,1,0,0:2:0:0:
106,254,98342,2,0,P|70:250|39:228,1,51.999997619629,2|0,0:2|0:2,0:2:0:0:
17,148,98679,1,0,0:2:0:0:
17,148,98848,2,0,P|37:113|57:45,1,103.999995239258,2|0,0:2|0:2,0:2:0:0:
56,52,99522,2,0,P|62:74|81:100,1,51.999997619629,0|0,0:2|0:2,0:0:0:0:
155,143,99859,5,2,0:2:0:0:
326,90,100196,1,0,0:2:0:0:
379,261,100533,1,0,0:2:0:0:
208,314,100870,2,0,P|212:221|213:138,1,167.999994873047,2|0,0:2|0:2,0:2:0:0:
297,211,101545,2,0,P|346:230|415:230,1,111.999996582031,0|0,0:2|0:2,0:2:0:0:
405,232,102219,2,0,P|434:216|463:207,1,55.9999982910157,0|0,0:2|0:2,0:0:0:0:
385,122,102556,6,0,P|340:88|267:71,1,120.000004577637,2|0,0:2|0:2,0:2:0:0:
184,105,103061,2,0,P|180:71|169:24,1,60.0000022888184,2|0,0:2|0:2,0:2:0:0:
64,18,103398,1,0,0:2:0:0:
64,18,103567,1,0,0:2:0:0:
64,18,103736,2,0,P|45:55|74:139,1,120.000004577637,2|0,0:2|0:2,0:2:0:0:
190,193,104241,6,0,P|245:182|303:177,1,95.9999970703126,2|0,0:2|0:2,0:2:0:0:
284,177,104747,1,2,0:2:0:0:
284,177,104915,1,0,0:2:0:0:
284,177,105084,1,0,0:2:0:0:
164,237,105252,6,0,B|111:221|111:221|71:254|16:230,1,143.999995605469,4|0,1:2|0:2,0:2:0:0:
27,234,105589,2,0,L|24:155,1,71.9999978027344,8|0,0:2|0:2,0:2:0:0:
119,35,105927,6,0,P|163:69|260:58,1,132.00000402832,10|0,0:2|0:2,0:2:0:0:
236,69,106264,2,0,L|230:28,2,35.9999989013672,2|0|0,0:2|0:2|0:2,0:2:0:0:
312,199,106601,6,0,P|280:174|241:168,1,80,2|0,1:2|0:2,0:2:0:0:
241,168,106854,1,0,0:2:0:0:
241,168,106938,1,8,0:2:0:0:
156,270,107106,1,0,1:2:0:0:
272,338,107275,1,10,0:2:0:0:
243,258,107443,1,0,1:2:0:0:
183,348,107612,2,0,P|132:366|79:350,1,107.999996704102,8|0,0:2|0:2,0:2:0:0:
11,318,107949,6,0,B|27:292|49:281|49:281|63:180,1,132.00000402832,2|0,1:2|0:2,0:2:0:0:
59,203,108286,1,8,0:2:0:0:
156,270,108455,1,0,1:2:0:0:
239,188,108623,6,0,B|237:123|193:129|197:64,1,132.00000402832,10|0,0:2|0:2,0:2:0:0:
196,66,108960,2,0,L|245:56,2,35.9999989013672,8|0|0,0:2|0:2|0:2,0:2:0:0:
75,164,109297,6,0,P|105:167|182:189,1,80,2|0,1:2|0:2,0:2:0:0:
153,178,109550,1,0,0:2:0:0:
153,178,109634,1,8,0:2:0:0:
199,303,109803,1,0,1:2:0:0:
325,240,109972,6,0,B|368:252|368:252|407:233|407:233|482:254,1,132.00000402832,10|0,0:2|0:2,0:2:0:0:
449,244,110309,2,2,B|454:225|454:225|453:221|453:221|455:217|455:217|464:177,1,55.9999982910157,10|0,0:1|0:0,0:1:0:0:
387,28,110646,6,2,L|453:4,1,64,2|0,1:2|0:2,0:1:0:0:
310,157,110983,6,2,L|392:127,1,71.9999978027344,2|0,1:2|0:2,0:1:0:0:
156,117,111320,6,2,L|238:87,1,80,2|0,1:2|0:2,0:1:0:0:
132,293,111657,6,2,L|219:261,1,88.000002685547,2|0,1:2|0:2,0:1:0:0:
33,168,111994,6,2,L|-11:152,1,35.9999989013672,2|0,3:2|3:2,2:1:0:0:
61,100,112163,2,2,L|77:56,1,35.9999989013672,2|0,3:2|3:2,2:1:0:0:
129,128,112331,2,2,L|173:144,1,35.9999989013672,2|0,3:2|3:2,2:1:0:0:
101,196,112500,2,2,L|85:240,1,35.9999989013672,2|0,3:2|3:2,0:1:0:0:
81,148,112668,5,2,3:2:0:0:
68,129,112752,1,0,3:2:0:0:
62,107,112837,1,0,3:2:0:0:
62,85,112921,1,0,3:2:0:0:
69,64,113005,1,2,3:2:0:0:
81,45,113089,1,0,3:2:0:0:
99,31,113174,1,0,3:2:0:0:
120,23,113258,1,0,3:2:0:0:
142,22,113342,1,4,1:3:0:0:
256,192,113427,12,8,115533,0:2:0:0:
289,151,115702,6,0,B|241:132|241:132|269:157,1,90.0000034332277,8|0,0:2|0:2,0:2:0:0:
306,228,116039,6,2,B|311:149|383:139|383:139|352:125|336:86,1,180.000006866455,6|0,1:1|0:2,0:1:0:0:
415,70,116376,2,2,P|456:67|482:18,1,88.000002685547,2|0,0:2|0:0,0:2:0:0:
385,217,116713,2,0,B|409:231|419:259|419:259|420:225|392:200,1,103.999995239258,8|0,0:2|0:2,0:2:0:0:
292,45,117050,5,2,3:2:0:0:
257,17,117134,1,2,3:2:0:0:
213,23,117219,1,2,3:2:0:0:
197,64,117303,1,2,3:2:0:0:
163,91,117387,2,0,P|122:93|86:54,1,88.000002685547,0|0,1:2|0:2,0:0:0:0:
78,65,117640,1,0,0:2:0:0:
67,67,117724,6,2,L|72:108,1,35.9999989013672,2|0,0:2|0:2,0:2:0:0:
52,177,117893,2,2,L|57:218,1,35.9999989013672,2|0,0:1|0:2,0:1:0:0:
128,251,118061,6,2,B|85:239|85:239|24:270|43:333,1,155.999992858887,10|0,0:2|0:2,0:1:0:0:
100,384,118398,2,2,P|140:370|186:374,1,80,2|0,0:2|0:2,0:1:0:0:
293,279,118736,6,2,B|295:263|295:263|294:252|294:252|298:232,1,47.9999985351563,2|0,1:1|0:2,0:1:0:0:
371,209,118904,2,2,B|321:194|321:194|280:209|280:209|222:190,1,143.999995605469,0|0,0:1|0:2,0:1:0:0:
219,202,119241,1,2,0:2:0:0:
310,112,119410,1,10,0:2:0:0:
207,53,119578,1,0,1:2:0:0:
204,210,119747,5,2,3:2:0:0:
188,217,119831,1,0,3:2:0:0:
173,224,119915,1,0,3:2:0:0:
157,231,120000,1,0,3:2:0:0:
146,256,120084,5,2,1:2:0:0:
132,236,120168,1,0,3:2:0:0:
118,216,120252,1,0,3:2:0:0:
106,194,120337,1,0,3:2:0:0:
112,187,120421,6,2,P|65:208|88:297,1,143.999995605469,2|0,1:2|0:2,0:1:0:0:
146,256,120758,2,2,P|159:166|183:90,1,155.999992858887,10|0,0:2|0:2,0:1:0:0:
204,31,121095,1,10,0:1:0:0:
297,134,121264,5,8,2:2:0:0:
332,147,121348,1,8,2:2:0:0:
369,141,121432,2,2,B|429:137|470:46|420:-11|350:7|355:61,1,223.999993164063,6|0,1:2|0:2,0:1:0:0:
499,191,121938,5,0,1:2:0:0:
418,258,122106,2,0,B|361:239|361:239|312:256|312:256|245:231,1,176.000005371094,8|0,0:2|0:2,0:2:0:0:
352,62,122612,6,0,B|306:31|306:31|316:154,1,155.999992858887,2|0,1:2|0:2,0:2:0:0:
314,149,122949,1,0,1:2:0:0:
405,123,123118,1,2,0:2:0:0:
314,167,123286,1,0,1:2:0:0:
273,31,123455,1,8,0:2:0:0:
314,185,123623,6,2,L|307:226,1,23.9999992675781,2|0,0:1|0:2,0:1:0:0:
230,226,123792,6,2,L|237:185,1,27.9999991455078,2|0,0:1|0:2,0:1:0:0:
161,148,123960,6,2,L|154:189,1,32,2|0,0:1|0:2,0:1:0:0:
100,247,124129,6,2,B|59:250|59:250|15:213|42:163|42:163|39:150|39:150|66:44,1,240.000009155274,6|2,1:2|0:2,0:1:0:0:
204,10,124634,6,0,P|192:49|248:57,1,88.000002685547,2|8,0:2|0:2,0:0:0:0:
379,88,124972,6,2,P|354:95|359:136,1,71.9999978027344,2|0,0:2|0:0,0:2:0:0:
506,259,125309,6,2,B|475:217|413:224|413:224|449:239|476:269,1,160,6|0,1:2|0:2,0:1:0:0:
279,383,125814,5,2,1:2:0:0:
230,290,125983,1,2,0:1:0:0:
336,226,126151,1,8,0:2:0:0:
224,304,126320,1,0,1:2:0:0:
345,212,126488,2,2,P|364:176|333:119,1,90.0000034332277,2|0,1:1|0:2,0:1:0:0:
421,89,126825,6,2,B|366:68|366:68|320:117|248:76,1,180.000006866455,6|0,1:1|0:2,0:1:0:0:
189,39,127163,2,2,B|169:33|146:12|146:12|202:70|162:136,1,176.000005371094,2|8,0:2|0:2,0:2:0:0:
256,246,127668,5,2,1:2:0:0:
240,224,127752,1,2,3:2:0:0:
215,214,127837,1,2,3:2:0:0:
189,219,127921,1,2,3:2:0:0:
170,237,128005,2,0,P|167:284|188:306,1,80,2|0,1:2|0:2,0:2:0:0:
339,298,128342,5,2,3:2:0:0:
339,298,128427,1,2,3:2:0:0:
339,298,128511,1,2,1:2:0:0:
314,377,128679,1,2,0:1:0:0:
275,238,128848,1,8,0:2:0:0:
411,267,129016,1,0,1:2:0:0:
339,298,129185,2,2,P|328:237|347:173,1,107.999996704102,2|0,0:1|0:2,0:1:0:0:
413,140,129522,6,2,P|435:140|471:120,1,44.0000013427735,2|0,1:1|0:2,0:1:0:0:
455,132,129691,2,2,P|418:75|345:92,1,132.00000402832,2|0,0:1|0:2,0:1:0:0:
297,33,130028,1,2,1:2:0:0:
255,180,130196,1,10,0:2:0:0:
197,56,130365,5,2,3:1:0:0:
162,51,130449,1,2,3:2:0:0:
127,45,130533,1,2,3:2:0:0:
92,38,130618,1,2,3:2:0:0:
57,31,130702,2,2,B|31:49|31:49|49:130,1,95.9999970703126,2|0,1:2|0:0,0:1:0:0:
70,242,131039,5,10,3:2:0:0:
70,242,131123,1,0,3:2:0:0:
70,242,131207,2,2,L|3:255,1,47.9999985351563,0|0,1:2|0:2,0:2:0:0:
38,325,131376,2,0,L|105:312,1,47.9999985351563,2|0,0:1|0:0,0:0:0:0:
149,264,131545,5,8,0:2:0:0:
135,382,131713,1,0,0:1:0:0:
241,280,131882,5,10,2:2:0:0:
232,252,131966,1,8,2:2:0:0:
224,224,132050,1,0,1:2:0:0:
323,306,132219,6,2,B|370:324|420:276|412:217|412:217|375:199|368:161,1,223.999993164063,6|0,1:2|0:2,0:1:0:0:
458,252,132724,1,0,1:2:0:0:
368,161,132893,2,0,P|370:119|407:78,1,88.000002685547,8|0,0:2|0:2,0:2:0:0:
397,83,133146,1,0,0:2:0:0:
397,83,133230,1,2,0:1:0:0:
268,147,133398,6,2,B|173:150|241:93|111:92,1,155.999992858887,2|0,1:2|0:2,0:1:0:0:
58,126,133736,2,2,P|30:95|67:56,1,95.9999970703126,0|2,1:2|0:2,0:2:0:0:
144,175,134073,1,0,1:2:0:0:
2,242,134241,1,8,0:2:0:0:
124,272,134410,6,2,B|96:254|96:254|64:303|105:347,1,132.00000402832,2|0,0:1|0:2,0:1:0:0:
112,358,134747,2,0,P|139:350|162:347,1,44.0000013427735,2|0,0:1|0:0,0:0:0:0:
252,282,134915,6,2,P|299:323|398:308,1,155.999992858887,6|0,1:2|0:2,0:1:0:0:
401,311,135252,2,2,L|391:363,1,40,2|0,0:2|0:2,0:2:0:0:
462,374,135421,2,2,L|472:322,1,40,0|0,0:2|0:2,0:2:0:0:
512,269,135589,2,0,P|471:224|481:111,1,176.000005371094,8|0,0:2|0:2,0:2:0:0:
286,5,136095,6,2,B|294:62|294:62|317:80|317:80|328:174,1,143.999995605469,2|0,1:2|0:2,0:1:0:0:
325,152,136432,2,2,L|367:163,2,35.9999989013672,2|0|0,0:1|0:2|0:2,0:1:0:0:
222,94,136769,5,2,3:2:0:0:
222,94,136854,1,0,3:2:0:0:
222,94,136938,1,0,3:2:0:0:
131,136,137106,5,8,0:2:0:0:
108,114,137275,5,2,0:2:0:0:
82,110,137443,5,2,0:2:0:0:
126,227,137612,6,2,B|183:244|183:244|242:224|242:224|301:243,1,180.000006866455,6|0,1:1|0:2,0:1:0:0:
369,266,137949,2,2,B|412:274|412:274|364:248,1,88.000002685547,2|0,0:2|0:0,0:2:0:0:
229,186,138286,2,0,B|221:148|192:125|192:125|201:94,1,103.999995239258,8|0,0:2|0:2,0:2:0:0:
284,11,138623,5,2,1:2:0:0:
295,39,138707,1,2,3:2:0:0:
319,57,138792,1,2,3:2:0:0:
348,66,138876,1,2,3:2:0:0:
378,68,138960,2,0,P|390:48|395:24,1,40,2|0,3:2|2:2,2:2:0:0:
450,102,139129,2,0,P|439:118|433:137,1,40,2|0,3:2|2:2,2:2:0:0:
496,263,139297,6,2,P|460:226|407:224,1,95.9999970703126,2|0,1:2|0:2,0:2:0:0:
417,221,139550,1,0,0:2:0:0:
417,221,139634,1,8,0:2:0:0:
309,281,139803,1,2,0:2:0:0:
242,204,139972,2,2,B|248:152|248:152|267:130|267:130|272:57,1,132.00000402832,2|0,0:1|0:2,0:1:0:0:
218,11,140309,6,2,P|166:23|186:97,1,143.999995605469,2|0,1:2|0:2,0:2:0:0:
182,95,140646,2,2,L|95:102,1,80,2|0,0:2|0:0,0:2:0:0:
124,249,140983,6,0,L|37:242,1,88.000002685547,8|0,0:2|0:2,0:2:0:0:
36,241,141236,1,0,0:2:0:0:
36,241,141320,1,0,0:2:0:0:
189,183,141488,6,0,B|210:217|265:218|265:218|295:256,1,132.00000402832,2|0,1:2|0:2,0:2:0:0:
292,253,141825,2,2,L|243:265,1,35.9999989013672,2|0,0:2|0:2,0:1:0:0:
194,303,141994,2,2,B|229:341|229:341|329:323,1,132.00000402832,2|0,1:2|0:2,0:2:0:0:
387,373,142331,6,2,L|401:269,1,95.9999970703126,10|0,0:2|0:2,0:1:0:0:
412,276,142584,1,0,0:2:0:0:
425,273,142668,2,2,B|420:246|420:246|423:227|423:227|418:185,1,80,2|0,0:2|0:2,0:2:0:0:
512,76,143005,6,2,P|496:86|459:84,1,35.9999989013672,2|0,1:2|0:2,0:2:0:0:
410,120,143174,2,0,P|391:119|361:97,1,35.9999989013672,2|0,0:2|0:2,0:2:0:0:
300,101,143342,2,2,P|284:90|271:55,1,35.9999989013672,2|0,0:2|0:2,0:2:0:0:
236,13,143511,5,0,1:2:0:0:
300,101,143679,2,2,B|277:153|299:192|299:192|266:205|253:235,1,143.999995605469,8|0,0:2|0:2,0:2:0:0:
246,235,144016,5,2,0:2:0:0:
208,134,144185,2,2,L|94:114,1,88.000002685547,0|0,1:2|0:0,0:2:0:0:
233,248,144522,2,2,L|319:263,1,88.000002685547,2|0,1:2|0:0,0:2:0:0:
418,298,144859,5,0,1:2:0:0:
314,278,145028,2,2,L|160:251,1,155.999992858887,10|0,0:2|0:2,0:2:0:0:
150,254,145365,2,2,B|142:289|142:289|152:280|152:280|160:249,1,80,2|2,0:2|0:2,0:1:0:0:
132,44,145702,6,0,B|69:32|69:32|12:44|-12:117|25:165,1,223.999993164063,6|2,1:2|0:2,0:1:0:0:
206,167,146207,1,0,1:2:0:0:
126,292,146376,2,0,B|113:248|113:248|124:208|124:208|109:139,1,132.00000402832,10|0,0:2|0:2,0:2:0:0:
104,138,146713,5,2,0:2:0:0:
201,249,146882,2,2,B|288:274|288:274|293:325|342:346,1,180.000006866455,6|0,1:2|0:2,0:1:0:0:
411,369,147219,1,8,0:2:0:0:
411,202,147387,2,2,P|464:203|439:276,1,143.999995605469,2|0,1:2|0:2,0:2:0:0:
373,276,147724,5,10,0:2:0:0:
395,116,147893,1,0,1:2:0:0:
228,84,148061,5,10,2:2:0:0:
231,117,148146,1,8,2:2:0:0:
235,150,148230,1,0,1:2:0:0:
312,125,148398,6,2,B|279:123|245:104|245:104|202:117|202:117|175:96|112:88,1,180.000006866455,6|0,1:1|0:2,0:1:0:0:
78,134,148736,2,2,B|80:158|97:176|97:176|115:180|149:170,1,88.000002685547,2|0,0:2|0:0,0:2:0:0:
312,125,149073,2,0,P|290:182|283:257,1,103.999995239258,8|0,0:2|0:2,0:2:0:0:
401,366,149410,5,2,1:2:0:0:
382,329,149494,1,2,3:2:0:0:
345,308,149578,1,2,3:2:0:0:
303,316,149663,1,2,3:2:0:0:
275,347,149747,2,0,P|214:363|176:330,1,103.999995239258,2|2,3:2|3:2,0:0:0:0:
174,333,150000,1,2,3:2:0:0:
167,323,150084,6,0,L|196:263,1,40,0|0,1:2|0:2,0:2:0:0:
252,252,150252,2,0,L|269:216,1,40,2|0,0:2|0:2,0:2:0:0:
246,135,150421,6,2,P|179:125|132:222,1,155.999992858887,10|0,0:2|0:2,0:1:0:0:
127,188,150758,2,2,L|105:102,1,80,2|0,0:1|0:2,0:1:0:0:
269,215,151095,6,2,B|363:264|363:264|343:232,1,143.999995605469,2|0,1:2|0:2,0:2:0:0:
339,222,151432,2,2,P|296:271|305:336,1,120,2|0,0:2|0:2,0:2:0:0:
352,383,151769,6,0,P|404:363|472:364,1,103.999995239258,8|0,0:2|3:2,0:2:0:0:
451,360,152022,1,0,3:2:0:0:
451,360,152106,1,0,3:2:0:0:
367,291,152275,6,0,P|271:280|199:203,1,176.000005371094,2|0,1:2|0:2,0:2:0:0:
407,162,152780,2,0,B|368:189|316:176|316:176|282:191,1,132.00000402832,2|0,1:2|0:2,0:2:0:0:
213,229,153118,2,0,P|197:180|210:115,1,103.999995239258,10|0,0:2|0:2,0:2:0:0:
208,122,153370,1,0,0:2:0:0:
214,117,153455,6,2,L|273:103,1,40,2|0,0:2|0:2,0:1:0:0:
246,34,153623,2,2,L|187:48,1,40,0|0,0:1|0:2,0:1:0:0:
120,14,153792,6,2,B|94:45|39:51|39:51|107:68|110:132,1,207.999990478516,2|2,1:2|0:2,0:2:0:0:
0,236,154297,1,0,1:2:0:0:
60,341,154466,2,2,B|101:388|162:364|162:364|173:326|146:291,1,167.999994873047,8|0,0:2|0:2,0:2:0:0:
150,301,154803,6,2,P|124:293|98:274,1,40,2|0,0:1|0:2,0:1:0:0:
205,237,154972,2,2,P|214:163|245:98,1,143.999995605469,2|0,1:2|0:2,0:2:0:0:
307,147,155309,2,0,P|298:221|267:286,1,143.999995605469,0|0,1:2|0:2,0:2:0:0:
213,358,155646,6,0,P|200:334|183:317,1,44.0000013427735,0|0,1:2|0:2,0:2:0:0:
123,275,155814,2,2,B|84:292|84:292|16:258|55:185,1,167.999994873047,10|0,0:2|0:2,0:1:0:0:
60,178,156151,6,2,L|13:163,1,35.9999989013672,2|0,0:1|0:2,0:1:0:0:
84,108,156320,2,2,L|50:97,1,35.9999989013672,2|0,0:2|0:2,0:1:0:0:
159,72,156488,6,0,B|137:42|98:45|98:45|92:83|120:105|120:105|84:115|76:153|76:153|110:171|141:151|141:151|138:188|171:208|171:208|200:182|191:147|191:147|226:158|255:134|255:134|238:98|201:97|201:97|225:67|211:34|211:34|171:37|159:73|159:73,1,672,4|8,1:1|0:2,0:2:0:0:
256,221,159185,5,14,1:2:0:0:
256,221,159522,2,0,P|306:234|331:230,1,60.0000022888184,8|0,0:2|0:2,0:2:0:0:
183,323,159859,2,0,P|146:360|137:383,1,60.0000022888184,8|0,0:2|0:2,0:2:0:0:
130,209,160196,2,0,P|116:158|100:139,1,60.0000022888184,8|0,0:2|0:2,0:2:0:0:
197,25,160533,6,0,P|203:56|217:84,1,64,10|0,0:2|0:2,0:2:0:0:
223,96,160786,1,0,0:2:0:0:
230,106,160870,2,0,P|261:99|289:85,1,64,8|0,0:2|0:2,0:2:0:0:
301,88,161123,1,0,0:2:0:0:
312,92,161207,2,0,P|340:77|371:70,1,64,8|0,0:2|0:2,0:2:0:0:
382,76,161460,1,0,0:2:0:0:
391,84,161545,2,0,P|405:112|411:143,1,64,8|0,0:2|0:2,0:2:0:0:
356,241,161882,5,10,0:2:0:0:
356,241,162050,1,0,0:2:0:0:
457,293,162219,1,8,0:2:0:0:
457,293,162387,1,0,0:2:0:0:
375,364,162556,1,10,0:2:0:0:
375,364,162724,1,0,0:2:0:0:
274,312,162893,1,8,0:2:0:0:
274,312,163061,1,0,0:2:0:0:
363,224,163230,6,0,P|377:176|371:135,1,68.0000012969971,10|0,0:2|0:2,0:2:0:0:
258,44,163567,2,0,P|244:92|250:133,1,68.0000012969971,8|0,0:2|0:2,0:2:0:0:
247,126,163820,1,0,0:2:0:0:
253,141,163904,1,10,0:2:0:0:
266,151,163988,1,0,0:2:0:0:
280,159,164073,1,0,0:2:0:0:
363,67,164241,2,0,P|394:53|427:51,1,68.0000012969971,8|0,0:2|0:2,0:0:0:0:
485,181,164578,6,0,B|464:240|510:244|491:307,1,120,14|0,1:2|0:2,0:2:0:0:
439,356,164915,2,0,P|400:357|364:338,1,71.9999978027344,8|0,1:2|0:2,0:2:0:0:
370,343,165168,1,0,0:2:0:0:
370,343,165252,1,10,1:2:0:0:
321,262,165421,1,0,0:2:0:0:
261,361,165589,2,0,P|215:368|148:319,1,107.999996704102,8|0,1:2|0:2,0:2:0:0:
111,288,165927,5,10,1:2:0:0:
207,221,166095,1,0,2:2:0:0:
105,165,166264,1,8,1:2:0:0:
207,221,166432,1,0,1:2:0:0:
207,221,166516,1,0,1:2:0:0:
207,221,166601,2,0,P|254:220|292:201,1,80,10|0,1:2|2:2,2:2:0:0:
255,35,166938,2,0,P|215:34|178:48,1,80,8|0,1:2|2:2,2:2:0:0:
105,165,167275,5,10,1:2:0:0:
18,140,167443,1,8,1:2:0:0:
61,254,167612,1,8,1:2:0:0:
124,151,167780,1,8,1:2:0:0:
177,299,167949,5,10,1:2:0:0:
235,173,168118,1,8,1:2:0:0:
284,342,168286,1,8,1:2:0:0:
164,278,168455,1,8,1:2:0:0:
322,224,168623,5,10,1:2:0:0:
337,236,168707,1,8,1:2:0:0:
355,245,168792,1,8,1:2:0:0:
374,250,168876,1,8,1:2:0:0:
394,250,168960,1,8,1:2:0:0:
413,245,169045,1,8,1:2:0:0:
431,236,169129,1,8,1:2:0:0:
446,224,169213,1,8,1:2:0:0:
458,208,169297,2,0,P|443:184|440:164,3,40,10|8|8|8,1:2|1:2|1:2|1:2,0:0:0:0:
400,106,169634,2,0,P|405:86|417:70,3,40,8|8|8|8,1:2|1:2|1:2|1:2,0:0:0:0:
227,82,171994,6,0,B|247:56|236:37|214:55|225:73,1,60.0000022888184,12|0,0:2|0:2,0:2:0:0:
227,82,172668,6,2,B|196:74|174:36|174:36|202:98|158:155,1,180.000006866455,4|0,1:1|0:2,0:1:0:0:
159,150,173005,2,2,P|140:139|108:137,2,40,2|0|0,0:2|0:2|0:2,0:2:0:0:
220,279,173342,6,0,P|263:302|319:294,1,95.9999970703126,8|0,0:2|0:2,0:2:0:0:
308,298,173595,1,0,0:2:0:0:
308,298,173679,1,2,0:2:0:0:
383,168,173848,6,2,B|437:128|502:157|502:157|476:159|450:188,1,167.999994873047,2|0,1:2|0:2,0:1:0:0:
464,174,174185,2,2,L|444:124,1,40,2|0,0:1|0:2,0:1:0:0:
383,168,174354,2,2,L|363:118,1,40,0|0,1:2|0:2,0:2:0:0:
294,54,174522,5,0,0:2:0:0:
294,54,174606,1,0,0:2:0:0:
294,54,174691,2,0,B|264:77|264:77|232:75|186:51,1,95.9999970703126,10|2,0:2|1:2,0:2:0:0:
154,8,174943,1,2,0:2:0:0:
154,8,175028,2,2,P|126:37|136:77,1,80,2|0,0:2|0:2,0:2:0:0:
237,216,175365,6,2,B|207:193|207:193|179:193|121:223,1,103.999995239258,2|2,1:2|0:2,0:2:0:0:
89,266,175618,1,2,0:2:0:0:
89,266,175702,2,0,P|64:240|66:205,1,71.9999978027344,2|0,0:2|0:2,0:2:0:0:
214,98,176039,5,10,0:2:0:0:
320,159,176207,1,0,0:2:0:0:
214,98,176376,1,0,0:2:0:0:
306,67,176545,5,2,1:2:0:0:
306,67,176629,1,2,0:2:0:0:
306,67,176713,1,2,0:2:0:0:
231,192,176882,1,0,0:2:0:0:
306,67,177050,1,0,1:2:0:0:
358,181,177219,5,2,0:2:0:0:
358,181,177303,1,2,0:2:0:0:
358,181,177387,2,0,P|394:198|447:182,1,88.000002685547,10|0,0:2|1:2,0:0:0:0:
511,124,177724,5,2,0:2:0:0:
467,282,177893,1,0,1:2:0:0:
357,180,178061,6,0,P|307:156|250:157,1,111.999996582031,6|0,1:2|0:2,0:2:0:0:
252,156,178314,1,0,0:2:0:0:
252,156,178398,1,2,0:2:0:0:
141,224,178567,1,0,0:2:0:0:
185,101,178736,1,8,0:2:0:0:
253,246,178904,6,2,P|270:245|287:235,1,35.9999989013672,0|0,0:2|0:2,0:1:0:0:
260,164,179073,2,2,P|243:165|226:175,1,35.9999989013672,0|0,0:2|0:2,0:1:0:0:
146,246,179241,6,2,P|109:296|63:222,1,176.000005371094,0|0,1:2|0:2,0:1:0:0:
204,152,179747,2,0,P|277:128|331:87,1,120,0|0,1:2|0:2,0:2:0:0:
370,54,180084,1,8,0:2:0:0:
457,174,180252,5,2,0:2:0:0:
457,174,180337,1,2,0:2:0:0:
457,174,180421,2,2,L|412:160,1,35.9999989013672,2|0,0:2|0:2,0:1:0:0:
402,234,180589,2,2,L|447:248,1,35.9999989013672,2|0,0:1|0:2,0:1:0:0:
340,174,180758,6,2,P|316:212|353:299,1,132.00000402832,2|0,1:2|0:2,0:2:0:0:
345,298,181095,2,0,L|311:308,1,35.9999989013672,2|0,0:2|0:2,0:2:0:0:
264,370,181264,2,0,L|230:380,1,35.9999989013672,2|0,0:2|0:2,0:2:0:0:
163,300,181432,6,0,B|110:317|110:317|49:281,1,103.999995239258,10|0,0:2|0:2,0:2:0:0:
3,257,181685,1,0,0:2:0:0:
3,257,181769,1,2,0:2:0:0:
146,166,181938,6,2,B|192:138|186:55|186:55|178:78|149:91,1,167.999994873047,6|0,1:2|0:2,0:1:0:0:
147,90,182275,1,2,0:2:0:0:
229,212,182443,2,0,P|299:251|334:255,1,88.000002685547,0|0,1:2|2:2,0:2:0:0:
305,252,182696,1,0,2:2:0:0:
305,252,182780,1,8,0:2:0:0:
404,176,182949,1,0,1:2:0:0:
343,64,183118,6,2,P|336:49|329:32,2,20,2|0|0,1:2|0:2|0:2,0:1:0:0:
483,203,183455,6,2,B|439:124|314:116|354:204|259:277|155:221|200:117|38:152|28:250,1,512,4|8,1:1|0:2,0:1:0:0:
30,361,184297,6,2,P|59:356|85:339,1,40,2|0,0:2|0:2,0:2:0:0:
129,307,184466,2,2,P|123:287|120:268,1,40,0|0,0:2|0:2,0:2:0:0:
160,179,184634,6,2,P|194:122|148:37,1,155.999992858887,2|0,1:2|0:2,0:2:0:0:
95,10,184972,2,2,P|71:28|48:30,1,51.999997619629,0|0,0:2|0:2,0:1:0:0:
229,98,185140,6,0,P|282:114|347:92,1,88.000002685547,2|0,1:2|0:2,0:2:0:0:
313,109,185393,1,0,0:2:0:0:
313,109,185477,1,8,0:2:0:0:
430,25,185646,1,0,1:2:0:0:
472,162,185814,5,2,0:2:0:0:
472,162,185983,1,0,0:2:0:0:
321,116,186151,6,2,P|273:173|295:255,1,155.999992858887,2|0,1:2|0:2,0:1:0:0:
288,247,186488,1,2,0:2:0:0:
426,301,186657,2,0,P|464:290|504:291,1,80,0|8,0:2|0:2,0:0:0:0:
348,381,186994,6,2,P|340:354|327:332,1,44.0000013427735,2|0,0:2|0:2,0:1:0:0:
276,292,187163,2,2,P|281:270|291:251,1,44.0000013427735,0|0,0:2|0:2,0:1:0:0:
360,172,187331,6,2,B|397:181|397:181|451:152|434:79,1,143.999995605469,2|0,1:2|0:2,0:2:0:0:
409,19,187668,1,2,0:2:0:0:
302,109,187837,2,0,P|249:121|208:121,1,88.000002685547,2|0,1:2|0:2,0:2:0:0:
143,113,188089,1,0,0:2:0:0:
143,113,188174,1,8,0:2:0:0:
273,25,188342,1,0,1:2:0:0:
236,208,188511,5,8,2:2:0:0:
226,237,188595,1,8,2:2:0:0:
214,265,188679,1,0,1:2:0:0:
97,227,188848,6,0,B|52:244|52:244|49:294|83:340,1,143.999995605469,2|0,1:2|0:2,0:2:0:0:
78,334,189185,2,2,L|18:350,1,35.9999989013672,2|0,0:2|0:2,0:1:0:0:
0,278,189354,2,2,L|34:268,1,35.9999989013672,0|0,0:2|0:2,0:1:0:0:
97,227,189522,2,0,B|113:186|113:186|88:130,1,88.000002685547,8|0,0:2|0:2,0:2:0:0:
263,9,189859,6,2,B|239:94|251:139|416:118|342:292|251:307|174:201|259:164,1,363.999983337403,2|0,1:2|0:2,0:1:0:0:
244,174,190533,6,0,P|293:159|347:159,1,88.000002685547,2|0,1:2|0:2,0:2:0:0:
476,171,190870,1,8,0:2:0:0:
395,85,191039,6,2,P|406:106|426:132,1,40,0|0,0:2|0:2,0:1:0:0:
476,171,191207,2,2,P|500:197|486:248,1,71.9999978027344,2|0,0:2|0:2,0:1:0:0:
421,326,191545,6,2,B|346:292|355:354|284:312,1,143.999995605469,2|0,1:2|0:2,0:2:0:0:
279,316,191882,2,2,L|266:357,1,40,2|0,0:2|0:2,0:1:0:0:
335,383,192050,2,2,L|348:342,1,40,0|0,0:2|0:2,0:1:0:0:
324,240,192219,6,0,P|307:187|309:123,1,95.9999970703126,8|0,0:2|1:2,0:2:0:0:
319,121,192472,1,0,3:2:0:0:
326,93,192556,1,0,3:2:0:0:
322,64,192640,1,0,3:2:0:0:
309,37,192724,1,8,3:2:0:0:
0,153,193061,5,0,1:2:0:0:
121,196,193230,1,8,0:2:0:0:
96,88,193398,1,0,1:2:0:0:
31,259,193567,1,8,0:2:0:0:
148,203,193736,1,0,1:2:0:0:
85,60,193904,1,8,0:2:0:0:
176,208,194073,5,8,0:2:0:0:
204,213,194157,1,8,0:2:0:0:
232,218,194241,2,0,B|254:198|283:196|283:196|296:165|296:165|342:166|388:134,1,180.000006866455,4|0,1:1|0:2,0:2:0:0:
455,153,194578,2,0,P|453:108|419:73,1,88.000002685547,8|0,0:2|0:2,0:2:0:0:
425,76,194831,1,0,0:2:0:0:
425,76,194915,1,2,0:2:0:0:
294,76,195084,1,0,1:2:0:0:
391,234,195252,1,8,0:2:0:0:
239,287,195421,6,0,B|180:261|118:296|118:296|48:257,1,176.000005371094,2|0,2:2|1:2,0:2:0:0:
242,192,195927,2,0,P|260:146|265:94,1,88.000002685547,8|0,0:2|0:2,0:0:0:0:
265,107,196179,1,0,0:2:0:0:
265,107,196264,1,2,0:2:0:0:
152,151,196432,1,0,1:2:0:0:
194,20,196601,1,8,0:2:0:0:
139,174,196769,1,0,0:2:0:0:
60,87,196938,5,2,1:2:0:0:
138,200,197106,1,0,1:2:0:0:
232,111,197275,2,0,P|273:96|316:96,1,88.000002685547,8|2,0:2|0:2,0:0:0:0:
316,96,197528,1,2,0:2:0:0:
316,96,197612,1,2,0:2:0:0:
451,143,197780,1,0,1:2:0:0:
422,22,197949,1,8,0:2:0:0:
365,197,198118,6,0,P|340:249|382:328,1,132.00000402832,2|0,0:2|0:2,0:2:0:0:
364,315,198455,1,2,1:2:0:0:
455,194,198623,1,8,0:2:0:0:
320,121,198792,2,0,P|309:102|300:71,2,44.0000013427735,2|0|0,0:2|0:2|0:2,0:2:0:0:
455,194,199129,1,0,1:2:0:0:
480,201,199213,1,0,1:2:0:0:
505,194,199297,1,8,0:2:0:0:
419,104,199466,1,0,1:2:0:0:
343,229,199634,6,0,B|309:267|309:267|251:282|197:235,1,167.999994873047,6|0,1:2|0:2,0:2:0:0:
125,244,199972,2,0,P|134:201|177:168,1,88.000002685547,8|0,0:2|0:2,0:2:0:0:
244,174,200224,1,0,0:2:0:0:
244,174,200309,1,2,0:2:0:0:
133,103,200477,1,0,1:2:0:0:
200,237,200646,1,8,0:2:0:0:
299,111,200814,1,0,0:2:0:0:
363,250,200983,6,0,P|411:271|466:249,1,88.000002685547,2|0,0:2|1:2,0:0:0:0:
505,149,201320,1,10,0:2:0:0:
410,79,201488,1,0,2:2:0:0:
410,79,201573,1,0,2:2:0:0:
410,79,201657,1,0,2:2:0:0:
498,51,201825,1,2,1:2:0:0:
414,166,201994,1,8,0:2:0:0:
315,73,202163,1,0,0:2:0:0:
266,195,202331,5,2,1:2:0:0:
319,47,202500,1,0,1:2:0:0:
176,62,202668,2,0,P|168:100|198:161,1,88.000002685547,8|2,0:2|0:2,0:0:0:0:
183,145,202921,1,2,0:2:0:0:
183,145,203005,1,2,0:2:0:0:
259,99,203174,1,2,1:2:0:0:
90,146,203342,1,8,0:2:0:0:
210,250,203511,1,2,0:2:0:0:
72,126,203679,6,0,P|15:181|63:276,1,155.999992858887,0|0,1:2|0:0,0:0:0:0:
80,309,204016,1,12,0:2:0:0:
193,159,204185,1,0,1:2:0:0:
193,159,204269,2,0,P|239:139|313:161,1,88.000002685547,0|0,1:2|0:0,0:0:0:0:
349,163,204522,1,0,1:2:0:0:
248,260,204691,6,0,B|244:293|235:286|233:318,1,60,12|0,0:2|0:2,0:2:0:0:
312,356,205028,6,0,B|260:348|225:369|225:369|196:336|147:326,1,180.000006866455,4|0,1:1|0:2,0:2:0:0:
70,337,205365,2,0,B|78:308|78:308|77:285|77:285|89:246,1,88.000002685547,8|0,0:2|0:2,0:2:0:0:
87,251,205618,1,0,0:2:0:0:
87,251,205702,1,2,0:2:0:0:
224,236,205870,1,0,1:2:0:0:
140,132,206039,1,8,0:2:0:0:
239,257,206207,6,0,P|284:272|377:190,1,176.000005371094,2|2,2:2|1:2,0:2:0:0:
221,121,206713,2,0,P|187:105|119:83,1,88.000002685547,8|2,0:2|0:2,0:0:0:0:
139,88,206966,1,2,0:2:0:0:
139,88,207050,1,2,0:2:0:0:
14,136,207219,1,0,1:2:0:0:
54,41,207387,1,10,0:2:0:0:
110,191,207556,1,0,0:2:0:0:
239,108,207724,6,2,B|345:87|303:159|422:122,1,167.999994873047,6|0,1:2|0:2,0:2:0:0:
465,83,208061,1,8,0:2:0:0:
348,215,208230,2,0,P|371:268|417:193,1,176.000005371094,2|0,0:2|1:2,0:2:0:0:
346,343,208736,1,8,0:2:0:0:
428,205,208904,6,2,P|406:155|316:146,1,132.00000402832,2|0,0:2|0:2,0:2:0:0:
260,125,209241,1,0,1:2:0:0:
272,281,209410,2,2,P|243:321|120:315,1,176.000005371094,10|0,0:2|0:2,0:2:0:0:
78,132,209915,5,0,1:2:0:0:
50,109,210000,1,0,1:2:0:0:
15,106,210084,1,8,0:2:0:0:
76,243,210252,1,0,1:2:0:0:
200,113,210421,6,0,B|161:82|161:82|185:216,1,180.000006866455,6|0,1:2|0:2,0:2:0:0:
160,282,210758,2,0,P|203:284|239:260,1,88.000002685547,8|0,0:2|0:2,0:2:0:0:
263,187,211011,1,0,0:2:0:0:
263,187,211095,1,2,0:2:0:0:
309,315,211264,1,0,1:2:0:0:
339,137,211432,6,0,B|390:142|419:184|419:184|460:152|509:163,1,191.999994140625,10|0,0:2|0:2,0:2:0:0:
341,224,211938,1,0,1:2:0:0:
436,83,212106,1,8,0:2:0:0:
489,251,212275,1,2,0:2:0:0:
489,251,212359,1,2,0:2:0:0:
489,251,212443,1,2,0:2:0:0:
420,181,212612,1,2,1:2:0:0:
403,303,212780,1,10,0:2:0:0:
403,303,212949,1,0,0:2:0:0:
312,189,213118,6,0,P|270:255|173:247,1,167.999994873047,6|0,1:2|0:2,0:2:0:0:
123,297,213455,2,0,P|79:282|16:284,1,88.000002685547,8|0,0:2|0:2,0:2:0:0:
37,280,213707,1,0,0:2:0:0:
37,280,213792,1,2,0:2:0:0:
131,203,213960,1,0,1:2:0:0:
183,363,214129,1,8,0:2:0:0:
286,267,214297,6,0,B|267:173|339:182|325:85,1,191.999994140625,2|0,1:2|0:2,0:2:0:0:
224,13,214803,1,8,0:2:0:0:
166,173,214972,1,0,1:2:0:0:
166,173,215056,2,0,P|127:192|85:182,1,88.000002685547,0|0,1:2|0:0,0:0:0:0:
10,155,215309,5,0,1:2:0:0:
43,283,215477,1,8,0:2:0:0:
4,129,215646,1,0,1:2:0:0:
138,61,215814,5,12,0:2:0:0:
78,208,215983,1,0,1:2:0:0:
187,260,216151,1,0,1:2:0:0:
197,235,216236,1,0,1:2:0:0:
201,209,216320,1,8,0:2:0:0:
373,40,216657,5,0,1:2:0:0:
383,53,216741,1,0,1:2:0:0:
398,61,216825,1,8,0:2:0:0:
510,180,216994,5,8,0:2:0:0:
502,174,217078,1,8,0:2:0:0:
494,167,217163,2,2,P|451:165|428:203,1,71.9999978027344,0|0,1:2|0:2,0:2:0:0:
387,252,217500,6,2,B|376:280|376:280|396:253,1,60.0000022888184,12|0,0:2|0:2,0:1:0:0:
435,189,217668,2,0,B|443:111|383:120|395:38,1,155.999992858887,2|0,0:2|0:2,0:2:0:0:
394,43,218005,1,0,1:2:0:0:
304,113,218174,6,2,P|282:104|253:101,1,40,8|0,0:2|0:2,0:1:0:0:
265,101,218342,2,2,P|226:118|172:88,1,80,2|0,0:2|1:2,0:2:0:0:
89,35,218679,1,2,0:2:0:0:
44,201,218848,6,0,P|79:217|117:208,1,80,10|0,0:2|0:2,0:2:0:0:
117,208,219101,1,0,0:2:0:0:
117,208,219185,1,2,0:2:0:0:
91,324,219354,1,0,1:2:0:0:
254,241,219522,2,0,B|242:206|242:206|220:242|225:292,1,120,10|0,0:2|0:2,0:2:0:0:
262,354,219859,6,0,P|299:370|343:359,1,80,2|0,1:2|0:2,0:2:0:0:
482,282,220196,2,2,L|466:237,1,40,8|0,0:2|0:2,0:1:0:0:
468,244,220365,2,2,P|429:277|354:201,1,160,2|0,0:2|1:2,0:2:0:0:
336,54,220870,5,8,0:2:0:0:
436,85,221039,2,2,P|426:129|415:197,1,80,2|0,0:2|1:2,0:2:0:0:
267,225,221376,5,0,0:2:0:0:
267,225,221460,1,0,0:2:0:0:
267,225,221545,1,10,0:2:0:0:
328,143,221713,1,0,0:2:0:0:
238,133,221882,1,2,0:1:0:0:
351,223,222050,1,0,1:2:0:0:
218,291,222219,1,8,0:2:0:0:
305,359,222387,5,0,0:2:0:0:
305,359,222472,1,0,0:2:0:0:
305,359,222556,2,0,P|349:348|399:346,1,80,4|0,1:2|0:2,0:2:0:0:
258,204,222893,1,10,0:2:0:0:
258,204,222977,1,2,0:2:0:0:
258,204,223061,2,0,L|208:217,1,40,2|0,0:2|0:2,0:2:0:0:
179,300,223230,2,0,P|135:289|85:287,1,80,2|0,0:2|1:2,0:2:0:0:
0,185,223567,6,2,P|23:184|69:167,1,40,10|0,0:2|0:2,0:1:0:0:
106,120,223736,2,2,P|113:77|130:42,2,80,0|0|0,0:2|1:2|0:0,0:1:0:0:
219,214,224241,6,2,P|236:223|262:226,1,40,10|0,0:2|0:2,0:1:0:0:
277,153,224410,2,2,P|260:144|234:141,1,40,0|0,0:2|0:2,0:1:0:0:
235,303,224578,2,2,P|266:305|318:276,1,80,0|0,0:2|1:2,0:1:0:0:
396,117,224915,2,2,P|427:115|479:144,1,80,10|0,0:2|0:0,0:2:0:0:
256,226,225252,6,0,B|246:178|246:178|259:144|259:144|247:84,1,143.999995605469,2|0,1:2|0:2,0:2:0:0:
247,72,225589,2,2,L|207:64,1,40,8|0,0:2|0:2,0:1:0:0:
179,155,225758,2,2,L|219:163,1,40,0|0,0:2|0:2,0:1:0:0:
109,80,225927,2,2,P|79:53|35:61,1,80,0|0,0:2|1:2,0:1:0:0:
104,222,226264,2,2,P|65:218|36:245,1,80,10|0,0:2|0:0,0:2:0:0:
196,376,226601,6,0,P|207:303|224:244,1,120.000004577637,4|0,1:2|0:2,0:2:0:0:
256,192,227106,1,4,1:2:0:0:
256,192,227443,1,0,1:2:0:0:
383,232,227612,1,8,0:2:0:0:
358,88,227780,1,2,0:2:0:0:
398,255,227949,6,0,B|441:279|441:279|521:243|507:139,1,207.999990478516,4|8,1:2|0:2,0:2:0:0:
409,15,228455,1,2,0:2:0:0:
409,15,228539,1,2,0:2:0:0:
409,15,228623,1,2,0:2:0:0:
340,125,228792,1,0,1:2:0:0:
435,106,228960,1,8,0:2:0:0:
270,56,229129,6,2,P|250:103|250:166,1,88.000002685547,2|0,0:2|1:2,0:2:0:0:
320,266,229466,1,2,0:2:0:0:
320,266,229550,1,2,0:2:0:0:
320,266,229634,2,2,L|373:261,1,44.0000013427735,8|0,0:2|0:2,0:1:0:0:
371,338,229803,2,2,L|318:343,1,44.0000013427735,0|0,0:2|0:2,0:1:0:0:
247,383,229972,2,2,P|209:367|140:361,1,88.000002685547,2|0,0:2|1:2,0:1:0:0:
102,219,230309,5,10,0:2:0:0:
89,231,230393,1,2,0:2:0:0:
73,239,230477,1,2,0:2:0:0:
55,240,230561,1,2,0:2:0:0:
37,238,230646,2,0,P|14:190|37:144,1,88.000002685547,0|0,1:2|0:2,0:2:0:0:
135,40,230983,6,2,P|165:50|186:50,1,44.0000013427735,8|0,0:2|0:2,0:1:0:0:
177,50,231151,2,2,P|201:95|290:38,1,176.000005371094,2|0,0:2|1:2,0:2:0:0:
195,186,231657,6,2,P|171:198|128:201,1,44.0000013427735,8|0,0:2|0:2,0:1:0:0:
154,201,231825,2,2,P|130:251|230:276,1,176.000005371094,2|0,0:1|1:2,0:1:0:0:
393,227,232331,6,2,P|373:266|362:308,1,88.000002685547,10|2,0:1|0:2,0:2:0:0:
362,308,232584,1,2,0:2:0:0:
362,308,232668,1,2,0:2:0:0:
457,382,232837,1,0,1:2:0:0:
498,275,233005,2,2,P|498:207|467:149,1,132.00000402832,10|0,0:2|0:2,0:1:0:0:
410,94,233342,6,0,B|368:103|368:103|328:82,1,88.000002685547,6|0,1:2|0:2,0:2:0:0:
328,82,233595,1,0,0:2:0:0:
328,82,233679,1,10,0:2:0:0:
228,25,233848,1,0,0:2:0:0:
249,162,234016,2,2,L|259:278,1,88.000002685547,2|0,0:1|1:2,0:1:0:0:
341,324,234354,1,8,0:2:0:0:
157,384,234522,6,2,L|149:296,1,88.000002685547,2|0,0:2|1:2,0:1:0:0:
121,149,234859,1,2,0:2:0:0:
37,231,235028,1,8,0:2:0:0:
149,296,235196,2,2,P|209:315|297:221,1,176.000005371094,2|0,0:2|1:2,0:1:0:0:
240,126,235702,2,2,B|204:146|204:146|178:191|212:236,1,132.00000402832,10|0,0:2|0:2,0:2:0:0:
292,251,236039,6,0,P|350:233|398:235,1,88.000002685547,6|0,1:2|0:2,0:2:0:0:
481,118,236376,1,8,0:2:0:0:
370,53,236545,1,0,0:2:0:0:
457,20,236713,1,2,0:2:0:0:
396,140,236882,1,0,1:2:0:0:
340,25,237050,1,8,0:2:0:0:
292,167,237219,1,0,1:2:0:0:
178,47,237387,6,2,P|194:109|196:165,1,88.000002685547,2|0,0:2|1:2,0:1:0:0:
56,256,237724,2,2,P|40:194|38:138,1,88.000002685547,10|0,0:2|0:2,0:1:0:0:
37,170,237977,1,8,0:2:0:0:
37,170,238061,1,2,2:2:0:0:
192,240,238230,5,0,1:2:0:0:
192,240,238314,1,0,1:2:0:0:
192,240,238398,2,2,B|261:266|253:227|330:254,1,132.00000402832,10|0,0:2|0:2,0:1:0:0:
382,197,238736,6,0,B|420:260|418:290|323:311|328:380|464:405|569:384|511:230|350:243|346:126|401:79,1,500,4|0,1:1|0:0,0:2:0:0:
466,42,240927,5,0,1:2:0:0:
276,13,241095,1,8,0:2:0:0:
276,13,241432,6,0,B|258:60|258:60|195:87|139:38,1,176.000005371094,6|8,1:2|0:2,0:2:0:0:
17,137,241938,1,2,0:2:0:0:
17,137,242022,1,0,0:2:0:0:
17,137,242106,2,0,P|56:124|109:128,1,71.9999978027344,2|0,0:2|1:2,0:0:0:0:
191,188,242443,6,0,B|185:244|185:244|168:265|168:265|159:334,1,136.000002593994,10|0,0:2|1:2,0:2:0:0:
286,382,242949,2,0,P|278:338|285:289,1,68.0000012969971,2|8,0:2|0:2,0:2:0:0:
421,270,243286,1,0,0:2:0:0:
421,270,243370,1,0,0:2:0:0:
421,270,243455,2,0,P|429:314|422:363,1,68.0000012969971,2|0,0:2|1:2,0:0:0:0:
355,321,243792,1,8,0:2:0:0:
397,174,244129,6,0,P|460:176|510:107,1,128,2|8,1:2|0:2,0:2:0:0:
437,28,244634,1,2,0:2:0:0:
437,28,244719,1,0,0:2:0:0:
437,28,244803,2,0,L|427:115,1,64,0|0,0:2|1:2,0:2:0:0:
300,163,245140,6,0,P|290:103|278:22,1,120.000004577637,10|0,0:2|1:2,0:2:0:0:
205,126,245646,2,0,P|176:144|143:152,1,60.0000022888184,2|8,0:2|0:2,0:2:0:0:
111,65,245983,1,0,0:2:0:0:
111,65,246067,1,0,0:2:0:0:
111,65,246151,2,0,P|140:47|173:39,1,60.0000022888184,2|0,0:2|1:2,0:2:0:0:
252,52,246488,1,8,0:2:0:0:
152,189,246825,6,0,L|146:322,1,111.999996582031,2|8,1:2|0:2,0:2:0:0:
229,334,247331,2,0,L|235:201,1,111.999996582031,2|0,0:2|1:2,0:2:0:0:
342,299,247837,6,0,P|393:321|455:318,1,103.999995239258,10|0,0:2|1:2,0:2:0:0:
456,246,248342,2,0,P|405:224|343:227,1,103.999995239258,2|0,0:2|0:2,0:2:0:0:
279,159,248848,6,0,B|232:168|232:168|169:142,2,95.9999970703126,2|8|0,0:2|0:2|0:2,0:2:0:0:
