osu file format v14

[General]
AudioFilename: audio.mp3
AudioLeadIn: 0
PreviewTime: 138602
Countdown: 0
SampleSet: Soft
StackLeniency: 0.7
Mode: 0
LetterboxInBreaks: 0
WidescreenStoryboard: 1

[Editor]
Bookmarks: 0,2781,11797,24354,40533,62106,78286,80983,82668,83342,83679,94466,105253,110646,113258,113342,113343,113427,115196,115280,115365,116039,125309,125393,125477,126825,134241,137612,138539,148399,156488,159185,169887,172668,183455,194241,205028,217163,217500,227949,238736,240589,241432,244129,246825,249522
DistanceSpacing: 1.2
BeatDivisor: 4
GridSize: 32
TimelineZoom: 2.4

[Metadata]
Title:Azurite no Hitsugi (Artethia Remix)
TitleUnicode:アズライトの棺 (Artethia Remix)
Artist:Ayane
ArtistUnicode:アヤネ
Creator:Lasse
Version:Hard
Source:水葬銀貨のイストリア
Tags:japanese electronic drumstep dnb Suisou Ginka no Istoria opening eroge visual novel meto
BeatmapID:4485427
BeatmapSetID:2129263

[Difficulty]
HPDrainRate:4
CircleSize:3.8
OverallDifficulty:6.8
ApproachRate:8
SliderMultiplier:1.36
SliderTickRate:1

[Events]
//Background and Video events
0,0,"CG12_06.jpg",0,0
//Break Periods
//Storyboard Layer 0 (Background)
//Storyboard Layer 1 (Fail)
//Storyboard Layer 2 (Pass)
//Storyboard Layer 3 (Foreground)
//Storyboard Layer 4 (Overlay)
//Storyboard Sound Samples

[TimingPoints]
2781,337.078651685393,4,2,1,65,1,0
3033,-100,4,2,1,30,0,0
3118,-100,4,2,1,65,0,0
4044,-100,4,2,1,30,0,0
4129,-100,4,2,1,65,0,0
5392,-100,4,2,1,30,0,0
5477,-100,4,2,1,65,0,0
5730,-100,4,2,1,30,0,0
5814,-100,4,2,1,65,0,0
8089,-100,4,2,1,30,0,0
8174,-100,4,2,1,65,0,0
8427,-100,4,2,1,30,0,0
8511,-100,4,2,1,65,0,0
10785,-100,4,2,1,30,0,0
10870,-100,4,2,1,65,0,0
11123,-100,4,2,1,30,0,0
11207,-100,4,2,1,65,0,0
13482,-100,4,2,1,30,0,0
13567,-100,4,2,1,65,0,0
13820,-100,4,2,1,30,0,0
13904,-100,4,2,1,65,0,0
16179,-100,4,2,1,30,0,0
16264,-100,4,2,1,65,0,0
18875,-100,4,2,1,30,0,0
18960,-100,4,2,1,54,0,0
19297,-100,4,2,1,56,0,0
19634,-100,4,2,1,58,0,0
19972,-100,4,2,1,60,0,0
20309,-100,4,2,1,62,0,0
20646,-100,4,2,1,64,0,0
20983,-100,4,2,1,66,0,0
21320,-100,4,2,1,68,0,0
21657,-100,4,2,1,70,0,0
22668,-100,4,2,1,65,0,0
23005,-100,4,2,1,70,0,0
23173,-100,4,2,1,65,0,0
23511,-100,4,2,1,70,0,0
23679,-100,4,2,1,50,0,0
23848,-100,4,2,1,60,0,0
24185,-100,4,2,1,65,0,0
24354,-100,4,2,1,70,0,0
24606,-100,4,2,1,30,0,0
24691,-100,4,2,1,70,0,0
26965,-100,4,2,1,30,0,0
27050,-100,4,2,1,70,0,0
35140,-111.111111111111,4,2,1,65,0,0
35477,-111.111111111111,4,2,1,55,0,0
35646,-125,4,2,1,55,0,0
36151,-111.111111111111,4,2,1,60,0,0
36236,-111.111111111111,4,2,1,5,0,0
36825,-111.111111111111,4,2,1,50,0,0
37163,-125,4,2,1,50,0,0
37331,-125,4,2,1,40,0,0
37500,-125,4,2,1,50,0,0
37668,-125,4,2,1,40,0,0
37837,-111.111111111111,4,2,1,55,0,0
38174,-111.111111111111,4,2,1,45,0,0
38342,-125,4,2,1,45,0,0
38848,-111.111111111111,4,2,1,55,0,0
39016,-111.111111111111,4,2,1,5,0,0
39522,-111.111111111111,4,2,1,45,0,0
39859,-111.111111111111,4,2,1,40,0,0
40196,-111.111111111111,4,2,1,35,0,0
40533,-111.111111111111,4,2,1,55,0,0
40618,-111.111111111111,4,2,2,55,0,0
47528,-111.111111111111,4,2,2,20,0,0
47612,-111.111111111111,4,2,2,55,0,0
52921,-111.111111111111,4,2,2,20,0,0
53005,-111.111111111111,4,2,2,55,0,0
59410,-111.111111111111,4,2,1,60,0,0
59747,-111.111111111111,4,2,1,62,0,0
60084,-111.111111111111,4,2,1,64,0,0
60421,-111.111111111111,4,2,1,66,0,0
60758,-111.111111111111,4,2,1,68,0,0
61264,-111.111111111111,4,2,1,64,0,0
61769,-111.111111111111,4,2,1,70,0,0
61853,-111.111111111111,4,2,1,60,0,0
61937,-111.111111111111,4,2,1,50,0,0
62106,-105.263157894737,4,2,1,65,0,0
62358,-105.263157894737,4,2,1,30,0,0
62443,-105.263157894737,4,2,1,60,0,0
65055,-105.263157894737,4,2,1,30,0,0
65140,-105.263157894737,4,2,1,60,0,0
67752,-105.263157894737,4,2,1,30,0,0
67837,-105.263157894737,4,2,1,60,0,0
70448,-105.263157894737,4,2,1,30,0,0
70533,-105.263157894737,4,2,1,60,0,0
73145,-105.263157894737,4,2,1,30,0,0
73230,-105.263157894737,4,2,1,60,0,0
75841,-105.263157894737,4,2,1,30,0,0
75927,-105.263157894737,4,2,1,60,0,0
78286,-100,4,2,1,65,0,0
79634,-90.9090909090909,4,2,1,70,0,0
79972,-90.9090909090909,4,2,1,65,0,0
80140,-90.9090909090909,4,2,1,64,0,0
80309,-90.9090909090909,4,2,1,66,0,0
80393,-90.9090909090909,4,2,1,62,0,0
80477,-90.9090909090909,4,2,1,68,0,0
80646,-90.9090909090909,4,2,1,72,0,0
80814,-90.9090909090909,4,2,1,74,0,0
80983,-133.333333333333,4,2,1,70,0,0
81067,-133.333333333333,4,2,1,5,0,0
82668,-133.333333333333,4,2,1,10,0,0
83174,-200,4,2,1,25,0,0
83679,-200,4,2,2,50,0,0
83764,-200,4,2,1,45,0,0
89073,-166.666666666667,4,2,1,48,0,0
94466,-153.846153846154,4,2,1,50,0,0
99859,-142.857142857143,4,2,1,52,0,0
102556,-133.333333333333,4,2,1,54,0,0
104241,-166.666666666667,4,2,1,55,0,0
104578,-166.666666666667,4,2,1,40,0,0
104747,-166.666666666667,4,2,1,44,0,0
104915,-166.666666666667,4,2,1,42,0,0
105084,-166.666666666667,4,2,1,40,0,0
105252,-100,4,2,1,65,0,0
105504,-100,4,2,1,30,0,0
105589,-100,4,2,3,65,0,0
105674,-100,4,2,1,65,0,0
106938,-100,4,2,3,65,0,0
107106,-100,4,2,1,65,0,0
107612,-100,4,2,3,65,0,0
107949,-100,4,2,1,65,0,0
108201,-100,4,2,1,30,0,0
108286,-100,4,2,3,65,0,0
108370,-100,4,2,1,65,0,0
108875,-100,4,2,1,30,0,0
108960,-100,4,2,3,65,0,0
109297,-100,4,2,1,65,0,0
109634,-100,4,2,3,65,0,0
109803,-100,4,2,1,65,0,0
110309,-111.111111111111,4,2,3,60,0,0
110561,-111.111111111111,4,2,3,20,0,0
110646,-100,4,2,1,60,0,0
110983,-100,4,2,1,62,0,0
111320,-100,4,2,1,64,0,0
111657,-100,4,2,1,66,0,0
111994,-100,4,2,2,68,0,0
112668,-100,4,2,2,60,0,0
112752,-100,4,2,2,61,0,0
112836,-100,4,2,2,62,0,0
112920,-100,4,2,2,63,0,0
113005,-100,4,2,2,64,0,0
113089,-100,4,2,2,65,0,0
113173,-100,4,2,2,66,0,0
113257,-100,4,2,2,67,0,0
113342,-100,4,2,2,68,0,0
114016,-100,4,2,2,40,0,0
114691,-100,4,2,2,50,0,0
115365,-100,4,2,3,50,0,0
115702,-125,4,2,1,60,0,0
116039,-76.9230769230769,4,2,3,75,0,1
116291,-76.9230769230769,4,2,1,30,0,1
116376,-90.9090909090909,4,2,1,75,0,1
116629,-90.9090909090909,4,2,1,30,0,1
116713,-90.9090909090909,4,2,1,75,0,1
118313,-90.9090909090909,4,2,1,30,0,1
118398,-90.9090909090909,4,2,1,75,0,1
119157,-90.9090909090909,4,2,1,30,0,1
119241,-90.9090909090909,4,2,1,75,0,1
119410,-90.9090909090909,4,2,3,75,0,1
119578,-90.9090909090909,4,2,1,75,0,1
120673,-90.9090909090909,4,2,1,30,0,1
120758,-90.9090909090909,4,2,1,75,0,1
121095,-90.9090909090909,4,2,3,75,0,1
121264,-90.9090909090909,4,2,3,70,0,1
121432,-90.9090909090909,4,2,1,75,0,1
122865,-90.9090909090909,4,2,1,30,0,1
122949,-90.9090909090909,4,2,1,75,0,1
123539,-90.9090909090909,4,2,1,60,0,1
123623,-90.9090909090909,4,2,1,65,0,0
123792,-90.9090909090909,4,2,1,70,0,0
123960,-90.9090909090909,4,2,1,75,0,0
124129,-76.9230769230769,4,2,1,75,0,1
124382,-76.9230769230769,4,2,1,30,0,1
124466,-76.9230769230769,4,2,1,75,0,1
124634,-90.9090909090909,4,2,1,75,0,1
124972,-90.9090909090909,4,2,1,70,0,0
125309,-76.9230769230769,4,2,1,80,0,1
125477,-76.9230769230769,4,2,1,55,0,0
125814,-76.9230769230769,4,2,1,65,0,0
126151,-76.9230769230769,4,2,1,70,0,0
126488,-111.111111111111,4,2,1,60,0,0
126825,-76.9230769230769,4,2,3,75,0,1
127077,-76.9230769230769,4,2,1,30,0,1
127163,-90.9090909090909,4,2,1,75,0,1
127415,-90.9090909090909,4,2,1,30,0,1
127500,-90.9090909090909,4,2,1,75,0,1
129437,-90.9090909090909,4,2,1,30,0,1
129522,-90.9090909090909,4,2,1,75,0,1
129943,-90.9090909090909,4,2,1,30,0,1
130028,-90.9090909090909,4,2,1,75,0,1
130955,-90.9090909090909,4,2,1,30,0,1
131039,-90.9090909090909,4,2,1,75,0,1
131882,-90.9090909090909,4,2,3,75,0,1
132219,-76.9230769230769,4,2,1,75,0,1
132893,-90.9090909090909,4,2,1,75,0,1
133650,-90.9090909090909,4,2,1,30,0,1
133736,-90.9090909090909,4,2,1,75,0,1
134663,-90.9090909090909,4,2,1,30,0,1
134746,-90.9090909090909,4,2,1,75,0,1
135167,-90.9090909090909,4,2,1,30,0,1
135252,-90.9090909090909,4,2,1,75,0,1
135842,-90.9090909090909,4,2,1,30,0,1
135926,-90.9090909090909,4,2,1,75,0,1
136347,-90.9090909090909,4,2,1,30,0,1
136432,-111.111111111111,4,2,1,60,0,0
136516,-111.111111111111,4,2,1,50,0,0
136769,-111.111111111111,4,2,1,60,0,0
137106,-111.111111111111,4,2,2,55,0,0
137275,-111.111111111111,4,2,2,50,0,0
137443,-111.111111111111,4,2,2,45,0,0
137612,-76.9230769230769,4,2,3,75,0,1
137864,-76.9230769230769,4,2,1,30,0,1
137949,-90.9090909090909,4,2,1,75,0,1
138202,-90.9090909090909,4,2,1,30,0,1
138286,-90.9090909090909,4,2,1,75,0,1
139045,-90.9090909090909,4,2,1,50,0,1
139128,-90.9090909090909,4,2,1,75,0,1
140561,-90.9090909090909,4,2,1,30,0,1
140646,-90.9090909090909,4,2,1,75,0,1
141741,-90.9090909090909,4,2,1,30,0,1
141825,-90.9090909090909,4,2,1,75,0,1
143932,-90.9090909090909,4,2,1,30,0,1
144016,-90.9090909090909,4,2,1,75,0,1
144437,-90.9090909090909,4,2,1,30,0,1
144522,-90.9090909090909,4,2,1,75,0,1
145533,-90.9090909090909,4,2,1,65,0,1
145702,-76.9230769230769,4,2,1,75,0,1
145955,-76.9230769230769,4,2,1,30,0,1
146039,-76.9230769230769,4,2,1,75,0,1
146376,-90.9090909090909,4,2,1,75,0,1
146882,-76.9230769230769,4,2,1,75,0,1
147134,-76.9230769230769,4,2,1,30,0,1
147219,-76.9230769230769,4,2,1,75,0,1
147387,-90.9090909090909,4,2,1,75,0,1
147639,-90.9090909090909,4,2,1,30,0,1
147724,-90.9090909090909,4,2,1,75,0,1
148061,-90.9090909090909,4,2,4,75,0,1
148314,-90.9090909090909,4,2,4,75,0,0
148398,-76.9230769230769,4,2,3,75,0,1
148650,-76.9230769230769,4,2,1,30,0,1
148736,-90.9090909090909,4,2,1,75,0,1
148988,-90.9090909090909,4,2,1,30,0,1
149073,-90.9090909090909,4,2,1,75,0,1
150673,-90.9090909090909,4,2,1,30,0,1
150758,-90.9090909090909,4,2,1,75,0,1
151347,-90.9090909090909,4,2,1,30,0,1
151432,-90.9090909090909,4,2,1,75,0,1
152528,-90.9090909090909,4,2,1,30,0,1
152612,-90.9090909090909,4,2,1,75,0,1
153370,-90.9090909090909,4,2,1,30,0,1
153455,-90.9090909090909,4,2,1,75,0,1
153623,-90.9090909090909,4,2,1,65,0,1
153792,-90.9090909090909,4,2,1,75,0,1
154718,-90.9090909090909,4,2,1,30,0,1
154803,-90.9090909090909,4,2,1,75,0,1
155224,-90.9090909090909,4,2,1,30,0,1
155309,-90.9090909090909,4,2,1,75,0,1
156066,-90.9090909090909,4,2,1,30,0,1
156151,-90.9090909090909,4,2,1,75,0,0
156320,-90.9090909090909,4,2,1,65,0,0
156488,-90.9090909090909,4,2,1,70,0,1
156573,-90.9090909090909,4,2,1,70,0,0
158848,-90.9090909090909,4,2,2,40,0,0
159185,-90.9090909090909,4,2,4,65,0,0
159522,-111.111111111111,4,2,4,60,0,0
160533,-111.111111111111,4,2,4,62,0,0
161882,-111.111111111111,4,2,4,64,0,0
163230,-111.111111111111,4,2,4,66,0,0
164578,-100,4,2,4,70,0,0
164915,-100,4,2,4,68,0,0
165841,-100,4,2,4,30,0,0
165927,-100,4,2,4,70,0,0
167275,-100,4,2,4,72,0,0
167949,-90.9090909090909,4,2,4,74,0,0
168623,-90.9090909090909,4,2,4,76,0,0
171994,-76.9230769230769,4,2,43,70,0,0
172036,-76.9230769230769,4,2,43,5,0,0
172668,-76.9230769230769,4,2,3,75,0,1
172674,-76.9230769230769,4,2,2,50,0,1
172920,-76.9230769230769,4,2,1,30,0,1
173005,-90.9090909090909,4,2,1,75,0,1
174101,-90.9090909090909,4,2,1,30,0,1
174185,-90.9090909090909,4,2,1,75,0,1
175617,-90.9090909090909,4,2,1,30,0,1
175702,-90.9090909090909,4,2,1,75,0,1
181010,-90.9090909090909,4,2,1,30,0,1
181095,-90.9090909090909,4,2,1,75,0,1
181938,-76.9230769230769,4,2,1,75,0,1
182191,-76.9230769230769,4,2,1,30,0,1
182275,-76.9230769230769,4,2,1,75,0,1
182443,-90.9090909090909,4,2,1,75,0,1
183118,-125,4,2,1,60,0,0
183202,-125,4,2,1,50,0,0
183455,-76.9230769230769,4,2,3,75,0,1
183461,-76.9230769230769,4,2,2,50,0,1
184129,-76.9230769230769,4,2,1,75,0,1
184634,-90.9090909090909,4,2,1,75,0,1
184886,-90.9090909090909,4,2,1,30,0,1
184972,-90.9090909090909,4,2,1,75,0,1
186404,-90.9090909090909,4,2,1,30,0,1
186488,-90.9090909090909,4,2,1,75,0,1
187583,-90.9090909090909,4,2,1,30,0,1
187668,-90.9090909090909,4,2,1,75,0,1
188511,-90.9090909090909,4,2,4,75,0,1
188848,-90.9090909090909,4,2,1,75,0,1
189100,-90.9090909090909,4,2,1,30,0,1
189185,-90.9090909090909,4,2,1,75,0,1
189866,-90.9090909090909,4,2,2,70,0,1
190448,-90.9090909090909,4,2,1,30,0,1
190533,-90.9090909090909,4,2,1,75,0,1
191797,-90.9090909090909,4,2,1,30,0,1
191882,-90.9090909090909,4,2,1,75,0,1
192050,-90.9090909090909,4,2,1,65,0,1
192218,-90.9090909090909,4,2,1,75,0,1
192724,-90.9090909090909,4,2,1,75,0,0
193061,-90.9090909090909,4,2,4,66,0,0
193229,-90.9090909090909,4,2,4,68,0,0
193398,-90.9090909090909,4,2,4,70,0,0
193567,-90.9090909090909,4,2,4,72,0,0
193736,-90.9090909090909,4,2,4,74,0,0
193904,-90.9090909090909,4,2,4,76,0,0
194073,-90.9090909090909,4,2,4,60,0,0
194241,-76.9230769230769,4,2,3,75,0,1
194494,-76.9230769230769,4,2,3,30,0,1
194578,-76.9230769230769,4,2,1,75,0,1
194747,-90.9090909090909,4,2,1,75,0,1
195674,-90.9090909090909,4,2,3,30,0,1
195758,-90.9090909090909,4,2,1,75,0,1
198370,-90.9090909090909,4,2,3,30,0,1
198455,-90.9090909090909,4,2,1,75,0,1
199634,-76.9230769230769,4,2,1,75,0,1
199887,-76.9230769230769,4,2,3,30,0,1
199971,-76.9230769230769,4,2,1,75,0,1
200309,-90.9090909090909,4,2,1,75,0,1
204691,-111.111111111111,4,2,1,65,0,0
205028,-76.9230769230769,4,2,3,75,0,1
205280,-76.9230769230769,4,2,3,30,0,1
205365,-76.9230769230769,4,2,1,75,0,1
206207,-90.9090909090909,4,2,1,75,0,1
207976,-90.9090909090909,4,2,3,30,0,1
208061,-90.9090909090909,4,2,1,75,0,1
208483,-90.9090909090909,4,2,3,30,0,1
208567,-90.9090909090909,4,2,1,75,0,1
209156,-90.9090909090909,4,2,3,30,0,1
209241,-90.9090909090909,4,2,1,75,0,1
210421,-76.9230769230769,4,2,1,75,0,1
210674,-76.9230769230769,4,2,3,30,0,1
210758,-76.9230769230769,4,2,1,75,0,1
211432,-90.9090909090909,4,2,1,75,0,1
213118,-76.9230769230769,4,2,1,75,0,1
213370,-76.9230769230769,4,2,3,30,0,1
213455,-76.9230769230769,4,2,1,75,0,1
213623,-90.9090909090909,4,2,1,75,0,1
216151,-90.9090909090909,4,2,1,70,0,1
216657,-100,4,2,1,65,0,1
216994,-100,4,2,1,60,0,1
217163,-100,4,2,1,60,0,0
217500,-100,4,2,1,75,0,1
217584,-100,4,2,1,75,0,0
217668,-100,4,2,1,70,0,0
217921,-100,4,2,1,30,0,0
218005,-100,4,2,1,70,0,0
219774,-100,4,2,1,30,0,0
219859,-100,4,2,1,70,0,0
224156,-100,4,2,1,30,0,0
224241,-100,4,2,1,70,0,0
225167,-100,4,2,1,30,0,0
225252,-100,4,2,1,70,0,0
225505,-100,4,2,1,30,0,0
225589,-100,4,2,1,70,0,0
226516,-100,4,2,1,30,0,0
226601,-111.111111111111,4,2,1,60,0,0
227949,-83.3333333333333,4,2,1,70,0,1
228033,-83.3333333333333,4,2,1,70,0,0
228201,-83.3333333333333,4,2,1,30,0,0
228286,-83.3333333333333,4,2,1,70,0,0
228455,-100,4,2,1,70,0,0
233257,-100,4,2,1,30,0,0
233342,-100,4,2,1,70,0,0
235954,-100,4,2,1,30,0,0
236039,-100,4,2,1,70,0,0
238736,-100,4,2,1,65,0,0
240589,-100,4,2,1,5,0,0
240927,-100,4,2,1,60,0,0
241095,-83.3333333333333,4,2,1,65,0,0
241348,-83.3333333333333,4,2,1,20,0,0
241432,-83.3333333333333,4,2,1,70,0,0

[Colours]
Combo1 : 148,157,248
Combo2 : 4,136,200
Combo3 : 113,113,255
Combo4 : 61,174,194

[HitObjects]
237,320,2781,6,0,P|178:352|112:344,1,136,6|8,1:2|2:0,2:0:0:0:
33,289,3286,1,2,2:0:0:0:
33,289,3370,1,0,2:0:0:0:
33,289,3455,1,0,2:0:0:0:
110,237,3623,1,0,1:2:0:0:
38,184,3792,2,0,P|33:133|63:68,1,102,10|0,2:0|2:0,2:0:0:0:
64,79,4129,6,0,P|107:93|150:95,1,68,2|0,1:2|2:0,2:0:0:0:
246,88,4466,2,0,P|251:54|261:6,1,68,8|2,2:0|2:0,2:0:0:0:
257,21,4719,1,2,2:0:0:0:
257,21,4803,1,2,2:0:0:0:
356,14,4972,1,0,1:2:0:0:
401,89,5140,2,0,P|396:137|377:221,1,102,8|0,2:0|2:0,2:0:0:0:
389,202,5477,6,0,B|297:169|343:230|259:193,1,136,2|8,1:2|2:0,2:0:0:0:
186,138,5983,1,2,2:0:0:0:
186,138,6067,1,0,2:0:0:0:
186,138,6151,1,0,2:0:0:0:
134,210,6320,1,0,1:2:0:0:
206,260,6488,2,0,L|215:347,1,68,10|0,2:0|2:0,2:0:0:0:
306,369,6825,5,2,1:2:0:0:
394,378,6994,1,0,2:0:0:0:
476,344,7163,2,0,P|481:271|478:258,1,68,8|2,2:0|2:0,2:0:0:0:
477,266,7415,1,2,2:0:0:0:
472,255,7500,2,0,P|431:246|408:233,1,68,2|0,2:0|1:2,2:0:0:0:
340,154,7837,2,0,P|365:108|356:48,1,102,8|0,2:0|2:0,2:0:0:0:
353,44,8174,6,0,B|305:30|260:61|260:61|222:44,1,136,2|8,1:2|2:0,2:0:0:0:
141,82,8679,1,2,2:0:0:0:
141,82,8764,1,0,2:0:0:0:
141,82,8848,2,0,P|100:68|45:66,1,68,0|0,2:0|1:2,2:0:0:0:
1,113,9185,1,10,2:0:0:0:
73,164,9354,1,0,2:0:0:0:
40,257,9522,6,0,P|88:249|131:247,1,68,2|0,1:2|2:0,2:0:0:0:
208,222,9859,2,0,L|200:301,1,68,8|2,2:0|2:0,2:0:0:0:
201,289,10112,1,2,2:0:0:0:
201,289,10196,1,2,2:0:0:0:
247,379,10365,1,0,1:2:0:0:
319,319,10533,2,0,L|332:186,1,102,8|0,2:0|2:0,2:0:0:0:
337,193,10870,6,0,B|421:180|383:227|478:206,1,136,2|8,1:2|2:0,2:0:0:0:
512,135,11376,1,2,2:0:0:0:
512,135,11460,1,0,2:0:0:0:
512,135,11545,1,0,2:0:0:0:
451,68,11713,1,0,1:2:0:0:
369,97,11882,2,0,P|322:92|274:73,1,68,10|0,2:0|2:0,2:0:0:0:
201,17,12219,5,2,1:2:0:0:
157,94,12387,1,0,2:0:0:0:
219,157,12556,2,0,P|229:196|219:251,1,68,8|2,2:0|2:0,2:0:0:0:
227,223,12809,1,0,2:0:0:0:
227,223,12893,1,0,2:0:0:0:
154,273,13061,1,0,1:2:0:0:
70,243,13230,2,0,P|56:176|68:138,1,102,8|0,2:0|2:0,2:0:0:0:
75,130,13567,6,0,B|143:142|143:142|205:108,1,136,2|8,1:2|2:0,2:0:0:0:
294,71,14073,1,2,2:0:0:0:
294,71,14157,1,0,2:0:0:0:
294,71,14241,2,0,L|304:-5,1,68,0|0,2:0|1:2,2:0:0:0:
375,109,14578,1,10,2:0:0:0:
458,78,14747,1,0,2:0:0:0:
501,164,14915,6,0,P|500:203|469:254,1,68,2|0,1:2|2:0,2:0:0:0:
405,273,15252,2,0,P|369:258|320:250,1,68,8|2,2:0|2:0,2:0:0:0:
340,251,15505,1,2,2:0:0:0:
340,251,15589,1,2,2:0:0:0:
255,308,15758,1,0,1:2:0:0:
196,236,15927,2,0,P|190:189|232:136,1,102,8|0,2:0|2:0,2:0:0:0:
228,124,16264,6,0,B|184:110|184:110|153:120|153:120|72:95,1,136,2|8,1:2|2:0,2:0:0:0:
24,176,16769,1,2,2:0:0:0:
24,176,16854,1,0,2:0:0:0:
24,176,16938,2,0,P|5:210|8:261,1,68,0|0,2:0|1:2,2:0:0:0:
41,317,17275,1,10,2:0:0:0:
122,283,17443,1,0,2:0:0:0:
171,361,17612,6,0,B|205:367|205:367|263:346,1,68,2|0,1:2|2:0,2:0:0:0:
284,258,17949,2,0,L|272:175,1,68,8|0,2:0|2:0,2:0:0:0:
274,190,18202,1,0,2:0:0:0:
274,190,18286,1,2,2:0:0:0:
337,127,18455,1,0,1:2:0:0:
418,161,18623,2,0,B|451:184|451:184|433:260,1,102,8|0,2:0|2:0,2:0:0:0:
440,266,18960,6,0,L|372:245,1,68,2|0,1:2|2:0,2:0:0:0:
396,344,19297,2,0,L|328:323,1,68,0|0,1:2|2:0,2:0:0:0:
280,223,19634,6,0,L|266:139,1,68,0|0,1:2|2:0,2:0:0:0:
195,253,19972,2,0,L|181:169,1,68,0|0,1:2|2:0,2:0:0:0:
27,233,20309,6,0,L|119:244,1,68,2|0,1:2|2:0,2:0:0:0:
22,143,20646,2,0,L|114:154,1,68,0|0,1:2|2:0,2:0:0:0:
17,53,20983,2,0,L|109:64,1,68,0|0,1:2|2:0,2:0:0:0:
173,12,21320,5,0,1:2:0:0:
173,12,21488,1,0,1:2:0:0:
239,94,21657,6,0,P|236:131|203:179,1,68,14|0,2:0|1:2,2:0:0:0:
171,216,21994,1,0,1:2:0:0:
218,313,22163,2,0,L|315:296,1,68,10|0,2:0|1:2,2:0:0:0:
349,348,22500,1,0,1:2:0:0:
410,267,22668,5,0,1:2:0:0:
403,255,22752,1,0,1:2:0:0:
398,243,22837,1,0,1:2:0:0:
397,231,22921,1,0,1:2:0:0:
397,218,23005,2,0,P|438:201|469:165,1,68,14|0,2:0|1:2,2:0:0:0:
492,107,23342,5,0,1:2:0:0:
492,107,23427,1,0,1:2:0:0:
492,107,23511,2,0,P|465:103|411:61,1,68,8|0,2:0|2:0,2:0:0:0:
356,33,23848,2,0,L|352:-20,2,34,0|0|8,1:2|1:2|2:0,2:0:0:0:
273,120,24185,5,8,2:0:0:0:
273,120,24269,1,8,2:0:0:0:
273,120,24354,2,0,B|230:128|189:140|189:140|172:119|153:105,2,136,6|8|0,1:2|2:0|2:0,2:0:0:0:
351,159,25196,1,2,1:2:0:0:
308,236,25365,2,0,P|275:228|232:222,1,68,8|0,2:0|2:0,2:0:0:0:
164,303,25702,6,0,P|123:353|60:338,1,136,2|8,1:2|2:0,2:0:0:0:
4,275,26207,1,2,2:0:0:0:
4,275,26292,1,0,2:0:0:0:
4,275,26376,1,0,2:0:0:0:
80,226,26545,1,0,1:2:0:0:
25,157,26713,2,0,B|34:120|34:120|29:95|29:95|41:57,1,102,10|0,2:0|2:0,2:0:0:0:
57,50,27050,6,0,P|95:84|199:58,1,136,2|8,1:2|2:0,2:0:0:0:
269,51,27556,1,2,2:0:0:0:
269,51,27640,1,2,2:0:0:0:
269,51,27724,2,0,L|259:137,2,68,2|0|8,2:0|1:2|2:0,2:0:0:0:
378,10,28230,5,2,2:0:0:0:
449,62,28398,2,0,P|464:117|415:185,1,136,2|8,1:2|2:0,2:0:0:0:
352,228,28904,1,2,2:0:0:0:
352,228,28988,1,2,2:0:0:0:
352,228,29073,2,0,P|306:215|259:211,1,68,2|0,2:0|1:2,2:0:0:0:
278,310,29410,2,0,P|324:323|371:327,1,68,8|0,2:0|2:0,2:0:0:0:
446,297,29747,6,0,L|467:153,1,136,2|8,1:2|2:0,2:0:0:0:
445,71,30252,1,2,2:0:0:0:
445,71,30337,1,2,2:0:0:0:
445,71,30421,2,0,P|477:76|518:49,2,68,2|0|8,2:0|1:2|2:0,2:0:0:0:
350,21,30927,5,2,2:0:0:0:
292,87,31095,2,0,B|268:139|334:170|307:216,1,136,2|8,1:2|2:0,2:0:0:0:
233,255,31601,1,2,2:0:0:0:
233,255,31685,1,2,2:0:0:0:
233,255,31769,2,0,P|200:243|136:241,2,68,2|0|8,2:0|1:2|2:0,2:0:0:0:
307,326,32275,5,2,2:0:0:0:
226,362,32443,2,0,B|184:354|184:354|146:369|146:369|72:353,1,136,2|8,1:2|2:0,2:0:0:0:
62,274,32949,1,2,2:0:0:0:
62,274,33033,1,2,2:0:0:0:
62,274,33118,2,0,P|32:277|-10:245,2,68,2|0|8,2:0|1:2|2:0,2:0:0:0:
146,219,33623,5,2,2:0:0:0:
80,158,33792,2,0,P|69:90|147:53,1,136,2|8,1:2|2:0,2:0:0:0:
204,23,34297,1,2,2:0:0:0:
204,23,34382,1,2,2:0:0:0:
204,23,34466,2,0,P|239:49|283:55,1,68,2|0,2:0|1:2,2:0:0:0:
347,31,34803,1,8,2:0:0:0:
358,118,34972,1,2,2:0:0:0:
273,141,35140,6,0,P|227:130|134:115,1,122.399996264649,6|8,1:2|2:0,2:0:0:0:
76,128,35646,2,0,L|42:119,2,27.2,2|0|0,1:2|2:0|2:0,2:0:0:0:
49,121,36151,6,0,P|54:180|223:257,1,244.799992529297,6|2,1:2|2:0,2:0:0:0:
200,263,37163,2,0,L|188:333,1,54.4,2|0,1:2|2:0,2:0:0:0:
263,349,37500,2,0,L|275:279,1,54.4,2|0,1:2|2:0,2:0:0:0:
351,258,37837,6,0,P|402:268|458:204,1,122.399996264649,6|8,1:2|2:0,2:0:0:0:
492,159,38342,2,0,P|492:134|504:113,2,27.2,2|0|0,1:2|2:0|2:0,2:0:0:0:
492,132,38848,6,0,P|419:138|245:109,1,244.799992529297,6|2,1:2|2:0,2:0:0:0:
146,73,39859,1,2,2:0:0:0:
52,131,40196,1,2,2:0:0:0:
77,259,40533,6,0,P|119:291|195:257,1,122.399996264649,6|8,1:2|2:0,2:0:0:0:
234,333,41039,2,0,P|240:280|252:199,1,122.399996264649,2|0,2:0|1:2,2:0:0:0:
265,133,41545,2,0,P|225:126|191:120,1,61.1999981323243,8|0,2:0|2:0,2:0:0:0:
249,211,41882,6,0,P|289:218|323:224,1,61.1999981323243,2|0,1:2|2:0,2:0:0:0:
356,285,42219,2,0,P|415:302|462:249,1,122.399996264649,8|0,2:0|2:0,2:0:0:0:
494,195,42724,1,0,1:2:0:0:
439,137,42893,2,0,P|432:110|431:74,1,61.1999981323243,8|0,2:0|2:0,2:0:0:0:
336,39,43230,6,0,P|343:66|344:102,1,61.1999981323243,2|0,1:2|2:0,2:0:0:0:
305,168,43567,1,8,2:0:0:0:
232,135,43736,2,0,P|184:115|107:139,1,122.399996264649,2|0,2:0|1:2,2:0:0:0:
63,188,44241,2,0,P|36:183|-23:178,1,61.1999981323243,8|0,2:0|2:0,2:0:0:0:
95,263,44578,6,0,P|143:283|220:259,1,122.399996264649,2|8,1:2|2:0,2:0:0:0:
268,213,45084,2,0,L|249:358,1,122.399996264649,0|0,2:0|1:2,2:0:0:0:
325,384,45589,2,0,L|334:311,1,61.1999981323243,8|0,2:0|2:0,2:0:0:0:
385,241,45927,5,2,1:2:0:0:
453,281,46095,1,0,2:0:0:0:
503,219,46264,1,8,2:0:0:0:
435,179,46432,2,0,P|348:177|316:143,1,122.399996264649,2|0,2:0|1:2,2:0:0:0:
268,97,46938,2,0,L|272:20,1,61.1999981323243,8|0,2:0|2:0,2:0:0:0:
174,3,47275,6,0,L|180:125,1,122.399996264649,2|8,1:2|2:0,2:0:0:0:
230,186,47780,2,0,P|171:158|108:175,1,122.399996264649,0|0,2:0|1:2,2:0:0:0:
38,183,48286,2,0,L|27:120,1,61.1999981323243,8|0,2:0|2:0,2:0:0:0:
117,169,48623,6,0,L|128:232,1,61.1999981323243,2|0,1:2|2:0,2:0:0:0:
186,282,48960,1,8,2:0:0:0:
256,244,49129,2,0,L|277:123,1,122.399996264649,2|0,2:0|1:2,2:0:0:0:
350,89,49634,1,8,2:0:0:0:
350,89,49803,1,0,2:0:0:0:
411,158,49972,6,0,P|448:171|488:172,1,61.1999981323243,2|0,1:2|2:0,2:0:0:0:
401,241,50309,2,0,P|357:245|270:293,1,122.399996264649,8|0,2:0|2:0,2:0:0:0:
230,334,50814,1,0,1:2:0:0:
298,375,50983,2,0,P|334:369|375:342,1,61.1999981323243,8|0,2:0|2:0,2:0:0:0:
438,302,51320,5,2,1:2:0:0:
403,230,51488,1,0,2:0:0:0:
448,164,51657,1,8,2:0:0:0:
413,92,51825,2,0,B|351:65|359:112|287:82,1,122.399996264649,2|0,2:0|1:2,2:0:0:0:
231,43,52331,1,8,2:0:0:0:
231,43,52500,1,0,2:0:0:0:
191,126,52668,6,0,B|179:167|204:208|204:208|188:232|185:258,1,122.399996264649,2|8,1:2|2:0,2:0:0:0:
236,304,53174,2,0,P|188:282|95:275,1,122.399996264649,0|0,2:0|1:2,2:0:0:0:
63,216,53679,2,0,P|36:223|-14:219,1,61.1999981323243,8|0,2:0|2:0,2:0:0:0:
103,140,54016,6,0,P|95:113|98:63,1,61.1999981323243,2|0,1:2|2:0,2:0:0:0:
151,24,54354,1,8,2:0:0:0:
206,80,54522,2,0,P|253:113|332:95,1,122.399996264649,2|0,2:0|1:2,2:0:0:0:
387,73,55028,2,0,L|398:6,1,61.1999981323243,8|0,2:0|2:0,2:0:0:0:
484,7,55365,6,0,L|473:74,1,61.1999981323243,2|0,1:2|2:0,2:0:0:0:
512,139,55702,2,0,P|450:127|416:187,1,122.399996264649,8|0,2:0|2:0,2:0:0:0:
352,214,56207,1,0,1:2:0:0:
284,171,56376,2,0,L|278:95,1,61.1999981323243,8|0,2:0|2:0,2:0:0:0:
221,24,56713,5,2,1:2:0:0:
158,73,56882,1,0,2:0:0:0:
93,27,57050,1,8,2:0:0:0:
30,76,57219,2,0,P|10:135|31:193,1,122.399996264649,2|0,2:0|1:2,2:0:0:0:
86,251,57724,1,8,2:0:0:0:
86,251,57893,1,0,2:0:0:0:
170,206,58061,6,0,L|182:126,1,61.1999981323243,2|0,1:2|2:0,2:0:0:0:
265,122,58398,2,0,L|244:261,1,122.399996264649,8|0,2:0|2:0,2:0:0:0:
236,322,58904,1,0,1:2:0:0:
303,363,59073,2,0,P|329:365|381:339,1,61.1999981323243,8|0,2:0|2:0,2:0:0:0:
455,295,59410,5,4,1:2:0:0:
365,134,59747,1,0,1:2:0:0:
256,282,60084,1,0,1:2:0:0:
147,134,60421,1,0,1:2:0:0:
57,295,60758,5,4,1:2:0:0:
7,232,60927,1,0,1:2:0:0:
78,197,61095,1,8,2:0:0:0:
132,262,61264,1,0,1:2:0:0:
132,262,61348,2,0,P|177:260|220:245,1,91.7999971984864,0|0,1:2|1:2,2:0:0:0:
276,187,61769,2,2,L|285:138,2,30.5999990661621,8|0|0,2:1|2:0|2:0,2:1:0:0:
321,291,62106,6,0,P|367:312|437:314,1,96.8999974124909,6|0,1:2|2:0,2:0:0:0:
412,317,62443,2,0,B|433:304|453:306|453:306|491:266|462:202,1,129.199996549988,8|2,2:0|2:0,2:0:0:0:
438,148,62949,1,0,1:2:0:0:
363,186,63118,2,0,P|327:181|282:165,1,64.5999982749939,8|0,2:0|2:0,2:0:0:0:
211,114,63455,6,0,L|202:34,1,64.5999982749939,0|0,1:2|2:0,2:0:0:0:
123,15,63792,1,8,2:0:0:0:
81,90,63960,1,2,2:0:0:0:
81,90,64045,1,0,2:0:0:0:
81,90,64129,2,0,L|90:170,1,64.5999982749939,0|0,2:0|1:2,2:0:0:0:
7,210,64466,2,0,L|0:145,1,64.5999982749939,8|0,2:0|2:0,2:0:0:0:
117,241,64803,6,0,P|76:264|77:330,1,96.8999974124909,2|0,1:2|2:0,2:0:0:0:
67,310,65140,2,0,P|103:317|132:334,1,64.5999982749939,8|2,2:0|2:0,2:0:0:0:
195,379,65477,1,0,2:0:0:0:
255,320,65646,1,0,1:2:0:0:
334,356,65814,2,0,P|370:349|399:332,1,64.5999982749939,8|0,2:0|2:0,2:0:0:0:
496,285,66151,5,2,1:2:0:0:
496,285,66320,1,0,2:0:0:0:
432,226,66488,2,0,P|416:196|407:147,1,64.5999982749939,8|2,2:0|2:0,2:0:0:0:
414,158,66741,1,0,2:0:0:0:
420,150,66825,2,0,P|393:133|350:124,1,64.5999982749939,0|0,2:0|1:2,2:0:0:0:
317,205,67163,2,0,P|285:213|258:230,1,64.5999982749939,8|0,2:0|2:0,2:0:0:0:
174,306,67500,6,0,P|141:280|73:280,1,96.8999974124909,2|0,1:2|2:0,2:0:0:0:
87,275,67837,2,0,B|49:288|49:288|5:257|18:206,1,129.199996549988,8|2,2:0|2:0,2:0:0:0:
43,132,68342,1,0,1:2:0:0:
121,163,68511,2,0,P|167:172|201:170,1,64.5999982749939,8|0,2:0|2:0,2:0:0:0:
274,110,68848,6,0,L|282:43,1,64.5999982749939,2|0,1:2|2:0,2:0:0:0:
368,24,69185,2,0,L|360:91,1,64.5999982749939,8|2,2:0|2:0,2:0:0:0:
364,104,69438,1,0,2:0:0:0:
369,120,69522,2,0,P|404:125|452:111,1,64.5999982749939,0|0,2:0|1:2,2:0:0:0:
503,210,69859,2,0,P|468:205|420:219,1,64.5999982749939,8|0,2:0|2:0,2:0:0:0:
348,263,70196,6,0,L|340:369,1,96.8999974124909,2|0,1:2|2:0,2:0:0:0:
340,359,70533,2,0,P|306:366|274:351,1,64.5999982749939,8|0,2:0|2:0,2:0:0:0:
199,328,70870,1,2,2:0:0:0:
248,260,71039,1,0,1:2:0:0:
197,193,71207,2,0,P|184:162|187:114,1,64.5999982749939,8|0,2:0|2:0,2:0:0:0:
228,50,71545,6,0,L|303:36,1,64.5999982749939,2|0,1:2|2:0,2:0:0:0:
181,127,71882,2,0,L|117:115,1,64.5999982749939,8|0,2:0|2:0,2:0:0:0:
117,115,72134,1,0,2:0:0:0:
117,115,72219,1,2,2:0:0:0:
45,158,72387,1,0,1:2:0:0:
75,236,72556,2,0,L|138:247,1,64.5999982749939,8|0,2:0|2:0,2:0:0:0:
236,214,72893,6,0,L|247:322,1,96.8999974124909,6|0,1:2|2:0,2:0:0:0:
245,310,73230,2,0,B|286:308|316:339|316:339|372:319,1,129.199996549988,8|2,2:0|2:0,2:0:0:0:
435,365,73736,1,0,1:2:0:0:
491,303,73904,2,0,P|501:270|498:233,1,64.5999982749939,8|0,2:0|2:0,2:0:0:0:
434,155,74241,6,0,L|364:138,1,64.5999982749939,2|0,1:2|2:0,2:0:0:0:
294,175,74578,1,8,2:0:0:0:
228,120,74747,1,2,2:0:0:0:
228,120,74831,1,0,2:0:0:0:
228,120,74915,2,0,P|228:83|250:44,1,64.5999982749939,0|0,2:0|1:2,2:0:0:0:
294,175,75252,2,0,L|296:252,1,64.5999982749939,8|0,2:0|2:0,2:0:0:0:
326,329,75589,6,0,B|291:316|254:360|213:332,1,96.8999974124909,2|0,1:2|2:0,2:0:0:0:
231,340,75927,2,0,P|191:364|125:312,1,129.199996549988,8|2,2:0|2:0,2:0:0:0:
78,256,76432,1,0,1:2:0:0:
141,200,76601,2,0,P|156:174|161:130,1,64.5999982749939,8|0,2:0|2:0,2:0:0:0:
107,50,76938,5,2,1:2:0:0:
107,50,77106,1,0,2:0:0:0:
27,78,77275,2,0,P|12:104|7:148,1,64.5999982749939,8|2,2:0|1:2,2:0:0:0:
9,155,77528,1,2,2:0:0:0:
17,170,77612,2,0,P|47:176|85:193,1,64.5999982749939,2|0,2:0|1:2,2:0:0:0:
148,258,77949,1,8,2:0:0:0:
148,258,78033,1,8,2:0:0:0:
148,258,78118,1,0,1:2:0:0:
228,194,78286,6,0,L|222:121,1,68,4|0,1:2|2:0,2:0:0:0:
308,166,78623,2,0,L|302:98,1,68,0|0,1:2|2:0,2:0:0:0:
307,82,78876,1,0,2:0:0:0:
318,69,78960,2,0,P|356:57|398:65,1,68,0|2,1:2|2:0,2:0:0:0:
477,95,79297,1,0,1:2:0:0:
477,95,79466,1,0,2:0:0:0:
423,188,79634,6,0,L|417:266,1,74.8000022827149,6|0,1:2|2:0,2:0:0:0:
331,325,79972,2,0,L|325:247,1,74.8000022827149,0|2,1:2|2:0,2:0:0:0:
312,236,80224,1,2,2:0:0:0:
299,221,80309,2,2,P|260:203|217:208,1,74.8000022827149,2|2,1:2|2:0,2:0:0:0:
150,261,80646,1,10,2:0:0:0:
75,199,80814,1,2,2:0:0:0:
155,147,80983,6,0,B|208:137|245:180|245:180|276:114|321:109|321:109|372:130|413:105|413:105|355:148|377:218|447:242|480:208|472:168,1,510.000019454957,4|0,1:0|2:0,2:0:0:0:
473,177,83174,6,0,L|430:166,2,34,2|0|0,2:0|2:0|2:0,2:0:0:0:
512,251,83679,6,0,P|477:279|395:250,1,136,4|0,1:0|2:0,2:0:0:0:
330,209,84522,1,0,2:0:0:0:
330,209,84691,1,0,2:0:0:0:
330,209,84859,2,0,L|308:319,1,102,2|0,2:0|2:0,2:0:0:0:
212,358,85702,2,0,L|234:248,1,102,0|0,2:0|2:0,2:0:0:0:
160,206,86376,6,0,P|134:222|93:223,1,68,2|0,2:0|2:0,2:0:0:0:
26,203,86882,2,0,P|6:173|147:50,1,272,2|0,2:0|2:0,2:0:0:0:
136,44,88736,2,0,L|127:79,1,34,0|0,2:0|2:0,2:0:0:0:
170,146,89073,6,0,P|206:176|336:119,1,203.999993774414,2|0,2:0|2:0,2:0:0:0:
396,72,90084,1,0,2:0:0:0:
396,72,90252,1,0,2:0:0:0:
396,72,90421,2,0,L|380:203,1,122.399996264649,2|0,2:0|2:0,2:0:0:0:
441,309,91264,6,0,P|463:316|487:319,2,40.7999987548829,0|0|0,2:0|2:0|2:0,2:0:0:0:
369,336,91769,2,0,P|333:340|286:364,1,81.5999975097657,2|0,2:0|2:0,2:0:0:0:
230,316,92275,2,0,P|189:310|133:253,1,122.399996264649,0|0,2:0|2:0,2:0:0:0:
66,212,92949,2,0,P|157:199|269:155,1,203.999993774414,2|0,2:0|2:0,2:0:0:0:
261,159,94129,2,0,L|270:103,1,40.7999987548829,0|0,2:0|2:0,2:0:0:0:
329,60,94466,6,0,P|350:74|338:219,1,176.799991906739,2|0,2:0|2:0,2:0:0:0:
289,255,95309,1,0,2:0:0:0:
289,255,95477,1,0,2:0:0:0:
289,255,95646,2,0,B|187:217|214:284|116:245,1,176.799991906739,2|0,2:0|2:0,2:0:0:0:
117,245,96825,2,0,L|61:254,1,44.1999979766847,0|0,2:0|2:0,2:0:0:0:
17,320,97163,6,0,P|42:347|108:358,1,88.3999959533693,2|0,2:0|2:0,2:0:0:0:
158,321,97668,2,0,P|200:311|231:280,1,88.3999959533693,0|0,2:0|2:0,2:0:0:0:
300,240,98174,1,0,2:0:0:0:
300,240,98342,2,0,P|290:215|285:151,1,88.3999959533693,2|0,2:0|2:0,2:0:0:0:
364,140,98848,2,0,P|374:165|379:229,1,88.3999959533693,2|0,2:0|2:0,2:0:0:0:
317,352,99522,2,0,P|295:345|267:340,1,44.1999979766847,0|0,2:0|2:0,2:0:0:0:
199,309,99859,6,0,P|160:323|101:318,2,95.1999970947267,2|0|0,2:0|2:0|2:0,2:0:0:0:
321,235,100870,2,0,P|377:255|480:188,1,190.399994189453,2|0,2:0|2:0,2:0:0:0:
479,189,102219,2,0,P|448:176|429:158,1,47.5999985473633,0|0,2:0|2:0,2:0:0:0:
378,107,102556,6,0,P|352:131|281:132,1,102.000003890991,2|0,2:0|2:0,2:0:0:0:
225,192,103061,2,0,P|174:193|134:163,1,102.000003890991,2|0,2:0|2:0,2:0:0:0:
52,117,103567,1,0,2:0:0:0:
52,117,103736,2,0,L|70:239,1,102.000003890991,2|0,2:0|2:0,2:0:0:0:
41,318,104241,6,0,P|98:302|131:308,1,81.5999975097657,2|0,2:0|2:0,2:0:0:0:
190,340,104747,2,0,L|182:386,2,40.7999987548829,2|0|0,2:0|2:0|2:0,2:0:0:0:
278,286,105252,6,0,B|323:305|323:305|385:287,1,102,4|0,1:2|2:0,2:0:0:0:
374,290,105589,2,0,L|365:214,1,68,8|0,2:0|2:0,2:0:0:0:
270,218,105927,2,0,L|277:285,1,68,10|0,2:0|2:0,2:0:0:0:
188,318,106264,2,0,L|180:250,1,68,2|0,2:0|2:0,2:0:0:0:
117,162,106601,6,0,B|84:184|84:184|17:171|24:119,1,136,2|8,1:2|2:0,2:0:0:0:
60,42,107106,1,0,1:2:0:0:
143,81,107275,2,0,P|191:75|221:47,1,68,10|0,2:0|1:2,2:0:0:0:
308,24,107612,2,0,L|287:99,1,68,8|0,2:0|2:0,2:0:0:0:
348,177,107949,6,0,B|409:177|386:141|473:147,1,102,2|0,1:2|2:0,2:0:0:0:
459,161,108286,1,8,0:0:0:0:
479,245,108455,1,0,1:0:0:0:
410,293,108623,2,0,B|349:293|372:257|285:263,1,102,10|0,2:0|2:0,2:0:0:0:
314,262,108960,2,0,P|308:296|279:331,1,68,8|0,2:0|2:0,2:0:0:0:
180,359,109297,6,0,B|141:343|141:343|101:375|54:351,1,136,2|8,1:2|2:0,2:0:0:0:
0,282,109803,1,0,1:2:0:0:
54,212,109972,2,0,L|38:123,1,68,10|0,2:0|2:0,2:0:0:0:
116,92,110309,2,2,B|122:124|122:124|130:131|130:131|125:140|125:140|132:181,1,91.7999971984864,10|0,2:1|2:0,2:1:0:0:
135,198,110646,6,2,P|180:218|219:211,1,68,2|0,1:2|2:0,2:1:0:0:
234,289,110983,2,2,P|282:281|311:254,1,68,2|0,1:2|2:0,2:1:0:0:
366,311,111320,2,2,P|402:278|412:239,1,68,2|0,1:2|2:0,2:1:0:0:
488,257,111657,2,2,P|500:209|487:172,1,68,2|0,1:2|2:0,2:1:0:0:
463,107,111994,5,2,3:2:0:0:
394,163,112163,1,2,3:2:0:0:
307,180,112331,1,2,3:2:0:0:
220,160,112500,1,2,3:2:0:0:
157,98,112668,2,0,L|165:64,3,34,2|0|0|0,3:2|3:2|3:2|3:2,2:0:0:0:
173,31,113005,2,0,L|139:23,3,34,2|0|0|0,3:2|3:2|3:2|3:2,2:0:0:0:
107,11,113342,5,4,1:3:0:0:
256,192,113427,12,8,115365,2:0:0:0:
93,112,115702,6,0,L|147:108,1,54.4,8|0,2:0|2:0,2:0:0:0:
242,43,116039,6,2,B|230:82|230:82|238:118|238:118|226:141|225:182,1,132.599993930054,6|0,1:0|2:0,2:1:0:0:
225,171,116376,2,2,P|290:196|335:130,1,149.60000456543,2|8,2:0|2:0,2:0:0:0:
489,295,117050,5,2,3:2:0:0:
489,295,117134,1,2,3:2:0:0:
489,295,117219,2,0,P|439:277|392:280,1,74.8000022827149,2|0,3:2|1:2,2:0:0:0:
326,306,117556,1,0,2:0:0:0:
326,306,117640,1,0,2:0:0:0:
326,306,117724,2,2,B|328:327|328:327|322:353|322:353|327:379,1,74.8000022827149,2|2,2:0|2:1,2:0:0:0:
232,315,118061,2,2,B|182:288|183:333|105:297,1,112.200003424072,10|0,2:0|2:0,2:1:0:0:
122,304,118398,2,2,L|113:215,1,74.8000022827149,2|0,2:0|2:0,2:1:0:0:
165,141,118736,5,2,1:0:0:0:
230,186,118904,2,2,B|293:223|293:223|376:200,1,149.60000456543,0|2,2:1|2:0,2:1:0:0:
436,134,119410,2,2,L|535:148,1,74.8000022827149,10|0,2:0|1:2,2:1:0:0:
397,53,119747,5,2,3:2:0:0:
386,48,119831,1,0,3:2:0:0:
376,42,119915,1,0,3:2:0:0:
366,36,120000,1,0,3:2:0:0:
355,30,120084,2,0,L|300:39,3,37.4000011413575,2|0|0|0,1:2|3:2|3:2|3:2,2:0:0:0:
277,22,120421,2,2,P|253:74|188:55,1,112.200003424072,2|0,1:2|2:0,2:1:0:0:
193,86,120758,2,2,B|174:76|144:88|144:88|108:71,1,74.8000022827149,10|0,2:0|2:0,2:1:0:0:
50,20,121095,1,10,2:1:0:0:
12,123,121264,5,8,2:0:0:0:
12,123,121348,1,8,2:0:0:0:
12,123,121432,2,2,B|4:199|68:177|51:266,1,149.60000456543,6|0,1:2|2:0,2:1:0:0:
8,343,121938,1,0,1:2:0:0:
97,371,122106,2,0,P|139:367|190:351,1,74.8000022827149,8|0,2:0|2:0,2:0:0:0:
258,380,122443,1,0,2:0:0:0:
328,301,122612,6,0,B|319:250|319:250|338:216|338:216|329:146,1,149.60000456543,2|0,1:2|1:2,2:0:0:0:
272,89,123118,1,2,2:0:0:0:
205,148,123286,1,0,1:2:0:0:
133,93,123455,2,0,P|128:52|146:20,1,74.8000022827149,8|2,2:0|2:1,2:0:0:0:
205,148,123792,2,2,L|191:241,1,74.8000022827149,2|2,2:1|2:1,2:1:0:0:
154,318,124129,6,2,B|269:293|212:369|351:327,1,176.799991906739,6|2,1:2|2:0,2:1:0:0:
420,359,124634,2,0,P|459:365|496:379,1,74.8000022827149,2|8,2:0|2:0,2:0:0:0:
393,271,124972,2,2,P|428:258|465:252,1,74.8000022827149,2|0,2:0|2:0,2:0:0:0:
372,159,125309,6,2,B|365:129|365:129|367:107|367:107|353:52,1,88.3999959533693,6|0,1:2|2:0,2:1:0:0:
175,22,125814,5,2,1:2:0:0:
127,86,125983,1,2,2:1:0:0:
175,148,126151,1,8,2:0:0:0:
127,212,126320,1,0,1:2:0:0:
176,267,126488,2,2,L|177:347,1,61.1999981323243,2|0,1:0|2:0,2:1:0:0:
275,375,126825,6,2,B|277:291|310:331|315:252,1,132.599993930054,6|0,1:0|2:0,2:1:0:0:
315,252,127163,2,2,P|363:269|452:205,1,149.60000456543,2|8,2:0|2:0,2:0:0:0:
495,142,127668,1,2,1:2:0:0:
495,142,127752,1,2,3:2:0:0:
495,142,127837,2,0,P|468:98|463:59,1,74.8000022827149,2|2,3:2|1:2,2:0:0:0:
290,25,128342,5,2,3:2:0:0:
290,25,128427,1,2,3:2:0:0:
290,25,128511,2,2,P|317:69|322:108,1,74.8000022827149,2|2,1:2|2:1,2:0:0:0:
276,169,128848,1,8,2:0:0:0:
191,134,129016,1,0,1:2:0:0:
141,208,129185,2,2,P|116:223|42:187,1,112.200003424072,2|0,2:1|2:0,2:1:0:0:
33,206,129522,5,2,1:0:0:0:
19,296,129691,2,2,P|81:324|171:294,1,149.60000456543,2|2,2:1|1:2,2:1:0:0:
241,257,130196,1,10,2:0:0:0:
289,343,130365,1,2,3:1:0:0:
289,343,130449,1,2,3:2:0:0:
289,343,130533,1,2,3:2:0:0:
362,278,130702,6,2,B|393:321|457:307|457:307|477:286|479:249,1,149.60000456543,2|10,1:2|3:2,2:1:0:0:
472,254,131123,1,0,3:2:0:0:
463,241,131207,2,2,P|445:208|442:160,1,74.8000022827149,0|2,1:2|2:1,2:0:0:0:
362,93,131545,2,2,P|357:129|339:162,1,74.8000022827149,8|0,2:0|2:1,2:1:0:0:
259,225,131882,1,10,2:0:0:0:
259,225,131966,1,8,2:0:0:0:
259,225,132050,1,0,1:2:0:0:
164,178,132219,6,2,B|121:191|121:191|81:166|81:166|94:75,1,176.799991906739,6|0,1:2|2:0,2:1:0:0:
161,24,132724,1,0,1:2:0:0:
231,80,132893,2,0,P|282:100|317:93,1,74.8000022827149,8|0,2:0|2:0,2:0:0:0:
300,98,133146,1,0,2:0:0:0:
300,98,133230,1,2,2:1:0:0:
394,57,133398,6,2,B|428:47|428:47|476:81|454:129,1,112.200003424072,2|0,1:2|2:0,2:1:0:0:
459,111,133736,2,2,P|423:123|379:160,1,74.8000022827149,0|2,1:2|2:0,2:0:0:0:
327,208,134073,1,0,1:2:0:0:
238,172,134241,2,0,P|200:154|148:148,1,74.8000022827149,8|0,2:0|2:1,2:0:0:0:
149,151,134494,1,2,2:0:0:0:
131,158,134578,2,0,P|113:186|99:248,1,74.8000022827149,2|2,2:0|2:1,2:0:0:0:
132,331,134915,6,2,B|177:335|207:364|207:364|219:346|244:330,1,112.200003424072,6|0,1:2|2:0,2:1:0:0:
226,342,135252,2,2,P|260:347|310:326,1,74.8000022827149,2|0,2:0|2:0,2:0:0:0:
399,384,135589,2,0,B|388:348|388:348|398:291|398:291|381:226,1,149.60000456543,8|0,2:0|2:0,2:0:0:0:
406,142,136095,6,2,P|364:187|292:171,1,112.200003424072,2|0,1:2|2:0,2:1:0:0:
307,181,136432,2,2,L|295:131,2,30.5999990661621,2|0|0,2:1|2:0|2:0,2:1:0:0:
267,261,136769,1,2,3:2:0:0:
267,261,136854,1,0,3:2:0:0:
267,261,136938,2,0,P|234:244|197:241,1,61.1999981323243,0|8,3:2|2:0,2:0:0:0:
127,295,137275,2,0,P|97:289|70:274,1,61.1999981323243,2|2,2:0|2:0,2:0:0:0:
22,180,137612,6,2,B|31:131|71:106|71:106|55:82|60:44,1,132.599993930054,6|0,1:0|2:0,2:1:0:0:
59,67,137949,2,2,B|151:65|106:131|206:125,1,149.60000456543,2|8,2:0|2:0,2:0:0:0:
349,16,138623,5,2,1:2:0:0:
346,34,138707,1,2,3:2:0:0:
342,52,138792,1,2,3:2:0:0:
338,70,138876,1,2,3:2:0:0:
335,88,138960,2,0,L|351:181,1,74.8000022827149,2|2,3:2|3:2,2:0:0:0:
411,233,139297,2,2,P|339:226|294:259,1,112.200003424072,2|0,1:2|2:0,2:0:0:0:
306,244,139634,2,0,L|220:231,1,74.8000022827149,8|2,2:0|2:0,2:0:0:0:
271,324,139972,2,2,L|197:312,1,74.8000022827149,2|0,2:1|2:0,2:1:0:0:
128,230,140309,6,2,B|112:254|112:254|60:272|30:221,1,112.200003424072,2|0,1:2|2:0,2:0:0:0:
37,232,140646,2,2,P|24:185|7:150,1,74.8000022827149,2|0,2:0|2:0,2:0:0:0:
114,130,140983,2,0,P|123:93|138:59,1,74.8000022827149,8|0,2:0|2:0,2:0:0:0:
138,59,141236,1,0,2:0:0:0:
138,59,141320,1,0,2:0:0:0:
210,159,141488,6,0,B|297:185|269:142|358:170,1,149.60000456543,2|2,1:2|2:0,2:0:0:0:
409,255,141994,2,2,P|450:250|495:252,1,74.8000022827149,2|0,1:2|2:0,2:0:0:0:
491,348,142331,2,2,P|450:353|405:351,1,74.8000022827149,10|0,2:0|2:0,2:1:0:0:
406,346,142584,1,0,2:0:0:0:
397,337,142668,2,2,P|359:332|322:332,1,74.8000022827149,2|0,2:0|2:0,2:0:0:0:
229,298,143005,5,2,1:2:0:0:
173,368,143174,1,2,2:0:0:0:
96,322,143342,2,2,P|93:279|108:237,1,74.8000022827149,2|0,2:0|1:2,2:0:0:0:
183,184,143679,2,2,P|269:210|363:221,1,149.60000456543,8|2,2:0|2:0,2:0:0:0:
406,148,144185,6,2,B|427:183|473:178|473:178|489:161|502:115,1,112.200003424072,0|0,1:2|2:0,2:0:0:0:
490,148,144522,2,2,P|476:87|478:48,1,74.8000022827149,2|0,1:2|2:0,2:0:0:0:
410,9,144859,1,0,1:2:0:0:
341,71,145028,2,2,L|234:85,1,74.8000022827149,10|0,2:0|2:0,2:0:0:0:
187,33,145365,1,2,2:0:0:0:
187,33,145533,1,2,2:0:0:0:
105,110,145702,6,0,B|115:202|87:151|179:247|151:195|161:272,1,176.799991906739,6|2,1:2|2:0,2:1:0:0:
128,353,146207,1,0,1:2:0:0:
42,329,146376,2,0,L|33:234,1,74.8000022827149,10|0,2:0|2:0,2:0:0:0:
101,193,146713,1,2,2:0:0:0:
182,264,146882,6,2,B|235:275|235:275|299:247|299:247|358:264,1,176.799991906739,6|8,1:2|2:0,2:1:0:0:
398,339,147387,2,2,P|471:348|480:307,1,112.200003424072,2|0,1:2|2:0,2:0:0:0:
497,321,147724,1,10,2:0:0:0:
451,243,147893,1,0,1:2:0:0:
512,180,148061,1,10,2:0:0:0:
512,180,148146,1,8,2:0:0:0:
512,180,148230,1,0,1:2:0:0:
441,94,148398,6,2,B|418:80|397:85|365:139|342:134|318:113,1,132.599993930054,6|0,1:0|2:0,2:1:0:0:
321,116,148736,2,2,P|276:93|267:176,1,149.60000456543,2|8,2:0|2:0,2:0:0:0:
159,322,149410,5,2,1:2:0:0:
140,318,149494,1,2,3:2:0:0:
121,313,149578,1,2,3:2:0:0:
102,309,149663,1,2,3:2:0:0:
83,304,149747,2,0,B|46:311|46:311|14:291,1,74.8000022827149,2|2,3:2|3:2,2:0:0:0:
33,183,150084,2,0,B|70:176|70:176|101:195,1,74.8000022827149,0|2,1:2|2:0,2:0:0:0:
191,231,150421,2,2,L|175:85,1,112.200003424072,10|0,2:0|2:0,2:1:0:0:
178,119,150758,2,2,L|101:99,1,74.8000022827149,2|0,2:1|2:0,2:1:0:0:
229,35,151095,6,2,B|267:30|267:30|298:61|353:51,1,112.200003424072,2|0,1:2|2:0,2:0:0:0:
334,53,151432,2,2,P|373:41|429:48,1,74.8000022827149,2|0,2:0|2:0,2:0:0:0:
318,134,151769,2,0,P|306:167|304:223,1,74.8000022827149,8|0,2:0|3:2,2:0:0:0:
302,206,152022,1,0,3:2:0:0:
302,206,152106,1,0,3:2:0:0:
417,197,152275,6,0,B|460:217|452:290|452:290|429:296|414:315,1,149.60000456543,2|0,1:2|2:0,2:0:0:0:
335,382,152780,2,0,P|324:334|307:292,1,74.8000022827149,2|0,1:2|2:0,2:0:0:0:
266,228,153118,2,0,B|226:220|226:220|200:229|200:229|141:216,1,112.200003424072,10|0,2:0|2:0,2:0:0:0:
142,204,153455,1,2,2:0:0:0:
38,223,153623,1,0,2:1:0:0:
100,308,153792,6,2,L|90:382,2,74.8000022827149,2|2|2,1:2|2:0|2:0,2:0:0:0:
142,204,154297,1,0,1:2:0:0:
222,276,154466,2,2,P|276:287|330:273,1,112.200003424072,8|0,2:0|2:0,2:0:0:0:
339,285,154803,1,2,2:1:0:0:
384,193,154972,6,2,B|452:178|429:223|509:202,1,112.200003424072,2|0,1:2|2:0,2:0:0:0:
492,205,155309,2,0,P|504:163|497:114,1,74.8000022827149,0|0,1:2|2:0,2:0:0:0:
438,58,155646,1,0,1:2:0:0:
349,97,155814,2,2,P|292:102|234:63,1,112.200003424072,10|0,2:0|2:0,2:1:0:0:
239,63,156151,1,2,2:1:0:0:
181,141,156320,1,2,2:0:0:0:
97,91,156488,5,4,1:0:0:0:
256,192,156573,12,8,158848,2:0:0:0:
122,102,159185,5,14,1:2:0:0:
122,102,159522,2,0,L|52:93,1,61.1999981323243,8|0,2:0|2:0,2:0:0:0:
133,189,159859,2,0,L|63:180,1,61.1999981323243,8|0,2:0|2:0,2:0:0:0:
144,276,160196,2,0,L|74:267,1,61.1999981323243,8|0,2:0|2:0,2:0:0:0:
212,223,160533,6,0,P|217:196|234:148,1,61.1999981323243,10|0,2:0|2:0,2:0:0:0:
237,152,160786,1,0,2:0:0:0:
249,143,160870,2,0,P|276:148|324:165,1,61.1999981323243,8|0,2:0|2:0,2:0:0:0:
344,240,161207,2,0,P|334:269|328:299,1,61.1999981323243,8|0,2:0|2:0,2:0:0:0:
331,314,161460,1,0,2:0:0:0:
339,326,161545,2,0,P|368:335|398:341,1,61.1999981323243,8|0,2:0|2:0,2:0:0:0:
487,278,161882,6,0,P|492:247|501:218,1,61.1999981323243,10|0,2:0|2:0,2:0:0:0:
459,144,162219,1,8,2:0:0:0:
459,144,162387,1,0,2:0:0:0:
385,188,162556,2,0,P|379:218|370:247,1,61.1999981323243,10|0,2:0|2:0,2:0:0:0:
295,284,162893,1,8,2:0:0:0:
295,284,163061,1,0,2:0:0:0:
238,197,163230,6,0,L|153:178,1,61.1999981323243,10|0,2:0|2:0,2:0:0:0:
274,114,163567,2,0,L|189:95,1,61.1999981323243,8|0,2:0|2:0,2:0:0:0:
201,91,163820,1,0,2:0:0:0:
188,82,163904,2,0,L|103:63,1,61.1999981323243,10|0,2:0|2:0,2:0:0:0:
64,19,164241,1,8,2:0:0:0:
64,19,164410,1,0,2:0:0:0:
10,102,164578,6,0,L|18:181,1,68,14|0,1:2|2:0,2:0:0:0:
120,177,164915,2,0,L|112:256,1,68,8|0,1:2|2:0,2:0:0:0:
113,244,165168,1,0,2:0:0:0:
113,244,165252,1,10,1:2:0:0:
199,301,165421,1,0,2:0:0:0:
264,233,165589,2,0,L|253:131,1,102,8|0,1:2|2:0,2:0:0:0:
258,110,165927,6,0,P|294:101|336:106,1,68,10|0,1:2|2:0,2:0:0:0:
401,58,166264,1,8,1:2:0:0:
465,132,166432,1,0,1:2:0:0:
465,132,166516,1,0,1:2:0:0:
465,132,166601,2,0,P|469:185|465:219,1,68,10|0,1:2|2:0,2:0:0:0:
428,279,166938,2,0,P|390:267|347:262,1,68,8|0,1:2|2:0,2:0:0:0:
274,204,167275,5,10,1:2:0:0:
224,280,167443,1,8,1:2:0:0:
134,299,167612,1,8,1:2:0:0:
51,260,167780,1,8,1:2:0:0:
21,173,167949,2,0,P|13:136|20:90,1,74.8000022827149,10|8,1:2|1:2,2:0:0:0:
109,125,168286,2,0,P|122:89|153:54,1,74.8000022827149,8|8,1:2|1:2,2:0:0:0:
239,24,168623,5,10,1:2:0:0:
254,33,168707,1,8,1:2:0:0:
270,41,168792,1,8,1:2:0:0:
288,44,168876,1,8,1:2:0:0:
306,42,168960,2,0,P|325:35|353:32,3,37.4000011413575,8|8|8|8,1:2|1:2|1:2|1:2,2:0:0:0:
373,53,169297,2,0,P|392:57|417:70,3,37.4000011413575,10|8|8|8,1:2|1:2|1:2|1:2,2:0:0:0:
423,98,169634,2,0,P|437:112|451:136,3,37.4000011413575,8|8|8|8,1:2|1:2|1:2|1:2,2:0:0:0:
254,380,171994,6,0,L|256:316,1,44.1999979766847,12|0,2:0|2:0,2:0:0:0:
259,340,172668,6,2,B|204:305|178:364|122:353,1,132.599993930054,4|0,1:0|2:0,2:1:0:0:
133,354,173005,2,2,P|115:312|120:268,1,74.8000022827149,2|0,2:0|2:0,2:0:0:0:
134,185,173342,2,0,L|38:163,1,74.8000022827149,8|0,2:0|2:0,2:0:0:0:
61,168,173595,1,0,2:0:0:0:
61,168,173679,1,2,2:0:0:0:
149,95,173848,6,2,B|228:98|206:50|315:48,1,149.60000456543,2|2,1:2|2:1,2:1:0:0:
373,17,174354,1,0,1:2:0:0:
454,75,174522,1,0,2:0:0:0:
454,75,174606,1,0,2:0:0:0:
454,75,174691,2,0,P|461:107|444:167,1,74.8000022827149,10|2,2:0|1:2,2:0:0:0:
445,164,174943,1,2,2:0:0:0:
432,177,175028,2,2,P|390:178|342:188,1,74.8000022827149,2|0,2:0|2:0,2:0:0:0:
269,250,175365,6,2,B|268:295|244:315|244:315|260:341|267:377,1,112.200003424072,2|0,1:2|2:0,2:0:0:0:
260,351,175702,2,0,P|309:360|352:378,1,74.8000022827149,2|0,2:0|2:0,2:0:0:0:
420,351,176039,1,10,2:0:0:0:
360,283,176207,1,0,2:0:0:0:
447,261,176376,1,0,2:0:0:0:
386,194,176545,5,2,1:2:0:0:
386,194,176629,1,2,2:0:0:0:
386,194,176713,2,0,L|392:113,2,74.8000022827149,2|0|0,2:0|2:0|1:2,2:0:0:0:
320,266,177219,1,2,2:0:0:0:
320,266,177303,1,2,2:0:0:0:
320,266,177387,2,0,P|277:266|227:233,1,74.8000022827149,10|0,2:0|1:2,2:0:0:0:
216,154,177724,2,2,P|173:154|123:187,1,74.8000022827149,2|0,2:0|1:2,2:1:0:0:
89,259,178061,6,0,B|65:340|65:340|30:368|-4:326,2,149.60000456543,6|2|8,1:2|2:0|2:0,2:0:0:0:
48,178,178904,1,0,2:0:0:0:
48,178,179073,1,0,2:0:0:0:
129,113,179241,6,2,B|178:104|216:146|216:146|274:127,1,149.60000456543,0|0,1:2|2:0,2:1:0:0:
369,113,179747,2,0,P|347:152|342:209,1,74.8000022827149,0|0,1:2|2:0,2:0:0:0:
341,181,180000,1,0,2:0:0:0:
341,181,180084,1,8,2:0:0:0:
437,229,180252,1,2,2:0:0:0:
469,128,180421,2,2,P|460:91|440:59,1,74.8000022827149,2|2,2:0|2:1,2:1:0:0:
327,14,180758,6,2,B|305:40|305:40|207:25,1,112.200003424072,2|0,1:2|2:0,2:0:0:0:
218,42,181095,1,2,2:0:0:0:
134,8,181264,1,2,2:0:0:0:
60,59,181432,2,0,P|34:107|61:208,1,149.60000456543,10|2,2:0|2:0,2:0:0:0:
130,286,181938,6,2,B|166:261|206:272|206:272|243:314|312:296,1,176.799991906739,6|2,1:2|2:0,2:1:0:0:
374,355,182443,2,0,P|416:357|456:343,1,74.8000022827149,0|0,1:2|2:0,2:0:0:0:
447,347,182696,1,0,2:0:0:0:
447,347,182780,1,8,2:0:0:0:
512,284,182949,1,0,1:2:0:0:
468,204,183118,6,2,L|476:163,2,27.2,2|0|0,1:2|2:0|2:0,2:1:0:0:
396,279,183455,6,2,B|362:298|271:276|310:171|177:105|68:123|105:174,1,353.599983813477,4|8,1:0|2:0,2:1:0:0:
60,236,184297,1,2,2:0:0:0:
126,297,184466,1,0,2:0:0:0:
203,252,184634,6,2,L|234:130,1,112.200003424072,2|0,1:2|2:0,2:0:0:0:
243,134,184972,1,0,2:0:0:0:
307,196,185140,2,0,P|343:201|380:197,1,74.8000022827149,2|0,1:2|2:0,2:0:0:0:
380,197,185393,1,0,2:0:0:0:
380,197,185477,1,8,2:0:0:0:
457,137,185646,1,0,1:2:0:0:
504,221,185814,2,0,L|481:308,1,74.8000022827149,2|0,2:0|2:0,2:0:0:0:
390,345,186151,6,2,B|337:335|293:367|293:367|274:345|254:341,1,149.60000456543,2|2,1:2|2:0,2:1:0:0:
158,366,186657,2,0,L|176:280,1,74.8000022827149,0|8,2:0|2:0,2:0:0:0:
202,210,186994,1,2,2:0:0:0:
202,210,187163,1,0,2:0:0:0:
88,244,187331,6,2,B|58:251|58:251|12:223|26:170,1,112.200003424072,2|0,1:2|2:0,2:0:0:0:
31,168,187668,1,2,2:0:0:0:
121,142,187837,2,0,P|155:133|202:96,1,74.8000022827149,2|0,1:2|2:0,2:0:0:0:
249,45,188174,1,8,2:0:0:0:
321,97,188342,1,0,1:2:0:0:
267,170,188511,1,8,2:0:0:0:
267,170,188595,1,8,2:0:0:0:
267,170,188679,1,0,1:2:0:0:
328,255,188848,6,0,B|367:274|367:274|406:276|434:245,1,112.200003424072,2|0,1:2|2:0,2:0:0:0:
442,245,189185,1,2,2:0:0:0:
406,162,189354,1,0,2:0:0:0:
490,133,189522,2,0,P|493:95|472:63,1,74.8000022827149,8|0,2:0|2:0,2:0:0:0:
364,15,189859,6,2,B|316:88|317:12|236:-8|174:47|216:104|126:59,1,261.800007989502,2|0,1:2|2:0,2:1:0:0:
120,67,190533,2,0,P|103:104|109:150,1,74.8000022827149,2|0,1:2|2:0,2:0:0:0:
160,207,190870,1,8,2:0:0:0:
86,259,191039,1,0,2:0:0:0:
30,189,191207,2,2,P|13:155|14:118,1,74.8000022827149,2|0,2:0|2:0,2:1:0:0:
120,67,191545,6,2,B|156:80|156:80|184:58|241:58,1,112.200003424072,2|0,1:2|2:0,2:0:0:0:
238,65,191882,1,2,2:0:0:0:
279,151,192050,2,2,P|313:167|369:162,1,74.8000022827149,0|8,2:0|2:0,2:1:0:0:
440,125,192387,1,0,1:2:0:0:
441,115,192472,1,0,3:2:0:0:
443,106,192556,1,0,3:2:0:0:
444,97,192640,1,0,3:2:0:0:
446,88,192724,1,8,3:2:0:0:
261,171,193061,6,0,L|266:250,2,74.8000022827149,0|8|0,1:2|2:0|1:2,2:0:0:0:
210,96,193567,1,8,2:0:0:0:
159,170,193736,1,0,1:2:0:0:
98,104,193904,1,8,2:0:0:0:
33,194,194073,5,8,2:0:0:0:
33,194,194157,1,8,2:0:0:0:
33,194,194241,2,0,P|11:256|59:362,1,176.799991906739,4|8,1:0|2:0,2:0:0:0:
120,266,194747,2,0,P|162:257|220:250,1,74.8000022827149,0|2,2:0|2:0,2:0:0:0:
282,213,195084,1,0,1:2:0:0:
352,279,195252,1,8,2:0:0:0:
432,212,195421,6,0,B|470:222|470:222|521:169|494:104,1,149.60000456543,2|0,2:0|1:2,2:0:0:0:
442,36,195927,2,0,P|372:60|357:60,1,74.8000022827149,8|0,2:0|2:0,2:0:0:0:
372,59,196179,1,0,2:0:0:0:
372,59,196264,1,2,2:0:0:0:
281,24,196432,1,0,1:2:0:0:
243,114,196601,2,0,P|206:106|173:90,1,74.8000022827149,8|0,2:0|2:0,2:0:0:0:
89,16,196938,5,2,1:2:0:0:
11,61,197106,1,0,1:2:0:0:
2,150,197275,1,8,2:0:0:0:
73,203,197443,2,0,L|63:254,2,37.4000011413575,2|2|2,2:0|2:0|2:0,2:0:0:0:
160,182,197780,2,0,L|174:108,1,74.8000022827149,0|8,1:2|2:0,2:0:0:0:
269,27,198118,6,0,P|297:82|397:88,1,149.60000456543,2|2,2:0|1:2,2:0:0:0:
403,196,198623,2,0,P|474:204|511:266,1,149.60000456543,8|0,2:0|2:0,2:0:0:0:
466,360,199129,1,0,1:2:0:0:
466,360,199213,1,0,1:2:0:0:
466,360,199297,2,0,P|425:336|386:334,1,74.8000022827149,8|0,2:0|1:2,2:0:0:0:
290,356,199634,6,0,B|245:371|245:371|285:218,1,176.799991906739,6|8,1:2|2:0,2:0:0:0:
270,142,200140,1,0,2:0:0:0:
270,142,200224,1,0,2:0:0:0:
270,142,200309,2,0,P|312:142|354:114,1,74.8000022827149,2|0,2:0|1:2,2:0:0:0:
398,58,200646,1,8,2:0:0:0:
323,2,200814,1,0,2:0:0:0:
238,47,200983,6,0,P|210:46|152:19,1,74.8000022827149,2|0,2:0|1:2,2:0:0:0:
78,49,201320,1,8,2:0:0:0:
134,118,201488,2,0,P|144:155|139:220,1,74.8000022827149,2|0,2:0|2:0,2:0:0:0:
95,266,201825,1,2,1:2:0:0:
17,219,201994,2,0,P|7:182|12:117,1,74.8000022827149,8|0,2:0|2:0,2:0:0:0:
78,49,202331,5,2,1:2:0:0:
134,118,202500,1,0,1:2:0:0:
208,78,202668,1,8,2:0:0:0:
271,150,202837,2,0,L|253:259,1,74.8000022827149,2|0,2:0|2:0,2:0:0:0:
304,320,203174,1,2,1:2:0:0:
391,302,203342,2,0,L|403:228,1,74.8000022827149,8|0,2:0|2:0,2:0:0:0:
397,120,203679,5,2,1:2:0:0:
481,152,203848,1,2,2:0:0:0:
467,63,204016,1,12,2:0:0:0:
387,33,204185,1,0,1:2:0:0:
387,33,204269,2,0,B|349:50|349:50|273:30,1,112.200003424072,0|0,1:2|1:2,2:0:0:0:
196,121,204691,6,0,L|257:116,1,61.1999981323243,12|0,2:0|2:0,2:0:0:0:
359,161,205028,6,0,P|392:223|348:323,2,176.799991906739,4|8|2,1:0|2:0|2:0,2:0:0:0:
281,115,205870,1,0,1:2:0:0:
205,164,206039,1,8,2:0:0:0:
115,114,206207,6,0,P|110:71|141:19,1,74.8000022827149,2|0,2:0|2:0,2:0:0:0:
210,2,206545,1,2,1:2:0:0:
282,66,206713,2,0,B|311:88|342:90|342:90|373:51|433:56,1,149.60000456543,8|2,2:0|2:0,2:0:0:0:
501,101,207219,1,0,1:2:0:0:
500,197,207387,2,0,L|491:277,1,74.8000022827149,10|0,2:0|2:0,2:0:0:0:
405,332,207724,6,2,L|389:187,1,112.200003424072,6|0,1:2|2:0,2:0:0:0:
390,202,208061,1,8,2:0:0:0:
290,245,208230,2,0,L|315:84,1,149.60000456543,2|0,2:0|1:2,2:0:0:0:
258,25,208736,1,8,2:0:0:0:
162,80,208904,6,2,P|135:118|155:189,1,112.200003424072,2|0,2:0|2:0,2:0:0:0:
155,194,209241,1,0,1:2:0:0:
240,230,209410,2,2,L|71:258,1,149.60000456543,10|0,2:0|2:0,2:0:0:0:
63,353,209915,1,0,1:2:0:0:
63,353,210000,1,0,1:2:0:0:
62,353,210084,2,0,P|101:357|135:344,1,74.8000022827149,8|0,2:0|1:2,2:0:0:0:
215,254,210421,6,0,L|182:63,2,176.799991906739,6|8|2,1:2|2:0|2:0,2:0:0:0:
281,314,211264,1,0,1:2:0:0:
386,275,211432,6,0,B|422:151|326:180|365:35,1,224.400006848145,10|0,2:0|1:2,2:0:0:0:
269,112,212106,2,0,P|230:110|167:87,1,74.8000022827149,8|0,2:0|2:0,2:0:0:0:
131,31,212443,2,0,P|92:33|29:56,1,74.8000022827149,2|2,2:0|1:2,2:0:0:0:
57,42,212696,1,2,2:0:0:0:
57,42,212780,1,10,2:0:0:0:
3,114,212949,1,0,2:0:0:0:
60,201,213118,6,0,P|122:230|221:159,1,176.799991906739,6|8,1:2|2:0,2:0:0:0:
284,121,213623,2,0,P|262:196|264:292,1,149.60000456543,2|0,2:0|1:2,2:0:0:0:
307,343,214129,1,8,2:0:0:0:
412,306,214297,6,0,P|434:231|432:135,1,149.60000456543,2|0,1:2|2:0,2:0:0:0:
378,90,214803,1,8,2:0:0:0:
301,134,214972,1,0,1:2:0:0:
301,134,215056,2,0,B|236:133|259:103|177:104,1,112.200003424072,0|0,1:2|1:2,2:0:0:0:
117,150,215477,1,8,2:0:0:0:
175,218,215646,1,0,1:2:0:0:
91,291,215814,6,0,P|52:271|-8:285,1,74.8000022827149,12|0,2:0|1:2,2:0:0:0:
41,377,216151,1,0,1:2:0:0:
41,377,216236,1,0,1:2:0:0:
41,377,216320,1,8,2:0:0:0:
222,285,216657,6,0,L|213:236,2,34,0|0|8,1:2|1:2|2:0,2:0:0:0:
305,337,216994,2,0,L|314:386,2,34,8|8|0,2:0|2:0|1:2,2:0:0:0:
414,204,217500,5,12,2:0:0:0:
414,204,217668,2,0,B|339:229|360:174|264:201,1,136,2|0,2:0|1:2,2:0:0:0:
202,150,218174,1,8,2:0:0:0:
149,236,218342,6,2,L|158:325,1,68,2|0,2:0|1:2,2:0:0:0:
103,375,218679,1,2,2:0:0:0:
31,322,218848,2,0,L|22:233,1,68,10|0,2:0|2:0,2:0:0:0:
24,254,219101,1,0,2:0:0:0:
24,254,219185,1,2,2:0:0:0:
77,185,219354,1,0,1:2:0:0:
149,236,219522,2,0,P|209:235|275:205,1,102,10|0,2:0|2:0,2:0:0:0:
259,213,219859,6,0,L|243:138,1,68,2|0,1:2|2:0,2:0:0:0:
294,72,220196,1,8,2:0:0:0:
379,97,220365,2,2,P|400:149|375:241,1,136,2|0,2:0|1:2,2:0:0:0:
334,297,220870,1,8,2:0:0:0:
243,254,221039,6,2,B|172:234|192:282|96:261,1,136,2|0,2:0|2:0,2:0:0:0:
32,308,221545,2,0,P|22:273|29:223,1,68,10|0,2:0|2:0,2:0:0:0:
87,180,221882,1,2,2:1:0:0:
9,138,222050,1,0,1:2:0:0:
84,89,222219,2,0,L|73:16,1,68,8|0,2:0|2:0,2:0:0:0:
166,134,222556,6,0,B|201:145|201:145|248:135,1,68,4|0,1:2|2:0,2:0:0:0:
314,99,222893,1,10,2:0:0:0:
314,99,222977,1,2,2:0:0:0:
314,99,223061,1,2,2:0:0:0:
340,183,223230,2,0,L|328:255,1,68,2|0,2:0|1:2,2:0:0:0:
288,328,223567,1,10,2:0:0:0:
361,377,223736,1,0,2:0:0:0:
401,299,223904,6,0,L|419:191,1,102,0|0,1:2|2:0,2:0:0:0:
427,191,224241,1,10,2:0:0:0:
491,129,224410,1,0,2:0:0:0:
440,54,224578,2,2,P|408:43|373:45,1,68,0|0,2:0|1:2,2:1:0:0:
320,137,224915,2,2,P|286:147|217:107,1,102,10|0,2:0|2:0,2:0:0:0:
219,112,225252,6,0,L|227:271,1,136,2|8,1:2|2:0,2:0:0:0:
182,317,225758,1,0,2:0:0:0:
111,274,225927,2,2,L|20:262,1,68,0|0,2:0|1:2,2:1:0:0:
140,196,226264,2,2,L|33:180,1,102,10|0,2:0|2:0,2:0:0:0:
25,169,226601,6,0,P|12:112|61:61,1,122.399996264649,4|0,1:2|2:0,2:0:0:0:
124,36,227106,2,0,P|159:71|232:41,1,122.399996264649,4|0,1:2|1:2,2:0:0:0:
305,25,227612,1,8,2:0:0:0:
373,75,227780,1,2,2:0:0:0:
293,141,227949,6,0,B|284:183|284:183|302:218|302:218|293:260,1,122.399996264649,4|0,1:2|2:0,2:0:0:0:
291,271,228286,1,8,2:0:0:0:
334,348,228455,2,0,P|375:366|458:324,1,136,2|0,2:0|1:2,2:0:0:0:
510,265,228960,1,8,2:0:0:0:
465,184,229129,6,2,L|388:168,1,68,2|0,2:0|1:2,2:0:0:0:
314,184,229466,1,2,2:0:0:0:
314,184,229550,1,2,2:0:0:0:
314,184,229634,2,2,L|308:101,1,68,8|0,2:0|2:0,2:1:0:0:
218,176,229972,2,2,L|224:259,1,68,2|0,2:0|1:2,2:1:0:0:
134,280,230309,2,0,P|107:205|136:142,1,136,10|0,2:0|1:2,2:0:0:0:
190,75,230814,5,0,2:0:0:0:
271,108,230983,1,8,2:0:0:0:
345,60,231151,2,2,B|414:79|409:29|497:58,1,136,2|0,2:0|1:2,2:0:0:0:
508,135,231657,1,8,2:0:0:0:
425,198,231825,6,2,L|420:353,1,136,2|0,2:1|1:2,2:1:0:0:
345,380,232331,1,10,2:1:0:0:
345,380,232500,1,2,2:0:0:0:
292,307,232668,2,2,L|219:296,1,68,2|0,2:0|1:2,2:1:0:0:
260,202,233005,2,2,L|147:216,1,102,10|0,2:0|2:0,2:1:0:0:
149,231,233342,6,0,B|108:238|108:238|63:212|74:143,1,136,6|10,1:2|2:0,2:0:0:0:
109,76,233848,1,0,2:0:0:0:
191,106,234016,2,2,P|228:106|279:88,1,68,2|0,2:1|1:2,2:1:0:0:
319,33,234354,1,8,2:0:0:0:
395,108,234522,6,2,L|388:206,1,68,2|0,2:0|1:2,2:1:0:0:
312,217,234859,1,2,2:0:0:0:
312,217,235028,1,8,2:0:0:0:
351,295,235196,2,2,P|409:322|471:274,1,136,2|0,2:0|1:2,2:1:0:0:
508,191,235702,2,2,B|507:148|481:124|481:124|491:111|496:88,1,102,10|0,2:0|2:0,2:0:0:0:
486,80,236039,6,0,P|428:53|366:101,2,136,6|8|2,1:2|2:0|2:0,2:0:0:0:
510,165,236882,1,0,1:2:0:0:
435,211,237050,2,0,P|399:201|345:193,1,68,8|0,2:0|1:2,2:0:0:0:
272,154,237387,6,2,L|267:74,1,68,2|0,2:0|1:2,2:1:0:0:
179,44,237724,2,2,L|184:124,1,68,10|0,2:0|2:0,2:1:0:0:
179,128,237977,1,8,2:0:0:0:
169,141,238061,2,0,P|121:164|87:152,1,68,2|0,2:0|1:2,2:0:0:0:
95,173,238314,1,0,1:2:0:0:
84,186,238398,2,2,P|65:224|75:254,1,68,10|0,2:0|2:0,2:1:0:0:
157,318,238736,5,4,1:0:0:0:
256,192,238820,12,0,240589,2:0:0:0:
256,160,240927,5,0,1:2:0:0:
243,256,241095,2,0,B|238:310|284:335|284:335|269:307|279:291|266:270,1,163.199995019531,8|6,2:0|1:2,2:0:0:0:
