osu file format v14

[General]
AudioFilename: audio.mp3
AudioLeadIn: 0
PreviewTime: 235818
Countdown: 0
SampleSet: Normal
StackLeniency: 0.7
Mode: 0
LetterboxInBreaks: 0
WidescreenStoryboard: 1

[Editor]
Bookmarks: 286818
DistanceSpacing: 1
BeatDivisor: 2
GridSize: 4
TimelineZoom: 2

[Metadata]
Title:Arrival of Tears
TitleUnicode:Arrival of Tears
Artist:Ayane
ArtistUnicode:彩音
Creator:dasdwqdf
Version:Normal
Source:11eyes -罪と罰と贖いの少女-
Tags:イレブンアイズ Sin Damnation and the Atonement Girl Tsumi to Batsu to Aganai no Shoujo anime opening japanese rock jrock j-rock cryo[iceeicee] maot niii_san nisan
BeatmapID:4424405
BeatmapSetID:2108157

[Difficulty]
HPDrainRate:3
CircleSize:3
OverallDifficulty:4
ApproachRate:5
SliderMultiplier:0.999999999999999
SliderTickRate:1

[Events]
//Background and Video events
0,0,"bg.jpg",0,0
//Break Periods
2,87249,97818
2,174218,175218
2,176618,177618
2,179018,180018
2,183818,184818
2,186218,187218
2,188618,189618
//Storyboard Layer 0 (Background)
//Storyboard Layer 1 (Fail)
//Storyboard Layer 2 (Pass)
//Storyboard Layer 3 (Foreground)
//Storyboard Layer 4 (Overlay)
//Storyboard Sound Samples

[TimingPoints]
618,300,4,2,1,70,1,0
34218,-100,4,2,1,60,0,0
43818,-100,4,2,1,70,0,0
55818,-100,4,1,1,80,0,1
87018,-100,4,2,1,70,0,0
102018,300,4,2,1,70,1,0
121218,-100,4,2,1,60,0,0
130818,-100,4,2,1,70,0,0
142818,-100,4,1,1,80,0,1
174018,-100,4,2,1,70,0,0
193218,-100,4,1,1,80,0,0
214818,-100,4,2,1,60,0,0
224418,-100,4,2,1,70,0,0
255618,-100,4,1,1,80,0,1
286818,-100,4,1,1,70,0,0

[Colours]
Combo1 : 255,94,55
Combo2 : 240,25,55
Combo3 : 255,88,100

[HitObjects]
78,336,618,5,4,1:2:0:0:
167,292,918,2,0,B|233:299|286:300,2,99.9999999999999,0|0|2,0:2|0:2|0:2,0:2:0:0:
102,215,1818,2,0,B|93:165|93:165|113:114,1,99.9999999999999,4|0,1:2|0:2,0:0:0:0:
193,63,2418,1,0,0:2:0:0:
261,135,2718,1,0,0:2:0:0:
341,76,3018,6,0,B|401:81|466:81,1,99.9999999999999,4|0,1:2|0:2,0:0:0:0:
498,163,3618,1,0,0:2:0:0:
430,237,3918,1,0,0:2:0:0:
472,327,4218,2,0,B|421:329|330:339,1,99.9999999999999,0|0,1:2|1:2,0:0:0:0:
328,323,4668,1,0,1:2:0:0:
328,323,4818,2,0,B|326:282|319:207,1,99.9999999999999,0|0,1:2|1:2,0:2:0:0:
274,134,5418,5,4,1:2:0:0:
174,146,5718,2,0,B|128:151|74:155,1,99.9999999999999,10|2,0:2|1:2,0:0:0:0:
36,187,6168,1,0,1:2:0:0:
36,187,6318,2,0,B|30:240|30:240|48:299,1,99.9999999999999,10|0,1:2|1:2,0:2:0:0:
133,329,6918,1,10,0:2:0:0:
229,302,7218,1,2,1:2:0:0:
321,340,7518,2,0,B|330:293|334:225,1,99.9999999999999,10|0,0:2|1:2,0:2:0:0:
412,179,8118,5,10,0:2:0:0:
344,104,8418,1,2,1:2:0:0:
264,164,8718,2,0,L|206:160,1,50,8|0,0:2|0:0,0:0:0:0:
185,201,9018,2,0,B|134:200|85:196,1,99.9999999999999,2|10,1:2|0:2,0:2:0:0:
0,148,9618,2,0,B|5:99|8:49,1,99.9999999999999,2|8,1:2|0:2,0:0:0:0:
100,9,10218,6,0,B|157:-6|246:-4|310:84,1,200,6|0,1:2|0:2,0:2:0:0:
374,106,11118,1,8,0:2:0:0:
463,60,11418,2,0,B|500:169|468:278,1,200,0|0,1:2|0:2,0:2:0:0:
402,327,12318,1,8,0:2:0:0:
318,272,12618,6,0,B|259:279|180:280,1,99.9999999999999,6|8,1:2|0:2,0:2:0:0:
173,255,13068,2,0,B|166:196|165:117,1,99.9999999999999,0|0,1:2|1:2,0:2:0:0:
134,116,13518,1,8,0:2:0:0:
46,163,13818,2,0,B|53:222|54:301,1,99.9999999999999,0|0,1:2|1:2,0:2:0:0:
20,301,14268,1,0,1:2:0:0:
20,301,14418,2,0,L|24:371,1,50,0|0,1:2|1:2,0:2:0:0:
65,376,14718,2,0,B|124:369|203:368,1,99.9999999999999,0|4,1:2|1:2,0:2:0:0:
255,326,15318,5,10,0:2:0:0:
177,262,15618,2,0,B|160:217|160:217|179:152,1,99.9999999999999,2|8,0:2|0:2,0:2:0:0:
214,137,16068,2,0,B|281:141|343:141,1,99.9999999999999,2|0,0:2|0:2,0:0:0:0:
360,121,16518,1,10,0:2:0:0:
444,173,16818,1,2,0:2:0:0:
429,272,17118,1,10,0:2:0:0:
330,287,17418,6,0,B|282:280|196:279,1,99.9999999999999,2|8,1:2|0:2,0:2:0:0:
130,276,18018,2,0,B|127:228|140:169,1,99.9999999999999,2|8,1:2|0:2,0:2:0:0:
233,144,18618,2,0,B|254:98|254:98|238:51,1,99.9999999999999,2|8,1:2|0:2,0:2:0:0:
198,20,19068,2,0,B|150:20|88:14,1,99.9999999999999,2|0,1:2|1:2,0:2:0:0:
54,38,19518,2,0,B|53:73|51:98|47:141,1,99.9999999999999,8|4,0:2|1:2,0:0:0:0:
2,227,20118,5,10,0:2:0:0:
78,289,20418,2,0,B|130:288|193:297,1,99.9999999999999,2|10,1:2|0:2,0:2:0:0:
218,266,20868,2,0,B|270:267|317:260,1,99.9999999999999,2|0,0:2|0:2,0:2:0:0:
365,275,21318,1,10,0:2:0:0:
438,206,21618,1,2,1:2:0:0:
398,113,21918,1,10,0:2:0:0:
297,111,22218,6,0,B|246:110|178:101,1,99.9999999999999,6|8,1:2|0:2,0:2:0:0:
113,157,22818,2,0,B|101:208|102:274,1,99.9999999999999,2|8,1:2|0:2,0:2:0:0:
167,331,23418,2,0,B|218:343|284:342,1,99.9999999999999,2|10,1:2|0:2,0:0:0:0:
314,328,23868,2,0,B|327:284|327:284|315:231,1,99.9999999999999,2|0,1:2|1:2,0:2:0:0:
268,213,24318,1,8,0:2:0:0:
221,124,24618,1,4,1:2:0:0:
311,82,24918,6,0,B|374:87|425:96,1,99.9999999999999,10|2,0:2|1:2,0:2:0:0:
503,142,25518,1,10,0:2:0:0:
503,142,25668,2,0,B|496:217|489:313,1,150,2|10,1:2|0:2,0:2:0:0:
429,370,26418,1,2,1:2:0:0:
370,288,26718,1,10,0:2:0:0:
295,354,27018,6,0,B|247:348|158:340,1,99.9999999999999,6|8,1:2|0:2,0:2:0:0:
97,324,27618,2,0,B|84:278|84:278|111:227,1,99.9999999999999,2|8,1:2|0:2,0:2:0:0:
205,209,28218,2,0,B|212:160|217:95,1,99.9999999999999,6|8,1:2|0:2,0:2:0:0:
175,80,28668,2,0,B|121:75|50:68,1,99.9999999999999,2|0,1:2|1:2,0:2:0:0:
31,94,29118,1,8,0:2:0:0:
19,193,29418,1,4,1:2:0:0:
8,292,29718,5,10,0:2:0:0:
101,255,30018,1,2,1:2:0:0:
183,312,30318,1,10,0:2:0:0:
183,312,30468,2,0,B|261:297|370:327,1,150,2|10,1:2|0:2,0:2:0:0:
426,284,31218,2,0,B|433:232|433:173,1,99.9999999999999,2|10,1:2|0:2,0:2:0:0:
408,140,31668,1,0,1:2:0:0:
377,100,31818,5,6,1:2:0:0:
281,114,32118,1,8,1:2:0:0:
281,114,32268,1,6,1:2:0:0:
185,123,32568,1,0,1:2:0:0:
185,123,32718,1,6,0:2:0:0:
256,192,32868,12,4,34218,1:2:0:0:
383,329,34818,6,0,B|392:283|395:190,1,99.9999999999999,10|2,0:2|0:2,0:2:0:0:
425,193,35268,1,2,0:2:0:0:
324,81,35718,1,2,0:2:0:0:
259,157,36018,2,0,B|216:148|153:144,1,99.9999999999999,10|2,0:2|0:2,0:0:0:0:
68,104,36618,2,0,B|25:203|60:306,1,200,2|8,1:2|0:2,0:2:0:0:
131,366,37518,1,2,0:2:0:0:
214,310,37818,2,0,B|292:300|342:339|342:339|414:316,2,200,2|0|4,1:2|0:2|1:2,0:2:0:0:
140,242,39318,5,2,0:2:0:0:
230,199,39618,2,0,B|236:148|235:85,1,99.9999999999999,2|10,1:2|0:2,0:2:0:0:
262,57,40068,2,0,B|338:50|428:72,1,150,2|2,0:2|0:2,0:0:0:0:
494,123,40818,2,0,B|487:178|484:246,1,99.9999999999999,2|8,1:2|0:2,0:0:0:0:
470,321,41418,6,0,B|390:301|390:301|335:347|261:316,1,200,2|0,1:2|1:2,0:2:0:0:
183,353,42318,1,10,0:2:0:0:
121,273,42618,1,2,1:2:0:0:
175,189,42918,1,2,1:2:0:0:
270,218,43218,1,0,1:2:0:0:
333,141,43518,1,8,0:2:0:0:
239,106,43818,6,0,B|183:111|124:113,1,99.9999999999999,4|8,1:2|0:2,0:2:0:0:
39,119,44418,1,2,1:2:0:0:
5,213,44718,1,10,0:2:0:0:
58,297,45018,2,0,B|107:298|188:308,1,99.9999999999999,2|8,1:2|0:2,0:2:0:0:
207,308,45468,2,0,B|213:255|210:201,1,99.9999999999999,2|0,1:2|1:2,0:2:0:0:
240,167,45918,1,10,0:2:0:0:
339,178,46218,6,0,B|334:245|333:281,1,99.9999999999999,2|8,1:2|0:2,0:2:0:0:
364,316,46668,1,2,1:2:0:0:
494,242,47118,1,10,0:2:0:0:
469,144,47418,1,2,1:2:0:0:
446,47,47718,1,10,0:2:0:0:
446,47,47868,2,0,B|380:66|380:66|284:54,1,150,2|8,1:2|0:2,0:2:0:0:
202,31,48618,6,0,B|191:97|196:176,1,99.9999999999999,6|8,0:2|0:2,0:2:0:0:
233,162,49068,2,0,L|297:166,1,50,2|8,1:1|0:2,0:0:0:0:
350,239,49518,1,10,0:1:0:0:
270,299,49818,2,0,B|219:293|155:296,1,99.9999999999999,8|8,0:2|0:2,0:2:0:0:
72,272,50418,2,0,L|76:211,1,50,10|10,0:1|0:1,0:0:0:0:
118,196,50718,2,0,L|114:135,1,50,2|8,1:1|0:2,0:0:0:0:
86,104,51018,6,0,B|151:99|199:101,1,99.9999999999999,6|0,1:2|0:2,0:2:0:0:
284,84,51618,2,0,B|289:149|287:197,1,99.9999999999999,12|0,0:2|0:2,0:2:0:0:
320,221,52068,1,0,1:2:0:0:
320,221,52218,2,2,B|403:215|465:208,1,99.9999999999999,6|0,1:2|0:2,0:1:0:0:
464,234,52668,1,10,0:1:0:0:
385,361,53118,1,6,1:2:0:0:
285,361,53418,1,2,1:0:0:0:
256,192,53568,12,0,54618,1:2:0:0:
117,316,55218,5,2,0:2:0:0:
181,239,55518,1,2,0:2:0:0:
91,195,55818,2,2,B|79:149|79:149|94:98,1,99.9999999999999,6|8,0:2|0:0,0:0:0:0:
131,65,56268,2,0,B|197:73|243:71,1,99.9999999999999,2|2,0:0|0:0,0:0:0:0:
326,98,56868,2,0,B|337:146|337:146|324:200,1,99.9999999999999,2|0,0:0|0:0,0:0:0:0:
284,225,57318,1,8,0:0:0:0:
293,324,57618,1,0,0:0:0:0:
392,310,57918,2,0,L|445:306,1,50,10|0,0:0|0:0,0:0:0:0:
486,284,58218,6,0,B|491:242|480:163,1,99.9999999999999,6|10,0:2|0:0,0:0:0:0:
453,144,58668,2,0,B|404:156|404:156|350:147,1,99.9999999999999,2|0,0:0|0:0,0:0:0:0:
314,118,59118,1,10,0:0:0:0:
264,204,59418,2,0,B|199:197|140:197,1,99.9999999999999,2|8,0:0|0:0,0:0:0:0:
122,181,59868,1,2,0:0:0:0:
122,181,60018,2,0,B|130:131|131:61,1,99.9999999999999,2|8,0:0|0:0,0:0:0:0:
53,15,60618,1,4,0:2:0:0:
18,108,60918,6,0,B|10:158|9:228,1,99.9999999999999,10|2,0:0|0:0,0:0:0:0:
74,291,61518,1,10,0:0:0:0:
74,291,61668,2,0,B|127:292|204:300,1,99.9999999999999,2|0,0:0|0:0,0:0:0:0:
221,280,62118,1,10,0:0:0:0:
317,306,62418,2,0,B|329:260|329:260|315:203,1,99.9999999999999,2|10,0:0|0:0,0:0:0:0:
224,169,63018,6,2,L|98:163,1,99.9999999999999,6|8,0:2|0:0,0:0:0:0:
76,148,63468,2,2,B|72:97|89:13,1,99.9999999999999,6|0,0:2|0:0,0:0:0:0:
125,22,63918,2,0,B|137:24|224:26,1,99.9999999999999,10|0,0:0|0:0,0:0:0:0:
256,65,64368,2,0,L|316:69,1,50,0|8,0:0|0:0,0:0:0:0:
405,59,64818,2,0,B|440:167|406:271,1,200,0|6,0:0|0:2,0:0:0:0:
345,332,65718,5,10,0:0:0:0:
345,332,65868,2,0,B|289:327|221:325,1,99.9999999999999,2|2,0:0|0:0,0:0:0:0:
154,282,66468,2,0,B|154:229|164:179,1,99.9999999999999,2|0,0:0|0:0,0:0:0:0:
210,167,66918,1,8,0:0:0:0:
309,179,67218,1,0,0:0:0:0:
319,79,67518,2,0,L|263:73,1,50,10|2,0:0|0:0,0:0:0:0:
225,49,67818,6,0,B|166:48|105:42,1,99.9999999999999,2|10,0:0|0:0,0:0:0:0:
76,56,68268,2,0,B|70:109|61:166,1,99.9999999999999,2|0,0:0|0:0,0:0:0:0:
24,187,68718,1,10,0:0:0:0:
60,280,69018,2,0,B|111:280|195:285,1,99.9999999999999,2|8,0:0|0:0,0:0:0:0:
205,258,69468,1,2,0:0:0:0:
205,258,69618,2,0,B|253:261|304:261,1,99.9999999999999,2|8,0:0|0:0,0:0:0:0:
394,306,70218,1,4,0:2:0:0:
476,250,70518,6,0,B|482:208|480:139,1,99.9999999999999,10|2,0:0|0:0,0:0:0:0:
406,91,71118,1,10,0:0:0:0:
406,91,71268,2,0,L|285:85,1,99.9999999999999,2|0,0:0|0:0,0:0:0:0:
256,94,71718,1,10,0:0:0:0:
193,171,72018,1,2,0:0:0:0:
277,224,72318,1,10,0:0:0:0:
215,303,72618,6,2,B|168:299|100:305,1,99.9999999999999,6|8,0:2|0:0,0:0:0:0:
65,310,73068,2,2,B|57:264|59:196,1,99.9999999999999,6|0,0:2|0:0,0:0:0:0:
16,182,73518,1,10,0:0:0:0:
87,112,73818,2,0,B|233:76|321:190|321:190|479:136,1,400,0|6,0:0|0:2,0:0:0:0:
504,63,75318,5,8,0:0:0:0:
504,63,75468,1,6,0:2:0:0:
418,11,75768,1,0,0:0:0:0:
418,11,75918,2,2,B|345:17|260:16,1,150,6|2,0:2|0:2,0:0:0:0:
226,44,76518,1,10,0:2:0:0:
159,118,76818,1,2,0:2:0:0:
224,193,77118,2,0,L|304:204,1,50,10|0,0:0|0:0,0:0:0:0:
323,192,77418,6,2,B|327:253|313:312,1,99.9999999999999,6|8,0:2|0:0,0:0:0:0:
279,324,77868,2,2,B|227:317|179:314,1,99.9999999999999,6|0,0:2|0:0,0:0:0:0:
139,344,78318,2,2,B|87:366|36:354|10:298,1,150,6|0,0:2|0:0,0:0:0:0:
39,262,78918,1,8,0:0:0:0:
22,163,79218,1,0,0:0:0:0:
120,146,79518,2,0,L|179:139,1,50,10|2,0:0|0:0,0:0:0:0:
214,162,79818,6,2,L|227:273,1,99.9999999999999,6|8,0:2|0:0,0:0:0:0:
267,288,80268,2,2,B|317:278|380:276,1,99.9999999999999,6|0,0:2|0:0,0:0:0:0:
415,265,80718,2,2,B|405:216|402:161,1,99.9999999999999,6|0,0:2|0:0,0:0:0:0:
471,93,81318,1,8,0:0:0:0:
418,7,81618,1,2,0:0:0:0:
320,27,81918,1,10,0:0:0:0:
308,126,82218,6,0,B|260:124|192:117,1,99.9999999999999,10|10,0:0|0:0,0:0:0:0:
163,133,82668,1,2,0:0:0:0:
163,133,82818,2,0,B|148:184|148:184|165:248,1,99.9999999999999,8|10,0:0|0:0,0:0:0:0:
250,272,83418,1,10,0:0:0:0:
190,352,83718,2,0,B|132:354|72:359,1,99.9999999999999,8|6,0:0|0:2,0:0:0:0:
12,307,84318,1,10,0:0:0:0:
12,307,84468,1,6,0:2:0:0:
256,192,84618,12,4,87018,1:2:0:0:
256,192,99018,12,0,101418,0:0:0:0:
279,113,102018,5,4,1:2:0:0:
179,117,102318,2,0,B|167:180|169:241,1,99.9999999999999,10|2,0:2|0:2,0:2:0:0:
227,304,102918,1,10,0:2:0:0:
227,304,103068,2,0,B|301:319|388:310,1,150,2|10,0:2|0:2,0:2:0:0:
473,288,103818,1,2,0:2:0:0:
422,201,104118,2,0,L|446:143,1,50,10|8,0:2|0:2,0:0:0:0:
467,112,104418,5,6,1:2:0:0:
285,27,105018,1,10,0:2:0:0:
245,223,105618,1,2,1:2:0:0:
104,169,106068,1,0,1:2:0:0:
182,41,106518,1,2,0:2:0:0:
213,135,106818,1,4,1:2:0:0:
310,114,107118,6,0,B|369:119|441:122,1,99.9999999999999,10|2,0:2|1:2,0:2:0:0:
491,178,107718,1,10,0:2:0:0:
491,178,107868,2,0,B|482:261|478:348,1,150,2|10,0:2|0:2,0:2:0:0:
393,379,108618,1,2,1:2:0:0:
327,303,108918,1,10,0:2:0:0:
245,361,109218,5,6,1:2:0:0:
256,192,109368,12,6,110418,1:2:0:0:
332,305,111168,6,0,L|388:309,1,50,0|8,1:2|0:2,0:0:0:0:
425,284,111468,2,0,L|428:234,1,50,8|4,0:2|1:2,0:0:0:0:
369,153,111918,2,0,B|311:150|249:142,1,99.9999999999999,10|0,0:2|1:2,0:2:0:0:
175,109,112518,1,10,0:2:0:0:
175,109,112668,2,0,B|136:175|164:280,1,150,2|10,1:2|0:2,0:2:0:0:
98,335,113418,1,2,1:2:0:0:
187,380,113718,1,10,0:2:0:0:
253,304,114018,6,0,B|312:306|384:313,1,99.9999999999999,6|8,1:2|0:2,0:2:0:0:
439,259,114618,2,0,B|455:210|455:210|441:150,1,99.9999999999999,2|8,1:2|0:2,0:2:0:0:
371,93,115218,2,0,B|323:93|243:84,1,99.9999999999999,6|8,1:2|0:2,0:2:0:0:
230,57,115668,2,0,B|182:57|102:66,1,99.9999999999999,2|0,1:2|1:2,0:2:0:0:
81,75,116118,2,0,B|80:135|90:218,1,99.9999999999999,8|4,0:2|1:2,0:0:0:0:
33,260,116718,5,10,0:2:0:0:
94,338,117018,1,0,1:2:0:0:
194,315,117318,1,10,0:2:0:0:
194,315,117468,2,0,B|222:248|203:153,1,150,6|10,1:2|0:2,0:2:0:0:
279,99,118218,2,0,B|345:104|389:103,1,99.9999999999999,2|10,1:2|0:2,0:2:0:0:
428,129,118668,1,8,0:2:0:0:
471,154,118818,5,6,1:2:0:0:
462,257,119118,1,8,0:2:0:0:
462,257,119268,1,6,1:2:0:0:
453,360,119568,1,0,1:2:0:0:
453,360,119718,1,12,0:2:0:0:
256,192,119868,12,4,121218,1:2:0:0:
108,122,121818,6,0,B|160:120|226:129,1,99.9999999999999,10|2,0:2|0:2,0:2:0:0:
248,97,122268,1,2,0:2:0:0:
396,79,122718,1,2,0:2:0:0:
459,157,123018,2,0,B|469:205|447:281,1,99.9999999999999,10|2,0:2|0:2,0:0:0:0:
422,351,123618,2,0,B|325:304|213:340,1,200,2|8,1:2|0:2,0:2:0:0:
132,366,124518,1,2,0:2:0:0:
41,322,124818,2,0,B|5:219|46:117,2,200,2|0|4,1:2|0:2|1:2,0:2:0:0:
123,265,126318,5,2,0:2:0:0:
196,332,126618,2,0,B|252:325|324:323,1,99.9999999999999,2|10,1:2|0:2,0:2:0:0:
345,316,127068,2,0,B|356:250|333:153,1,150,2|2,0:2|0:2,0:0:0:0:
241,135,127818,2,0,B|186:136|128:141,1,99.9999999999999,2|8,1:2|0:2,0:0:0:0:
170,44,128418,2,0,B|308:44|475:33,1,300,2|10,1:2|0:2,0:2:0:0:
506,126,129618,1,2,1:2:0:0:
472,220,129918,1,2,1:2:0:0:
375,246,130218,1,0,1:2:0:0:
286,198,130518,1,8,0:2:0:0:
192,234,130818,6,0,B|184:286|183:352,1,99.9999999999999,4|8,1:2|0:2,0:2:0:0:
270,383,131418,1,2,1:2:0:0:
364,349,131718,1,10,0:2:0:0:
462,367,132018,2,0,B|467:320|466:239,1,99.9999999999999,2|8,1:2|0:2,0:2:0:0:
438,224,132468,2,0,B|385:225|338:220,1,99.9999999999999,2|0,1:2|1:2,0:2:0:0:
290,235,132918,1,10,0:2:0:0:
216,167,133218,6,0,B|163:166|116:171,1,99.9999999999999,2|8,1:2|0:2,0:2:0:0:
78,204,133668,1,2,1:2:0:0:
6,72,134118,1,10,0:2:0:0:
84,10,134418,1,2,1:2:0:0:
174,64,134718,1,10,0:2:0:0:
174,64,134868,2,0,B|252:52|335:48,1,150,2|8,1:2|0:2,0:2:0:0:
416,83,135618,6,0,B|426:144|428:216,1,99.9999999999999,6|8,0:2|0:2,0:2:0:0:
407,229,136068,2,0,L|341:235,1,50,2|8,1:1|0:2,0:0:0:0:
299,315,136518,1,10,0:1:0:0:
204,282,136818,2,0,B|200:234|200:164,1,99.9999999999999,8|8,0:2|0:2,0:2:0:0:
281,124,137418,2,0,L|275:63,1,50,10|10,0:1|0:1,0:0:0:0:
238,41,137718,2,0,L|185:44,1,50,2|8,1:1|0:2,0:0:0:0:
145,70,138018,6,0,B|96:68|26:77,1,99.9999999999999,6|0,1:2|0:2,0:2:0:0:
17,170,138618,2,0,B|15:219|24:289,1,99.9999999999999,12|0,0:2|0:2,0:2:0:0:
66,303,139068,1,0,1:2:0:0:
66,303,139218,2,2,L|171:296,1,99.9999999999999,6|0,1:2|0:2,0:1:0:0:
209,272,139668,1,10,0:1:0:0:
340,343,140118,1,6,1:2:0:0:
422,286,140418,1,2,1:0:0:0:
256,192,140568,12,0,141618,1:2:0:0:
80,160,142218,5,2,0:2:0:0:
140,240,142518,1,2,0:2:0:0:
213,171,142818,2,2,B|274:171|349:182,1,99.9999999999999,6|8,0:2|0:0,0:0:0:0:
345,215,143268,2,0,B|406:215|481:204,1,99.9999999999999,2|2,0:0|0:0,0:0:0:0:
504,128,143868,2,0,B|515:81|515:81|488:25,1,99.9999999999999,2|0,0:0|0:0,0:0:0:0:
450,7,144318,1,8,0:0:0:0:
361,53,144618,1,0,0:0:0:0:
265,23,144918,2,0,B|213:20,1,50,10|0,0:0|0:0,0:0:0:0:
168,39,145218,6,0,B|158:97|165:158,1,99.9999999999999,6|10,0:2|0:0,0:0:0:0:
199,173,145668,2,0,B|262:174|310:179,1,99.9999999999999,2|0,0:0|0:0,0:0:0:0:
336,211,146118,1,10,0:0:0:0:
320,309,146418,2,0,B|270:305|213:305,1,99.9999999999999,2|8,0:0|0:0,0:0:0:0:
179,331,146868,1,2,0:0:0:0:
179,331,147018,2,0,B|123:328|78:324,1,99.9999999999999,2|8,0:0|0:0,0:0:0:0:
4,256,147618,1,4,0:2:0:0:
98,223,147918,6,0,B|112:186|112:186|100:116,1,99.9999999999999,10|2,0:0|0:0,0:0:0:0:
184,69,148518,1,10,0:0:0:0:
184,69,148668,2,0,B|242:73|322:79,1,99.9999999999999,2|0,0:0|0:0,0:0:0:0:
332,88,149118,1,10,0:0:0:0:
360,184,149418,1,2,0:0:0:0:
272,231,149718,1,10,0:0:0:0:
330,312,150018,6,2,B|382:312|430:322,1,99.9999999999999,6|8,0:2|0:0,0:0:0:0:
476,303,150468,2,2,B|488:259|488:259|479:195,1,99.9999999999999,6|0,0:2|0:0,0:0:0:0:
432,192,150918,2,0,B|424:138|424:138|436:94,1,99.9999999999999,10|0,0:0|0:0,0:0:0:0:
398,61,151368,2,0,L|321:51,1,50,0|8,0:0|0:0,0:0:0:0:
248,63,151818,2,0,B|197:143|197:143|244:263,1,200,0|6,0:0|0:2,0:0:0:0:
276,337,152718,5,10,0:0:0:0:
276,337,152868,2,0,B|220:338|140:341,1,99.9999999999999,2|2,0:0|0:0,0:0:0:0:
85,297,153468,2,0,B|75:248|84:186,1,99.9999999999999,2|0,0:0|0:0,0:0:0:0:
115,159,153918,1,8,0:0:0:0:
31,104,154218,1,0,0:0:0:0:
109,41,154518,2,0,L|173:42,1,50,10|2,0:0|0:0,0:0:0:0:
204,62,154818,6,0,B|255:61|320:65,1,99.9999999999999,2|10,0:0|0:0,0:0:0:0:
344,93,155268,2,0,B|356:147|342:209,1,99.9999999999999,2|0,0:0|0:0,0:0:0:0:
304,221,155718,1,10,0:0:0:0:
204,224,156018,2,0,B|192:278|206:340,1,99.9999999999999,2|8,0:0|0:0,0:0:0:0:
240,356,156468,1,2,0:0:0:0:
240,356,156618,2,0,P|287:350|353:348,1,99.9999999999999,2|8,0:0|0:0,0:0:0:0:
437,369,157218,1,4,0:2:0:0:
501,292,157518,6,0,B|504:245|490:175,1,99.9999999999999,10|2,0:0|0:0,0:0:0:0:
428,123,158118,1,10,0:0:0:0:
428,123,158268,2,0,B|376:129|316:132,1,99.9999999999999,2|0,0:0|0:0,0:0:0:0:
279,117,158718,1,10,0:0:0:0:
180,135,159018,1,2,0:0:0:0:
199,233,159318,1,10,0:0:0:0:
297,214,159618,6,2,B|314:262|314:262|297:319,1,99.9999999999999,6|8,0:2|0:0,0:0:0:0:
274,352,160068,2,2,B|222:352|161:361,1,99.9999999999999,6|0,0:2|0:0,0:0:0:0:
125,350,160518,1,10,0:0:0:0:
26,332,160818,2,0,B|73:256|4:193|4:193|-10:121|40:52,1,300
112,121,162018,6,2,B|159:112|211:113,1,99.9999999999999,6|8,0:2|0:0,0:0:0:0:
260,124,162468,2,2,B|271:182|267:239,1,99.9999999999999,6|0,0:2|0:0,0:0:0:0:
236,263,162918,2,2,B|256:316|311:343|391:289,1,150,6|2,0:2|0:2,0:0:0:0:
409,313,163518,1,10,0:2:0:0:
482,244,163818,1,2,0:2:0:0:
426,161,164118,2,0,L|421:102,1,50,10|0,0:0|0:0,0:0:0:0:
385,75,164418,6,2,B|336:80|266:84,1,99.9999999999999,6|8,0:2|0:0,0:0:0:0:
246,114,164868,2,2,B|197:109|127:105,1,99.9999999999999,6|0,0:2|0:0,0:0:0:0:
99,88,165318,2,2,B|71:158|87:239,1,150,6|0,0:2|0:0,0:0:0:0:
51,271,165918,1,8,0:0:0:0:
128,334,166218,1,0,0:0:0:0:
223,305,166518,2,0,L|284:314,1,50,10|2,0:0|0:0,0:0:0:0:
322,321,166818,6,2,B|344:273|334:207,1,99.9999999999999,6|8,0:2|0:0,0:0:0:0:
315,177,167268,2,2,B|260:170|201:168,1,99.9999999999999,6|0,0:2|0:0,0:0:0:0:
168,150,167718,2,2,B|175:95|177:36,1,99.9999999999999,6|0,0:2|0:0,0:0:0:0:
265,5,168318,1,8,0:0:0:0:
343,67,168618,1,2,0:0:0:0:
424,9,168918,1,10,0:0:0:0:
493,80,169218,6,0,B|504:129|504:129|485:208,1,99.9999999999999,10|10,0:0|0:0,0:0:0:0:
459,214,169668,1,2,0:0:0:0:
459,214,169818,2,0,B|407:206|327:200,1,99.9999999999999,8|10,0:0|0:0,0:0:0:0:
273,253,170418,1,10,0:0:0:0:
185,205,170718,2,0,B|179:156|191:106,1,99.9999999999999,8|6,0:0|0:2,0:0:0:0:
281,59,171318,1,10,0:0:0:0:
281,59,171468,1,6,0:2:0:0:
256,192,171618,12,4,174018,1:2:0:0:
116,148,176418,5,4,1:2:0:0:
396,236,178818,5,4,1:2:0:0:
96,140,181218,5,4,1:2:0:0:
380,104,182418,5,0,1:2:0:0:
256,264,183018,1,0,1:2:0:0:
132,104,183618,1,4,1:2:0:0:
416,244,186018,5,4,1:2:0:0:
148,352,188418,5,4,1:2:0:0:
96,84,190818,5,4,1:2:0:0:
96,84,192018,6,0,B|146:83|216:90,1,99.9999999999999,8|0,0:0|1:0,0:0:0:0:
289,123,192618,2,0,B|298:172|298:172|286:231,1,99.9999999999999,8|0,0:0|1:0,0:0:0:0:
189,201,193218,2,0,B|180:250|180:250|192:309,1,99.9999999999999,4|8,0:2|0:0,0:0:0:0:
274,348,193818,2,0,B|330:348|384:355,1,99.9999999999999,0|8,0:0|0:0,0:0:0:0:
420,335,194268,2,2,B|431:285|422:221,1,99.9999999999999,2|0,0:0|0:0,0:0:0:0:
460,201,194718,1,8,0:0:0:0:
396,124,195018,6,0,L|335:123,1,50
306,153,195318,1,8,0:0:0:0:
306,153,195468,2,2,B|253:168|200:153|176:79,1,150,2|8,0:0|0:0,0:0:0:0:
94,143,196218,2,0,L|84:205,1,50
51,227,196518,1,8,0:0:0:0:
51,227,196668,2,2,B|42:280|36:339,1,99.9999999999999,2|0,0:0|0:0,0:0:0:0:
78,354,197118,1,8,0:0:0:0:
163,301,197418,2,0,L|233:309,1,50
260,320,197718,1,8,0:0:0:0:
348,272,198018,6,2,B|360:226|360:226|345:168,1,99.9999999999999,6|8,0:0|0:0,0:0:0:0:
297,179,198468,2,2,B|285:133|285:133|300:75,1,99.9999999999999,2|0,0:0|0:0,0:0:0:0:
340,54,198918,1,10,0:0:0:0:
340,54,199068,2,0,B|395:41|441:52|487:103,1,150,2|10,0:0|0:0,0:0:0:0:
511,186,199818,1,2,0:0:0:0:
476,279,200118,1,10,0:0:0:0:
378,299,200418,6,0,L|324:289,1,50,2|2,0:0|0:0,0:0:0:0:
293,253,200718,1,10,0:0:0:0:
293,253,200868,2,0,B|240:255|179:260,1,99.9999999999999,2|0,0:0|0:0,0:0:0:0:
148,275,201318,1,10,0:0:0:0:
148,275,201468,2,0,B|115:208|115:208|149:138,1,150,2|8,0:0|0:0,0:0:0:0:
223,74,202218,2,0,B|268:76|316:83,2,74.9999999999999,2|2|2,0:0|0:0|0:0,0:0:0:0:
187,38,202818,6,2,B|135:37|75:31,1,99.9999999999999,6|8,0:0|0:0,0:0:0:0:
11,97,203418,1,0,0:0:0:0:
20,196,203718,1,10,0:0:0:0:
111,236,204018,2,0,B|162:236|226:244,1,99.9999999999999,2|10,0:0|0:0,0:0:0:0:
288,178,204618,2,0,L|342:185,1,50,2|0,0:0|0:0,0:0:0:0:
385,169,204918,1,10,0:0:0:0:
466,226,205218,6,0,B|464:290|454:360,1,99.9999999999999,2|10,0:0|0:0,0:0:0:0:
426,364,205668,1,2,0:0:0:0:
426,364,205818,2,0,B|344:356|309:355,1,99.9999999999999,2|10,0:0|0:0,0:0:0:0:
302,311,206268,2,0,B|220:319|185:320,1,99.9999999999999
157,341,206718,1,10,0:0:0:0:
62,308,207018,2,0,B|58:255|68:194,1,99.9999999999999,0|8,0:0|0:0,0:0:0:0:
103,175,207468,5,8,0:0:0:0:
103,175,207618,2,2,B|156:187|156:187|222:176,1,99.9999999999999,6|8,0:0|0:0,0:0:0:0:
232,140,208068,2,2,B|285:128|285:128|351:139,1,99.9999999999999,2|0,0:0|0:0,0:0:0:0:
358,176,208518,2,0,B|404:204|458:190|496:147,1,150,10|2,0:0|0:0,0:0:0:0:
507,102,209118,1,0,0:0:0:0:
440,27,209418,2,2,B|387:26|335:32,1,99.9999999999999,2|8,0:0|0:0,0:0:0:0:
244,24,210018,5,6,0:0:0:0:
244,24,210168,2,0,L|235:82,1,50,0|10,0:0|0:0,0:0:0:0:
265,114,210468,2,0,B|266:177|255:237,1,99.9999999999999,2|2,0:0|0:0,0:0:0:0:
299,242,210918,1,10,0:0:0:0:
220,302,211218,1,2,0:0:0:0:
220,302,211368,2,0,L|158:296,1,50,2|10,0:0|0:0,0:0:0:0:
135,332,211668,2,0,B|83:327|29:325,1,99.9999999999999,2|2,0:0|0:0,0:0:0:0:
7,283,212118,1,10,0:0:0:0:
87,223,212418,6,0,B|100:174|100:174|77:104,1,99.9999999999999,0|8,0:0|0:0,0:0:0:0:
53,87,212868,1,10,0:0:0:0:
53,87,213018,2,0,B|120:88|167:83,1,99.9999999999999,8|2,0:0|0:0,0:0:0:0:
234,22,213618,2,0,B|360:52|404:242|302:365,1,400,2|4,0:0|1:2,0:0:0:0:
309,355,216018,6,0,B|248:349|151:343,1,150,0|0,1:2|0:0,0:2:0:0:
116,318,216618,2,0,B|122:261|123:211,1,99.9999999999999,10|2,0:2|0:2,0:0:0:0:
193,147,217218,1,2,1:2:0:0:
293,266,217668,1,2,1:2:0:0:
293,266,217818,2,0,B|362:270|420:273,1,99.9999999999999,8|2,0:2|0:2,0:2:0:0:
486,235,218418,6,0,B|503:175|503:175|452:124|475:42,1,200,2|0,1:2|0:2,0:2:0:0:
432,17,219168,1,0,1:2:0:0:
432,17,219318,1,8,0:2:0:0:
359,85,219618,1,4,1:2:0:0:
272,34,219918,6,0,B|218:39|138:47,1,99.9999999999999,2|2,0:2|1:2,0:2:0:0:
89,100,220518,1,10,0:2:0:0:
178,145,220818,2,0,B|184:229|140:270|140:270|165:344,1,200,0|2,1:2|1:2,0:0:0:0:
251,374,221718,1,8,0:2:0:0:
349,356,222018,2,0,B|447:336|510:229|465:119,1,300,2|10,1:2|0:2,0:2:0:0:
388,57,223218,5,2,1:2:0:0:
289,74,223518,1,2,1:2:0:0:
263,170,223818,1,0,1:2:0:0:
328,245,224118,1,8,0:2:0:0:
249,306,224418,6,0,B|195:301|137:300,1,99.9999999999999,4|8,1:2|0:2,0:2:0:0:
56,263,225018,1,2,1:2:0:0:
138,205,225318,1,10,0:2:0:0:
54,149,225618,2,0,B|46:100|46:100|68:39,1,99.9999999999999,2|8,1:2|0:2,0:2:0:0:
101,20,226068,2,0,B|152:25|232:28,1,99.9999999999999,2|0,1:2|1:2,0:2:0:0:
244,51,226518,1,10,0:2:0:0:
343,50,226818,6,0,B|342:110|335:175,1,99.9999999999999,2|8,1:2|0:2,0:2:0:0:
297,180,227268,1,2,1:2:0:0:
167,255,227718,1,10,0:2:0:0:
202,348,228018,1,2,1:2:0:0:
301,321,228318,1,10,0:2:0:0:
301,321,228468,2,0,B|364:326|453:328,1,150,2|8,1:2|0:2,0:2:0:0:
508,246,229218,6,0,B|514:184|513:115,1,99.9999999999999,6|8,0:2|0:2,0:2:0:0:
477,111,229668,2,0,L|406:108,1,50,2|8,1:1|0:2,0:0:0:0:
341,57,230118,1,10,0:1:0:0:
249,98,230418,2,0,B|243:141|243:216,1,99.9999999999999,8|8,0:2|0:2,0:2:0:0:
318,263,231018,2,0,L|312:321,1,50,10|10,0:1|0:1,0:0:0:0:
291,357,231318,2,0,L|233:351,1,50,2|8,1:1|0:2,0:0:0:0:
194,369,231618,6,0,B|147:362|82:359,1,99.9999999999999,6|0,1:2|0:2,0:2:0:0:
17,296,232218,2,0,B|18:238|24:188,1,99.9999999999999,12|0,0:2|0:2,0:2:0:0:
59,161,232668,1,0,1:2:0:0:
59,161,232818,2,2,B|108:178|108:178|164:164,1,99.9999999999999,6|0,1:2|0:2,0:1:0:0:
196,139,233268,1,10,0:1:0:0:
327,210,233718,1,6,1:2:0:0:
410,154,234018,1,2,1:1:0:0:
256,192,234168,12,0,235218,1:2:0:0:
48,55,236418,5,4,1:2:0:0:
370,191,237468,5,4,1:2:0:0:
81,377,238818,5,0,1:2:0:0:
423,109,240018,5,0,1:2:0:0:
228,63,240618,1,0,1:2:0:0:
182,258,241218,1,4,1:2:0:0:
463,98,242268,5,4,1:2:0:0:
66,173,243618,5,0,1:2:0:0:
256,192,243768,12,4,246018,1:2:0:0:
348,368,247068,5,4,1:2:0:0:
256,192,248118,6,0,L|184:200,1,50,8|0,0:2|1:2,0:0:0:0:
166,228,248418,1,4,1:2:0:0:
388,49,249618,5,0,1:2:0:0:
454,237,250218,1,0,1:2:0:0:
266,303,250818,1,4,1:2:0:0:
409,26,251568,5,8,0:2:0:0:
409,26,251718,1,8,0:2:0:0:
409,26,251868,1,0,1:2:0:0:
205,270,253218,5,10,0:1:0:0:
348,217,253668,1,10,0:1:0:0:
230,119,254118,1,10,0:1:0:0:
130,112,254418,6,0,B|75:201|97:337,1,200,0|2,1:2|1:1,0:0:0:0:
159,379,255318,1,2,1:1:0:0:
232,310,255618,2,2,B|290:317|361:319,1,99.9999999999999,6|8,0:2|0:0,0:0:0:0:
378,300,256068,2,0,B|391:250|391:250|378:188,1,99.9999999999999,2|2,0:0|0:0,0:0:0:0:
302,141,256668,2,0,B|246:140|185:134,1,99.9999999999999,2|0,0:0|0:0,0:0:0:0:
158,160,257118,1,8,0:0:0:0:
81,95,257418,1,0,0:0:0:0:
31,181,257718,2,0,L|21:244,1,50,10|0,0:0|0:0,0:0:0:0:
46,274,258018,6,0,B|92:264|180:285,1,99.9999999999999,6|10,0:2|0:0,0:0:0:0:
180,316,258468,2,0,B|227:330|307:319,1,99.9999999999999,2|0,0:0|0:0,0:0:0:0:
325,303,258918,1,10,0:0:0:0:
264,223,259218,2,0,B|262:169|271:114,1,99.9999999999999,2|8,0:0|0:0,0:0:0:0:
299,82,259668,1,2,0:0:0:0:
299,82,259818,2,0,B|366:87|435:88,1,99.9999999999999,2|8,0:0|0:0,0:0:0:0:
487,134,260418,1,4,0:2:0:0:
413,201,260718,6,0,B|399:248|399:248|412:317,1,99.9999999999999,10|2,0:0|0:0,0:0:0:0:
332,362,261318,1,10,0:0:0:0:
332,362,261468,2,0,B|254:357|217:354,1,99.9999999999999,2|0,0:0|0:0,0:0:0:0:
185,337,261918,1,10,0:0:0:0:
121,259,262218,1,2,0:0:0:0:
175,175,262518,1,10,0:0:0:0:
272,198,262818,6,2,B|279:141|277:71,1,99.9999999999999,6|8,0:2|0:0,0:0:0:0:
247,58,263268,2,2,B|197:46|133:47,1,99.9999999999999,6|0,0:2|0:0,0:0:0:0:
119,88,263718,2,0,B|65:97|5:99,1,99.9999999999999,10|0,0:0|0:0,0:0:0:0:
20,198,264318,1,8,0:0:0:0:
23,297,264618,2,0,B|67:344|150:355|212:310,1,200,0|6,0:0|0:2,0:0:0:0:
269,236,265518,5,10,0:0:0:0:
269,236,265668,1,2,0:0:0:0:
340,305,265968,2,0,L|403:308,1,50,2|8,0:0|0:0,0:0:0:0:
430,281,266268,2,0,B|440:229|437:150,1,99.9999999999999,2|0,0:0|0:0,0:0:0:0:
472,144,266718,1,8,0:0:0:0:
419,58,267018,1,0,0:0:0:0:
340,119,267318,2,0,L|284:115,1,50,10|2,0:0|0:0,0:0:0:0:
240,104,267618,6,0,B|237:155|229:213,1,99.9999999999999,2|10,0:0|0:0,0:0:0:0:
240,252,268068,2,0,B|177:245|113:240,1,99.9999999999999,2|0,0:0|0:0,0:0:0:0:
94,262,268518,1,10,0:0:0:0:
10,207,268818,2,0,B|0:157|0:157|20:100,1,99.9999999999999,2|8,0:0|0:0,0:0:0:0:
56,79,269268,1,2,0:0:0:0:
56,79,269418,2,0,B|117:83|188:88,1,99.9999999999999,2|8,0:0|0:0,0:0:0:0:
244,39,270018,1,4,0:2:0:0:
331,87,270318,6,0,B|335:141|322:203,1,99.9999999999999,10|2,0:0|0:0,0:0:0:0:
234,223,270918,1,10,0:0:0:0:
234,223,271068,2,0,B|224:268|228:322,1,99.9999999999999,2|0,0:0|0:0,0:0:0:0:
271,347,271518,2,0,B|327:348|401:359,1,99.9999999999999,10|2,0:0|0:0,0:0:0:0:
464,319,272118,1,10,0:0:0:0:
413,232,272418,5,6,0:2:0:0:
494,173,272718,1,8,0:0:0:0:
494,173,272868,1,6,0:2:0:0:
440,95,273168,1,0,0:0:0:0:
440,95,273318,1,10,0:0:0:0:
352,143,273618,2,0,L|302:135,1,50
254,120,273918,2,0,B|211:205|211:205|259:325,1,200
172,366,274818,6,2,B|137:361|72:357,1,99.9999999999999,6|8,0:2|0:0,0:0:0:0:
33,326,275268,2,2,B|29:260|39:219,1,99.9999999999999,6|0,0:2|0:0,0:0:0:0:
70,189,275718,2,2,B|120:212|169:203|222:160,1,150,6|2,0:2|0:2,0:0:0:0:
249,136,276318,1,10,0:2:0:0:
297,223,276618,1,2,0:2:0:0:
392,193,276918,2,0,L|442:195,1,50,10|0,0:0|0:0,0:0:0:0:
490,183,277218,6,2,B|496:125|494:48,1,99.9999999999999,6|8,0:2|0:0,0:0:0:0:
459,47,277668,2,2,B|402:40|331:37,1,99.9999999999999,6|0,0:2|0:0,0:0:0:0:
321,71,278118,2,2,B|256:88|256:88|177:56,1,150,6|0,0:2|0:0,0:0:0:0:
132,75,278718,1,8,0:0:0:0:
42,119,279018,2,0,L|36:183,1,50
1,204,279318,2,0,L|7:268,1,50,10|2,0:0|0:0,0:0:0:0:
43,286,279618,6,2,B|119:286|184:295,1,99.9999999999999,6|8,0:2|0:0,0:0:0:0:
169,248,280068,2,2,B|222:255|286:256,1,99.9999999999999,6|0,0:2|0:0,0:0:0:0:
312,232,280518,2,2,B|324:180|324:180|311:113,1,99.9999999999999,6|0,0:2|0:0,0:0:0:0:
234,75,281118,1,8,0:0:0:0:
297,0,281418,1,2,0:0:0:0:
380,55,281718,1,10,0:0:0:0:
479,44,282018,6,0,B|480:104|471:165,1,99.9999999999999,10|10,0:0|0:0,0:0:0:0:
450,188,282468,1,2,0:0:0:0:
450,188,282618,2,0,L|350:180,1,99.9999999999999,8|10,0:0|0:0,0:0:0:0:
265,234,283218,2,0,B|252:292|255:346,1,99.9999999999999,10|8,0:0|0:0,0:0:0:0:
342,381,283818,1,6,0:2:0:0:
420,319,284118,1,10,0:0:0:0:
466,337,284268,1,6,0:2:0:0:
256,192,284418,12,4,286818,0:0:0:0:
