osu file format v14

[General]
AudioFilename: audio.mp3
AudioLeadIn: 0
PreviewTime: 55141
Countdown: 0
SampleSet: Normal
StackLeniency: 0.7
Mode: 1
LetterboxInBreaks: 0
WidescreenStoryboard: 1

[Editor]
DistanceSpacing: 0.5
BeatDivisor: 2
GridSize: 32
TimelineZoom: 1

[Metadata]
Title:Arrival of Tears (TV Size)
TitleUnicode:Arrival of Tears (TV Size)
Artist:Ayane
ArtistUnicode:彩音
Creator:DakeDekaane
Version:Oni
Source:11eyes
Tags:Lass 5bp. Tatsh Tatsuya Shimizu anime japanese
BeatmapID:997490
BeatmapSetID:466009

[Difficulty]
HPDrainRate:6
CircleSize:5
OverallDifficulty:6
ApproachRate:5
SliderMultiplier:1.4
SliderTickRate:1

[Events]
//Background and Video events
0,0,"11eyes.full.184559.jpg",0,100
//Break Periods
//Storyboard Layer 0 (Background)
//Storyboard Layer 1 (Fail)
//Storyboard Layer 2 (Pass)
//Storyboard Layer 3 (Foreground)
//Storyboard Layer 4 (Overlay)
//Storyboard Sound Samples

[TimingPoints]
616,300,4,1,1,80,1,0
55816,300,4,1,1,80,1,1
84466,-100,4,1,1,80,0,0

[HitObjects]
256,192,616,5,4,0:0:0:0:
256,192,1666,1,0,0:0:0:0:
256,192,1741,1,0,0:0:0:0:
256,192,1816,1,8,0:0:0:0:
256,192,2866,1,8,0:0:0:0:
256,192,2941,1,8,0:0:0:0:
256,192,3016,1,0,0:0:0:0:
256,192,4216,1,8,0:0:0:0:
256,192,4291,1,8,0:0:0:0:
256,192,4366,1,0,0:0:0:0:
256,192,4516,1,8,0:0:0:0:
256,192,4591,1,8,0:0:0:0:
256,192,4666,1,0,0:0:0:0:
256,192,4816,1,8,0:0:0:0:
256,192,4891,1,8,0:0:0:0:
256,192,4966,1,0,0:0:0:0:
256,192,5041,1,0,0:0:0:0:
256,192,5116,1,8,0:0:0:0:
256,192,5266,1,8,0:0:0:0:
256,192,5341,1,8,0:0:0:0:
256,192,5416,1,0,0:0:0:0:
256,192,5716,1,8,0:0:0:0:
256,192,6016,1,0,0:0:0:0:
256,192,6166,1,0,0:0:0:0:
256,192,6316,1,8,0:0:0:0:
256,192,6466,1,0,0:0:0:0:
256,192,6541,1,0,0:0:0:0:
256,192,6616,1,0,0:0:0:0:
256,192,6916,1,8,0:0:0:0:
256,192,7216,1,0,0:0:0:0:
256,192,7366,1,0,0:0:0:0:
256,192,7516,1,8,0:0:0:0:
256,192,7666,1,8,0:0:0:0:
256,192,7741,1,8,0:0:0:0:
256,192,7816,1,0,0:0:0:0:
256,192,8116,1,12,0:0:0:0:
256,192,8416,1,0,0:0:0:0:
256,192,8491,1,0,0:0:0:0:
256,192,8566,1,0,0:0:0:0:
256,192,8716,1,12,0:0:0:0:
256,192,9016,1,0,0:0:0:0:
256,192,9166,1,0,0:0:0:0:
256,192,9316,1,8,0:0:0:0:
256,192,9466,1,8,0:0:0:0:
256,192,9541,1,8,0:0:0:0:
256,192,9616,1,0,0:0:0:0:
256,192,9766,1,0,0:0:0:0:
256,192,9916,1,8,0:0:0:0:
256,192,10066,1,0,0:0:0:0:
256,192,10216,1,0,0:0:0:0:
256,192,10516,1,8,0:0:0:0:
256,192,10666,1,0,0:0:0:0:
256,192,10966,1,0,0:0:0:0:
256,192,11116,1,8,0:0:0:0:
256,192,11266,1,0,0:0:0:0:
256,192,11416,1,0,0:0:0:0:
256,192,11716,1,8,0:0:0:0:
256,192,11866,1,0,0:0:0:0:
256,192,12166,1,0,0:0:0:0:
256,192,12316,1,8,0:0:0:0:
256,192,12466,1,0,0:0:0:0:
256,192,12616,1,0,0:0:0:0:
256,192,12916,1,8,0:0:0:0:
256,192,13066,1,0,0:0:0:0:
256,192,13216,1,0,0:0:0:0:
256,192,13516,1,8,0:0:0:0:
256,192,13816,1,0,0:0:0:0:
256,192,13966,1,0,0:0:0:0:
256,192,14116,1,8,0:0:0:0:
256,192,14266,1,0,0:0:0:0:
256,192,14341,1,0,0:0:0:0:
256,192,14416,1,8,0:0:0:0:
256,192,14566,1,0,0:0:0:0:
259,195,14716,1,8,0:0:0:0:
259,195,14791,1,8,0:0:0:0:
259,195,14866,1,8,0:0:0:0:
256,192,15016,1,4,0:0:0:0:
256,192,15316,1,0,0:0:0:0:
256,192,15391,1,0,0:0:0:0:
256,192,15466,1,0,0:0:0:0:
256,192,15616,1,0,0:0:0:0:
256,192,15766,1,0,0:0:0:0:
256,192,15841,1,0,0:0:0:0:
256,192,15916,1,0,0:0:0:0:
256,192,16066,1,0,0:0:0:0:
256,192,16141,1,0,0:0:0:0:
256,192,16216,1,0,0:0:0:0:
256,192,16366,1,0,0:0:0:0:
256,192,16516,1,0,0:0:0:0:
256,192,16591,1,0,0:0:0:0:
256,192,16666,1,0,0:0:0:0:
256,192,16816,1,0,0:0:0:0:
256,192,16966,1,0,0:0:0:0:
256,192,17041,1,0,0:0:0:0:
256,192,17116,1,0,0:0:0:0:
256,192,17266,1,0,0:0:0:0:
256,192,17416,1,0,0:0:0:0:
256,192,17716,1,8,0:0:0:0:
256,192,18016,1,0,0:0:0:0:
256,192,18166,1,0,0:0:0:0:
256,192,18316,1,8,0:0:0:0:
256,192,18616,1,0,0:0:0:0:
256,192,18916,1,8,0:0:0:0:
256,192,19066,1,0,0:0:0:0:
256,192,19366,1,0,0:0:0:0:
256,192,19516,1,8,0:0:0:0:
256,192,19666,1,0,0:0:0:0:
256,192,19816,1,4,0:0:0:0:
256,192,20116,1,0,0:0:0:0:
256,192,20191,1,0,0:0:0:0:
256,192,20266,1,0,0:0:0:0:
256,192,20416,1,0,0:0:0:0:
256,192,20566,1,0,0:0:0:0:
256,192,20641,1,0,0:0:0:0:
256,192,20716,1,0,0:0:0:0:
256,192,20866,1,0,0:0:0:0:
256,192,20941,1,0,0:0:0:0:
256,192,21016,1,0,0:0:0:0:
256,192,21166,1,0,0:0:0:0:
256,192,21316,1,0,0:0:0:0:
256,192,21391,1,0,0:0:0:0:
256,192,21466,1,0,0:0:0:0:
256,192,21616,1,0,0:0:0:0:
256,192,21766,1,0,0:0:0:0:
256,192,21841,1,0,0:0:0:0:
256,192,21916,1,0,0:0:0:0:
256,192,22066,1,0,0:0:0:0:
256,192,22216,1,4,0:0:0:0:
256,192,22516,1,8,0:0:0:0:
256,192,22816,1,0,0:0:0:0:
256,192,22966,1,0,0:0:0:0:
256,192,23116,1,8,0:0:0:0:
256,192,23416,1,0,0:0:0:0:
256,192,23716,1,8,0:0:0:0:
256,192,23866,1,0,0:0:0:0:
256,192,24166,1,0,0:0:0:0:
256,192,24316,1,8,0:0:0:0:
256,192,24466,1,8,0:0:0:0:
256,192,24616,1,4,0:0:0:0:
256,192,24916,1,8,0:0:0:0:
256,192,24991,1,0,0:0:0:0:
256,192,25066,1,0,0:0:0:0:
256,192,25216,1,0,0:0:0:0:
256,192,25366,1,0,0:0:0:0:
256,192,25441,1,0,0:0:0:0:
256,192,25516,1,8,0:0:0:0:
256,192,25666,1,0,0:0:0:0:
256,192,25741,1,0,0:0:0:0:
256,192,25816,1,0,0:0:0:0:
256,192,25966,1,0,0:0:0:0:
256,192,26116,1,8,0:0:0:0:
256,192,26191,1,0,0:0:0:0:
256,192,26266,1,0,0:0:0:0:
256,192,26416,1,0,0:0:0:0:
256,192,26566,1,0,0:0:0:0:
256,192,26641,1,0,0:0:0:0:
256,192,26716,1,8,0:0:0:0:
256,192,26866,1,0,0:0:0:0:
256,192,27016,1,4,0:0:0:0:
256,192,27316,1,8,0:0:0:0:
256,192,27616,1,0,0:0:0:0:
256,192,27766,1,0,0:0:0:0:
256,192,27916,1,8,0:0:0:0:
256,192,28216,1,4,0:0:0:0:
256,192,28666,1,4,0:0:0:0:
256,192,28966,1,0,0:0:0:0:
256,192,29116,1,8,0:0:0:0:
256,192,29191,1,0,0:0:0:0:
256,192,29266,1,8,0:0:0:0:
256,192,29416,1,4,0:0:0:0:
256,192,29716,1,8,0:0:0:0:
256,192,30016,1,0,0:0:0:0:
256,192,30166,1,0,0:0:0:0:
256,192,30316,1,8,0:0:0:0:
224,192,30466,1,4,0:0:0:0:
224,192,30766,1,0,0:0:0:0:
224,192,30916,1,8,0:0:0:0:
224,192,31066,1,0,0:0:0:0:
224,192,31216,1,0,0:0:0:0:
224,192,31366,1,0,0:0:0:0:
224,192,31516,1,0,0:0:0:0:
224,192,31591,1,0,0:0:0:0:
224,192,31666,1,0,0:0:0:0:
256,192,31816,1,12,0:0:0:0:
256,192,32266,1,12,0:0:0:0:
256,192,32716,2,4,B|512:192|512:192|512:0|512:0|384:0,1,560
256,192,34216,1,0,0:0:0:0:
256,192,34666,1,0,0:0:0:0:
256,192,34816,1,8,0:0:0:0:
256,192,35116,1,0,0:0:0:0:
256,192,35416,1,0,0:0:0:0:
256,192,35566,1,0,0:0:0:0:
256,192,35866,1,0,0:0:0:0:
256,192,36016,1,8,0:0:0:0:
256,192,36316,1,0,0:0:0:0:
256,192,36616,1,0,0:0:0:0:
256,192,37216,1,8,0:0:0:0:
256,192,37516,1,0,0:0:0:0:
256,192,37816,12,0,38716,0:0:0:0:
256,192,39016,5,0,0:0:0:0:
256,192,39466,1,0,0:0:0:0:
256,192,39616,1,8,0:0:0:0:
256,192,39916,1,0,0:0:0:0:
256,192,40216,1,0,0:0:0:0:
256,192,40366,1,0,0:0:0:0:
256,192,40666,1,0,0:0:0:0:
256,192,40816,1,8,0:0:0:0:
256,192,41116,1,0,0:0:0:0:
256,192,41416,1,0,0:0:0:0:
256,192,42316,1,8,0:0:0:0:
256,192,42616,1,0,0:0:0:0:
256,192,42766,1,8,0:0:0:0:
256,192,42916,1,8,0:0:0:0:
256,192,43066,1,0,0:0:0:0:
256,192,43141,1,0,0:0:0:0:
256,192,43216,1,8,0:0:0:0:
256,192,43291,1,8,0:0:0:0:
256,192,43366,1,0,0:0:0:0:
256,192,43441,1,0,0:0:0:0:
256,192,43516,1,8,0:0:0:0:
256,192,43666,1,0,0:0:0:0:
256,192,43741,1,0,0:0:0:0:
256,192,43816,1,0,0:0:0:0:
256,192,44116,1,8,0:0:0:0:
256,192,44416,1,0,0:0:0:0:
256,192,44566,1,0,0:0:0:0:
256,192,44716,1,8,0:0:0:0:
256,192,45016,1,0,0:0:0:0:
256,192,45166,1,0,0:0:0:0:
256,192,45316,1,8,0:0:0:0:
256,192,45466,1,0,0:0:0:0:
256,192,45766,1,0,0:0:0:0:
256,192,45916,1,8,0:0:0:0:
256,192,46216,1,0,0:0:0:0:
256,192,46516,1,8,0:0:0:0:
256,192,46666,1,0,0:0:0:0:
256,192,46966,1,0,0:0:0:0:
256,192,47116,1,8,0:0:0:0:
256,192,47416,1,0,0:0:0:0:
256,192,47566,1,0,0:0:0:0:
256,192,47716,1,8,0:0:0:0:
256,192,47866,1,0,0:0:0:0:
256,192,48166,1,0,0:0:0:0:
256,192,48316,1,8,0:0:0:0:
256,192,48466,1,0,0:0:0:0:
256,192,48541,1,0,0:0:0:0:
256,192,48616,1,8,0:0:0:0:
256,192,48766,1,0,0:0:0:0:
256,192,48916,1,8,0:0:0:0:
256,192,49066,1,0,0:0:0:0:
256,192,49216,1,8,0:0:0:0:
256,192,49366,1,0,0:0:0:0:
256,192,49516,1,8,0:0:0:0:
256,192,49666,1,0,0:0:0:0:
256,192,49816,1,8,0:0:0:0:
256,192,49966,1,0,0:0:0:0:
256,192,50116,1,8,0:0:0:0:
256,192,50266,1,0,0:0:0:0:
256,192,50416,1,8,0:0:0:0:
256,192,50566,1,8,0:0:0:0:
256,192,50716,1,0,0:0:0:0:
256,192,50866,1,8,0:0:0:0:
256,192,50941,1,0,0:0:0:0:
256,192,51016,1,8,0:0:0:0:
256,192,51166,1,0,0:0:0:0:
256,192,51466,1,0,0:0:0:0:
256,192,51541,1,0,0:0:0:0:
256,192,51616,1,8,0:0:0:0:
256,192,51766,1,0,0:0:0:0:
256,192,52066,1,0,0:0:0:0:
256,192,52141,1,0,0:0:0:0:
256,192,52216,1,8,0:0:0:0:
256,192,52666,1,8,0:0:0:0:
256,192,52816,1,0,0:0:0:0:
256,192,53116,12,0,54616,0:0:0:0:
256,192,55816,5,4,0:0:0:0:
256,192,56116,1,8,0:0:0:0:
256,192,56266,1,0,0:0:0:0:
256,192,56416,1,0,0:0:0:0:
256,192,56491,1,0,0:0:0:0:
256,192,56566,1,0,0:0:0:0:
256,192,56716,1,8,0:0:0:0:
256,192,56866,1,4,0:0:0:0:
256,192,57166,1,0,0:0:0:0:
256,192,57316,1,8,0:0:0:0:
256,192,57616,1,0,0:0:0:0:
256,192,57766,1,0,0:0:0:0:
256,192,57916,1,8,0:0:0:0:
256,192,57991,1,0,0:0:0:0:
256,192,58066,1,8,0:0:0:0:
256,192,58216,1,4,0:0:0:0:
256,192,58516,1,8,0:0:0:0:
256,192,58666,1,0,0:0:0:0:
256,192,58966,1,0,0:0:0:0:
256,192,59041,1,0,0:0:0:0:
256,192,59116,1,8,0:0:0:0:
256,192,59266,1,0,0:0:0:0:
256,192,59416,1,4,0:0:0:0:
256,192,59716,1,8,0:0:0:0:
256,192,59866,1,0,0:0:0:0:
256,192,60016,1,0,0:0:0:0:
256,192,60166,1,0,0:0:0:0:
256,192,60241,1,0,0:0:0:0:
256,192,60316,1,0,0:0:0:0:
256,192,60466,1,0,0:0:0:0:
256,192,60616,1,4,0:0:0:0:
256,192,60916,1,8,0:0:0:0:
256,192,61216,1,0,0:0:0:0:
256,192,61291,1,0,0:0:0:0:
256,192,61366,1,0,0:0:0:0:
256,192,61516,1,8,0:0:0:0:
256,192,61666,1,4,0:0:0:0:
256,192,61966,5,0,0:0:0:0:
256,192,62116,1,8,0:0:0:0:
256,192,62266,1,8,0:0:0:0:
256,192,62416,1,0,0:0:0:0:
256,192,62491,1,0,0:0:0:0:
256,192,62566,1,0,0:0:0:0:
256,192,62716,1,8,0:0:0:0:
256,192,62866,1,0,0:0:0:0:
256,192,63016,5,4,0:0:0:0:
256,192,63466,1,12,0:0:0:0:
256,192,63916,2,4,B|512:192|512:192|512:0|512:0|384:0,1,560
256,192,65416,5,4,0:0:0:0:
256,192,65716,1,8,0:0:0:0:
256,192,65866,1,0,0:0:0:0:
256,192,66016,1,0,0:0:0:0:
256,192,66091,1,0,0:0:0:0:
256,192,66166,1,0,0:0:0:0:
256,192,66316,1,8,0:0:0:0:
256,192,66466,1,4,0:0:0:0:
256,192,66766,1,0,0:0:0:0:
256,192,66916,1,8,0:0:0:0:
256,192,67216,1,0,0:0:0:0:
256,192,67366,1,0,0:0:0:0:
256,192,67516,1,8,0:0:0:0:
256,192,67591,1,0,0:0:0:0:
256,192,67666,1,8,0:0:0:0:
256,192,67816,1,4,0:0:0:0:
256,192,68116,1,8,0:0:0:0:
256,192,68266,1,0,0:0:0:0:
256,192,68566,1,0,0:0:0:0:
256,192,68641,1,0,0:0:0:0:
256,192,68716,1,8,0:0:0:0:
256,192,68866,1,0,0:0:0:0:
256,192,69016,1,4,0:0:0:0:
256,192,69316,1,8,0:0:0:0:
256,192,69466,1,0,0:0:0:0:
256,192,69616,1,0,0:0:0:0:
256,192,69766,1,0,0:0:0:0:
256,192,69841,1,0,0:0:0:0:
256,192,69916,1,0,0:0:0:0:
256,192,70066,1,0,0:0:0:0:
256,192,70216,1,4,0:0:0:0:
256,192,70516,1,8,0:0:0:0:
256,192,70816,1,0,0:0:0:0:
256,192,70891,1,0,0:0:0:0:
256,192,70966,1,0,0:0:0:0:
256,192,71116,1,8,0:0:0:0:
256,192,71266,1,4,0:0:0:0:
256,192,71566,5,0,0:0:0:0:
256,192,71716,1,8,0:0:0:0:
256,192,71866,1,8,0:0:0:0:
256,192,72016,1,0,0:0:0:0:
256,192,72091,1,0,0:0:0:0:
256,192,72166,1,0,0:0:0:0:
256,192,72316,1,8,0:0:0:0:
256,192,72466,1,0,0:0:0:0:
256,192,72616,5,4,0:0:0:0:
256,192,73066,1,12,0:0:0:0:
256,192,73516,2,4,B|512:192|512:192|512:0|512:0|384:0,1,560
256,192,75016,5,4,0:0:0:0:
256,192,75466,1,4,0:0:0:0:
256,192,75916,12,0,76816,0:0:0:0:
256,192,77116,5,8,0:0:0:0:
256,192,77266,1,8,0:0:0:0:
256,192,77416,5,4,0:0:0:0:
256,192,77866,1,12,0:0:0:0:
256,192,78316,2,4,B|512:192|512:192|512:0,1,420
256,192,79516,1,8,0:0:0:0:
256,192,79666,1,8,0:0:0:0:
256,192,79816,5,4,0:0:0:0:
256,192,80266,1,4,0:0:0:0:
256,192,80716,12,0,81316,0:0:0:0:
256,192,81616,5,8,0:0:0:0:
256,192,81916,1,8,0:0:0:0:
256,192,82216,1,8,0:0:0:0:
256,192,82366,1,0,0:0:0:0:
256,192,82516,1,8,0:0:0:0:
256,192,82666,1,0,0:0:0:0:
256,192,82816,1,8,0:0:0:0:
256,192,82966,1,0,0:0:0:0:
256,192,83116,1,8,0:0:0:0:
256,192,83266,1,0,0:0:0:0:
256,192,83341,1,0,0:0:0:0:
256,192,83416,1,8,0:0:0:0:
256,192,83716,1,0,0:0:0:0:
256,192,83791,1,0,0:0:0:0:
256,192,83866,1,0,0:0:0:0:
256,192,83941,1,0,0:0:0:0:
256,192,84016,1,0,0:0:0:0:
256,192,84316,1,8,0:0:0:0:
256,192,84466,12,0,87016,0:0:0:0:
