osu file format v14

[General]
AudioFilename: audio.mp3
AudioLeadIn: 0
PreviewTime: 55141
Countdown: 0
SampleSet: Normal
StackLeniency: 0.7
Mode: 1
LetterboxInBreaks: 0
WidescreenStoryboard: 1

[Editor]
DistanceSpacing: 0.6
BeatDivisor: 4
GridSize: 32
TimelineZoom: 1

[Metadata]
Title:Arrival of Tears (TV Size)
TitleUnicode:Arrival of Tears (TV Size)
Artist:Ayane
ArtistUnicode:彩音
Creator:DakeDekaane
Version:Futsuu
Source:11eyes
Tags:Lass 5bp. Tatsh Tatsuya Shimizu anime japanese
BeatmapID:997486
BeatmapSetID:466009

[Difficulty]
HPDrainRate:6.5
CircleSize:5
OverallDifficulty:4
ApproachRate:5
SliderMultiplier:1.4
SliderTickRate:1

[Events]
//Background and Video events
0,0,"11eyes.full.184559.jpg",0,100
//Break Periods
//Storyboard Layer 0 (Background)
//Storyboard Layer 1 (Fail)
//Storyboard Layer 2 (Pass)
//Storyboard Layer 3 (Foreground)
//Storyboard Layer 4 (Overlay)
//Storyboard Sound Samples

[TimingPoints]
616,300,4,1,1,80,1,0
55816,300,4,1,1,80,1,1
84466,-100,4,1,1,80,0,0

[HitObjects]
256,192,616,5,4,0:0:0:0:
256,192,1816,1,4,0:0:0:0:
256,192,3016,1,4,0:0:0:0:
256,192,4216,1,0,0:0:0:0:
256,192,4366,1,0,0:0:0:0:
256,192,4516,1,0,0:0:0:0:
256,192,4816,1,0,0:0:0:0:
256,192,5116,1,0,0:0:0:0:
256,192,5416,1,4,0:0:0:0:
256,192,5716,1,8,0:0:0:0:
256,192,6016,1,0,0:0:0:0:
256,192,6316,1,8,0:0:0:0:
256,192,6916,1,8,0:0:0:0:
256,192,7216,1,0,0:0:0:0:
256,192,7516,1,8,0:0:0:0:
256,192,8116,1,12,0:0:0:0:
256,192,8716,1,12,0:0:0:0:
256,192,9316,1,8,0:0:0:0:
256,192,9616,1,8,0:0:0:0:
256,192,9916,1,8,0:0:0:0:
256,192,10216,12,0,12616,0:0:0:0:
256,192,15016,5,0,0:0:0:0:
256,192,15316,1,0,0:0:0:0:
256,192,15616,1,0,0:0:0:0:
256,192,15766,1,0,0:0:0:0:
256,192,15916,1,0,0:0:0:0:
256,192,16066,1,0,0:0:0:0:
256,192,16516,1,0,0:0:0:0:
256,192,16816,1,0,0:0:0:0:
256,192,16966,1,0,0:0:0:0:
256,192,17116,1,0,0:0:0:0:
256,192,17416,1,0,0:0:0:0:
256,192,18016,1,0,0:0:0:0:
256,192,18616,1,8,0:0:0:0:
256,192,19066,1,8,0:0:0:0:
256,192,19516,1,8,0:0:0:0:
256,192,19816,5,0,0:0:0:0:
256,192,20116,1,0,0:0:0:0:
256,192,20416,1,0,0:0:0:0:
256,192,20566,1,0,0:0:0:0:
256,192,20716,1,0,0:0:0:0:
256,192,20866,1,0,0:0:0:0:
256,192,21316,1,0,0:0:0:0:
256,192,21616,1,0,0:0:0:0:
256,192,21766,1,0,0:0:0:0:
256,192,21916,1,0,0:0:0:0:
256,192,22216,1,0,0:0:0:0:
256,192,22816,1,0,0:0:0:0:
256,192,23416,1,8,0:0:0:0:
256,192,23866,1,8,0:0:0:0:
256,192,24616,5,0,0:0:0:0:
256,192,24916,1,8,0:0:0:0:
256,192,25216,1,0,0:0:0:0:
256,192,25366,1,0,0:0:0:0:
256,192,25516,1,8,0:0:0:0:
256,192,25666,1,0,0:0:0:0:
256,192,26116,1,8,0:0:0:0:
256,192,26416,1,0,0:0:0:0:
256,192,26566,1,0,0:0:0:0:
256,192,26716,1,8,0:0:0:0:
256,192,27016,1,0,0:0:0:0:
256,192,27616,1,0,0:0:0:0:
256,192,28216,1,12,0:0:0:0:
256,192,28666,1,12,0:0:0:0:
256,192,29416,1,0,0:0:0:0:
256,192,29716,1,8,0:0:0:0:
256,192,30016,1,0,0:0:0:0:
256,192,30316,1,8,0:0:0:0:
256,192,30466,1,4,0:0:0:0:
256,192,30916,1,8,0:0:0:0:
256,192,31216,1,0,0:0:0:0:
256,192,31516,1,8,0:0:0:0:
256,192,31816,1,4,0:0:0:0:
256,192,32266,1,4,0:0:0:0:
256,192,32716,1,4,0:0:0:0:
256,192,34216,1,0,0:0:0:0:
256,192,34816,1,0,0:0:0:0:
256,192,35416,1,8,0:0:0:0:
256,192,36016,1,8,0:0:0:0:
256,192,36616,1,0,0:0:0:0:
256,192,37216,1,8,0:0:0:0:
256,192,37816,12,0,38716,0:0:0:0:
256,192,39016,5,0,0:0:0:0:
256,192,39616,1,0,0:0:0:0:
256,192,40216,1,8,0:0:0:0:
256,192,40816,1,8,0:0:0:0:
256,192,41416,1,0,0:0:0:0:
256,192,42316,1,8,0:0:0:0:
256,192,42616,1,0,0:0:0:0:
256,192,42916,1,8,0:0:0:0:
256,192,43066,1,8,0:0:0:0:
256,192,43216,1,8,0:0:0:0:
256,192,43516,1,8,0:0:0:0:
256,192,43816,1,0,0:0:0:0:
256,192,44116,1,8,0:0:0:0:
256,192,44716,1,8,0:0:0:0:
256,192,45016,1,0,0:0:0:0:
256,192,45316,1,8,0:0:0:0:
256,192,45916,1,8,0:0:0:0:
256,192,46216,1,0,0:0:0:0:
256,192,46516,1,8,0:0:0:0:
256,192,47116,1,8,0:0:0:0:
256,192,47416,1,0,0:0:0:0:
256,192,47716,1,8,0:0:0:0:
256,192,47866,1,0,0:0:0:0:
256,192,48616,1,8,0:0:0:0:
256,192,48916,1,8,0:0:0:0:
256,192,49216,1,8,0:0:0:0:
256,192,49516,1,8,0:0:0:0:
256,192,49816,1,8,0:0:0:0:
256,192,50116,1,8,0:0:0:0:
256,192,50416,1,8,0:0:0:0:
256,192,50566,1,8,0:0:0:0:
256,192,50716,1,8,0:0:0:0:
256,192,51016,1,8,0:0:0:0:
256,192,51616,1,8,0:0:0:0:
256,192,52216,1,8,0:0:0:0:
256,192,52666,1,8,0:0:0:0:
256,192,53116,12,0,54616,0:0:0:0:
256,192,55816,5,4,0:0:0:0:
256,192,56116,1,8,0:0:0:0:
256,192,56266,1,0,0:0:0:0:
256,192,56566,1,0,0:0:0:0:
256,192,56866,1,12,0:0:0:0:
256,192,57916,1,8,0:0:0:0:
256,192,58066,1,8,0:0:0:0:
256,192,58216,1,4,0:0:0:0:
256,192,58516,1,8,0:0:0:0:
256,192,58666,1,0,0:0:0:0:
256,192,59116,1,8,0:0:0:0:
256,192,59416,1,4,0:0:0:0:
256,192,59716,1,8,0:0:0:0:
256,192,59866,1,0,0:0:0:0:
256,192,60016,1,0,0:0:0:0:
256,192,60616,1,4,0:0:0:0:
256,192,60916,1,8,0:0:0:0:
256,192,61216,1,0,0:0:0:0:
256,192,61516,1,8,0:0:0:0:
256,192,61666,1,4,0:0:0:0:
256,192,62116,1,8,0:0:0:0:
256,192,62416,1,0,0:0:0:0:
256,192,62716,1,8,0:0:0:0:
256,192,63016,1,4,0:0:0:0:
256,192,63466,1,4,0:0:0:0:
256,192,63916,1,4,0:0:0:0:
256,192,65416,5,4,0:0:0:0:
256,192,65716,1,8,0:0:0:0:
256,192,65866,1,0,0:0:0:0:
256,192,66166,1,0,0:0:0:0:
256,192,66466,1,12,0:0:0:0:
256,192,67516,1,8,0:0:0:0:
256,192,67666,1,8,0:0:0:0:
256,192,67816,1,4,0:0:0:0:
256,192,68116,1,8,0:0:0:0:
256,192,68266,1,0,0:0:0:0:
256,192,68716,1,8,0:0:0:0:
256,192,69016,1,4,0:0:0:0:
256,192,69316,1,8,0:0:0:0:
256,192,69466,1,0,0:0:0:0:
256,192,69616,1,0,0:0:0:0:
256,192,70216,1,4,0:0:0:0:
256,192,70516,1,8,0:0:0:0:
256,192,70816,1,0,0:0:0:0:
256,192,71116,1,8,0:0:0:0:
256,192,71266,1,4,0:0:0:0:
256,192,71716,1,8,0:0:0:0:
256,192,72016,1,0,0:0:0:0:
256,192,72316,1,8,0:0:0:0:
256,192,72616,1,4,0:0:0:0:
256,192,73066,1,4,0:0:0:0:
256,192,73516,1,4,0:0:0:0:
256,192,75016,1,12,0:0:0:0:
256,192,75466,1,12,0:0:0:0:
256,192,75916,1,12,0:0:0:0:
256,192,77116,1,8,0:0:0:0:
256,192,77266,1,8,0:0:0:0:
256,192,77416,1,4,0:0:0:0:
256,192,77866,1,4,0:0:0:0:
256,192,78316,1,4,0:0:0:0:
256,192,79516,1,0,0:0:0:0:
256,192,79666,1,0,0:0:0:0:
256,192,79816,1,12,0:0:0:0:
256,192,80266,1,12,0:0:0:0:
256,192,80716,1,12,0:0:0:0:
256,192,81616,1,0,0:0:0:0:
256,192,81916,1,0,0:0:0:0:
256,192,82216,1,8,0:0:0:0:
256,192,82516,1,8,0:0:0:0:
256,192,82816,1,8,0:0:0:0:
256,192,83116,1,8,0:0:0:0:
256,192,83416,1,8,0:0:0:0:
256,192,83866,1,0,0:0:0:0:
256,192,84016,1,0,0:0:0:0:
256,192,84316,1,8,0:0:0:0:
256,192,84466,12,0,87016,0:0:0:0:
