osu file format v14

[General]
AudioFilename: audio.mp3
AudioLeadIn: 0
PreviewTime: 254874
Countdown: 0
SampleSet: Soft
StackLeniency: 0.7
Mode: 0
LetterboxInBreaks: 0
WidescreenStoryboard: 0

[Editor]
DistanceSpacing: 1.4
BeatDivisor: 4
GridSize: 32
TimelineZoom: 4.699998

[Metadata]
Title:Arrival of Tears
TitleUnicode:Arrival of Tears
Artist:Ayane
ArtistUnicode:彩音
Creator:Shocko
Version:Oblivion
Source:11eyes -罪と罰と贖いの少女-
Tags:イレブンアイズ Sin Damnation and the Atonement Girl tsumi to batsu to aganai no shoujo anime opening full version visual novel tatsh japanese rock j-rock
BeatmapID:2389485
BeatmapSetID:1144433

[Difficulty]
HPDrainRate:6
CircleSize:4.4
OverallDifficulty:8.7
ApproachRate:9.4
SliderMultiplier:1.8
SliderTickRate:1

[Events]
//Background and Video events
0,0,"ayane.jpg",0,0
//Break Periods
//Storyboard Layer 0 (Background)
//Storyboard Layer 1 (Fail)
//Storyboard Layer 2 (Pass)
//Storyboard Layer 3 (Foreground)
//Storyboard Layer 4 (Overlay)
//Storyboard Sound Samples

[TimingPoints]
604,300,4,2,1,50,1,0
604,-133.333333333333,4,2,1,50,0,0
1579,-133.333333333333,4,2,1,5,0,0
1654,-133.333333333333,4,2,1,50,0,0
1804,-333.333333333333,4,2,1,50,0,0
2779,-333.333333333333,4,2,1,5,0,0
2854,-333.333333333333,4,2,1,50,0,0
3004,-200,4,2,1,50,0,0
4054,-200,4,2,1,5,0,0
4204,-83.3333333333333,4,2,1,70,0,0
4804,-111.111111111111,4,2,1,70,0,0
5404,-100,4,2,1,70,0,0
5629,-100,4,2,1,5,0,0
5704,-100,4,2,1,70,0,0
6829,-100,4,2,1,5,0,0
6904,-100,4,2,1,70,0,0
8029,-100,4,2,1,5,0,0
8104,-100,4,2,1,70,0,0
10129,-100,4,2,1,5,0,0
10204,-100,4,2,1,70,0,0
10429,-100,4,2,1,5,0,0
10504,-100,4,2,1,70,0,0
10579,-100,4,2,1,5,0,0
10654,-100,4,2,1,70,0,0
10879,-100,4,2,1,5,0,0
10954,-100,4,2,1,70,0,0
11629,-100,4,2,1,5,0,0
11704,-100,4,2,1,70,0,0
11779,-100,4,2,1,5,0,0
11854,-100,4,2,1,70,0,0
12079,-100,4,2,1,5,0,0
12154,-100,4,2,1,70,0,0
13954,-83.3333333333333,4,2,1,70,0,0
15004,-125,4,2,1,50,0,0
15229,-125,4,2,1,5,0,0
15304,-125,4,2,1,50,0,0
20029,-125,4,2,1,5,0,0
20104,-125,4,2,1,50,0,0
28879,-125,4,2,1,5,0,0
28954,-125,4,2,1,50,0,0
30229,-125,4,2,1,5,0,0
30304,-125,4,2,1,50,0,0
31804,-100,4,2,1,70,0,0
32479,-100,4,2,1,5,0,0
32554,-100,4,2,1,70,0,0
34204,-166.666666666667,4,2,1,50,0,0
42604,-166.666666666667,4,2,1,70,0,0
43054,-83.3333333333333,4,2,1,70,0,0
43804,-111.111111111111,4,2,1,50,0,0
48079,-111.111111111111,4,2,1,5,0,0
48154,-111.111111111111,4,2,1,50,0,0
48604,-100,4,2,1,70,0,0
51004,-133.333333333333,4,2,1,50,0,0
52204,-100,4,2,1,70,0,0
53104,-133.333333333333,4,2,1,50,0,0
54604,-200,4,2,1,50,0,0
55804,-100,4,2,1,77,0,1
56029,-100,4,2,1,5,0,1
56104,-100,4,2,1,77,0,1
63679,-100,4,2,1,5,0,1
63754,-100,4,2,1,77,0,1
65629,-100,4,2,1,5,0,1
65704,-100,4,2,1,77,0,1
68479,-100,4,2,1,5,0,1
68554,-100,4,2,1,77,0,1
72004,-133.333333333333,4,2,1,50,0,1
72604,-100,4,2,1,77,0,1
73279,-100,4,2,1,5,0,1
73354,-100,4,2,1,77,0,1
84229,-100,4,2,1,5,0,1
84304,-100,4,2,1,77,0,1
87004,-100,4,2,1,70,0,0
87229,-100,4,2,1,5,0,0
87304,-100,4,2,1,70,0,0
88429,-100,4,2,1,5,0,0
88504,-100,4,2,1,70,0,0
89629,-100,4,2,1,5,0,0
89704,-100,4,2,1,70,0,0
92029,-100,4,2,1,5,0,0
92104,-100,4,2,1,70,0,0
93229,-100,4,2,1,5,0,0
93304,-100,4,2,1,70,0,0
94429,-100,4,2,1,5,0,0
94504,-100,4,2,1,70,0,0
96529,-100,4,2,1,5,0,0
96604,-100,4,2,1,70,0,0
96829,-100,4,2,1,5,0,0
96904,-100,4,2,1,70,0,0
96979,-100,4,2,1,5,0,0
97054,-100,4,2,1,70,0,0
97279,-100,4,2,1,5,0,0
97354,-100,4,2,1,70,0,0
98029,-100,4,2,1,5,0,0
98104,-100,4,2,1,70,0,0
98179,-100,4,2,1,5,0,0
98254,-100,4,2,1,70,0,0
98479,-100,4,2,1,5,0,0
98554,-100,4,2,1,70,0,0
100354,-83.3333333333333,4,2,1,50,0,0
102004,300,4,2,1,50,1,0
102004,-125,4,2,1,50,0,0
102229,-125,4,2,1,5,0,0
102304,-125,4,2,1,50,0,0
104404,-166.666666666667,4,2,1,50,0,0
106804,-125,4,2,1,50,0,0
107029,-125,4,2,1,5,0,0
107104,-125,4,2,1,50,0,0
109204,-166.666666666667,4,2,1,50,0,0
110329,-166.666666666667,4,2,1,5,0,0
110404,-166.666666666667,4,2,1,50,0,0
111304,-125,4,2,1,50,0,0
111604,-125,4,2,1,50,0,0
115879,-125,4,2,1,5,0,0
115954,-125,4,2,1,50,0,0
117229,-125,4,2,1,5,0,0
117304,-125,4,2,1,50,0,0
118129,-125,4,2,1,5,0,0
118204,-125,4,2,1,50,0,0
118804,-100,4,2,1,70,0,0
119479,-100,4,2,1,5,0,0
119554,-100,4,2,1,70,0,0
121204,-166.666666666667,4,2,1,50,0,0
129604,-166.666666666667,4,2,1,70,0,0
130054,-83.3333333333333,4,2,1,70,0,0
130804,-111.111111111111,4,2,1,50,0,0
135079,-111.111111111111,4,2,1,5,0,0
135154,-111.111111111111,4,2,1,50,0,0
135604,-100,4,2,1,70,0,0
138004,-133.333333333333,4,2,1,50,0,0
139204,-100,4,2,1,70,0,0
140104,-133.333333333333,4,2,1,50,0,0
141604,-200,4,2,1,50,0,0
142804,-100,4,2,1,77,0,1
143029,-100,4,2,1,5,0,1
143104,-100,4,2,1,77,0,1
150679,-100,4,2,1,5,0,1
150754,-100,4,2,1,77,0,1
152629,-100,4,2,1,5,0,1
152704,-100,4,2,1,77,0,1
155479,-100,4,2,1,5,0,1
155554,-100,4,2,1,77,0,1
159004,-133.333333333333,4,2,1,50,0,1
159604,-100,4,2,1,77,0,1
160279,-100,4,2,1,5,0,1
160354,-100,4,2,1,77,0,1
162679,-100,4,2,1,5,0,1
162754,-100,4,2,1,77,0,1
165079,-100,4,2,1,5,0,1
165154,-100,4,2,1,77,0,1
171229,-100,4,2,1,5,0,1
171304,-100,4,2,1,77,0,1
174004,-500,4,2,1,70,0,0
174079,-500,4,2,1,30,0,0
175729,-500,4,2,1,5,0,0
175804,-500,4,2,1,30,0,0
176404,-200,4,2,1,30,0,0
177529,-200,4,2,1,5,0,0
177604,-500,4,2,1,30,0,0
178429,-500,4,2,1,5,0,0
178504,-500,4,2,1,30,0,0
178804,-250,4,2,1,30,0,0
179929,-250,4,2,1,5,0,0
180004,-500,4,2,1,30,0,0
181204,-200,4,2,1,30,0,0
182329,-200,4,2,1,5,0,0
182404,-333.333333333333,4,2,1,30,0,0
182929,-333.333333333333,4,2,1,5,0,0
183004,-500,4,2,1,30,0,0
183529,-500,4,2,1,5,0,0
183604,-500,4,2,1,30,0,0
186004,-200,4,2,1,30,0,0
187129,-200,4,2,1,5,0,0
187204,-500,4,2,1,30,0,0
188329,-500,4,2,1,5,0,0
188404,-500,4,2,1,30,0,0
190804,-200,4,2,1,30,0,0
191854,-200,4,2,1,50,0,0
192004,-83.3333333333333,4,2,1,70,0,0
200329,-83.3333333333333,4,2,1,5,0,0
200404,-83.3333333333333,4,2,1,70,0,0
203029,-83.3333333333333,4,2,1,5,0,0
203104,-83.3333333333333,4,2,1,70,0,0
209629,-83.3333333333333,4,2,1,5,0,0
209704,-83.3333333333333,4,2,1,70,0,0
210679,-83.3333333333333,4,2,1,5,0,0
210754,-83.3333333333333,4,2,1,70,0,0
211879,-83.3333333333333,4,2,1,5,0,0
211954,-83.3333333333333,4,2,1,70,0,0
213754,-71.4285714285714,4,2,1,70,0,0
216004,-166.666666666667,4,3,1,50,0,0
216454,-166.666666666667,4,2,1,50,0,0
223654,-83.3333333333333,4,2,1,70,0,0
224404,-111.111111111111,4,2,1,50,0,0
228679,-111.111111111111,4,2,1,5,0,0
228754,-111.111111111111,4,2,1,50,0,0
229204,-100,4,2,1,70,0,0
231604,-133.333333333333,4,2,1,50,0,0
232804,-100,4,2,1,70,0,0
233704,-133.333333333333,4,2,1,70,0,0
235204,-200,4,2,1,50,0,0
236404,-133.333333333333,4,2,1,60,0,0
237454,-333.333333333333,4,2,1,60,0,0
238804,-133.333333333333,4,2,1,60,0,0
239929,-133.333333333333,4,2,1,5,0,0
240004,-133.333333333333,4,2,1,60,0,0
242254,-333.333333333333,4,2,1,60,0,0
245104,-200,4,2,1,60,0,0
246004,-133.333333333333,4,2,1,60,0,0
247054,-333.333333333333,4,2,1,60,0,0
248404,-133.333333333333,4,2,1,60,0,0
249529,-133.333333333333,4,2,1,5,0,0
249604,-133.333333333333,4,2,1,60,0,0
253204,-100,4,2,1,70,0,0
254404,-83.3333333333333,4,2,1,70,0,0
255604,-100,4,2,1,77,0,1
255829,-100,4,2,1,5,0,1
255904,-100,4,2,1,77,0,1
263479,-100,4,2,1,5,0,1
263554,-100,4,2,1,77,0,1
265429,-100,4,2,1,5,0,1
265504,-100,4,2,1,77,0,1
268279,-100,4,2,1,5,0,1
268354,-100,4,2,1,77,0,1
271804,-133.333333333333,4,2,1,50,0,1
272404,-100,4,2,1,77,0,1
273079,-100,4,2,1,5,0,1
273154,-100,4,2,1,77,0,1
275479,-100,4,2,1,5,0,1
275554,-100,4,2,1,77,0,1
283804,-100,4,2,1,77,0,1
284029,-100,4,2,1,5,0,1
284104,-100,4,2,1,77,0,1
284254,-400,4,2,1,77,0,0
286654,-400,4,2,1,5,0,0
286804,-100,4,2,1,77,0,0
287029,-100,4,2,1,5,0,0
287104,-100,4,2,1,77,0,0
291604,-83.3333333333333,4,2,1,77,0,0
291754,-83.3333333333333,4,2,1,5,0,0
291829,-83.3333333333333,4,2,1,77,0,0
291979,-83.3333333333333,4,2,1,5,0,0
292054,-83.3333333333333,4,2,1,77,0,0
292354,-83.3333333333333,4,2,1,5,0,0
292429,-83.3333333333333,4,2,1,77,0,0
292579,-83.3333333333333,4,2,1,5,0,0
292654,-83.3333333333333,4,2,1,77,0,0
301354,-83.3333333333333,4,2,1,5,0,0
301429,-83.3333333333333,4,2,1,77,0,0
301579,-83.3333333333333,4,2,1,5,0,0
301654,-83.3333333333333,4,2,1,77,0,0
301954,-83.3333333333333,4,2,1,5,0,0
302029,-83.3333333333333,4,2,1,77,0,0
302179,-83.3333333333333,4,2,1,5,0,0
302254,-83.3333333333333,4,2,1,77,0,0
303154,-133.333333333333,4,2,1,77,0,0
303604,-83.3333333333333,4,2,1,77,0,0
305404,-100,4,2,1,77,0,0
310804,-166.666666666667,4,2,1,77,0,0
311779,-166.666666666667,4,2,1,5,0,0
311854,-83.3333333333333,4,2,1,77,0,0
312004,-100,4,2,1,77,0,0

[Colours]
Combo1 : 217,70,0
Combo2 : 255,26,26
Combo3 : 128,128,64
Combo4 : 255,255,128

[HitObjects]
242,201,604,6,0,B|340:274|408:150|321:72|163:99|267:274|65:221,1,438.750016736985,6|0,3:2|0:0,0:0:0:0:
9,119,1654,1,0,3:0:0:0:
15,123,1729,1,0,3:0:0:0:
20,127,1804,6,0,P|27:207|37:304,1,175.499994644165,14|0,3:2|0:0,0:0:0:0:
164,373,2854,1,0,3:0:0:0:
164,373,2929,1,0,3:0:0:0:
164,373,3004,6,0,B|315:431|280:244|447:290,1,315,14|0,3:2|0:0,0:0:0:0:
463,23,4204,5,8,0:0:0:0:
496,58,4279,1,8,0:0:0:0:
486,99,4354,1,8,0:3:0:0:
461,112,4429,1,8,0:3:0:0:
452,111,4504,6,0,P|424:116|400:123,1,53.9999983520508,8|8,0:0|0:0,0:0:0:0:
310,195,4654,2,0,P|337:200|363:207,1,53.9999983520508,4|4,0:3|0:3,0:0:0:0:
326,8,4804,6,0,P|320:46|308:110,1,80.9999975280763,8|8,0:0|0:0,0:0:0:0:
301,102,5029,1,8,0:0:0:0:
283,104,5104,1,8,0:0:0:0:
250,69,5179,1,8,0:0:0:0:
210,36,5254,1,8,0:3:0:0:
155,35,5329,1,8,0:3:0:0:
113,66,5404,6,0,P|122:130|135:223,1,135,4|0,3:2|0:0,0:0:0:0:
139,216,5704,2,0,P|94:218|50:228,1,90,10|0,0:0|0:0,0:0:0:0:
285,237,6004,2,0,B|307:193|307:193|285:143,1,90,2|0,3:2|3:0,0:0:0:0:
139,297,6304,2,0,P|151:340|160:384,1,90,10|0,0:0|0:0,0:0:0:0:
493,293,6604,6,0,B|433:268|433:268|364:285,1,135,0|0,3:0|0:0,0:0:0:0:
359,297,6904,2,0,P|370:332|378:383,1,90,10|0,0:0|0:0,0:0:0:0:
492,115,7204,2,0,P|479:158|473:203,1,90,2|0,3:2|3:2,0:2:0:0:
305,62,7504,2,0,P|349:59|387:35,1,90,10|0,0:0|0:0,0:0:0:0:
268,252,7804,6,0,B|234:219|234:219|141:241,1,135,0|0,3:0|0:0,0:0:0:0:
141,249,8104,2,0,P|99:242|50:237,1,90,14|0,0:0|0:0,0:0:0:0:
18,29,8404,1,2,3:2:0:0:
18,29,8554,1,0,3:0:0:0:
127,80,8704,2,0,P|111:124|101:170,1,90,14|0,0:0|0:0,0:0:0:0:
288,39,9004,6,0,P|237:30|191:8,1,90,6|0,3:2|0:0,0:0:0:0:
272,177,9304,2,0,P|317:155|366:146,1,90,10|0,0:0|3:0,0:0:0:0:
413,284,9604,1,2,0:0:0:0:
484,70,9754,1,0,3:0:0:0:
489,78,9829,1,0,3:0:0:0:
497,89,9904,2,0,P|484:147|479:225,1,135,12|0,0:0|0:0,0:0:0:0:
479,222,10204,6,0,B|436:240|436:240|348:210,1,135,6|0,3:2|0:0,0:0:0:0:
345,216,10504,2,0,L|355:173,1,45,8|0,0:0|0:0,0:0:0:0:
232,246,10654,6,0,L|252:382,1,135,0|0,3:0|0:0,0:0:0:0:
263,384,10954,1,0,3:0:0:0:
312,297,11104,1,8,0:0:0:0:
109,169,11254,1,0,3:0:0:0:
109,169,11404,6,0,P|166:156|241:140,1,135,2|0,3:2|0:0,0:0:0:0:
253,146,11704,2,0,P|239:166|233:188,1,45,8|0,0:0|0:0,0:0:0:0:
342,126,11854,6,0,P|314:72|302:-1,1,135,0|0,3:0|0:0,0:0:0:0:
413,78,12154,1,0,3:0:0:0:
413,78,12229,1,0,3:0:0:0:
413,78,12304,2,0,P|468:63|524:48,1,90,8|0,0:0|0:0,0:0:0:0:
396,219,12604,6,0,P|409:262|421:318,1,90,2|0,3:2|0:0,0:0:0:0:
186,330,12904,1,8,0:0:0:0:
351,350,13054,2,0,P|313:377|269:384,1,90,2|0,3:2|0:0,0:0:0:0:
272,220,13354,1,0,3:0:0:0:
94,311,13504,2,0,P|129:338|173:343,1,90,10|0,0:0|0:0,0:0:0:0:
247,149,13804,5,0,3:0:0:0:
31,135,13954,5,8,0:3:0:0:
0,102,14029,1,8,0:3:0:0:
0,91,14104,1,8,0:0:0:0:
12,53,14179,1,8,0:0:0:0:
54,28,14254,1,0,3:3:0:0:
104,47,14329,1,0,3:3:0:0:
104,47,14404,6,0,P|110:75|117:102,1,53.9999983520508,8|8,0:3|0:3,0:0:0:0:
47,218,14554,1,0,3:0:0:0:
254,43,14704,5,8,0:0:0:0:
254,43,14779,1,8,0:0:0:0:
254,43,14854,1,8,0:0:0:0:
254,43,14929,1,8,0:0:0:0:
254,43,15004,6,0,P|323:35|388:24,1,108,4|0,3:2|0:0,0:0:0:0:
381,38,15304,1,10,0:0:0:0:
483,137,15454,2,0,P|490:93|502:52,1,72,0|2,3:0|0:0,0:0:0:0:
362,177,15754,1,0,3:2:0:0:
441,242,15904,2,0,P|483:245|529:254,1,72,10|0,0:0|0:0,0:0:0:0:
361,356,16204,6,0,P|288:366|213:384,1,144,0|10,3:0|0:0,0:0:0:0:
105,299,16654,2,0,P|116:339|128:375,1,72,0|2,3:0|0:0,0:0:0:0:
277,238,16954,1,0,3:2:0:0:
208,196,17104,1,10,0:0:0:0:
33,293,17254,1,0,3:0:0:0:
33,293,17404,6,0,B|-3:248|-3:248|26:146,1,144,2|8,3:2|0:0,0:0:0:0:
143,88,17854,1,0,0:0:0:0:
211,3,18004,2,0,P|251:15|302:30,1,72,2|0,3:2|0:0,0:0:0:0:
167,176,18304,2,0,P|202:165|245:151,1,72,8|0,0:0|3:0,0:0:0:0:
419,0,18604,6,0,P|402:71|391:158,1,144,2|8,3:2|0:0,0:0:0:0:
484,259,19054,2,0,P|429:215|362:233,1,144,2|0,3:2|3:0,0:0:0:0:
505,143,19504,1,10,0:0:0:0:
425,339,19654,1,8,0:0:0:0:
425,339,19804,6,0,P|375:331|303:323,1,108,4|0,3:2|0:0,0:0:0:0:
311,306,20104,2,0,P|303:345|295:389,1,72,10|0,0:0|0:0,0:0:0:0:
127,318,20404,2,0,P|120:278|111:235,1,72,2|0,3:2|3:0,0:0:0:0:
284,214,20704,1,10,0:0:0:0:
199,370,20854,6,0,P|140:355|41:339,1,144,2|0,0:0|0:0,0:0:0:0:
0,207,21304,2,0,P|12:236|24:273,1,72,10|0,0:0|0:0,0:0:0:0:
201,127,21604,1,2,3:2:0:0:
201,127,21754,1,0,3:0:0:0:
86,214,21904,1,10,0:0:0:0:
36,94,22054,1,0,3:0:0:0:
213,224,22204,6,0,P|288:202|362:190,2,144,6|8|2,3:2|0:0|3:2,0:0:0:0:
103,129,22954,1,0,3:0:0:0:
205,17,23104,2,0,P|211:52|216:88,1,72,8|0,0:0|0:0,0:0:0:0:
406,70,23404,6,0,P|368:64|334:53,1,72,2|0,3:2|3:0,0:0:0:0:
313,187,23704,1,10,0:0:0:0:
450,149,23854,2,0,P|456:75|473:0,1,144,2|0,3:2|3:0,0:0:0:0:
509,216,24304,1,8,0:0:0:0:
357,263,24454,1,8,0:0:0:0:
366,267,24529,1,8,0:0:0:0:
376,272,24604,6,0,P|385:312|393:362,1,72,4|0,3:2|0:0,0:0:0:0:
235,376,24904,2,0,P|241:340|249:305,1,72,10|0,0:0|0:0,0:0:0:0:
116,251,25204,1,2,3:2:0:0:
259,287,25354,1,0,3:0:0:0:
161,146,25504,1,10,0:0:0:0:
26,271,25654,6,0,P|97:280|167:304,1,144,2|0,3:2|3:0,0:0:0:0:
42,111,26104,2,0,P|33:141|18:195,1,72,10|0,0:0|0:0,0:0:0:0:
159,69,26404,2,0,P|150:39|135:-16,1,72,2|0,3:2|0:0,0:0:0:0:
355,112,26704,1,10,0:0:0:0:
125,193,26854,1,8,0:0:0:0:
125,193,27004,6,0,P|185:181|242:238,1,144,6|8,3:2|0:0,0:0:0:0:
373,365,27454,1,0,0:0:0:0:
444,309,27604,2,0,P|432:272|424:236,1,72,2|0,3:2|3:0,0:0:0:0:
311,217,27904,2,0,P|322:180|330:144,1,72,8|0,0:0|0:0,0:0:0:0:
472,67,28204,6,0,B|397:75|417:11|330:31,1,144,6|8,3:2|0:0,0:0:0:0:
208,147,28654,2,0,P|221:85|232:36,1,108,2|0,3:2|0:0,0:0:0:0:
223,27,28954,1,8,0:0:0:0:
9,134,29104,1,8,0:0:0:0:
50,141,29179,1,8,0:0:0:0:
92,121,29254,1,8,0:3:0:0:
128,133,29329,1,8,0:3:0:0:
128,133,29404,6,0,P|123:174|115:226,1,72,4|0,3:2|0:0,0:0:0:0:
9,270,29704,2,0,P|14:310|22:362,1,72,10|0,0:0|0:0,0:0:0:0:
156,287,30004,2,0,P|206:292|274:303,1,108,2|0,3:2|0:0,0:0:0:0:
276,311,30304,1,10,0:0:0:0:
503,308,30454,6,0,P|444:303|403:372,1,144,6|0,3:2|3:0,0:0:0:0:
303,237,30904,2,0,P|299:201|288:133,1,72,10|0,0:0|0:0,0:0:0:0:
499,101,31204,1,2,3:2:0:0:
409,130,31354,1,8,0:0:0:0:
289,16,31504,1,10,0:0:0:0:
165,53,31654,1,0,3:0:0:0:
165,53,31804,6,0,P|156:123|142:245,1,180,6|8,3:2|0:0,0:0:0:0:
0,312,32254,6,0,P|72:304|102:366,1,135,6|0,3:2|0:0,0:0:0:0:
95,364,32554,1,8,0:0:0:0:
281,293,32704,6,0,P|186:295|142:227,1,180,14|0,0:0|3:0,0:0:0:0:
337,371,33154,1,8,0:0:0:0:
512,290,33304,1,8,0:0:0:0:
440,255,33454,1,0,3:0:0:0:
319,162,33604,5,8,3:2:0:0:
323,173,33679,1,8,0:0:0:0:
327,183,33754,2,0,P|304:178|283:176,1,45,8|0,0:0|0:0,0:0:0:0:
235,78,33904,2,0,P|212:82|191:85,1,45,8|8,0:3|0:3,0:0:0:0:
425,133,34054,2,0,P|402:130|380:125,1,45,4|4,0:3|0:3,0:0:0:0:
495,43,34204,6,0,P|414:55|323:68,1,161.999995056153,4|0,3:2|3:0,0:0:0:0:
215,160,34804,2,0,B|252:199|252:199|234:273,1,107.999996704102,10|2,0:0|0:0,0:0:0:0:
169,302,35254,1,2,0:0:0:0:
13,217,35404,5,0,3:0:0:0:
7,230,35554,1,0,3:0:0:0:
99,370,35854,1,0,3:0:0:0:
99,370,36004,2,0,P|166:361|228:354,1,107.999996704102,10|2,0:0|0:0,0:0:0:0:
500,349,36604,6,0,B|397:325|397:325|365:332|352:377,1,161.999995056153,2|2,3:2|3:2,0:0:0:0:
494,270,37204,2,0,P|485:216|475:163,1,107.999996704102,8|2,0:0|0:0,0:0:0:0:
375,29,37804,5,2,3:2:0:0:
388,24,37954,1,0,3:0:0:0:
335,183,38254,1,0,3:0:0:0:
178,53,38554,1,0,3:0:0:0:
178,53,38629,1,0,3:0:0:0:
178,53,38704,2,0,P|184:8|190:-20,1,53.9999983520508,8|0,0:0|0:0,0:0:0:0:
145,182,39004,6,0,P|89:159|32:239,1,161.999995056153,4|0,3:2|3:0,0:0:0:0:
184,294,39604,2,0,B|239:272|240:309|297:294,1,107.999996704102,2|10,3:2|0:0,0:0:0:0:
113,384,40054,1,2,0:0:0:0:
113,384,40204,6,0,P|107:327|95:258,1,107.999996704102,0|0,3:0|0:0,0:0:0:0:
121,134,40654,1,0,3:0:0:0:
194,183,40804,2,0,P|222:175|258:168,1,53.9999983520508,2|0,3:2|3:0,0:0:0:0:
318,69,41104,1,8,0:0:0:0:
512,151,41329,1,2,0:0:0:0:
505,161,41404,6,0,P|461:156|445:94,1,107.999996704102,2|0,3:2|0:0,0:0:0:0:
266,12,41854,1,0,3:0:0:0:
212,72,42004,2,0,P|222:100|229:129,1,53.9999983520508,0|0,3:0|3:0,0:0:0:0:
321,181,42304,2,0,P|311:209|304:238,1,53.9999983520508,10|0,0:0|0:0,0:0:0:0:
0,309,42604,5,0,3:0:0:0:
31,192,42754,1,8,0:0:0:0:
216,373,42904,1,8,0:0:0:0:
76,272,43054,5,8,3:2:0:0:
119,254,43129,1,8,0:0:0:0:
166,256,43204,1,8,0:3:0:0:
196,274,43279,1,8,0:3:0:0:
199,287,43354,1,8,0:0:0:0:
239,299,43429,1,8,0:0:0:0:
271,281,43504,6,0,P|262:251|258:227,1,53.9999983520508,8|0,0:0|0:0,0:0:0:0:
467,318,43654,5,8,3:2:0:0:
463,327,43729,1,8,0:0:0:0:
458,335,43804,2,0,B|400:326|400:326|363:359|363:359|305:353,1,161.999995056153,4|8,3:2|0:0,0:0:0:0:
338,188,44254,1,0,0:0:0:0:
478,233,44404,2,0,P|487:190|498:147,1,80.9999975280763,2|0,3:2|0:0,0:0:0:0:
354,15,44704,2,0,P|360:55|366:95,1,80.9999975280763,10|0,0:0|3:0,0:0:0:0:
221,207,45004,6,0,P|149:198|108:272,1,161.999995056153,2|8,3:2|0:0,0:0:0:0:
22,46,45454,2,0,B|90:36|90:36|121:50|121:50|194:41,1,161.999995056153,2|0,3:2|3:0,0:0:0:0:
274,142,45904,2,0,P|280:107|290:61,1,80.9999975280763,10|0,0:0|0:0,0:0:0:0:
334,245,46204,6,0,P|255:224|198:289,1,161.999995056153,2|8,3:2|0:0,0:0:0:0:
314,356,46654,2,0,P|395:368|473:384,1,161.999995056153,2|0,3:2|3:0,0:0:0:0:
508,265,47104,2,0,P|469:276|425:284,1,80.9999975280763,10|0,0:0|0:0,0:0:0:0:
298,214,47404,6,0,P|294:174|313:138,1,80.9999975280763,2|0,3:2|0:0,0:0:0:0:
512,110,47704,1,10,0:0:0:0:
430,0,47854,2,0,P|418:53|402:131,1,121.499996292114,2|0,3:2|0:0,0:0:0:0:
411,134,48154,1,0,3:0:0:0:
289,47,48304,1,8,0:0:0:0:
92,139,48454,1,8,3:2:0:0:
92,139,48529,1,8,0:0:0:0:
92,139,48604,6,0,P|104:189|113:228,1,90,12|0,0:0|3:0,0:0:0:0:
222,10,48904,2,0,P|210:60|201:99,1,90,8|0,0:0|3:0,0:0:0:0:
324,242,49204,1,8,0:0:0:0:
227,197,49354,1,0,3:0:0:0:
42,323,49504,1,8,0:0:0:0:
138,367,49654,1,0,3:0:0:0:
388,352,49804,6,0,P|344:348|296:341,1,90,8|0,0:0|3:0,0:0:0:0:
441,129,50104,2,0,P|400:134|346:143,1,90,8|0,0:0|3:0,0:0:0:0:
425,281,50404,1,10,0:0:0:0:
512,86,50554,1,10,0:0:0:0:
427,21,50704,1,10,0:0:0:0:
192,101,50854,1,8,0:0:0:0:
192,101,50929,1,8,0:0:0:0:
192,101,51004,5,12,0:0:0:0:
91,5,51154,2,0,P|102:104|108:157,1,135.000005149842,0|0,3:0|3:0,0:0:0:0:
167,178,51529,1,0,3:0:0:0:
177,182,51604,5,8,0:0:0:0:
2,236,51754,2,0,B|75:225|61:275|141:265,1,135.000005149842,0|0,3:0|3:0,0:0:0:0:
208,322,52129,1,0,3:0:0:0:
221,311,52204,6,0,P|150:292|94:386,1,180,14|0,0:0|0:0,0:0:0:0:
315,381,52654,1,10,0:0:0:0:
398,308,52804,1,8,0:0:0:0:
409,302,53104,6,0,P|416:237|429:146,1,135.000005149842,4|0,3:2|0:0,0:0:0:0:
205,28,53554,5,0,3:0:0:0:
321,1,53704,1,8,0:3:0:0:
331,17,53779,1,8,0:3:0:0:
326,29,53854,2,0,P|301:24|272:21,1,33.7500012874604,8|4,0:3|0:3,0:0:0:0:
64,116,54004,5,8,0:0:0:0:
103,136,54079,1,8,0:0:0:0:
146,134,54154,1,8,0:0:0:0:
180,105,54229,1,8,0:0:0:0:
254,98,54304,1,8,0:0:0:0:
284,162,54379,1,8,0:0:0:0:
278,177,54454,2,0,L|225:190,1,33.7500012874604,0|0,3:0|0:0,0:0:0:0:
89,204,54604,6,0,P|182:213|275:224,1,180,4|0,3:2|0:0,0:0:0:0:
142,379,55804,6,0,P|86:328|18:348,1,135,6|0,3:2|0:0,0:0:0:0:
25,349,56104,1,10,0:0:0:0:
198,254,56254,2,0,L|317:283,1,90,2|0,3:2|0:0,0:0:0:0:
94,95,56554,1,2,3:2:0:0:
5,142,56704,1,8,0:0:0:0:
221,176,56854,6,0,P|239:81|258:-11,1,180,6|0,3:2|3:0,0:0:0:0:
325,184,57304,2,0,B|420:162|392:246|494:229,1,180,8|0,0:0|3:0,0:0:0:0:
334,378,57754,1,0,3:0:0:0:
217,211,57904,1,10,0:0:0:0:
168,327,58054,1,0,3:0:0:0:
168,327,58204,6,0,P|212:316|264:306,1,90,6|0,3:2|0:0,0:0:0:0:
416,383,58504,1,10,0:0:0:0:
511,255,58654,2,0,B|448:240|448:240|423:202|423:202|323:178,1,180,2|0,3:2|3:0,0:0:0:0:
270,88,59104,2,0,P|314:80|357:69,1,90,10|0,0:0|3:0,0:0:0:0:
202,208,59404,6,0,P|196:122|189:28,1,180,2|8,3:2|0:0,0:0:0:0:
0,111,59854,1,2,0:0:0:0:
83,213,60004,2,0,P|74:260|70:305,1,90,2|0,3:2|3:0,0:0:0:0:
49,327,60229,1,0,3:0:0:0:
41,332,60304,1,8,0:0:0:0:
189,270,60454,1,0,3:0:0:0:
340,384,60604,6,0,P|250:359|154:353,1,180,4|10,3:2|0:0,0:0:0:0:
349,272,61054,1,0,0:0:0:0:
433,344,61204,2,0,P|448:299|465:257,1,90,2|0,3:2|0:0,0:0:0:0:
316,80,61504,1,10,0:0:0:0:
414,137,61654,6,0,P|335:194|247:149,1,180,6|0,3:2|3:0,0:0:0:0:
138,47,62104,2,0,P|185:32|245:21,1,90,10|0,0:0|0:0,0:0:0:0:
105,153,62404,2,0,P|58:138|-2:127,1,90,2|0,3:2|0:0,0:0:0:0:
220,274,62704,1,10,0:0:0:0:
28,339,62854,1,0,3:0:0:0:
28,339,63004,6,0,B|106:344|143:307|143:307|157:338|206:358,1,180,6|8,3:2|0:0,0:0:0:0:
306,129,63454,2,0,P|316:195|328:262,1,135,6|0,3:2|0:0,0:0:0:0:
342,274,63754,1,0,3:0:0:0:
428,114,63904,5,10,0:0:0:0:
215,111,64054,2,0,P|310:105|349:35,1,180,0|0,3:0|3:0,0:0:0:0:
111,42,64504,2,0,P|119:86|129:130,1,90,8|0,0:0|0:0,0:0:0:0:
1,347,64804,5,8,3:0:0:0:
36,318,64879,1,8,0:3:0:0:
83,310,64954,1,4,0:3:0:0:
130,319,65029,1,4,0:3:0:0:
136,337,65104,5,8,0:0:0:0:
177,364,65179,1,8,0:0:0:0:
225,365,65254,1,8,0:3:0:0:
267,344,65329,1,8,0:3:0:0:
278,329,65404,6,0,P|348:342|417:356,1,135,6|0,3:2|0:0,0:0:0:0:
425,363,65704,1,10,0:0:0:0:
510,290,65854,2,0,P|490:245|480:202,1,90,2|0,3:2|0:0,0:0:0:0:
350,46,66154,1,2,3:2:0:0:
489,63,66304,1,8,0:0:0:0:
387,213,66454,6,0,B|288:183|317:267|215:251,1,180,6|0,3:2|3:0,0:0:0:0:
122,328,66904,2,0,P|127:280|134:231,1,90,8|0,0:0|0:0,0:0:0:0:
40,153,67204,1,0,3:0:0:0:
163,49,67354,1,0,3:0:0:0:
163,49,67429,1,0,3:0:0:0:
163,49,67504,2,0,B|120:59|120:59|70:38,1,90,10|2,0:0|3:2,0:0:0:0:
233,190,67804,6,0,P|243:102|256:7,1,180,6|10,3:2|0:0,0:0:0:0:
353,121,68254,2,0,P|401:167|480:126,1,135,2|0,3:2|0:0,0:0:0:0:
463,137,68554,1,0,3:0:0:0:
408,249,68704,2,0,P|363:240|320:229,1,90,10|0,0:0|0:0,0:0:0:0:
218,384,69004,6,0,P|229:294|244:206,1,180,2|8,3:2|0:0,0:0:0:0:
48,298,69454,1,2,3:2:0:0:
149,204,69604,2,0,P|112:195|38:177,1,90,2|0,0:0|3:0,0:0:0:0:
20,197,69829,1,0,3:0:0:0:
16,207,69904,1,8,0:0:0:0:
180,99,70054,1,0,3:0:0:0:
10,52,70204,6,0,P|95:64|153:0,1,180,4|10,3:2|0:0,0:0:0:0:
271,98,70654,1,0,0:0:0:0:
182,173,70804,2,0,P|189:221|196:268,1,90,2|0,3:2|0:0,0:0:0:0:
285,297,71104,1,10,0:0:0:0:
84,157,71254,6,0,P|171:143|268:122,1,180,6|0,3:2|3:0,0:0:0:0:
456,240,71704,2,0,B|488:205|488:205|468:150,1,90,10|0,0:0|0:0,0:0:0:0:
261,124,72004,1,0,3:0:0:0:
330,219,72154,2,0,P|343:139|350:85,1,135.000005149842,0|0,3:0|3:0,0:0:0:0:
334,4,72529,1,0,3:0:0:0:
317,14,72604,6,0,P|369:84|463:56,1,180,14|0,0:0|3:0,0:0:0:0:
299,231,73054,2,0,P|231:219|146:205,1,135,14|0,0:0|1:0,0:0:0:0:
154,198,73354,1,0,3:0:0:0:
220,1,73504,2,0,P|228:38|242:95,1,90,10|0,0:0|3:0,0:0:0:0:
4,59,73804,5,8,0:0:0:0:
43,36,73879,1,8,0:0:0:0:
55,39,73954,1,8,0:3:0:0:
101,55,74029,1,0,3:3:0:0:
116,103,74104,1,8,0:0:0:0:
91,145,74179,1,8,0:0:0:0:
64,185,74254,1,8,0:0:0:0:
65,205,74329,1,8,0:0:0:0:
71,210,74404,6,0,P|92:216|113:224,1,45,8|8,0:3|0:3,0:0:0:0:
0,318,74554,2,0,P|20:310|42:304,1,45,8|4,0:3|0:3,0:0:0:0:
126,358,74704,2,0,P|147:366|168:372,1,45,4|0,0:3|0:3,0:0:0:0:
371,313,74854,1,8,0:0:0:0:
367,325,74929,1,8,0:0:0:0:
363,335,75004,6,0,B|274:351|296:278|192:301,1,180,6|8,3:2|0:0,0:0:0:0:
450,203,75454,2,0,P|463:276|479:380,1,180,6|0,3:2|3:0,0:0:0:0:
281,119,75904,6,0,P|370:131|423:50,1,180,14|0,0:0|0:0,0:0:0:0:
213,44,76354,1,0,3:0:0:0:
106,95,76504,2,0,P|113:44|120:6,1,90,8|0,0:0|0:0,0:0:0:0:
0,204,76804,5,8,0:3:0:0:
36,182,76879,1,8,0:3:0:0:
80,179,76954,1,4,0:3:0:0:
114,212,77029,1,4,0:3:0:0:
112,229,77104,2,0,L|93:284,1,45,8|0,0:0|0:3,0:0:0:0:
1,327,77254,2,0,P|8:348|15:369,1,45,4|0,0:3|0:3,0:0:0:0:
256,301,77404,6,0,P|269:214|286:120,1,180,6|8,3:2|0:0,0:0:0:0:
136,337,77854,2,0,P|218:316|282:379,1,180,6|0,3:2|3:0,0:0:0:0:
512,217,78304,6,0,B|440:204|440:204|406:219|406:219|321:206,1,180,14|0,0:0|0:0,0:0:0:0:
170,64,78754,1,8,3:0:0:0:
368,21,78904,1,8,3:2:0:0:
237,171,79204,5,8,3:2:0:0:
47,71,79354,1,8,3:2:0:0:
0,245,79504,1,10,3:2:0:0:
151,146,79654,2,0,P|148:165|144:190,1,45,2|0,3:2|0:0,0:0:0:0:
224,294,79804,6,0,P|138:278|74:337,1,180,6|8,3:2|0:0,0:0:0:0:
299,384,80254,2,0,P|308:298|321:206,1,180,6|0,3:2|3:0,0:0:0:0:
480,84,80704,6,0,B|386:93|417:19|308:45,1,180,14|0,0:0|3:0,0:0:0:0:
117,170,81154,1,0,3:0:0:0:
300,59,81304,1,8,0:0:0:0:
366,157,81454,1,0,3:0:0:0:
170,89,81604,6,0,P|163:44|154:0,1,90,2|0,3:2|0:0,0:0:0:0:
24,178,81904,2,0,P|30:133|39:89,1,90,10|0,0:0|3:0,0:0:0:0:
221,323,82204,5,12,0:0:0:0:
121,357,82354,1,0,3:0:0:0:
229,150,82504,1,8,0:0:0:0:
323,379,82654,1,0,3:0:0:0:
85,255,82804,1,8,0:0:0:0:
120,161,82954,1,0,3:0:0:0:
323,241,83104,1,8,0:0:0:0:
128,365,83254,5,8,0:0:0:0:
128,365,83329,1,8,0:0:0:0:
128,365,83404,2,0,B|219:383|202:301|309:337,1,180,6|8,3:2|0:0,0:0:0:0:
318,358,83779,1,8,0:0:0:0:
318,358,83854,2,0,P|293:366|273:375,1,45,0|0,3:0|0:0,0:0:0:0:
270,196,84004,6,0,P|355:218|398:167,1,135,6|0,3:2|0:0,0:0:0:0:
412,172,84304,2,0,P|409:199|404:224,1,45,6|0,3:2|0:0,0:0:0:0:
512,271,84454,6,0,P|507:174|500:87,1,180,6|0,3:2|3:0,0:0:0:0:
321,45,84904,2,0,P|372:51|415:22,1,90,8|0,0:0|0:0,0:0:0:0:
292,169,85204,1,0,3:0:0:0:
292,169,85354,1,0,3:0:0:0:
184,89,85504,2,0,P|191:49|199:1,1,90,8|0,0:0|0:0,0:0:0:0:
147,255,85804,1,0,3:0:0:0:
9,181,85954,5,8,0:3:0:0:
44,148,86029,1,8,0:3:0:0:
95,139,86104,1,8,0:3:0:0:
136,152,86179,1,8,0:3:0:0:
144,164,86254,1,8,0:3:0:0:
185,173,86329,1,8,0:3:0:0:
221,158,86404,2,0,P|226:178|233:207,1,45,8|0,0:3|0:0,0:0:0:0:
183,353,86554,5,4,0:3:0:0:
175,346,86629,1,4,0:3:0:0:
166,338,86704,2,0,P|192:334|226:330,1,45,4|0,0:3|0:0,0:0:0:0:
294,372,86854,2,0,P|320:376|354:380,1,45,4|0,0:3|0:0,0:0:0:0:
500,274,87004,6,0,P|438:290|352:300,1,135,4|0,3:2|0:0,0:0:0:0:
354,306,87304,2,0,P|346:253|338:201,1,90,10|0,0:0|0:0,0:0:0:0:
394,36,87604,2,0,P|438:40|477:20,1,90,2|0,3:2|3:0,0:0:0:0:
301,133,87904,2,0,P|261:112|217:117,1,90,10|0,0:0|0:0,0:0:0:0:
4,228,88204,6,0,B|57:251|57:251|131:231,1,135,0|0,3:0|0:0,0:0:0:0:
146,236,88504,2,0,P|117:269|118:324,1,90,10|0,0:0|0:0,0:0:0:0:
267,384,88804,2,0,P|316:371|370:364,1,90,2|0,3:2|3:0,0:0:0:0:
128,327,89104,2,0,P|83:319|40:308,1,90,10|0,0:0|0:0,0:0:0:0:
309,249,89404,6,0,P|318:167|332:95,1,135,0|0,3:0|0:0,0:0:0:0:
339,98,89704,2,0,B|295:108|295:108|249:82,1,90,14|0,0:0|0:0,0:0:0:0:
138,199,90004,1,2,3:2:0:0:
138,199,90154,1,0,3:0:0:0:
95,32,90304,2,0,P|143:25|197:17,1,90,14|0,0:0|0:0,0:0:0:0:
18,151,90604,6,0,P|29:191|44:263,1,90,6|0,3:2|3:0,0:0:0:0:
191,273,90904,2,0,P|180:313|165:385,1,90,10|0,0:0|3:0,0:0:0:0:
26,337,91204,1,2,0:0:0:0:
221,190,91354,1,0,3:0:0:0:
221,190,91429,1,0,3:0:0:0:
221,190,91504,2,0,P|178:167|114:180,1,90,14|0,0:0|0:0,0:0:0:0:
262,332,91804,6,0,P|340:317|419:306,1,135,4|0,3:2|0:0,0:0:0:0:
407,298,92104,2,0,P|430:341|408:393,1,90,10|0,0:0|0:0,0:0:0:0:
492,167,92404,2,0,P|498:116|505:73,1,90,2|0,3:2|3:0,0:0:0:0:
380,205,92704,2,0,P|336:211|296:191,1,90,10|0,0:0|0:0,0:0:0:0:
67,30,93004,6,0,B|116:47|116:47|197:16,1,135,0|0,3:0|0:0,0:0:0:0:
210,6,93304,2,0,P|203:52|198:96,1,90,10|0,0:0|0:0,0:0:0:0:
78,167,93604,2,0,P|32:163|-7:198,1,90,2|0,3:2|3:0,0:0:0:0:
280,200,93904,2,0,P|312:169|315:125,1,90,10|0,0:0|0:0,0:0:0:0:
121,232,94204,6,0,P|128:298|139:379,1,135,0|0,3:0|0:0,0:0:0:0:
131,381,94504,2,0,P|176:369|225:361,1,90,14|0,0:0|0:0,0:0:0:0:
383,221,94804,1,2,3:2:0:0:
383,221,94954,1,0,3:0:0:0:
487,286,95104,2,0,P|480:326|473:376,1,90,14|0,0:0|0:0,0:0:0:0:
205,260,95404,6,0,P|265:251|316:241,1,90,6|0,3:2|3:0,0:0:0:0:
499,157,95704,2,0,P|454:150|410:142,1,90,10|0,0:0|3:0,0:0:0:0:
240,50,96004,1,2,0:0:0:0:
378,235,96154,1,0,3:0:0:0:
372,226,96229,1,0,3:0:0:0:
368,221,96304,2,0,P|374:149|385:61,1,135,12|0,0:0|0:0,0:0:0:0:
382,87,96604,6,0,P|334:130|238:112,1,135,6|0,3:2|0:0,0:0:0:0:
253,145,96904,2,0,L|208:135,1,45,8|0,0:0|0:0,0:0:0:0:
22,88,97054,6,0,P|84:77|157:61,1,135,0|0,3:0|0:0,0:0:0:0:
171,66,97354,1,0,3:0:0:0:
67,7,97504,1,8,0:0:0:0:
46,219,97654,1,0,3:0:0:0:
46,219,97804,6,0,P|63:278|73:352,1,135,2|0,3:2|0:0,0:0:0:0:
67,365,98104,2,0,P|82:353|107:337,1,45,8|0,0:0|0:0,0:0:0:0:
278,366,98254,6,0,P|194:346|198:286,1,135,0|0,3:0|0:0,0:0:0:0:
256,218,98554,1,0,3:0:0:0:
256,218,98629,1,0,3:0:0:0:
256,218,98704,2,0,B|296:234|296:234|353:226,1,90,8|0,0:0|0:0,0:0:0:0:
456,347,99004,6,0,P|463:304|474:252,1,90,2|0,3:2|0:0,0:0:0:0:
378,158,99304,1,8,0:0:0:0:
227,121,99454,2,0,B|268:132|268:132|320:106,1,90,2|0,3:2|0:0,0:0:0:0:
389,165,99754,1,0,3:0:0:0:
504,60,99904,2,0,B|463:71|463:71|411:45,1,90,10|0,0:0|0:0,0:0:0:0:
274,1,100204,5,8,0:3:0:0:
9,64,100354,5,8,0:3:0:0:
50,95,100429,1,8,0:3:0:0:
97,97,100504,1,8,0:0:0:0:
107,92,100579,1,8,0:0:0:0:
132,59,100654,1,0,3:0:0:0:
173,44,100729,1,0,3:0:0:0:
207,56,100804,1,8,0:3:0:0:
229,91,100879,1,8,0:3:0:0:
232,100,100954,2,0,P|222:126|217:151,1,53.9999983520508,0|0,3:0|0:0,0:0:0:0:
144,362,101104,5,8,0:0:0:0:
122,296,101179,1,8,0:0:0:0:
152,233,101254,1,8,0:0:0:0:
130,169,101329,1,8,0:0:0:0:
357,333,102004,6,0,P|458:348|494:354,1,108,4|0,3:2|0:0,0:0:0:0:
483,339,102304,1,10,0:0:0:0:
353,217,102454,2,0,P|324:237|288:239,1,72,0|2,3:0|0:0,0:0:0:0:
381,41,102754,1,0,3:0:0:0:
441,90,102904,2,0,P|482:84|532:76,1,72,10|2,0:0|0:0,0:0:0:0:
282,160,103204,6,0,P|214:145|132:136,1,144,0|10,3:0|0:0,0:0:0:0:
49,60,103654,2,0,P|88:55|124:30,1,72,0|2,3:0|0:0,0:0:0:0:
177,214,103954,1,0,3:0:0:0:
34,182,104104,1,8,0:0:0:0:
141,374,104254,1,8,0:0:0:0:
0,329,104404,6,0,B|90:316|90:316|123:335|123:335|215:323,1,215.999993408203,4|12,3:2|0:0,0:0:0:0:
478,72,105454,5,0,3:0:0:0:
447,150,105604,2,0,P|384:100|304:98,1,161.999995056153,0|0,3:0|3:0,0:0:0:0:
248,57,106129,1,0,3:0:0:0:
240,70,106204,6,0,P|292:65|345:46,1,107.999996704102,12|0,0:0|0:0,0:0:0:0:
56,0,106804,6,0,P|50:37|36:106,1,108,4|0,3:2|0:0,0:0:0:0:
21,121,107104,2,0,P|33:155|38:191,1,72,10|0,0:0|0:0,0:0:0:0:
170,291,107404,2,0,P|209:283|238:254,1,72,2|0,3:2|3:0,0:0:0:0:
34,311,107704,1,10,0:0:0:0:
119,377,107854,6,0,P|127:298|134:229,1,144,2|0,0:0|0:0,0:0:0:0:
245,350,108304,2,0,P|278:359|327:370,1,72,10|0,0:0|0:0,0:0:0:0:
407,254,108604,1,2,3:2:0:0:
407,254,108754,1,0,3:0:0:0:
302,202,108904,1,10,0:0:0:0:
448,347,109054,1,0,3:0:0:0:
448,347,109129,1,0,3:0:0:0:
448,347,109204,6,0,P|461:238|475:132,1,215.999993408203,4|0,3:2|0:0,0:0:0:0:
248,101,109954,1,8,0:0:0:0:
380,0,110104,2,0,P|386:39|391:80,1,80.9999975280763,8|0,0:0|0:0,0:0:0:0:
384,99,110404,6,0,B|278:126|295:31|178:66,1,215.999993408203,4|0,3:2|0:0,0:0:0:0:
85,211,111154,6,0,L|56:206,2,26.9999991760254,8|8|8,0:3|0:3|0:0,0:0:0:0:
219,343,111454,1,8,0:0:0:0:
219,343,111529,1,8,0:0:0:0:
219,343,111604,6,0,P|258:337|299:330,1,72,4|0,3:2|0:0,0:0:0:0:
476,349,111904,2,0,B|442:364|442:364|404:351,1,72,10|0,0:0|0:0,0:0:0:0:
346,145,112204,1,2,3:2:0:0:
407,72,112354,1,0,3:0:0:0:
512,225,112504,1,10,0:0:0:0:
335,277,112654,6,0,P|269:265|177:249,1,144,2|0,3:2|3:0,0:0:0:0:
325,129,113104,2,0,P|320:96|317:58,1,72,10|0,0:0|0:0,0:0:0:0:
219,0,113404,2,0,P|213:38|210:71,1,72,2|0,3:2|0:0,0:0:0:0:
194,252,113704,1,10,0:0:0:0:
5,199,113854,1,0,3:0:0:0:
5,199,114004,6,0,P|64:179|150:159,1,144,6|8,3:2|0:0,0:0:0:0:
276,260,114454,1,0,0:0:0:0:
380,331,114604,2,0,B|366:294|366:294|377:263,1,72,2|0,3:2|3:0,0:0:0:0:
502,185,114904,2,0,B|516:222|516:222|505:253,1,72,8|0,0:0|3:0,0:0:0:0:
340,25,115204,6,0,P|408:39|466:0,1,144,6|8,3:2|0:0,0:0:0:0:
393,179,115654,2,0,P|334:167|259:153,1,108,2|0,3:2|0:0,0:0:0:0:
268,167,115954,1,8,0:0:0:0:
0,109,116104,5,8,0:0:0:0:
29,87,116179,1,8,0:0:0:0:
74,92,116254,1,8,0:3:0:0:
107,76,116329,1,8,0:3:0:0:
107,76,116404,6,0,P|99:29|92:-17,1,72,4|0,3:2|0:0,0:0:0:0:
205,140,116704,2,0,P|197:186|190:233,1,72,10|0,0:0|0:0,0:0:0:0:
94,350,117004,2,0,P|47:316|-5:322,1,108,2|0,3:2|0:0,0:0:0:0:
0,333,117304,1,10,0:0:0:0:
225,294,117454,6,0,P|267:350|341:338,1,144,6|0,3:2|3:0,0:0:0:0:
496,384,117904,2,0,P|487:331|472:258,1,108,10|0,0:0|1:0,0:0:0:0:
485,256,118204,2,0,P|448:265|397:272,1,72,2|0,3:2|0:0,0:0:0:0:
282,165,118504,1,8,0:0:0:0:
455,4,118654,1,8,0:0:0:0:
512,117,118804,6,0,B|452:103|452:103|408:115|408:115|308:91,1,180,6|8,3:2|0:0,0:0:0:0:
185,229,119254,6,0,P|256:228|285:145,1,135,6|0,3:2|0:0,0:0:0:0:
282,165,119554,1,8,3:2:0:0:
66,11,119704,6,0,P|72:88|82:210,1,180,14|0,3:2|3:0,0:0:0:0:
5,337,120154,1,8,0:0:0:0:
232,373,120304,1,8,0:0:0:0:
143,311,120454,1,0,3:0:0:0:
248,243,120604,5,8,0:0:0:0:
240,253,120679,1,8,0:0:0:0:
234,264,120754,2,0,L|300:269,1,45,8|0,0:0|0:0,0:0:0:0:
370,322,120904,2,0,L|436:327,1,45,8|8,0:3|0:3,0:0:0:0:
318,188,121054,2,0,L|384:183,1,45,4|4,0:3|0:3,0:0:0:0:
486,266,121204,6,0,P|479:185|475:99,1,161.999995056153,4|0,3:2|3:0,0:0:0:0:
361,4,121804,6,0,B|312:27|312:27|246:16,1,107.999996704102,10|2,0:0|0:0,0:0:0:0:
187,84,122254,1,2,0:0:0:0:
3,14,122404,5,0,3:0:0:0:
12,27,122554,1,0,3:0:0:0:
190,71,122854,1,0,3:0:0:0:
112,129,123004,2,0,P|122:185|130:245,1,107.999996704102,10|0,0:0|0:0,0:0:0:0:
2,380,123604,6,0,B|68:375|68:375|95:355|95:355|164:352,1,161.999995056153,2|2,3:2|3:2,0:0:0:0:
272,279,124204,2,0,P|259:331|250:384,1,107.999996704102,8|2,0:0|0:0,0:0:0:0:
424,374,124804,5,0,3:0:0:0:
435,384,124954,1,0,3:0:0:0:
485,260,125254,1,0,3:0:0:0:
348,177,125554,1,0,3:0:0:0:
348,177,125629,1,0,3:0:0:0:
348,177,125704,2,0,P|355:207|362:242,1,53.9999983520508,8|0,0:0|0:0,0:0:0:0:
477,161,126004,6,0,P|487:77|499:1,1,161.999995056153,4|0,3:2|3:0,0:0:0:0:
359,72,126604,2,0,P|306:60|249:37,1,107.999996704102,2|8,3:2|0:0,0:0:0:0:
187,78,127054,1,2,0:0:0:0:
18,125,127204,6,0,P|27:64|36:1,1,107.999996704102,0|2,3:0|0:0,0:0:0:0:
107,148,127654,1,0,3:0:0:0:
57,218,127804,1,2,3:2:0:0:
57,218,127954,1,0,3:0:0:0:
109,284,128104,2,0,P|138:278|169:272,1,53.9999983520508,8|0,0:0|0:0,0:0:0:0:
256,351,128404,6,0,P|336:362|429:391,1,161.999995056153,2|0,3:2|3:0,0:0:0:0:
496,328,129004,2,0,P|504:294|510:274,1,53.9999983520508,0|0,3:0|3:0,0:0:0:0:
387,251,129304,2,0,P|379:217|373:197,1,53.9999983520508,10|0,0:0|0:0,0:0:0:0:
402,0,129604,1,0,3:0:0:0:
468,82,129754,1,8,0:0:0:0:
350,191,129904,1,8,0:0:0:0:
199,25,130054,5,8,3:2:0:0:
203,67,130129,1,8,0:0:0:0:
177,109,130204,1,8,0:3:0:0:
133,122,130279,1,8,0:3:0:0:
121,114,130354,1,8,0:0:0:0:
83,98,130429,1,8,0:0:0:0:
62,114,130504,2,0,P|70:137|76:165,1,53.9999983520508,8|0,0:0|0:0,0:0:0:0:
152,291,130654,5,8,0:0:0:0:
152,291,130729,1,8,0:0:0:0:
152,291,130804,2,0,B|62:277|90:346|-5:334,1,161.999995056153,4|8,3:2|0:0,0:0:0:0:
194,364,131254,1,0,0:0:0:0:
138,203,131404,2,0,B|174:184|174:184|217:190,1,80.9999975280763,2|0,3:2|0:0,0:0:0:0:
320,305,131704,2,0,P|312:340|304:390,1,80.9999975280763,10|0,0:0|3:0,0:0:0:0:
478,248,132004,6,0,P|400:256|350:197,1,161.999995056153,2|8,3:2|0:0,0:0:0:0:
225,267,132454,2,0,P|242:178|250:103,1,161.999995056153,2|0,3:2|3:0,0:0:0:0:
275,0,132904,2,0,P|309:12|360:20,1,80.9999975280763,10|0,0:0|3:0,0:0:0:0:
483,145,133204,6,0,P|381:153|345:235,1,161.999995056153,2|8,3:2|0:0,0:0:0:0:
189,266,133654,2,0,B|277:241|264:304|341:303,1,161.999995056153,2|0,3:2|3:0,0:0:0:0:
454,247,134104,2,0,P|444:285|435:347,1,80.9999975280763,10|0,0:0|0:0,0:0:0:0:
270,384,134404,6,0,P|265:322|255:276,1,80.9999975280763,2|0,3:2|0:0,0:0:0:0:
201,166,134704,1,10,0:0:0:0:
326,97,134854,2,0,P|395:109|456:117,1,121.499996292114,2|0,3:2|0:0,0:0:0:0:
464,110,135154,1,0,3:0:0:0:
331,5,135304,1,8,0:0:0:0:
129,98,135454,5,8,3:2:0:0:
129,98,135529,1,8,0:0:0:0:
129,98,135604,2,0,P|180:92|227:88,1,90,12|0,0:0|3:0,0:0:0:0:
140,283,135904,2,0,P|95:278|50:273,1,90,8|0,0:0|3:0,0:0:0:0:
258,384,136204,1,8,0:0:0:0:
297,288,136354,1,0,3:0:0:0:
218,88,136504,1,8,0:0:0:0:
257,184,136654,1,0,3:0:0:0:
482,77,136804,6,0,B|444:55|444:55|400:66,1,90,8|0,0:0|3:0,0:0:0:0:
297,288,137104,2,0,B|341:299|341:299|379:276,1,90,8|0,0:0|3:0,0:0:0:0:
480,159,137404,1,10,0:0:0:0:
311,14,137554,1,10,0:0:0:0:
196,106,137704,1,10,0:0:0:0:
60,13,137854,1,8,0:0:0:0:
60,13,137929,1,8,0:0:0:0:
60,13,138004,5,12,0:0:0:0:
0,159,138154,2,0,P|77:143|121:193,1,135.000005149842,0|0,3:0|3:0,0:0:0:0:
176,210,138529,1,0,3:0:0:0:
169,221,138604,5,8,0:0:0:0:
287,159,138754,2,0,P|272:218|258:291,1,135.000005149842,0|0,3:0|3:0,0:0:0:0:
177,335,139129,1,0,3:0:0:0:
166,324,139204,6,0,B|236:330|236:330|266:359|266:359|334:369,1,180,12|0,0:0|0:0,0:0:0:0:
505,166,139654,1,0,3:0:0:0:
371,120,139804,1,8,0:0:0:0:
380,133,140104,6,0,P|388:73|398:-1,1,135.000005149842,4|0,3:2|0:0,0:0:0:0:
232,111,140554,5,0,3:0:0:0:
153,11,140704,1,8,3:0:0:0:
162,4,140779,1,8,0:3:0:0:
178,0,140854,2,0,P|211:1|234:5,1,33.7500012874604,8|4,0:3|0:3,0:0:0:0:
127,128,141004,5,8,0:0:0:0:
92,97,141079,1,8,0:0:0:0:
45,106,141154,1,8,0:0:0:0:
12,139,141229,1,8,0:0:0:0:
20,209,141304,1,8,0:0:0:0:
81,242,141379,1,8,0:0:0:0:
92,260,141454,2,0,L|58:265,1,33.7500012874604,8|0,0:0|0:0,0:0:0:0:
160,377,141604,6,0,P|171:285|184:198,1,180,4|0,3:2|0:0,0:0:0:0:
483,325,142804,6,0,B|428:333|428:333|403:319|403:319|344:329,1,135,6|0,3:2|0:0,0:0:0:0:
344,338,143104,1,10,0:0:0:0:
418,186,143254,2,0,P|461:198|505:208,1,90,2|0,3:2|0:0,0:0:0:0:
284,250,143554,1,2,3:2:0:0:
217,177,143704,1,8,0:0:0:0:
416,66,143854,6,0,P|310:72|290:-17,1,180,6|0,3:2|3:0,0:0:0:0:
122,77,144304,2,0,P|145:163|155:253,1,180,8|0,0:0|3:0,0:0:0:0:
414,288,144754,1,0,3:0:0:0:
366,381,144904,1,10,0:0:0:0:
181,338,145054,1,0,3:0:0:0:
181,338,145204,6,0,B|135:344|135:344|95:320,1,90,6|0,3:2|0:0,0:0:0:0:
230,206,145504,1,10,0:0:0:0:
282,384,145654,2,0,P|293:294|309:206,1,180,2|0,3:2|3:0,0:0:0:0:
401,160,146104,2,0,P|446:167|499:175,1,90,10|0,0:0|3:0,0:0:0:0:
294,27,146404,6,0,P|235:85|139:57,1,180,2|8,3:2|0:0,0:0:0:0:
0,225,146854,1,2,0:0:0:0:
96,156,147004,2,0,L|108:249,1,90,2|0,3:2|3:0,0:0:0:0:
105,275,147229,1,0,3:0:0:0:
100,283,147304,1,8,0:0:0:0:
196,384,147454,1,0,3:0:0:0:
341,305,147604,6,0,B|415:315|415:315|435:339|435:339|527:353,1,180,4|10,3:2|0:0,0:0:0:0:
396,152,148054,1,0,0:0:0:0:
485,199,148204,2,0,P|495:152|508:104,1,90,2|0,3:2|0:0,0:0:0:0:
377,16,148504,1,10,0:0:0:0:
247,82,148654,6,0,B|149:102|176:17|70:44,1,180,6|0,3:2|3:0,0:0:0:0:
7,206,149104,2,0,P|17:254|26:306,1,90,10|0,0:0|0:0,0:0:0:0:
137,351,149404,2,0,P|144:306|154:262,1,90,2|0,3:2|0:0,0:0:0:0:
298,169,149704,1,10,0:0:0:0:
507,247,149854,1,0,3:0:0:0:
507,247,150004,6,0,P|424:248|380:340,1,180,6|8,3:2|0:0,0:0:0:0:
213,187,150454,2,0,P|222:101|233:25,1,135,6|0,3:2|0:0,0:0:0:0:
220,43,150754,1,0,3:0:0:0:
384,167,150904,5,10,0:0:0:0:
289,301,151054,2,0,B|195:279|221:365|121:350,1,180,0|0,3:0|3:0,0:0:0:0:
0,234,151504,2,0,P|47:239|121:247,1,90,8|0,0:0|0:0,0:0:0:0:
380,20,151804,5,8,0:3:0:0:
335,2,151879,1,8,0:3:0:0:
289,22,151954,1,8,0:3:0:0:
270,63,152029,1,8,0:3:0:0:
273,76,152104,5,8,0:0:0:0:
296,116,152179,1,8,0:0:0:0:
340,146,152254,1,8,0:0:0:0:
334,183,152329,1,8,0:0:0:0:
326,196,152404,6,0,P|238:189|153:182,1,135,6|0,3:2|0:0,0:0:0:0:
184,175,152704,1,10,0:0:0:0:
322,297,152854,2,0,P|365:291|428:284,1,90,2|0,3:2|0:0,0:0:0:0:
190,384,153154,1,2,3:2:0:0:
121,275,153304,1,8,0:0:0:0:
346,384,153454,6,0,P|361:282|385:181,1,180,6|0,3:2|3:0,0:0:0:0:
272,108,153904,2,0,P|235:132|185:126,1,90,8|0,0:0|0:0,0:0:0:0:
458,60,154204,1,0,3:0:0:0:
351,22,154354,1,0,3:0:0:0:
351,22,154429,1,0,3:0:0:0:
351,22,154504,2,0,P|358:79|364:132,1,90,10|2,0:0|3:2,0:0:0:0:
202,211,154804,6,0,P|134:153|34:196,1,180,6|10,3:2|0:0,0:0:0:0:
137,344,155254,2,0,P|211:328|282:317,1,135,2|0,3:2|0:0,0:0:0:0:
286,326,155554,1,0,3:0:0:0:
433,384,155704,2,0,P|441:339|454:287,1,90,10|0,0:0|0:0,0:0:0:0:
375,153,156004,6,0,P|300:199|211:156,1,180,2|8,3:2|0:0,0:0:0:0:
55,19,156454,1,2,3:2:0:0:
137,103,156604,2,0,P|173:81|229:77,1,90,2|0,0:0|3:0,0:0:0:0:
244,92,156829,1,0,3:0:0:0:
242,102,156904,1,8,0:0:0:0:
164,234,157054,1,0,3:0:0:0:
8,148,157204,6,0,P|17:231|29:344,1,180,4|10,3:2|0:0,0:0:0:0:
171,378,157654,1,0,0:0:0:0:
253,317,157804,2,0,P|303:328|350:337,1,90,2|0,3:2|0:0,0:0:0:0:
462,384,158104,1,10,0:0:0:0:
512,184,158254,6,0,B|458:224|458:224|314:193,1,180,6|0,3:2|3:0,0:0:0:0:
229,247,158704,2,0,P|240:203|251:159,1,90,10|0,0:0|0:0,0:0:0:0:
117,22,159004,1,0,3:0:0:0:
2,72,159154,2,0,P|55:110|121:102,1,135.000005149842,0|0,3:0|3:0,0:0:0:0:
206,77,159529,1,0,3:0:0:0:
217,91,159604,6,0,B|146:95|146:95|104:126|104:126|36:128,1,180,14|0,0:0|3:0,0:0:0:0:
214,262,160054,2,0,P|282:250|358:242,1,135,14|0,0:0|0:0,0:0:0:0:
367,249,160354,1,0,3:0:0:0:
100,348,160504,2,0,P|95:304|90:241,1,90,10|0,0:0|3:0,0:0:0:0:
237,69,160804,5,8,0:0:0:0:
274,81,160879,1,8,0:0:0:0:
287,79,160954,1,8,0:3:0:0:
333,49,161029,1,0,3:3:0:0:
378,30,161104,1,8,0:0:0:0:
425,36,161179,1,8,0:0:0:0:
458,60,161254,1,8,0:0:0:0:
458,98,161329,1,8,0:0:0:0:
449,110,161404,6,0,P|428:103|405:96,1,45,8|8,0:3|0:3,0:0:0:0:
293,176,161554,2,0,P|313:169|337:162,1,45,8|4,0:3|0:3,0:0:0:0:
481,229,161704,2,0,P|460:222|437:215,1,45,4|0,0:3|0:0,0:0:0:0:
273,309,161854,1,8,0:0:0:0:
277,320,161929,1,8,0:0:0:0:
281,331,162004,6,0,B|382:310|346:380|449:371,1,180,6|8,3:2|0:0,0:0:0:0:
188,384,162454,2,0,P|196:311|205:244,1,135,6|0,3:2|0:0,0:0:0:0:
198,235,162754,1,0,3:0:0:0:
407,131,162904,6,0,P|302:130|267:48,1,180,14|0,0:0|0:0,0:0:0:0:
37,73,163354,5,0,3:0:0:0:
207,139,163504,1,8,0:0:0:0:
27,357,163804,5,8,3:0:0:0:
27,357,163879,1,8,0:3:0:0:
27,357,163954,2,0,L|32:299,1,45,8|0,0:3|0:0,0:0:0:0:
79,233,164104,1,10,0:0:0:0:
284,345,164254,2,0,L|225:356,1,45,2|0,3:2|0:0,0:0:0:0:
163,306,164404,6,0,P|252:313|360:323,1,180,6|8,3:2|0:0,0:0:0:0:
512,235,164854,2,0,P|447:240|414:162,1,135,6|0,3:2|0:0,0:0:0:0:
417,171,165154,1,0,3:0:0:0:
295,15,165304,6,0,P|315:90|331:215,1,180,14|0,0:0|0:0,0:0:0:0:
43,220,165754,5,8,3:0:0:0:
194,333,165904,1,8,3:2:0:0:
329,191,166204,5,8,3:2:0:0:
95,284,166354,1,8,3:2:0:0:
296,345,166504,1,10,3:2:0:0:
191,161,166654,2,0,L|200:231,1,45,2|0,3:2|0:0,0:0:0:0:
409,366,166804,6,0,P|418:274|432:171,1,180,6|8,3:2|0:0,0:0:0:0:
284,0,167254,2,0,P|295:89|304:178,1,180,6|0,3:2|3:0,0:0:0:0:
33,237,167704,6,0,P|73:161|175:171,1,180,14|0,0:0|3:0,0:0:0:0:
316,285,168154,1,0,3:0:0:0:
110,339,168304,1,8,0:0:0:0:
165,173,168454,1,0,3:0:0:0:
328,366,168604,6,0,P|372:357|416:347,1,90,2|0,3:2|0:0,0:0:0:0:
332,195,168904,2,0,P|288:186|243:176,1,90,10|0,0:0|3:0,0:0:0:0:
413,24,169204,5,12,0:0:0:0:
504,58,169354,1,0,3:0:0:0:
243,176,169504,1,8,0:0:0:0:
291,17,169654,1,0,3:0:0:0:
404,182,169804,1,8,0:0:0:0:
488,152,169954,1,0,3:0:0:0:
300,32,170104,1,8,0:0:0:0:
120,115,170254,5,0,3:0:0:0:
128,121,170329,1,8,0:0:0:0:
135,128,170404,2,0,P|148:233|158:312,1,180,14|8,3:2|0:0,0:0:0:0:
172,335,170779,1,8,0:0:0:0:
172,335,170854,2,0,L|184:250,1,45,10|0,0:0|0:0,0:0:0:0:
466,276,171004,6,0,P|424:323|353:316,1,135,6|0,3:2|1:0,0:0:0:0:
341,307,171304,2,0,L|349:351,1,45,6|0,3:2|0:0,0:0:0:0:
245,384,171454,6,0,P|256:294|270:205,1,180,6|0,3:2|3:0,0:0:0:0:
164,59,171904,2,0,P|121:67|74:47,1,90,8|0,0:0|0:0,0:0:0:0:
252,192,172204,1,0,3:0:0:0:
252,192,172354,1,0,3:0:0:0:
305,54,172504,2,0,P|355:61|404:72,1,90,8|0,0:0|0:0,0:0:0:0:
511,183,172804,5,0,3:0:0:0:
373,379,172954,5,8,0:3:0:0:
334,344,173029,1,8,0:3:0:0:
281,330,173104,1,8,3:3:0:0:
229,344,173179,1,8,0:3:0:0:
205,371,173254,1,8,0:3:0:0:
166,383,173329,1,8,0:3:0:0:
155,376,173404,6,0,L|163:330,1,45,8|8,3:0|0:3,0:0:0:0:
231,250,173554,2,0,L|228:199,1,45,4|4,0:3|0:3,0:0:0:0:
163,109,173704,1,4,0:3:0:0:
0,274,173854,5,8,0:0:0:0:
0,274,173929,1,8,0:0:0:0:
0,274,174004,6,0,P|85:254|164:334,1,207,6|0,3:2|0:0,0:0:0:0:
228,384,175804,5,2,0:0:0:0:
236,382,175954,1,2,0:0:0:0:
285,328,176104,2,0,L|304:332,1,18,2|2,0:0|0:0,0:0:0:0:
429,384,176404,6,0,P|445:216|461:46,1,337.5,6|0,3:2|0:0,0:0:0:0:
476,14,177604,6,0,P|471:63|466:112,1,99,2|0,0:0|0:0,0:0:0:0:
414,163,178504,1,2,0:0:0:0:
414,163,178654,1,2,0:0:0:0:
226,29,178804,6,0,B|146:-2|114:162|285:125|325:59,1,270,6|0,3:2|0:0,0:0:0:0:
226,29,180004,6,0,P|232:64|236:101,1,72,2|2,0:0|0:0,0:0:0:0:
126,312,180904,1,2,0:0:0:0:
0,240,181204,6,0,B|183:281|126:104|312:162,1,337.5,6|0,3:2|0:0,0:0:0:0:
366,285,182404,6,0,P|373:238|384:187,1,94.4999971160889,6|0,3:2|0:0,0:0:0:0:
443,125,183004,6,0,P|438:95|429:58,1,63,4|0,3:2|0:0,0:0:0:0:
333,13,183604,5,6,3:2:0:0:
327,30,183904,1,2,0:0:0:0:
264,62,184204,1,2,0:0:0:0:
195,63,184504,1,2,0:0:0:0:
140,21,184804,6,0,P|151:53|161:94,1,72,2|2,0:0|0:0,0:0:0:0:
448,178,185854,1,2,0:0:0:0:
448,178,185929,1,0,0:0:0:0:
448,178,186004,6,0,P|279:193|112:213,1,337.5,6|0,3:2|1:0,0:0:0:0:
82,225,187204,6,0,P|147:232|216:242,1,135,2|0,0:0|0:0,0:0:0:0:
242,321,188404,5,6,3:2:0:0:
236,340,188704,1,2,0:0:0:0:
302,376,189004,1,2,0:0:0:0:
377,352,189304,1,2,0:0:0:0:
448,381,189604,2,0,P|457:327|471:275,1,108,2|2,0:0|0:0,0:0:0:0:
348,201,190604,2,0,L|333:199,1,12,2|2,0:0|0:0,0:0:0:0:
288,262,190804,6,0,B|156:237|180:380|52:354,1,270,6|0,3:2|3:0,0:0:0:0:
4,202,191854,5,2,0:3:0:0:
4,202,191929,1,2,0:3:0:0:
4,202,192004,2,0,P|33:191|56:180,1,53.9999983520508,8|8,3:2|0:0,0:0:0:0:
64,72,192154,2,0,P|93:82|116:94,1,53.9999983520508,8|8,0:0|0:0,0:0:0:0:
207,166,192304,1,8,3:2:0:0:
393,41,192454,5,8,0:3:0:0:
361,16,192529,1,8,0:3:0:0:
323,17,192604,1,8,0:0:0:0:
305,32,192679,1,8,0:0:0:0:
300,40,192754,6,0,L|308:95,1,53.9999983520508,8|8,0:3|0:3,0:0:0:0:
428,126,192904,2,0,P|451:113|476:102,1,53.9999983520508,8|8,0:3|0:3,0:0:0:0:
287,180,193054,2,0,P|310:192|335:203,1,53.9999983520508,4|4,0:3|0:3,0:0:0:0:
482,326,193204,5,6,3:2:0:0:
453,318,193279,1,2,0:0:0:0:
426,304,193354,2,0,L|442:388,1,53.9999983520508,2|0,0:0|0:0,0:0:0:0:
222,374,193504,5,10,0:0:0:0:
246,340,193579,1,2,0:0:0:0:
242,293,193654,1,2,0:0:0:0:
218,267,193729,1,2,0:0:0:0:
201,271,193804,6,0,P|208:296|212:323,1,53.9999983520508,2|2,3:2|0:0,0:0:0:0:
89,364,193954,2,0,P|62:367|36:375,1,53.9999983520508,2|2,3:2|0:0,0:0:0:0:
3,262,194104,2,0,P|9:235|15:209,1,53.9999983520508,10|2,0:0|0:0,0:0:0:0:
136,182,194254,2,0,P|166:175|202:166,1,53.9999983520508,6|0,3:2|0:0,0:0:0:0:
56,18,194404,5,2,0:0:0:0:
32,32,194479,1,2,0:0:0:0:
16,54,194554,2,0,L|0:-6,1,53.9999983520508,2|2,3:2|0:0,0:0:0:0:
155,88,194704,5,10,0:0:0:0:
183,60,194779,1,2,0:0:0:0:
230,48,194854,1,2,0:0:0:0:
274,57,194929,1,2,0:0:0:0:
313,86,195004,1,2,3:2:0:0:
333,129,195079,1,2,0:0:0:0:
326,143,195154,5,2,3:2:0:0:
348,189,195229,1,2,0:0:0:0:
397,195,195304,1,10,0:0:0:0:
428,175,195379,1,2,0:0:0:0:
436,169,195454,2,0,P|442:134|453:107,1,53.9999983520508,6|0,3:2|0:0,0:0:0:0:
512,321,195604,5,2,0:0:0:0:
499,328,195679,1,2,0:0:0:0:
489,333,195754,2,0,L|410:304,1,53.9999983520508,2|0,3:2|0:0,0:0:0:0:
193,366,195904,5,10,0:0:0:0:
233,387,195979,1,2,0:0:0:0:
282,382,196054,1,2,0:0:0:0:
316,346,196129,1,2,0:0:0:0:
316,293,196204,1,2,3:2:0:0:
285,258,196279,1,2,0:0:0:0:
236,244,196354,1,2,3:2:0:0:
190,266,196429,1,2,0:0:0:0:
161,291,196504,5,10,0:0:0:0:
127,287,196579,1,2,0:0:0:0:
118,280,196654,2,0,L|110:220,1,53.9999983520508,6|0,3:2|0:0,0:0:0:0:
164,25,196804,5,2,0:0:0:0:
195,52,196879,1,2,0:0:0:0:
241,53,196954,1,2,3:2:0:0:
287,32,197029,1,2,0:0:0:0:
300,44,197104,2,0,L|288:101,1,53.9999983520508,10|0,0:0|0:0,0:0:0:0:
436,181,197254,5,2,0:0:0:0:
450,170,197329,1,2,0:0:0:0:
463,158,197404,2,0,L|405:164,1,53.9999983520508,2|0,3:2|0:0,0:0:0:0:
198,238,197554,5,2,3:2:0:0:
243,250,197629,1,2,0:0:0:0:
278,233,197704,1,10,0:0:0:0:
319,221,197779,1,2,0:0:0:0:
333,231,197854,2,0,P|328:261|322:291,1,53.9999983520508,2|0,0:0|0:0,0:0:0:0:
167,384,198004,6,0,P|160:286|150:166,1,215.999993408203,6|8,3:2|0:0,0:0:0:0:
356,74,198454,2,0,B|281:65|281:65|248:32|248:32|153:27,1,215.999993408203,2|0,0:0|3:0,0:0:0:0:
294,223,198904,1,10,0:0:0:0:
294,223,198979,1,2,0:0:0:0:
294,223,199054,6,0,B|366:207|412:198|412:198|455:207|470:242|448:280,1,215.999993408203,6|0,3:2|3:0,0:0:0:0:
197,374,199504,2,0,P|191:324|181:244,1,107.999996704102,10|0,0:0|0:0,0:0:0:0:
7,169,199804,2,0,P|57:175|137:185,1,107.999996704102,2|0,3:2|3:0,0:0:0:0:
397,20,200104,2,0,B|340:55|340:55|234:33,1,161.999995056153,10|0,0:0|0:0,0:0:0:0:
233,20,200404,5,6,3:2:0:0:
203,226,200554,1,2,0:0:0:0:
79,95,200704,1,10,0:0:0:0:
374,150,200854,6,0,P|351:241|327:363,1,215.999993408203,2|2,0:0|3:2,0:0:0:0:
239,140,201304,1,10,0:0:0:0:
418,322,201454,6,0,P|303:293|245:398,1,215.999993408203,2|0,0:0|3:0,0:0:0:0:
65,246,201904,2,0,P|117:239|200:228,1,107.999996704102,8|0,0:0|3:0,0:0:0:0:
502,43,202204,5,10,0:0:0:0:
492,57,202279,2,0,P|496:88|498:110,1,53.9999983520508,8|8,0:0|0:3,0:0:0:0:
365,146,202429,1,2,0:0:0:0:
375,160,202504,2,0,P|372:186|368:213,1,53.9999983520508,8|8,0:0|0:0,0:0:0:0:
503,308,202654,1,4,0:3:0:0:
507,300,202729,1,4,0:3:0:0:
512,291,202804,6,0,P|435:287|388:360,1,161.999995056153,6|0,3:2|0:0,0:0:0:0:
393,372,203104,2,0,P|340:361|283:351,1,107.999996704102,8|0,0:0|0:0,0:0:0:0:
73,273,203404,2,0,P|79:337|85:396,1,107.999996704102,0|0,3:0|3:0,0:0:0:0:
195,221,203704,1,8,0:0:0:0:
18,81,203854,2,0,P|52:71|83:56,1,53.9999983520508,4|2,3:2|0:0,0:0:0:0:
167,0,204004,6,0,P|174:42|184:93,1,71.9999978027344,2|2,0:0|0:0,0:0:0:0:
337,145,204204,1,2,0:0:0:0:
264,173,204304,2,0,P|269:131|275:89,1,71.9999978027344,10|2,0:0|0:0,0:0:0:0:
355,30,204504,5,2,0:0:0:0:
432,55,204604,1,2,3:2:0:0:
512,49,204704,1,2,0:0:0:0:
444,67,204804,1,2,0:0:0:0:
414,138,204904,2,0,P|419:182|424:218,1,71.9999978027344,10|2,0:0|0:0,0:0:0:0:
512,328,205104,5,2,0:0:0:0:
422,377,205204,2,0,B|386:380|386:380|351:360,1,71.9999978027344,6|2,3:2|0:0,0:0:0:0:
232,296,205404,1,2,0:0:0:0:
298,224,205504,2,0,P|309:274|316:318,1,71.9999978027344,10|2,0:0|0:0,0:0:0:0:
197,377,205704,5,2,0:0:0:0:
129,358,205804,1,2,3:2:0:0:
51,369,205904,1,2,0:0:0:0:
5,303,206004,1,2,0:0:0:0:
17,287,206104,2,0,P|52:293|87:301,1,71.9999978027344,10|2,0:0|0:0,0:0:0:0:
212,216,206304,1,2,0:0:0:0:
153,143,206404,6,0,P|142:240|128:358,1,215.999993408203,2|8,0:0|0:0,0:0:0:0:
67,160,206854,6,0,P|64:129|53:83,1,53.9999983520508,2|0,0:0|0:0,0:0:0:0:
11,56,207004,2,0,B|71:67|71:67|127:30,1,107.999996704102,2|2,3:2|3:2,0:0:0:0:
257,24,207229,1,2,0:0:0:0:
244,18,207304,2,0,P|245:45|251:77,1,53.9999983520508,10|0,0:0|0:0,0:0:0:0:
323,97,207454,2,0,P|315:122|310:149,1,53.9999983520508,10|0,0:0|0:0,0:0:0:0:
194,198,207604,6,0,B|273:208|273:208|329:169|329:169|410:179,1,215.999993408203,4|8,3:2|0:0,0:0:0:0:
470,327,208054,2,0,P|483:214|498:100,1,215.999993408203,2|0,0:0|3:0,0:0:0:0:
270,245,208504,5,10,0:0:0:0:
373,337,208654,2,0,P|319:342|282:382,1,107.999996704102,4|0,3:2|0:0,0:0:0:0:
87,245,208954,1,2,3:2:0:0:
13,334,209104,2,0,P|75:337|124:344,1,107.999996704102,8|0,0:0|0:0,0:0:0:0:
249,60,209404,6,0,B|189:69|189:69|167:94|167:94|94:101,1,161.999995056153,2|0,3:2|0:0,0:0:0:0:
81,116,209704,2,0,P|84:56|88:-2,1,107.999996704102,8|0,0:0|3:0,0:0:0:0:
235,212,210004,5,6,3:2:0:0:
459,133,210154,2,0,P|493:137|520:142,1,53.9999983520508,2|0,0:0|0:0,0:0:0:0:
382,226,210304,2,0,P|419:217|453:210,1,53.9999983520508,10|0,0:0|0:0,0:0:0:0:
334,131,210454,6,0,P|327:207|320:305,1,161.999995056153,2|0,0:0|0:0,0:0:0:0:
323,308,210754,2,0,P|358:296|387:291,1,53.9999983520508,2|0,3:2|0:0,0:0:0:0:
188,375,210904,2,0,B|143:343|143:343|93:361,1,107.999996704102,10|0,0:0|3:0,0:0:0:0:
89,90,211204,5,2,0:0:0:0:
217,117,211354,1,2,3:2:0:0:
22,174,211504,1,10,0:0:0:0:
267,36,211654,6,0,B|254:96|254:96|264:115|264:115|240:226,1,161.999995056153,2|0,0:0|0:0,0:0:0:0:
258,204,211954,2,0,L|327:190,1,53.9999983520508,2|0,3:2|0:0,0:0:0:0:
486,97,212104,2,0,P|434:89|369:81,1,107.999996704102,10|8,0:0|0:0,0:0:0:0:
318,378,212404,5,2,3:2:0:0:
505,209,212554,1,14,0:0:0:0:
289,105,212704,1,10,0:0:0:0:
427,318,212854,1,14,0:0:0:0:
76,337,213004,5,8,3:2:0:0:
118,312,213079,1,8,0:2:0:0:
169,315,213154,1,8,0:2:0:0:
204,348,213229,1,8,0:2:0:0:
251,352,213304,2,0,P|255:325|262:299,1,53.9999983520508,8|0,0:3|0:3,0:0:0:0:
83,200,213454,5,8,0:0:0:0:
76,212,213529,1,8,0:0:0:0:
68,220,213604,2,0,P|32:211|-28:193,1,53.9999983520508,4|0,0:3|0:0,0:0:0:0:
157,16,213754,5,8,0:3:0:0:
170,35,213829,1,8,0:3:0:0:
177,59,213904,2,0,P|188:28|201:-5,1,62.9999980773926,8|0,0:3|0:0,0:0:0:0:
309,160,214054,5,8,0:0:0:0:
349,143,214129,1,8,0:0:0:0:
389,127,214204,2,0,B|416:146|416:146|425:192,1,62.9999980773926,4|0,0:3|0:0,0:0:0:0:
158,348,214354,5,8,0:0:0:0:
231,369,214429,1,8,0:0:0:0:
287,312,214504,1,8,0:0:0:0:
257,244,214579,1,8,0:0:0:0:
210,210,214654,1,8,0:0:0:0:
201,181,214729,1,8,0:0:0:0:
212,160,214804,5,4,3:2:0:0:
256,192,214879,12,0,216004,0:0:0:0:
73,354,216454,5,0,3:0:0:0:
0,247,216604,2,0,P|55:246|92:206,1,107.999996704102,10|2,0:0|0:0,0:0:0:0:
192,354,217204,6,0,P|269:341|361:329,1,161.999995056153,2|2,3:2|3:2,0:0:0:0:
446,373,217804,2,0,P|498:356|497:294,1,107.999996704102,8|2,0:0|0:0,0:0:0:0:
336,128,218404,5,2,3:2:0:0:
349,123,218554,1,0,3:0:0:0:
468,185,218854,1,0,3:0:0:0:
512,54,219154,1,0,3:0:0:0:
512,54,219229,1,0,3:0:0:0:
512,54,219304,2,0,L|442:62,1,53.9999983520508,8|0,0:0|0:0,0:0:0:0:
316,184,219604,6,0,P|322:97|329:2,1,161.999995056153,4|0,3:2|3:0,0:0:0:0:
188,38,220204,2,0,P|140:47|69:58,1,107.999996704102,2|8,3:2|0:0,0:0:0:0:
10,18,220654,1,2,0:0:0:0:
0,166,220804,6,0,P|54:163|96:203,1,107.999996704102,0|0,3:0|0:0,0:0:0:0:
207,245,221254,1,0,3:0:0:0:
157,317,221404,2,0,P|165:354|167:370,1,53.9999983520508,2|0,3:2|3:0,0:0:0:0:
298,384,221704,1,8,0:0:0:0:
438,324,221854,1,2,0:0:0:0:
438,324,221929,1,2,0:0:0:0:
438,324,222004,6,0,P|448:269|460:213,1,107.999996704102,2|0,3:2|0:0,0:0:0:0:
334,168,222454,1,0,3:0:0:0:
404,117,222604,2,0,L|470:129,1,53.9999983520508,0|0,3:0|3:0,0:0:0:0:
332,28,222904,2,0,L|266:40,1,53.9999983520508,10|0,0:0|0:0,0:0:0:0:
65,211,223204,5,0,3:0:0:0:
33,98,223354,1,8,0:0:0:0:
221,272,223504,1,8,0:0:0:0:
0,322,223654,5,8,3:2:0:0:
34,296,223729,1,8,0:0:0:0:
83,291,223804,1,8,0:3:0:0:
125,309,223879,1,8,0:3:0:0:
123,320,223954,1,8,0:0:0:0:
146,346,224029,1,8,0:0:0:0:
172,365,224104,2,0,P|197:358|224:353,1,53.9999983520508,8|0,0:0|0:0,0:0:0:0:
455,312,224254,5,8,0:0:0:0:
450,322,224329,1,8,0:0:0:0:
446,331,224404,2,0,P|365:323|267:314,1,161.999995056153,4|8,3:2|0:0,0:0:0:0:
231,100,224854,1,0,0:0:0:0:
140,123,225004,2,0,P|148:85|157:43,1,80.9999975280763,2|0,3:2|0:0,0:0:0:0:
329,188,225304,2,0,P|320:150|312:108,1,80.9999975280763,10|0,0:0|3:0,0:0:0:0:
121,253,225604,6,0,P|197:235|255:286,1,161.999995056153,2|8,3:2|0:0,0:0:0:0:
435,334,226054,2,0,B|353:328|373:387|282:374,1,161.999995056153,2|0,3:2|3:0,0:0:0:0:
159,350,226504,2,0,P|161:309|171:245,1,80.9999975280763,10|0,0:0|3:0,0:0:0:0:
9,132,226804,6,0,P|26:208|44:323,1,161.999995056153,2|8,3:2|0:0,0:0:0:0:
222,216,227254,2,0,P|144:221|101:157,1,161.999995056153,2|0,3:2|3:0,0:0:0:0:
116,31,227704,2,0,P|156:41|213:50,1,80.9999975280763,10|0,0:0|0:0,0:0:0:0:
392,82,228004,6,0,P|396:40|401:-2,1,80.9999975280763,2|0,3:2|0:0,0:0:0:0:
205,139,228304,1,10,0:0:0:0:
297,228,228454,2,0,P|366:217|442:206,1,121.499996292114,2|0,3:2|0:0,0:0:0:0:
430,196,228754,1,0,3:0:0:0:
507,312,228904,1,8,0:0:0:0:
237,367,229054,5,8,3:2:0:0:
237,367,229129,1,8,0:0:0:0:
237,367,229204,2,0,P|191:363|133:359,1,90,12|0,0:0|3:0,0:0:0:0:
38,198,229504,2,0,P|82:194|127:190,1,90,8|0,0:0|3:0,0:0:0:0:
262,17,229804,1,8,0:0:0:0:
223,124,229954,1,0,3:0:0:0:
328,299,230104,1,8,0:0:0:0:
289,192,230254,1,0,3:0:0:0:
427,56,230404,6,0,P|461:83|505:82,1,90,8|0,0:0|3:0,0:0:0:0:
160,57,230704,2,0,P|195:28|239:30,1,90,8|0,0:0|3:0,0:0:0:0:
426,183,231004,5,10,0:0:0:0:
304,369,231154,1,10,0:0:0:0:
196,293,231304,1,10,0:0:0:0:
12,335,231454,1,8,0:0:0:0:
12,335,231529,1,8,0:0:0:0:
12,335,231604,5,12,0:0:0:0:
105,384,231754,2,0,P|111:312|118:239,1,135.000005149842,0|0,3:0|3:0,0:0:0:0:
76,189,232129,1,0,3:0:0:0:
70,180,232204,5,8,0:0:0:0:
263,166,232354,2,0,P|197:167|164:109,1,135.000005149842,0|0,3:0|3:0,0:0:0:0:
63,84,232729,1,0,3:0:0:0:
63,84,232804,6,0,B|158:107|158:107|204:89|190:41,1,180,12|0,0:0|0:0,0:0:0:0:
416,8,233254,1,8,3:2:0:0:
363,122,233404,1,8,0:0:0:0:
357,137,233704,6,0,P|431:127|514:117,1,135.000005149842,4|0,3:2|0:0,0:0:0:0:
346,279,234154,5,0,3:0:0:0:
232,196,234304,1,8,3:0:0:0:
229,211,234379,1,8,0:3:0:0:
226,222,234454,2,0,P|205:218|177:210,1,33.7500012874604,8|4,0:3|0:3,0:0:0:0:
9,298,234604,5,8,0:0:0:0:
49,278,234679,1,8,0:0:0:0:
92,284,234754,1,8,0:0:0:0:
126,312,234829,1,8,0:0:0:0:
166,375,234904,1,8,0:0:0:0:
235,379,234979,1,8,0:0:0:0:
252,373,235054,2,0,P|258:353|261:340,1,33.7500012874604,8|0,0:0|0:0,0:0:0:0:
343,191,235204,6,0,P|348:275|354:371,1,180,4|2,3:2|0:0,0:0:0:0:
512,81,236404,6,0,B|374:105|425:-32|268:13,1,270.000010299683,4|0,3:2|0:0,0:0:0:0:
270,13,237454,6,0,P|287:77|296:146,1,134.999995880127,4|0,3:2|0:0,0:0:0:0:
204,309,238354,5,8,0:3:0:0:
134,329,238504,1,8,0:0:0:0:
46,258,238654,1,0,3:0:0:0:
46,258,238804,6,0,B|-23:244|-47:326|-32:384|81:399|182:423|66:201|272:172|352:337|247:375,1,506.250019311906,4|0,3:2|0:0,0:0:0:0:
267,363,240004,6,0,P|262:298|253:212,1,135.000005149842,4|0,3:2|0:0,0:0:0:0:
425,241,240604,2,0,P|431:173|437:106,1,135.000005149842,4|0,3:2|0:0,0:0:0:0:
125,49,241204,6,0,B|207:-56|389:-60|424:80|308:140|268:63,1,405.000015449525,4|0,3:2|0:0,0:0:0:0:
185,139,242254,6,0,P|205:203|216:269,1,134.999995880127,4|0,3:2|0:0,0:0:0:0:
436,301,243154,1,8,0:0:0:0:
311,347,243304,1,8,0:3:0:0:
456,384,243454,1,4,0:3:0:0:
456,384,243529,1,4,0:3:0:0:
456,384,243604,6,0,P|466:268|476:136,1,242.999992584229,4|0,3:2|0:0,0:0:0:0:
339,26,245104,6,0,L|369:10,2,22.5,8|8|8,0:3|0:3|0:3,0:0:0:0:
144,133,245404,5,8,0:0:0:0:
188,160,245479,1,8,0:0:0:0:
241,159,245554,1,8,0:0:0:0:
277,122,245629,1,8,0:0:0:0:
268,79,245704,1,8,0:3:0:0:
238,63,245779,1,8,0:3:0:0:
219,66,245854,1,4,0:3:0:0:
211,73,245929,1,4,0:3:0:0:
210,79,246004,6,0,P|230:194|245:372,1,270.000010299683,4|0,3:2|0:0,0:0:0:0:
244,346,247054,6,0,P|161:345|132:392,1,134.999995880127,4|0,3:2|0:0,0:0:0:0:
75,76,248104,5,8,0:0:0:0:
2,200,248254,1,0,3:0:0:0:
2,200,248404,6,0,B|84:266|252:213|192:120|126:7|312:-39|390:56,1,506.250019311906,4|0,3:2|0:0,0:0:0:0:
379,44,249604,6,0,P|366:103|354:177,1,135.000005149842,4|0,3:2|0:0,0:0:0:0:
187,167,250204,2,0,P|200:226|212:300,1,135.000005149842,4|0,3:2|0:0,0:0:0:0:
512,313,250804,6,0,P|382:275|321:385,1,270.000010299683,4|0,3:2|0:0,0:0:0:0:
197,288,251554,5,8,0:0:0:0:
197,288,251704,1,8,0:0:0:0:
471,172,251854,5,4,3:2:0:0:
60,45,253204,6,0,B|121:38|121:38|164:65|164:65|239:53,1,180,14|0,0:0|3:0,0:0:0:0:
485,179,253654,2,0,B|424:172|424:172|381:199|381:199|306:187,1,180,14|0,0:0|3:0,0:0:0:0:
101,367,254104,1,14,0:0:0:0:
264,320,254254,1,0,3:0:0:0:
67,56,254404,5,8,3:2:0:0:
19,72,254479,1,8,0:0:0:0:
0,116,254554,1,8,0:0:0:0:
6,166,254629,1,8,0:0:0:0:
43,199,254704,1,8,0:0:0:0:
95,203,254779,1,8,0:0:0:0:
129,178,254854,1,8,0:0:0:0:
168,181,254929,1,8,0:0:0:0:
178,190,255004,6,0,P|173:220|169:245,1,53.9999983520508,8|8,0:3|0:3,0:0:0:0:
264,320,255154,2,0,P|270:350|272:373,1,53.9999983520508,8|4,0:3|0:3,0:0:0:0:
405,202,255304,2,0,P|409:172|413:148,1,53.9999983520508,4|0,0:3|0:0,0:0:0:0:
471,69,255454,1,8,0:0:0:0:
471,69,255529,1,8,0:0:0:0:
471,69,255604,6,0,P|377:73|335:15,1,135,6|0,3:2|0:0,0:0:0:0:
346,28,255904,1,10,0:0:0:0:
229,118,256054,2,0,P|279:129|328:145,1,90,2|0,3:2|0:0,0:0:0:0:
9,128,256354,1,2,3:2:0:0:
56,37,256504,1,8,0:0:0:0:
142,213,256654,6,0,P|63:190|-2:277,1,180,6|0,3:2|3:0,0:0:0:0:
217,326,257104,2,0,P|296:303|361:390,1,180,8|0,0:0|3:0,0:0:0:0:
209,148,257554,1,0,3:0:0:0:
305,190,257704,1,10,0:0:0:0:
484,138,257854,1,0,3:0:0:0:
484,138,258004,6,0,P|491:185|499:227,1,90,6|0,3:2|0:0,0:0:0:0:
444,1,258304,1,10,0:0:0:0:
344,63,258454,2,0,B|274:53|274:53|245:26|245:26|158:20,1,180,2|0,3:2|3:0,0:0:0:0:
35,114,258904,2,0,P|63:80|70:36,1,90,10|0,0:0|3:0,0:0:0:0:
286,179,259204,6,0,P|189:166|149:232,1,180,2|8,3:2|0:0,0:0:0:0:
0,267,259654,1,2,0:0:0:0:
85,373,259804,2,0,P|132:361|203:350,1,90,2|0,3:2|3:0,0:0:0:0:
196,337,260029,1,0,3:0:0:0:
199,328,260104,1,8,0:0:0:0:
344,371,260254,1,0,3:0:0:0:
485,201,260404,6,0,P|471:290|463:379,1,180,4|10,3:2|0:0,0:0:0:0:
370,181,260854,1,0,0:0:0:0:
295,250,261004,2,0,P|257:225|213:222,1,90,2|0,3:2|0:0,0:0:0:0:
119,134,261304,1,10,0:0:0:0:
298,38,261454,6,0,P|382:64|446:-13,1,180,6|0,3:2|3:0,0:0:0:0:
180,21,261904,2,0,P|193:63|199:108,1,90,10|0,0:0|0:0,0:0:0:0:
33,149,262204,2,0,P|41:96|52:61,1,90,2|0,3:2|0:0,0:0:0:0:
211,191,262504,1,10,0:0:0:0:
27,296,262654,1,0,3:0:0:0:
27,296,262804,6,0,P|110:284|209:273,1,180,6|8,3:2|0:0,0:0:0:0:
446,310,263254,2,0,P|386:314|352:401,1,135,6|0,3:2|0:0,0:0:0:0:
351,383,263554,1,0,3:0:0:0:
340,191,263704,5,10,0:0:0:0:
510,112,263854,2,0,P|446:102|327:83,1,180,0|0,3:0|3:0,0:0:0:0:
242,220,264304,2,0,B|263:180|263:180|247:131,1,90,8|0,0:0|0:0,0:0:0:0:
25,1,264604,5,8,3:0:0:0:
0,43,264679,1,8,0:3:0:0:
6,92,264754,1,8,0:3:0:0:
38,127,264829,1,8,0:3:0:0:
57,123,264904,5,8,0:0:0:0:
100,146,264979,1,8,0:0:0:0:
113,198,265054,1,8,0:0:0:0:
83,241,265129,1,8,0:0:0:0:
67,234,265204,6,0,P|81:156|96:87,1,135,6|0,3:2|0:0,0:0:0:0:
103,89,265504,1,10,0:0:0:0:
193,241,265654,2,0,B|237:251|237:251|280:230,1,90,2|0,3:2|0:0,0:0:0:0:
460,95,265954,1,2,3:2:0:0:
398,5,266104,1,8,0:0:0:0:
223,122,266254,6,0,B|321:99|295:181|396:170,1,180,6|0,3:2|3:0,0:0:0:0:
512,310,266704,2,0,P|467:315|423:326,1,90,8|0,0:0|0:0,0:0:0:0:
198,316,267004,1,0,3:0:0:0:
326,238,267154,1,0,3:0:0:0:
326,238,267229,1,0,3:0:0:0:
326,238,267304,2,0,B|350:273|350:273|336:335,1,90,10|2,0:0|3:2,0:0:0:0:
108,384,267604,6,0,P|116:290|123:204,1,180,6|10,3:2|0:0,0:0:0:0:
1,24,268054,2,0,B|50:52|50:52|138:29,1,135,2|0,3:2|0:0,0:0:0:0:
131,16,268354,1,0,3:0:0:0:
230,103,268504,2,0,P|222:147|218:192,1,90,10|0,0:0|0:0,0:0:0:0:
137,360,268804,6,0,P|226:344|316:336,1,180,2|8,3:2|0:0,0:0:0:0:
143,253,269254,1,2,3:2:0:0:
48,384,269404,2,0,P|48:346|39:290,1,90,2|0,0:0|3:0,0:0:0:0:
20,257,269629,1,0,3:0:0:0:
11,253,269704,1,8,0:0:0:0:
169,173,269854,1,0,3:0:0:0:
0,41,270004,6,0,B|72:50|72:50|102:82|102:82|172:89,1,180,4|10,3:2|0:0,0:0:0:0:
334,12,270454,1,0,0:0:0:0:
432,76,270604,2,0,P|420:113|403:174,1,90,2|0,3:2|0:0,0:0:0:0:
216,226,270904,1,10,0:0:0:0:
322,306,271054,6,0,P|416:289|454:372,1,180,6|0,3:2|3:0,0:0:0:0:
266,384,271504,2,0,P|232:377|157:367,1,90,10|0,0:0|0:0,0:0:0:0:
44,187,271804,1,0,3:0:0:0:
0,281,271954,2,0,P|63:257|123:293,1,135.000005149842,0|0,3:0|3:0,0:0:0:0:
202,285,272329,1,0,3:0:0:0:
192,301,272404,6,0,P|200:212|208:122,1,180,14|0,0:0|3:0,0:0:0:0:
469,76,272854,2,0,P|404:85|355:42,1,135,14|0,0:0|1:0,0:0:0:0:
360,25,273154,1,0,3:0:0:0:
119,31,273304,2,0,P|171:17|222:10,1,90,10|0,0:0|3:0,0:0:0:0:
263,168,273604,5,8,0:0:0:0:
225,197,273679,1,8,0:0:0:0:
176,204,273754,1,8,0:3:0:0:
132,191,273829,1,0,3:0:0:0:
119,178,273904,5,8,0:0:0:0:
70,182,273979,1,8,0:0:0:0:
31,214,274054,1,8,0:0:0:0:
23,260,274129,1,8,0:0:0:0:
32,275,274204,6,0,P|52:284|71:296,1,45,8|8,0:3|0:3,0:0:0:0:
145,384,274354,2,0,P|164:372|184:362,1,45,4|4,0:3|0:3,0:0:0:0:
343,349,274504,2,0,P|322:339|303:327,1,45,4|0,0:3|0:0,0:0:0:0:
178,281,274654,1,8,0:0:0:0:
178,281,274729,1,8,0:0:0:0:
178,281,274804,6,0,B|219:281|247:309|247:309|311:302|314:243,1,180,6|8,3:2|0:0,0:0:0:0:
512,92,275254,2,0,B|447:109|447:109|364:82,1,135,6|0,3:2|0:0,0:0:0:0:
366,70,275554,1,0,3:0:0:0:
298,281,275704,6,0,P|290:192|281:100,1,180,14|0,0:0|0:0,0:0:0:0:
89,5,276154,1,0,3:0:0:0:
200,95,276304,2,0,P|155:100|110:104,1,90,8|0,0:0|0:0,0:0:0:0:
0,243,276604,5,8,3:0:0:0:
43,258,276679,1,8,0:3:0:0:
89,243,276754,1,4,0:3:0:0:
109,204,276829,1,4,0:3:0:0:
101,190,276904,2,0,P|76:184|40:177,1,45,8|0,0:0|0:0,0:0:0:0:
46,363,277054,2,0,P|68:358|89:353,1,45,0|0,3:0|0:0,0:0:0:0:
275,170,277204,6,0,P|264:254|248:380,1,180,6|8,3:2|0:0,0:0:0:0:
506,268,277654,2,0,P|409:280|360:208,1,180,6|0,3:2|3:0,0:0:0:0:
113,72,278104,6,0,B|211:92|187:13|295:38,1,180,14|0,0:0|0:0,0:0:0:0:
467,176,278554,5,8,3:0:0:0:
268,235,278704,1,8,3:2:0:0:
450,357,279004,5,8,3:2:0:0:
180,267,279154,1,8,3:2:0:0:
364,112,279304,1,8,3:2:0:0:
393,238,279454,2,0,P|366:232|348:228,1,45,0|0,3:0|0:0,0:0:0:0:
180,354,279604,6,0,B|300:333|300:333|371:365,1,180,6|8,3:2|0:0,0:0:0:0:
483,180,280054,2,0,P|397:193|361:271,1,180,6|0,3:2|3:0,0:0:0:0:
88,233,280504,6,0,P|174:221|274:198,1,180,14|0,0:0|3:0,0:0:0:0:
446,317,280954,1,0,3:0:0:0:
155,374,281104,1,8,0:0:0:0:
216,297,281254,1,0,3:0:0:0:
358,384,281404,6,0,P|353:339|348:288,1,90,2|0,3:2|0:0,0:0:0:0:
454,141,281704,2,0,P|449:185|444:237,1,90,10|0,0:0|3:0,0:0:0:0:
319,63,282004,5,12,0:0:0:0:
432,20,282154,1,0,3:0:0:0:
246,149,282304,1,8,0:0:0:0:
162,0,282454,1,0,3:0:0:0:
364,147,282604,1,8,0:0:0:0:
299,235,282754,1,0,3:0:0:0:
151,132,282904,1,8,0:0:0:0:
0,286,283054,5,0,3:0:0:0:
0,286,283129,1,8,0:0:0:0:
0,286,283204,2,0,P|81:269|186:252,1,180,14|8,0:0|0:0,0:0:0:0:
207,239,283579,1,8,0:0:0:0:
207,239,283654,2,0,P|186:224|171:200,1,45,8|0,0:0|0:0,0:0:0:0:
484,241,283804,6,0,P|437:284|361:272,1,135,6|0,3:2|0:0,0:0:0:0:
351,263,284104,2,0,P|357:281|363:306,1,45,6|0,3:2|0:0,0:0:0:0:
244,384,284254,6,0,P|251:206|257:20,1,360,6|0,3:2|0:0,0:0:0:0:
0,25,286804,6,0,P|67:50|137:59,1,135,6|0,3:2|0:0,0:0:0:0:
144,46,287104,1,8,0:0:0:0:
330,144,287254,2,0,P|333:100|338:55,1,90,0|0,3:0|0:0,0:0:0:0:
165,198,287554,1,0,3:0:0:0:
319,299,287704,2,0,P|344:295|372:292,1,45,8|0,0:0|0:0,0:0:0:0:
454,251,287854,6,0,P|364:240|275:227,1,180,6|0,3:2|3:0,0:0:0:0:
185,384,288304,2,0,P|179:344|169:277,1,90,8|0,0:0|0:0,0:0:0:0:
57,155,288604,1,2,3:2:0:0:
0,253,288754,1,0,3:0:0:0:
275,227,288904,2,0,P|232:206|186:215,1,90,8|0,0:0|3:0,0:0:0:0:
83,31,289204,6,0,B|130:45|130:45|189:27,1,90,6|2,3:2|0:0,0:0:0:0:
209,16,289429,1,2,0:0:0:0:
215,7,289504,1,10,0:0:0:0:
275,227,289654,2,0,P|286:131|297:48,1,180,2|2,3:2|3:2,0:0:0:0:
396,166,290104,1,10,0:0:0:0:
147,293,290254,6,0,B|218:295|218:295|245:321|245:321|321:327,1,180,2|0,3:2|0:0,0:0:0:0:
511,271,290704,1,10,0:0:0:0:
418,384,290854,2,0,P|413:334|404:269,1,90,2|0,0:0|3:0,0:0:0:0:
319,48,291154,5,2,3:2:0:0:
355,78,291229,1,2,0:0:0:0:
403,83,291304,1,10,0:0:0:0:
428,67,291379,1,2,0:0:0:0:
435,56,291454,1,2,3:2:0:0:
304,309,291604,6,0,P|247:300|172:296,1,107.999996704102,6|0,3:2|0:0,0:0:0:0:
104,232,291829,2,0,P|157:227|235:213,1,107.999996704102,2|0,0:0|0:0,0:0:0:0:
287,173,292054,1,2,0:0:0:0:
115,0,292204,6,0,P|147:41|139:93,1,107.999996704102,2|0,3:2|0:0,0:0:0:0:
41,116,292429,2,0,P|8:157|16:209,1,107.999996704102,2|0,0:0|0:0,0:0:0:0:
104,232,292654,1,6,3:2:0:0:
28,384,292804,6,0,B|105:377|105:377|151:349|151:349|238:343,1,215.999993408203,2|8,0:0|0:0,0:0:0:0:
328,215,293254,1,2,0:0:0:0:
512,298,293404,2,0,P|485:294|458:288,1,53.9999983520508,2|0,3:2|0:0,0:0:0:0:
363,305,293554,2,0,P|414:308|436:355,1,107.999996704102,2|8,0:0|0:0,0:0:0:0:
348,80,293854,1,0,3:0:0:0:
244,249,294004,6,0,B|131:229|163:321|47:308,1,215.999993408203,6|8,3:2|0:0,0:0:0:0:
255,101,294454,2,0,P|311:166|427:135,1,215.999993408203,4|0,3:2|3:0,0:0:0:0:
146,25,294904,1,14,0:0:0:0:
77,171,295054,2,0,P|70:118|60:64,1,107.999996704102,2|0,3:2|0:0,0:0:0:0:
244,249,295354,1,2,3:2:0:0:
111,353,295504,2,0,B|162:376|162:376|212:365,1,107.999996704102,10|0,0:0|0:0,0:0:0:0:
504,289,295804,5,8,3:0:0:0:
478,286,295879,1,8,0:3:0:0:
450,301,295954,2,0,P|446:330|444:362,1,53.9999983520508,8|0,0:3|0:0,0:0:0:0:
166,191,296104,1,8,0:0:0:0:
200,173,296179,1,8,0:0:0:0:
246,168,296254,1,8,0:0:0:0:
286,192,296329,1,8,0:0:0:0:
327,193,296404,6,0,P|333:162|338:131,1,53.9999983520508,6|0,3:2|0:0,0:0:0:0:
431,79,296554,2,0,P|426:52|421:25,1,53.9999983520508,2|0,0:0|0:0,0:0:0:0:
252,56,296704,6,0,P|283:63|322:71,1,53.9999983520508,10|0,0:0|0:0,0:0:0:0:
423,160,296854,2,0,P|449:153|476:149,1,53.9999983520508,2|0,3:2|0:0,0:0:0:0:
247,321,297004,6,0,P|253:347|257:373,1,53.9999983520508,2|0,0:0|0:0,0:0:0:0:
383,259,297154,2,0,P|376:285|372:312,1,53.9999983520508,2|0,3:2|0:0,0:0:0:0:
304,67,297304,1,10,0:0:0:0:
179,244,297454,6,0,B|71:211|71:211|2:225|14:299,1,215.999993408203,6|2,3:2|3:2,0:0:0:0:
38,101,297904,1,10,0:0:0:0:
230,178,298054,1,2,0:0:0:0:
85,246,298204,1,2,3:2:0:0:
206,35,298354,1,2,3:2:0:0:
310,223,298504,1,10,0:0:0:0:
122,136,298654,1,2,3:2:0:0:
436,68,298804,5,6,3:2:0:0:
436,68,298879,1,2,0:0:0:0:
436,68,298954,1,2,0:0:0:0:
240,162,299104,1,10,0:0:0:0:
374,279,299254,1,2,3:2:0:0:
496,167,299404,2,0,P|487:216|483:284,1,107.999996704102,2|2,0:0|3:2,0:0:0:0:
325,198,299704,1,10,0:0:0:0:
512,362,299854,6,0,P|440:307|318:373,1,215.999993408203,2|0,0:0|0:0,0:0:0:0:
146,252,300304,1,8,0:0:0:0:
245,175,300454,1,2,3:2:0:0:
177,371,300604,2,0,P|128:367|63:361,1,107.999996704102,2|0,0:0|3:0,0:0:0:0:
25,363,300829,1,0,3:0:0:0:
15,371,300904,1,8,0:0:0:0:
146,252,301054,1,0,3:0:0:0:
17,102,301204,6,0,B|74:110|74:110|129:85,1,107.999996704102,6|0,3:2|0:0,0:0:0:0:
189,157,301429,2,0,B|236:137|236:137|295:144,1,107.999996704102,2|0,0:0|0:0,0:0:0:0:
366,98,301654,1,2,0:0:0:0:
396,384,301804,6,0,P|388:328|379:270,1,107.999996704102,2|0,3:2|0:0,0:0:0:0:
446,216,302029,2,0,P|453:160|463:102,1,107.999996704102,2|0,0:0|0:0,0:0:0:0:
419,29,302254,1,6,3:2:0:0:
167,194,302404,6,0,B|246:198|246:198|292:156|292:156|372:161,1,215.999993408203,2|8,0:0|0:0,0:0:0:0:
211,294,302854,1,2,0:0:0:0:
106,16,303004,1,0,3:0:0:0:
49,111,303154,2,0,P|115:101|182:93,1,135.000005149842,0|0,3:0|3:0,0:0:0:0:
251,16,303529,5,0,3:0:0:0:
238,0,303604,2,0,P|221:103|208:222,1,215.999993408203,12|0,0:0|3:0,0:0:0:0:
386,366,304054,2,0,P|389:300|345:264,1,107.999996704102,12|0,0:0|0:0,0:0:0:0:
153,373,304354,1,0,3:0:0:0:
26,273,304504,2,0,P|79:281|133:284,1,107.999996704102,12|0,0:0|3:0,0:0:0:0:
413,167,304804,5,8,0:0:0:0:
375,130,304879,1,8,0:0:0:0:
327,133,304954,1,8,0:3:0:0:
314,145,305029,1,0,3:0:0:0:
271,172,305104,1,8,0:0:0:0:
221,175,305179,1,8,0:0:0:0:
183,143,305254,1,8,0:0:0:0:
182,105,305329,1,8,0:0:0:0:
192,87,305404,6,0,P|214:85|236:80,1,45,8|8,0:3|0:3,0:0:0:0:
382,10,305554,2,0,P|359:5|337:3,1,45,4|4,0:3|0:3,0:0:0:0:
318,176,305704,2,0,P|321:154|327:132,1,45,4|0,0:3|0:0,0:0:0:0:
96,13,305854,1,8,0:0:0:0:
96,13,305929,1,8,0:0:0:0:
96,13,306004,5,4,3:2:0:0:
4,48,306154,1,2,0:0:0:0:
211,169,306304,1,10,0:0:0:0:
119,134,306454,1,2,0:0:0:0:
115,357,306604,5,2,3:2:0:0:
207,322,306754,1,2,0:0:0:0:
0,201,306904,1,10,0:0:0:0:
92,236,307054,1,6,3:2:0:0:
376,17,307204,5,8,0:3:0:0:
334,9,307279,1,8,0:3:0:0:
311,27,307354,2,0,P|317:48|324:69,1,45,8|8,0:3|0:3,0:0:0:0:
468,148,307504,2,0,P|447:155|426:162,1,45,8|8,0:3|0:3,0:0:0:0:
254,297,307654,6,0,P|232:291|210:287,3,45,8|4|4|4,0:3|0:3|0:3|0:3,0:0:0:0:
344,201,307954,2,0,P|348:182|354:157,1,45,8|0,0:3|0:0,0:0:0:0:
460,331,308104,5,8,0:0:0:0:
470,303,308179,1,8,0:0:0:0:
489,276,308254,2,0,P|465:281|445:284,1,45,8|0,3:2|0:0,0:0:0:0:
231,380,308404,5,6,3:2:0:0:
139,239,308554,1,2,0:0:0:0:
344,201,308704,1,10,0:0:0:0:
143,342,308854,2,0,P|98:333|54:329,1,90,2|0,0:0|3:0,0:0:0:0:
105,63,309154,1,2,0:0:0:0:
221,138,309304,1,10,0:0:0:0:
378,25,309454,1,6,3:2:0:0:
496,213,309604,5,8,0:3:0:0:
502,197,309679,1,8,0:3:0:0:
511,178,309754,2,0,P|479:184|458:188,1,45,8|8,0:3|0:3,0:0:0:0:
363,283,309904,2,0,P|366:305|371:327,1,45,8|8,0:3|0:3,0:0:0:0:
221,138,310054,6,0,P|225:116|230:93,3,45,4|4|4|4,0:3|0:3|0:3|0:3,0:0:0:0:
173,269,310354,2,0,P|176:291|181:313,1,45,8|0,0:3|0:0,0:0:0:0:
0,183,310504,5,8,0:0:0:0:
12,200,310579,1,8,0:0:0:0:
28,208,310654,2,0,P|53:200|71:194,1,45,8|0,3:2|0:0,0:0:0:0:
144,0,310804,6,0,P|130:161|111:350,1,350.99998928833,6|0,3:2|0:0,0:0:0:0:
103,359,311854,2,0,P|129:363|155:369,1,53.9999983520508,14|0,3:2|0:0,0:0:0:0:
355,308,312004,6,0,P|173:342|0:361,1,360,14|2,3:2|0:0,0:0:0:0:
