osu file format v14

[General]
AudioFilename: audio.mp3
AudioLeadIn: 0
PreviewTime: 55115
Countdown: 0
SampleSet: None
StackLeniency: 0.7
Mode: 0
LetterboxInBreaks: 0
WidescreenStoryboard: 0

[Editor]
Bookmarks: 590,55790,101990,142790,173990,214790,255590,286790,313190
DistanceSpacing: 0.8
BeatDivisor: 4
GridSize: 32
TimelineZoom: 1.7

[Metadata]
Title:Arrival of Tears
TitleUnicode:Arrival of Tears
Artist:Ayane
ArtistUnicode:彩音
Creator:NEVlR
Version:Chauve
Source:イレブンアイズ
Tags:11eyes
BeatmapID:1843936
BeatmapSetID:881949

[Difficulty]
HPDrainRate:5.5
CircleSize:4
OverallDifficulty:9
ApproachRate:9.4
SliderMultiplier:1.8
SliderTickRate:1

[Events]
//Background and Video events
0,0,"image0.jpg",0,0
//Break Periods
//Storyboard Layer 0 (Background)
//Storyboard Layer 1 (Fail)
//Storyboard Layer 2 (Pass)
//Storyboard Layer 3 (Foreground)
//Storyboard Sound Samples

[TimingPoints]
590,300,4,2,1,55,1,0
590,-166.666666666667,4,2,1,55,0,0
4190,-125,4,2,1,70,0,0
5390,-100,4,2,1,70,0,0
14690,-100,4,2,1,75,0,0
14990,-100,4,2,1,70,0,0
34115,-100,4,2,1,5,0,0
34190,-142.857142857143,4,2,1,45,0,0
38915,-142.857142857143,4,2,1,5,0,0
38990,-142.857142857143,4,2,1,45,0,0
42590,-111.111111111111,4,2,1,60,0,0
43790,-100,4,2,1,65,0,0
48590,-100,4,2,1,75,0,0
50990,-111.111111111111,4,2,1,65,0,0
53390,-111.111111111111,4,2,1,55,0,0
53990,-111.111111111111,4,2,1,44,0,0
54065,-111.111111111111,4,2,1,46,0,0
54140,-111.111111111111,4,2,1,48,0,0
54215,-111.111111111111,4,2,1,50,0,0
54290,-111.111111111111,4,2,1,53,0,0
54365,-111.111111111111,4,2,1,57,0,0
54440,-111.111111111111,4,2,1,60,0,0
54515,-111.111111111111,4,2,1,65,0,0
54590,-111.111111111111,4,2,1,70,0,0
55190,-200,4,2,1,40,0,0
55340,-200,4,2,1,5,0,0
55490,-500,4,2,1,25,0,0
55640,-500,4,2,1,5,0,0
55790,-80,4,2,99,80,0,1
56090,-80,4,2,1,70,0,1
60140,-80,4,2,5,80,0,1
60290,-80,4,2,1,70,0,1
62390,-80,4,2,5,80,0,1
62990,-80,4,2,2,70,0,1
63290,-80,4,2,1,70,0,1
64190,-80,4,2,5,75,0,1
64790,-80,4,2,5,80,0,1
65090,-80,4,3,1,85,0,1
65390,-80,4,2,2,85,0,1
65690,-80,4,2,1,70,0,1
67190,-80,4,2,5,80,0,1
67790,-80,4,2,1,70,0,1
69740,-80,4,2,5,70,0,1
70190,-80,4,2,1,70,0,1
70940,-80,4,2,1,70,0,1
71690,-80,4,2,5,80,0,1
72590,-80,4,2,2,70,0,1
72890,-80,4,2,1,70,0,1
73790,-80,4,2,5,75,0,1
74240,-80,4,2,5,80,0,1
74540,-80,4,2,5,85,0,1
74840,-80,4,3,1,85,0,1
74990,-90.9090909090909,4,2,2,70,0,1
75140,-90.9090909090909,4,2,1,70,0,1
76790,-90.9090909090909,4,2,5,80,0,1
77390,-90.9090909090909,4,2,2,70,0,1
77540,-90.9090909090909,4,2,1,70,0,1
78740,-90.9090909090909,4,2,5,80,0,1
79040,-90.9090909090909,4,2,1,70,0,1
79190,-90.9090909090909,4,2,5,80,0,1
79790,-90.9090909090909,4,2,2,70,0,1
79940,-90.9090909090909,4,2,1,70,0,1
80990,-90.9090909090909,4,2,5,80,0,1
81590,-90.9090909090909,4,2,1,70,0,1
82190,-90.9090909090909,4,2,2,80,0,1
82340,-90.9090909090909,4,2,1,80,0,1
83240,-90.9090909090909,4,2,5,80,0,1
84440,-90.9090909090909,4,2,1,70,0,1
85790,-80,4,2,1,75,0,1
85940,-80,4,2,5,75,0,1
86315,-80,4,2,5,80,0,1
86690,-80,4,3,1,85,0,1
86990,-100,4,2,1,90,0,0
87290,-100,4,2,1,60,0,0
90290,-100,4,2,5,60,0,0
90590,-100,4,2,1,60,0,0
91340,-100,4,2,5,60,0,0
91640,-100,4,2,1,60,0,0
96140,-100,4,2,5,60,0,0
96440,-100,4,2,1,60,0,0
100340,-100,4,2,5,60,0,0
101090,-100,4,3,1,60,0,0
101990,300,4,2,1,70,1,0
101990,-100,4,2,1,70,0,0
102890,-100,4,2,2,70,0,0
103040,-100,4,2,1,70,0,0
104390,-111.111111111111,4,2,5,70,0,0
104915,-111.111111111111,4,2,5,5,0,0
104990,-125,4,2,5,70,0,0
105365,-125,4,2,5,5,0,0
105440,-100,4,2,5,70,0,0
106790,-100,4,2,1,70,0,0
108290,-100,4,2,2,70,0,0
108440,-100,4,2,1,70,0,0
109040,-100,4,2,1,70,0,0
109190,-111.111111111111,4,2,5,70,0,0
109715,-111.111111111111,4,2,5,5,0,0
109790,-111.111111111111,4,2,5,70,0,0
111590,-100,4,2,1,70,0,0
113090,-100,4,2,2,70,0,0
113240,-100,4,2,1,70,0,0
115190,-90.9090909090909,4,2,1,70,0,0
115490,-90.9090909090909,4,2,1,70,0,0
115640,-90.9090909090909,4,2,1,70,0,0
116090,-90.9090909090909,4,2,5,70,0,0
116390,-100,4,2,1,70,0,0
120590,-100,4,2,5,70,0,0
121190,-142.857142857143,4,2,99,45,0,0
121640,-142.857142857143,4,2,1,45,0,0
122390,-142.857142857143,4,2,5,45,0,0
122990,-142.857142857143,4,2,1,45,0,0
123590,-142.857142857143,4,2,5,45,0,0
124190,-142.857142857143,4,2,1,45,0,0
124790,-142.857142857143,4,2,5,45,0,0
125690,-142.857142857143,4,2,2,45,0,0
125990,-142.857142857143,4,2,5,45,0,0
126890,-142.857142857143,4,2,1,45,0,0
127190,-142.857142857143,4,2,5,45,0,0
128090,-142.857142857143,4,2,1,45,0,0
128390,-142.857142857143,4,2,5,45,0,0
129290,-142.857142857143,4,2,1,45,0,0
129590,-111.111111111111,4,2,5,65,0,0
129890,-111.111111111111,4,2,1,65,0,0
130040,-111.111111111111,4,2,5,65,0,0
130790,-100,4,2,1,65,0,0
135440,-100,4,2,5,70,0,0
135590,-100,4,2,1,75,0,0
136490,-100,4,2,2,75,0,0
136640,-100,4,2,1,75,0,0
137840,-100,4,2,5,70,0,0
138290,-100,4,2,1,70,0,0
138440,-100,4,2,5,70,0,0
138890,-100,4,2,1,70,0,0
139040,-100,4,2,5,70,0,0
139190,-100,4,2,1,70,0,0
140390,-100,4,2,5,70,0,0
140990,-100,4,2,5,80,0,0
141290,-100,4,3,1,85,0,0
142190,-200,4,2,1,40,0,0
142490,-500,4,2,1,20,0,0
142790,-80,4,2,99,80,0,1
143090,-80,4,2,1,70,0,1
147140,-80,4,2,5,80,0,1
147290,-80,4,2,1,70,0,1
149390,-80,4,2,5,80,0,1
149990,-80,4,2,2,70,0,1
150290,-80,4,2,1,70,0,1
151790,-80,4,2,5,80,0,1
152090,-80,4,3,1,85,0,1
152390,-80,4,2,2,85,0,1
152690,-80,4,2,1,70,0,1
154190,-80,4,2,5,80,0,1
154790,-80,4,2,1,70,0,1
156740,-80,4,2,5,80,0,1
156890,-80,4,2,1,70,0,1
157790,-80,4,2,2,70,0,1
157940,-80,4,2,1,70,0,1
158690,-80,4,2,5,80,0,1
159590,-80,4,2,2,70,0,1
159890,-80,4,2,1,70,0,1
160790,-80,4,2,1,75,0,1
161390,-80,4,2,5,80,0,1
161690,-80,4,3,1,85,0,1
161990,-80,4,2,2,70,0,1
162290,-80,4,2,1,70,0,1
163340,-80,4,2,5,80,0,1
164090,-80,4,2,1,70,0,1
164390,-80,4,2,2,70,0,1
164690,-80,4,2,1,70,0,1
165740,-80,4,2,5,80,0,1
166790,-80,4,2,2,70,0,1
167090,-80,4,2,1,70,0,1
167990,-80,4,2,5,80,0,1
168740,-80,4,2,1,70,0,1
169190,-80,4,2,1,80,0,1
170240,-80,4,2,5,80,0,1
171440,-80,4,2,1,70,0,1
172790,-80,4,2,1,70,0,1
172940,-80,4,2,1,75,0,1
173390,-80,4,2,5,80,0,1
173690,-80,4,3,1,85,0,1
173990,-153.846153846153,4,2,5,90,0,0
174065,-153.846153846153,4,2,5,30,0,0
175640,-153.846153846153,4,2,5,5,0,0
175790,-153.846153846153,4,2,5,30,0,0
176390,-153.846153846153,4,2,5,40,0,0
176465,-153.846153846153,4,2,5,30,0,0
177440,-153.846153846153,4,2,5,5,0,0
177590,-153.846153846153,4,2,5,30,0,0
178340,-153.846153846153,4,2,5,5,0,0
178490,-153.846153846153,4,2,5,30,0,0
178790,-153.846153846153,4,2,5,40,0,0
178865,-153.846153846153,4,2,5,30,0,0
179840,-153.846153846153,4,2,5,5,0,0
179990,-153.846153846153,4,2,5,30,0,0
180440,-153.846153846153,4,2,5,5,0,0
180590,-153.846153846153,4,2,5,30,0,0
180740,-153.846153846153,4,2,5,5,0,0
180890,-153.846153846153,4,2,5,30,0,0
181040,-153.846153846153,4,2,5,5,0,0
181190,-153.846153846153,4,2,5,40,0,0
181265,-153.846153846153,4,2,5,30,0,0
182240,-153.846153846153,4,2,5,5,0,0
182390,-153.846153846153,4,2,5,30,0,0
182840,-153.846153846153,4,2,5,5,0,0
182990,-153.846153846153,4,2,5,30,0,0
183440,-153.846153846153,4,2,5,5,0,0
183590,-153.846153846153,4,2,5,50,0,0
183740,-153.846153846153,4,2,5,5,0,0
183890,-153.846153846153,4,2,5,30,0,0
184040,-153.846153846153,4,2,5,5,0,0
184190,-153.846153846153,4,2,5,30,0,0
184340,-153.846153846153,4,2,5,5,0,0
184490,-153.846153846153,4,2,5,30,0,0
184640,-153.846153846153,4,2,5,5,0,0
184790,-153.846153846153,4,2,5,30,0,0
185240,-153.846153846153,4,2,5,5,0,0
185390,-153.846153846153,4,2,5,30,0,0
185690,-153.846153846153,4,2,5,5,0,0
185840,-153.846153846153,4,2,5,50,0,0
187040,-153.846153846153,4,2,5,5,0,0
187190,-153.846153846153,4,2,5,30,0,0
188240,-153.846153846153,4,2,5,5,0,0
188390,-153.846153846153,4,2,5,50,0,0
188540,-153.846153846153,4,2,5,5,0,0
188690,-153.846153846153,4,2,5,40,0,0
188840,-153.846153846153,4,2,5,5,0,0
188990,-153.846153846153,4,2,5,40,0,0
189140,-153.846153846153,4,2,5,5,0,0
189290,-153.846153846153,4,2,5,40,0,0
189440,-153.846153846153,4,2,5,5,0,0
189590,-153.846153846153,4,2,5,40,0,0
190490,-153.846153846153,4,2,5,5,0,0
190640,-153.846153846153,4,2,5,40,0,0
191540,-153.846153846153,4,2,5,5,0,0
191690,-153.846153846153,4,2,5,40,0,0
191990,-100,4,2,1,65,0,0
192590,-100,4,2,5,75,0,0
193190,-100,4,2,5,65,0,0
197990,-80,4,2,5,70,0,0
198365,-80,4,2,5,5,0,0
198440,-80,4,2,5,65,0,0
198815,-80,4,2,5,5,0,0
198890,-80,4,2,5,65,0,0
199415,-80,4,2,5,5,0,0
199490,-80,4,2,5,65,0,0
199715,-80,4,2,5,5,0,0
199790,-80,4,2,5,65,0,0
200015,-80,4,2,5,5,0,0
200090,-80,4,2,5,65,0,0
200315,-80,4,2,5,5,0,0
200390,-80,4,2,5,65,0,0
201065,-80,4,2,5,5,0,0
201140,-80,4,2,5,65,0,0
201590,-80,4,2,5,65,0,0
202115,-80,4,2,5,5,0,0
202190,-80,4,2,5,85,0,0
202340,-80,4,2,5,85,0,0
202790,-80,4,2,5,85,0,0
203465,-80,4,2,5,5,0,0
203540,-80,4,2,5,70,0,0
203990,-80,4,2,5,65,0,0
204590,-80,4,2,5,62,0,0
205190,-80,4,2,5,58,0,0
205790,-80,4,2,5,53,0,0
206390,-80,4,2,5,47,0,0
207590,-80,4,2,5,70,0,0
207965,-80,4,2,5,5,0,0
208040,-80,4,2,5,65,0,0
208415,-80,4,2,5,5,0,0
208490,-80,4,2,5,65,0,0
208865,-80,4,2,5,5,0,0
208940,-80,4,2,5,65,0,0
209315,-80,4,2,5,5,0,0
209390,-80,4,2,5,65,0,0
209915,-80,4,2,5,5,0,0
209990,-80,4,2,5,80,0,0
210440,-80,4,2,5,80,0,0
210665,-80,4,2,5,5,0,0
210740,-80,4,2,5,80,0,0
210815,-80,4,2,5,5,0,0
210890,-80,4,2,5,80,0,0
211115,-80,4,2,5,5,0,0
211190,-80,4,2,5,80,0,0
211640,-80,4,2,5,80,0,0
211865,-80,4,2,5,5,0,0
211940,-80,4,2,5,80,0,0
212015,-80,4,2,5,5,0,0
212090,-80,4,2,5,80,0,0
212315,-80,4,2,5,5,0,0
212390,-80,4,2,5,80,0,0
212840,-80,4,2,5,80,0,0
213215,-80,4,2,5,5,0,0
213290,-80,4,2,5,80,0,0
213515,-80,4,2,5,5,0,0
213590,-80,4,2,5,80,0,0
214190,-80,4,2,5,85,0,0
214490,-80,4,3,1,85,0,0
214790,-100,4,2,5,90,0,0
215090,-100,4,2,5,45,0,0
215390,-142.857142857143,4,2,5,45,0,0
215990,-142.857142857143,4,2,5,45,0,0
216590,-142.857142857143,4,2,1,45,0,0
217190,-142.857142857143,4,2,5,45,0,0
217790,-142.857142857143,4,2,1,45,0,0
218390,-142.857142857143,4,2,5,45,0,0
219290,-142.857142857143,4,2,2,45,0,0
219515,-142.857142857143,4,2,5,5,0,0
219590,-142.857142857143,4,2,5,45,0,0
220490,-142.857142857143,4,2,1,45,0,0
220790,-142.857142857143,4,2,5,45,0,0
221690,-142.857142857143,4,2,1,45,0,0
221990,-142.857142857143,4,2,5,45,0,0
222890,-142.857142857143,4,2,1,45,0,0
223190,-100,4,2,5,70,0,0
223490,-100,4,2,1,70,0,0
223640,-100,4,2,5,70,0,0
224390,-100,4,2,1,70,0,0
225590,-100,4,2,2,70,0,0
225890,-100,4,2,1,70,0,0
229040,-100,4,2,5,70,0,0
229190,-100,4,2,1,70,0,0
230090,-100,4,2,2,70,0,0
230240,-100,4,2,1,70,0,0
230690,-94.3396226415094,4,2,1,70,0,0
231290,-100,4,2,1,70,0,0
231440,-100,4,2,5,70,0,0
231590,-125,4,2,5,70,0,0
231740,-125,4,2,1,70,0,0
232040,-125,4,2,5,70,0,0
232340,-125,4,2,1,70,0,0
232640,-125,4,2,5,70,0,0
232790,-125,4,2,1,70,0,0
233990,-125,4,2,5,70,0,0
234890,-100,4,3,1,70,0,0
235190,-100,4,3,1,70,0,0
235790,-200,4,2,1,40,0,0
236090,-500,4,2,1,20,0,0
236390,-125,4,2,1,30,0,0
238340,-125,4,2,5,45,0,0
238790,-125,4,2,1,30,0,0
241190,-125,4,2,1,40,0,0
241490,-125,4,2,1,30,0,0
242615,-125,4,2,1,5,0,0
242690,-125,4,2,1,30,0,0
243140,-125,4,2,5,45,0,0
243590,-125,4,2,1,30,0,0
243965,-125,4,2,1,5,0,0
244040,-125,4,2,1,30,0,0
244415,-125,4,2,1,5,0,0
244490,-125,4,2,1,30,0,0
245090,-125,4,2,5,45,0,0
245390,-125,4,2,5,60,0,0
245990,-125,4,2,1,30,0,0
248090,-125,4,2,1,45,0,0
248390,-125,4,2,1,30,0,0
250190,-125,4,2,2,30,0,0
250790,-125,4,2,1,30,0,0
251390,-125,4,2,1,45,0,0
252290,-125,4,2,1,30,0,0
252590,-200,4,2,1,20,0,0
252890,-500,4,2,1,10,0,0
253190,-100,4,2,1,60,0,0
254690,-100,4,2,1,70,0,0
254990,-66.6666666666667,4,2,5,75,0,0
255290,-76.9230769230769,4,3,1,80,0,0
255590,-90.9090909090909,4,2,99,90,0,1
255890,-90.9090909090909,4,2,1,70,0,1
257990,-83.3333333333333,4,2,1,70,0,1
258440,-90.9090909090909,4,2,1,70,0,1
259940,-90.9090909090909,4,2,5,80,0,1
260240,-90.9090909090909,4,2,1,70,0,1
260390,-83.3333333333333,4,2,1,70,0,1
260690,-90.9090909090909,4,2,1,70,0,1
262190,-90.9090909090909,4,2,5,80,0,1
262790,-125,4,2,2,70,0,1
263090,-125,4,2,1,70,0,1
263690,-90.9090909090909,4,2,1,70,0,1
264290,-125,4,2,1,70,0,1
264590,-125,4,2,5,80,0,1
264890,-125,4,3,1,85,0,1
265190,-83.3333333333333,4,2,1,70,0,1
265640,-90.9090909090909,4,2,1,70,0,1
266690,-90.9090909090909,4,2,5,80,0,1
267590,-83.3333333333333,4,2,1,70,0,1
268040,-90.9090909090909,4,2,1,70,0,1
269540,-90.9090909090909,4,2,5,80,0,1
269690,-90.9090909090909,4,2,1,70,0,1
269990,-83.3333333333333,4,2,1,70,0,1
270290,-90.9090909090909,4,2,1,70,0,1
270590,-111.111111111111,4,2,1,70,0,1
270890,-90.9090909090909,4,2,1,70,0,1
271790,-90.9090909090909,4,2,5,80,0,1
272390,-71.4285714285714,4,2,2,70,0,1
272615,-71.4285714285714,4,2,1,5,0,1
272690,-71.4285714285714,4,2,2,70,0,1
273065,-71.4285714285714,4,2,1,5,0,1
273140,-71.4285714285714,4,2,1,70,0,1
273290,-71.4285714285714,4,2,2,70,0,1
273590,-71.4285714285714,4,2,1,70,0,1
274190,-71.4285714285714,4,2,5,80,0,1
274490,-71.4285714285714,4,3,1,85,0,1
274790,-90.9090909090909,4,2,2,70,0,1
275240,-90.9090909090909,4,2,2,70,0,1
275690,-90.9090909090909,4,2,2,70,0,1
276440,-90.9090909090909,4,2,1,70,0,1
276590,-90.9090909090909,4,2,5,80,0,1
277190,-90.9090909090909,4,2,2,70,0,1
277640,-90.9090909090909,4,2,2,70,0,1
278090,-90.9090909090909,4,2,2,70,0,1
278540,-90.9090909090909,4,2,5,80,0,1
278840,-90.9090909090909,4,2,1,70,0,1
278990,-90.9090909090909,4,2,5,80,0,1
279590,-90.9090909090909,4,2,2,70,0,1
280040,-90.9090909090909,4,2,2,70,0,1
280490,-90.9090909090909,4,2,2,70,0,1
280790,-90.9090909090909,4,2,5,80,0,1
281990,-90.9090909090909,4,2,2,80,0,1
282290,-90.9090909090909,4,2,1,80,0,1
283040,-90.9090909090909,4,2,5,80,0,1
283340,-90.9090909090909,4,2,1,80,0,1
283490,-90.9090909090909,4,2,5,80,0,1
283790,-90.9090909090909,4,3,1,80,0,1
284090,-90.9090909090909,4,2,5,80,0,1
284240,-476.190476190476,4,2,1,85,0,0
284315,-476.190476190476,4,2,1,10,0,0
286640,-100,4,2,1,20,0,0
286790,-80,4,2,2,70,0,0
286940,-80,4,2,1,70,0,0
288065,-80,4,2,1,5,0,0
288140,-80,4,2,1,70,0,0
289190,-80,4,2,5,80,0,0
289640,-80,4,2,1,70,0,0
290615,-80,4,2,1,5,0,0
290690,-80,4,2,1,70,0,0
290990,-80,4,2,1,70,0,0
291590,-80,4,2,2,70,0,0
291740,-80,4,2,1,5,0,0
291815,-80,4,2,1,70,0,0
291965,-80,4,2,1,5,0,0
292040,-80,4,2,1,70,0,0
292340,-80,4,2,1,5,0,0
292415,-80,4,2,1,70,0,0
292565,-80,4,2,1,5,0,0
292640,-80,4,2,1,70,0,0
293390,-80,4,2,5,80,0,0
293990,-80,4,2,2,70,0,0
294140,-80,4,2,1,70,0,0
295490,-66.6666666666667,4,2,1,70,0,0
295790,-66.6666666666667,4,2,5,80,0,0
296390,-66.6666666666667,4,2,2,70,0,0
296465,-66.6666666666667,4,2,1,70,0,0
298790,-100,4,2,5,80,0,0
299990,-100,4,2,1,70,0,0
300140,-100,4,2,5,80,0,0
300290,-100,4,2,1,70,0,0
300740,-100,4,2,5,80,0,0
301040,-100,4,2,1,70,0,0
301190,-100,4,2,2,70,0,0
301340,-100,4,2,1,5,0,0
301415,-100,4,2,1,70,0,0
301565,-100,4,2,1,5,0,0
301640,-100,4,2,1,70,0,0
301790,-100,4,2,1,70,0,0
301940,-100,4,2,1,5,0,0
302015,-100,4,2,1,70,0,0
302165,-100,4,2,1,5,0,0
302240,-100,4,2,1,70,0,0
303440,-100,4,2,5,80,0,0
303590,-80,4,2,2,70,0,0
303740,-80,4,2,1,70,0,0
304040,-133.333333333333,4,2,1,70,0,0
304490,-80,4,2,1,70,0,0
304790,-80,4,2,1,70,0,0
305390,-80,4,2,5,80,0,0
305690,-80,4,3,1,85,0,0
305990,-80,4,2,2,90,0,0
306140,-80,4,2,1,80,0,0
307040,-80,4,2,5,85,0,0
307790,-80,4,3,1,85,0,0
308390,-80,4,2,2,90,0,0
308540,-80,4,2,1,85,0,0
309440,-80,4,2,5,90,0,0
310190,-80,4,3,1,90,0,0
310790,-80,4,2,1,95,0,0
311690,-80,4,2,5,5,0,0
311840,-80,4,2,1,80,0,0
311990,-80,4,2,99,95,0,0

[Colours]
Combo1 : 255,193,193
Combo2 : 248,65,61
Combo3 : 198,141,128
Combo4 : 198,0,0

[HitObjects]
359,324,590,6,0,B|309:309|262:324|262:324|246:313|246:313|199:327|149:313,1,215.999993408203,4|2,1:2|0:2,0:2:0:0:
58,66,1640,1,0,1:2:0:0:
58,66,1715,1,0,1:2:0:0:
58,66,1790,6,0,B|147:47|147:47|168:70|168:70|214:56|265:68,1,215.999993408203,4|2,1:2|0:2,0:2:0:0:
462,205,2840,1,0,1:2:0:0:
462,205,2915,1,0,1:2:0:0:
462,205,2990,6,0,B|368:205|368:205|350:183|350:183|253:183,1,215.999993408203,4|2,1:2|0:2,0:2:0:0:
134,236,4190,6,0,L|106:212,3,36,0|0|0|0,1:2|1:2|1:2|1:2,0:2:0:0:
211,305,4490,2,0,L|241:280,3,36,0|0|0|0,1:2|1:2|1:2|1:2,0:2:0:0:
57,108,4790,5,8,0:2:0:0:
92,99,4865,1,8,0:2:0:0:
128,102,4940,1,8,0:2:0:0:
160,116,5015,1,8,0:2:0:0:
191,144,5090,5,8,0:2:0:0:
217,167,5165,1,8,0:2:0:0:
250,182,5240,1,8,0:2:0:0:
286,184,5315,1,8,0:2:0:0:
321,176,5390,6,0,P|360:145|379:106,1,90,4|0,1:2|0:2,0:2:0:0:
272,72,5690,1,10,0:2:0:0:
457,206,5840,1,0,0:2:0:0:
298,323,5990,2,0,P|247:322|200:304,1,90,2|0,1:2|1:2,0:2:0:0:
29,234,6290,2,0,P|71:220|116:220,1,90,10|0,0:2|0:2,0:2:0:0:
67,87,6590,6,0,B|119:69|119:69|176:93|243:76,1,180,0|10,1:2|0:2,0:2:0:0:
368,44,7040,1,0,0:2:0:0:
445,158,7190,2,0,L|422:245,1,90,2|0,1:2|1:2,0:2:0:0:
329,330,7490,2,0,L|305:239,1,90,10|0,0:2|0:2,0:2:0:0:
120,176,7790,6,0,B|107:221|122:255|122:255|104:302|122:355,1,180,0|10,1:2|0:2,0:2:0:0:
306,242,8240,1,0,0:2:0:0:
179,101,8390,2,0,P|136:82|67:95,1,90,2|0,1:2|1:2,0:2:0:0:
333,57,8690,2,0,P|376:38|445:51,1,90,10|0,0:2|0:2,0:2:0:0:
407,218,8990,6,0,P|391:175|391:131,1,90,2|0,1:2|0:2,0:2:0:0:
153,214,9290,1,10,0:2:0:0:
306,243,9440,1,0,0:2:0:0:
177,86,9590,2,0,L|86:75,1,90,2|0,1:2|1:2,0:2:0:0:
358,320,9890,2,0,L|449:331,1,90,10|0,0:2|0:2,0:2:0:0:
262,149,10190,6,0,L|259:58,1,90,4|0,1:2|0:2,0:2:0:0:
130,184,10490,1,8,0:2:0:0:
358,232,10640,2,0,L|353:51,1,180,0|0,1:2|1:2,0:2:0:0:
130,184,11090,1,8,0:2:0:0:
230,280,11240,1,0,0:2:0:0:
79,95,11390,6,0,P|39:137|29:174,1,90,0|0,1:2|0:2,0:2:0:0:
96,318,11690,1,8,0:2:0:0:
227,150,11840,2,0,P|165:88|78:94,1,180,0|0,1:2|1:2,0:2:0:0:
130,184,12215,1,0,1:2:0:0:
130,184,12290,2,0,L|161:293,1,90,8|0,0:2|0:2,0:2:0:0:
404,168,12590,6,0,L|428:81,1,90,0|0,1:2|0:2,0:2:0:0:
307,106,12890,1,8,0:2:0:0:
298,251,13040,2,0,L|322:337,1,90,0|0,1:2|0:2,0:2:0:0:
204,345,13340,1,0,1:2:0:0:
69,142,13490,2,0,B|72:122|67:100|67:100|74:77|67:45,1,90,8|0,0:2|0:2,0:2:0:0:
57,265,13790,5,0,1:2:0:0:
101,262,13865,1,0,1:2:0:0:
142,243,13940,1,0,1:2:0:0:
172,211,14015,1,0,1:2:0:0:
188,169,14090,1,8,1:2:0:0:
204,127,14165,1,0,1:2:0:0:
234,95,14240,1,0,1:2:0:0:
275,76,14315,1,0,1:2:0:0:
320,74,14390,6,0,L|366:88,1,45,8|8,0:2|0:2,0:2:0:0:
463,159,14540,2,0,L|427:191,1,45,8|8,0:2|0:2,0:2:0:0:
318,240,14690,1,8,0:2:0:0:
318,240,14765,1,8,0:2:0:0:
318,240,14840,2,8,L|308:197,1,45,8|8,0:2|0:2,0:2:0:0:
68,53,14990,6,0,P|64:99|69:147,1,90,4|0,1:2|0:2,0:2:0:0:
170,296,15290,2,0,P|174:250|169:202,1,90,10|0,0:2|0:2,0:2:0:0:
279,55,15590,2,0,P|283:101|278:149,1,90,2|0,0:2|0:2,0:2:0:0:
416,326,15890,1,10,0:2:0:0:
416,326,16040,2,0,B|427:280|427:280|401:218|416:144,1,180,2|0,0:2|0:2,0:2:0:0:
283,121,16490,1,10,0:2:0:0:
414,149,16640,1,0,0:2:0:0:
226,197,16790,2,0,P|197:163|189:119,1,90,2|0,0:2|0:2,0:2:0:0:
135,27,17090,2,0,P|101:55|86:97,1,90,10|0,0:2|0:2,0:2:0:0:
51,317,17390,6,0,P|141:304|233:312,1,180,2|8,1:2|0:2,0:2:0:0:
119,207,17840,1,0,0:2:0:0:
340,299,17990,1,2,0:2:0:0:
231,190,18140,1,0,0:2:0:0:
412,128,18290,2,0,P|413:85|409:35,1,90,8|0,0:2|0:2,0:2:0:0:
39,123,18590,6,0,L|211:184,1,180,2|8,1:2|0:2,0:2:0:0:
464,212,19040,2,0,L|292:273,1,180,2|0,0:2|0:2,0:2:0:0:
447,98,19490,1,10,0:2:0:0:
274,64,19640,1,0,1:2:0:0:
274,64,19715,1,0,1:2:0:0:
274,64,19790,6,0,P|217:66|178:83,1,90,4|0,1:2|0:2,0:2:0:0:
22,232,20090,2,0,P|79:230|118:213,1,90,10|0,0:2|0:2,0:2:0:0:
328,149,20390,2,0,P|309:206|282:250,1,90,2|0,0:2|0:2,0:2:0:0:
198,353,20690,1,10,0:2:0:0:
198,353,20840,2,0,P|202:290|318:237,1,180,2|0,0:2|0:2,0:2:0:0:
372,320,21290,2,0,P|331:336|288:329,1,90,10|0,0:2|0:2,0:2:0:0:
88,191,21590,1,2,0:2:0:0:
113,321,21740,1,0,0:2:0:0:
188,130,21890,2,0,L|201:40,1,90,10|0,0:2|0:2,0:2:0:0:
384,45,22190,6,0,B|401:89|383:131|383:131|363:176|385:227,1,180,6|8,1:2|0:2,0:2:0:0:
298,86,22640,1,0,0:2:0:0:
358,319,22790,1,2,0:2:0:0:
468,173,22940,1,0,0:2:0:0:
245,270,23090,2,0,P|235:313|242:357,1,90,8|0,0:2|0:2,0:2:0:0:
330,30,23390,6,0,L|156:79,1,180,2|8,1:2|0:2,0:2:0:0:
0,149,23840,2,0,L|173:198,1,180,2|0,1:2|1:2,0:2:0:0:
52,65,24290,1,8,0:2:0:0:
129,314,24440,1,8,0:2:0:0:
129,314,24515,1,8,0:2:0:0:
129,314,24590,6,0,P|174:323|227:308,1,90,4|0,1:2|0:2,0:2:0:0:
446,236,24890,2,0,P|401:227|348:242,1,90,10|0,0:2|0:2,0:2:0:0:
309,159,25190,2,0,P|278:193|265:246,1,90,2|0,0:2|0:2,0:2:0:0:
310,316,25490,1,10,0:2:0:0:
401,155,25640,2,0,P|350:77|267:77,1,180,2|0,0:2|0:2,0:2:0:0:
154,187,26090,2,0,L|127:275,1,90,10|0,0:2|0:2,0:2:0:0:
37,353,26390,2,0,L|10:266,1,90,2|0,0:2|0:2,0:2:0:0:
244,267,26690,1,10,0:2:0:0:
113,76,26840,1,8,0:2:0:0:
402,297,26990,6,0,P|390:201|399:113,1,180,6|8,1:2|0:2,0:2:0:0:
290,144,27440,1,0,0:2:0:0:
324,344,27590,1,2,1:2:0:0:
481,215,27740,1,0,1:2:0:0:
290,144,27890,2,0,P|238:140|194:145,1,90,8|0,0:2|0:2,0:2:0:0:
0,258,28190,6,0,P|88:265|167:321,1,180,6|8,1:2|0:2,0:2:0:0:
324,258,28640,2,0,P|236:265|157:321,1,180,2|0,1:2|0:2,0:2:0:0:
83,68,29090,1,0,1:2:0:0:
83,68,29165,1,0,1:2:0:0:
83,68,29240,1,0,1:2:0:0:
83,68,29315,1,0,1:2:0:0:
83,68,29390,6,0,P|73:131|72:165,1,90,4|0,1:2|0:2,0:2:0:0:
359,221,29690,2,0,P|376:174|360:123,1,90,10|0,0:2|0:2,0:2:0:0:
197,221,29990,2,0,P|181:180|189:136,1,90,2|0,1:2|0:2,0:2:0:0:
370,30,30290,1,10,0:2:0:0:
278,173,30440,6,0,L|279:361,1,180,6|0,1:2|1:2,0:2:0:0:
465,256,30890,2,0,L|465:166,1,90,10|0,0:2|0:2,0:2:0:0:
269,61,31190,1,2,1:2:0:0:
375,203,31340,1,8,0:2:0:0:
175,117,31490,2,0,P|162:82|164:28,1,90,10|0,0:2|0:2,0:2:0:0:
7,303,31790,6,0,P|82:346|162:314,1,180,6|8,1:2|0:2,0:2:0:0:
175,117,32240,2,0,P|99:160|87:246,1,180,6|0,1:2|0:2,0:2:0:0:
252,355,32690,2,0,P|252:268|183:214,1,180,6|0,1:2|1:2,0:2:0:0:
293,172,33140,1,8,0:2:0:0:
120,28,33290,1,8,0:2:0:0:
233,52,33440,1,0,1:2:0:0:
86,201,33590,1,8,0:2:0:0:
86,245,33665,1,8,0:2:0:0:
86,289,33740,1,8,0:2:0:0:
372,73,33890,6,0,B|382:111|382:111|372:142|372:142|381:173|373:205,1,135,8|0,0:2|0:2,0:2:0:0:
357,227,34190,6,0,P|310:255|210:183,1,188.999994232178,4|0,1:2|1:2,0:2:0:0:
210,188,34790,2,0,L|211:62,1,125.999996154785,8|0,0:2|0:2,0:2:0:0:
65,200,35390,1,0,1:2:0:0:
65,200,35540,2,0,L|65:326,1,125.999996154785,0|0,1:2|1:2,0:2:0:0:
69,329,35990,2,0,P|126:351|186:335,1,125.999996154785,8|0,0:2|0:2,0:2:0:0:
404,174,36590,6,0,P|314:148|224:174,1,188.999994232178,0|0,1:2|1:2,0:2:0:0:
225,175,37190,2,0,P|211:116|226:54,1,125.999996154785,8|0,0:2|0:2,0:2:0:0:
226,53,37790,2,0,P|189:68|158:68,1,62.9999980773926,0|0,1:2|1:2,0:2:0:0:
165,68,38240,1,0,1:2:0:0:
162,265,38540,1,0,1:2:0:0:
162,265,38615,1,0,1:2:0:0:
162,265,38690,2,0,P|208:282|256:275,1,94.499997116089,8|0,0:2|0:2,0:2:0:0:
289,260,38990,6,0,P|333:251|415:277,1,125.999996154785,4|0,1:2|0:2,0:2:0:0:
468,343,39440,1,0,1:2:0:0:
409,273,39590,2,0,P|401:231|410:195,1,62.9999980773926,0|0,1:2|0:2,0:2:0:0:
447,110,39890,2,0,P|455:68|446:32,1,62.9999980773926,8|0,0:2|0:2,0:2:0:0:
179,77,40190,6,0,P|267:93|367:76,1,188.999994232178,0|0,1:2|0:2,0:2:0:0:
244,195,40790,1,0,1:2:0:0:
244,195,40940,1,0,1:2:0:0:
38,38,41090,1,8,0:2:0:0:
38,38,41390,6,0,L|36:226,1,188.999994232178,0|0,1:2|1:2,0:2:0:0:
64,332,41990,1,0,1:2:0:0:
64,332,42140,1,0,1:2:0:0:
233,150,42290,2,0,P|235:97|223:64,1,62.9999980773926,8|0,0:2|0:2,0:2:0:0:
143,122,42590,5,0,1:2:0:0:
301,220,42740,1,8,0:2:0:0:
165,220,42890,1,8,0:2:0:0:
323,122,43040,1,0,1:2:0:0:
235,326,43190,5,0,1:2:0:0:
235,326,43265,1,0,1:2:0:0:
235,326,43340,2,0,L|229:374,1,40.4999987640381,0|0,1:2|1:2,0:2:0:0:
378,295,43490,5,0,1:2:0:0:
378,295,43565,1,0,1:2:0:0:
378,295,43640,2,0,L|372:343,1,40.4999987640381,0|0,1:2|1:2,0:2:0:0:
431,146,43790,6,0,L|439:55,1,90,4|0,1:2|0:2,0:2:0:0:
240,141,44090,1,8,0:2:0:0:
124,96,44240,1,0,0:2:0:0:
322,93,44390,2,0,P|334:130|324:185,1,90,2|0,1:2|1:2,0:2:0:0:
38,135,44690,2,0,P|30:91|42:48,1,90,10|0,0:2|0:2,0:2:0:0:
251,326,44990,6,0,P|171:349|80:326,1,180,2|8,1:2|0:2,0:2:0:0:
80,230,45440,1,2,0:2:0:0:
246,174,45590,2,0,P|257:131|251:87,1,90,0|0,1:2|1:2,0:2:0:0:
121,50,45890,2,0,P|114:94|125:137,1,90,10|0,0:2|0:2,0:2:0:0:
426,345,46190,6,0,B|437:292|437:292|426:250|426:250|443:209|428:163,1,180,2|8,1:2|0:2,0:2:0:0:
341,204,46640,1,2,0:2:0:0:
398,67,46790,1,0,1:2:0:0:
398,67,46940,1,0,1:2:0:0:
251,173,47090,2,0,P|248:221|266:266,1,90,10|0,0:2|0:2,0:2:0:0:
225,67,47390,6,0,P|181:88|151:126,1,90,2|0,1:2|0:2,0:2:0:0:
86,281,47690,1,10,0:2:0:0:
86,281,47840,2,0,P|129:259|159:221,1,90,2|0,1:2|0:2,0:2:0:0:
220,331,48140,1,0,1:2:0:0:
55,159,48290,1,8,0:2:0:0:
331,210,48440,1,0,1:2:0:0:
331,210,48515,1,0,1:2:0:0:
331,210,48590,6,0,P|342:136|335:90,1,90,12|0,0:2|1:2,0:2:0:0:
97,112,48890,2,0,P|93:165|105:217,1,90,8|0,0:2|1:2,0:2:0:0:
467,166,49190,2,0,P|465:103|469:58,1,90,8|0,0:2|1:2,0:2:0:0:
215,60,49490,2,0,P|218:104|218:149,1,90,8|0,0:2|1:2,0:2:0:0:
453,247,49790,5,8,0:2:0:0:
215,346,49940,1,0,1:2:0:0:
467,341,50090,1,8,0:2:0:0:
226,260,50240,1,0,1:2:0:0:
336,128,50390,5,10,0:2:0:0:
114,241,50540,1,2,1:2:0:0:
296,41,50690,2,0,P|359:35|397:54,1,90,10|2,0:2|1:2,0:2:0:0:
114,118,50915,1,0,1:2:0:0:
114,118,50990,6,0,L|113:19,1,80.9999975280763,6|0,1:2|1:2,0:2:0:0:
328,265,51440,1,0,1:2:0:0:
328,265,51515,1,0,1:2:0:0:
328,265,51590,2,0,L|327:345,1,80.9999975280763,10|0,0:2|0:2,0:2:0:0:
424,164,52040,1,0,1:2:0:0:
424,164,52115,1,0,1:2:0:0:
424,164,52190,6,0,P|337:126|253:150,1,161.999995056153,6|0,1:2|0:2,0:2:0:0:
88,288,52640,1,2,1:2:0:0:
168,339,52790,2,0,P|197:300|184:185,1,161.999995056153,8|2,0:2|1:2,0:2:0:0:
81,78,53390,6,0,L|82:137,1,40.4999987640381,0|0,1:2|1:2,1:2:0:0:
186,119,53540,2,0,L|187:178,1,40.4999987640381,0|0,1:2|1:2,1:2:0:0:
325,159,53690,2,0,L|326:119,1,40.4999987640381,0|0,1:2|1:2,1:2:0:0:
430,118,53840,2,0,L|431:78,1,40.4999987640381,0|0,1:2|1:2,1:2:0:0:
453,290,53990,5,0,1:2:0:0:
423,312,54065,1,0,1:2:0:0:
385,327,54140,1,0,1:2:0:0:
340,329,54215,1,0,1:2:0:0:
293,314,54290,5,0,1:2:0:0:
246,281,54365,1,0,1:2:0:0:
187,253,54440,1,0,1:2:0:0:
114,262,54515,1,0,1:2:0:0:
45,304,54590,1,4,1:2:0:0:
45,304,55190,6,0,L|42:255,1,45,2|0,1:2|0:2,0:2:0:0:
101,152,55490,6,0,L|102:127,1,18,2|0,1:2|0:2,0:2:0:0:
374,78,55790,6,0,B|394:143|394:143|383:196|383:196|410:248|391:316,1,225,6|8,0:0|0:0,0:0:0:0:
205,338,56240,2,0,P|171:295|170:240,1,112.5
296,164,56541,2,0,P|294:219|261:263,1,112.5,0|8,0:0|0:0,0:0:0:0:
98,68,56840,2,0,P|43:26|31:137,1,225
261,91,57290,1,8,0:0:0:0:
133,141,57440,1,0,0:0:0:0:
296,164,57590,1,0,0:0:0:0:
98,68,57740,1,0,0:0:0:0:
319,14,57890,2,0,B|264:-2|264:-2|193:15,1,112.5,8|0,0:0|0:0,0:0:0:0:
323,283,58190,6,0,B|350:190|318:115|318:115|280:196,1,225,4|8,0:0|0:0,0:0:0:0:
93,371,58640,2,0,P|29:360|-8:305,1,112.5
153,239,58940,1,0,0:0:0:0:
93,371,59090,1,8,0:0:0:0:
38,195,59240,1,0,0:0:0:0:
208,327,59390,6,0,B|288:375|352:279|448:343,1,225,0|8,0:0|0:0,0:0:0:0:
491,226,59840,1,0,0:0:0:0:
512,374,59990,1,0,0:0:0:0:
351,172,60140,1,0,0:0:0:0:
326,141,60215,1,0,0:0:0:0:
302,110,60290,2,0,L|190:96,1,112.5,8|0,0:0|0:0,0:0:0:0:
0,272,60590,6,0,L|111:258,1,112.5,4|0,0:0|0:0,0:0:0:0:
124,27,60890,2,0,P|98:75|103:131,1,112.5,8|0,0:0|0:0,0:0:0:0:
388,144,61190,2,0,P|393:88|367:40,1,112.5
190,95,61490,1,8,0:0:0:0:
426,153,61640,6,0,B|443:228|443:228|434:304|434:304|449:375,1,225,4|0,0:0|0:0,0:0:0:0:
317,273,62090,2,0,P|253:263|186:270,1,112.5,8|0,0:0|0:0,0:0:0:0:
18,355,62390,2,0,P|82:365|149:358,1,112.5
349,158,62690,1,8,0:0:0:0:
253,374,62840,1,0,0:0:0:0:
157,158,62990,6,0,B|119:77|151:20|151:20|172:69|215:88,1,225,6|8,0:0|0:0,0:0:0:0:
331,211,63440,2,0,B|369:130|337:73|337:73|316:122|273:141,1,225,4|0,0:0|0:0,0:0:0:0:
157,264,63890,1,12,0:0:0:0:
331,317,64040,1,0,0:0:0:0:
285,134,64190,6,0,L|271:79,1,56.25,8|0,0:0|0:0,0:0:0:0:
170,209,64340,2,0,L|156:263,1,56.25
265,229,64490,2,0,L|319:215,1,56.25,8|0,0:0|0:0,0:0:0:0:
190,114,64640,2,0,L|135:100,1,56.25
20,175,64790,5,8,0:0:0:0:
9,215,64865,1,8,0:0:0:0:
6,257,64940,1,8,0:0:0:0:
9,299,65015,1,8,0:0:0:0:
19,340,65090,5,8,0:0:0:0:
31,347,65165,1,8,0:0:0:0:
44,354,65240,1,8,0:0:0:0:
56,360,65315,1,8,0:0:0:0:
68,367,65390,6,0,B|126:378|183:354|183:354|239:367|239:367|306:354,1,225,6|8,0:0|0:0,0:0:0:0:
412,222,65840,2,0,B|422:279|422:279|414:342,1,112.5
249,138,66140,2,0,B|239:195|239:195|247:258,1,112.5,0|8,0:0|0:0,0:0:0:0:
479,140,66440,6,0,P|461:45|376:92,1,225,4|0,0:0|0:0,0:0:0:0:
329,236,66890,1,8,0:0:0:0:
292,104,67040,1,0,0:0:0:0:
245,249,67190,1,0,0:0:0:0:
376,91,67340,1,0,0:0:0:0:
350,296,67490,1,8,0:0:0:0:
273,43,67640,1,0,0:0:0:0:
53,141,67790,6,0,B|109:133|109:133|178:142,1,112.5,4|0,0:0|0:0,0:0:0:0:
361,188,68090,1,8,0:0:0:0:
180,249,68240,2,0,P|181:302|219:364,2,112.5
479,140,68690,2,0,P|489:192|464:260,1,112.5,8|0,0:0|0:0,0:0:0:0:
164,140,68990,6,0,B|131:122|95:123|95:123|65:144|17:151|17:151|65:154|98:180,1,225,0|8,0:0|0:0,0:0:0:0:
180,249,69440,1,0,0:0:0:0:
25,248,69590,1,0,0:0:0:0:
267,181,69740,1,0,0:0:0:0:
305,171,69815,1,0,0:0:0:0:
343,160,69890,2,0,L|425:182,1,56.25,8|0,0:0|0:0,0:0:0:0:
492,251,70040,2,0,L|437:265,1,56.25
302,69,70190,6,0,L|419:100,1,112.5,4|0,0:0|0:0,0:0:0:0:
380,349,70490,2,0,P|343:307|336:252,1,112.5,8|0,0:0|0:0,0:0:0:0:
302,69,70790,2,0,P|294:124|258:165,1,112.5
90,85,71090,1,8,0:0:0:0:
407,62,71240,6,0,L|394:203,1,112.5,4|0,0:0|0:0,0:0:0:0:
380,349,71540,1,0,0:0:0:0:
257,164,71690,2,0,P|205:157|143:192,1,112.5,8|0,0:0|0:0,0:0:0:0:
372,162,71990,2,0,P|403:121|404:49,1,112.5
310,267,72290,2,0,P|330:314|391:351,1,112.5,8|0,0:0|0:0,0:0:0:0:
372,162,72590,6,0,P|308:60|189:72,1,225,6|8,0:0|0:0,0:0:0:0:
97,267,73040,2,0,P|161:165|280:177,1,225,4|0,0:0|0:0,0:0:0:0:
291,320,73490,2,0,P|265:272|212:268,1,112.5,12|0,0:0|0:0,0:0:0:0:
98,358,73790,6,0,L|42:364,1,56.25,8|0,0:0|0:0,0:0:0:0:
154,262,73940,2,0,L|211:268,1,56.25,8|0,0:0|0:0,0:0:0:0:
98,166,74090,2,0,L|42:172,1,56.25,8|0,0:0|0:0,0:0:0:0:
153,70,74240,5,8,0:0:0:0:
193,74,74315,1,8,0:0:0:0:
232,77,74390,1,8,0:0:0:0:
271,80,74465,1,8,0:0:0:0:
310,83,74540,5,8,0:0:0:0:
323,78,74615,1,8,0:0:0:0:
335,71,74690,1,8,0:0:0:0:
345,61,74765,1,8,0:0:0:0:
353,50,74840,5,8,0:0:0:0:
363,105,74915,1,8,0:0:0:0:
372,161,74990,6,0,B|367:211|367:211|337:297,1,99.0000030212403,6|0,0:0|0:0,0:0:0:0:
234,336,75290,1,8,0:0:0:0:
136,99,75440,2,0,B|141:149|141:149|171:235,1,99.0000030212403,4|0,0:0|0:0,0:0:0:0:
274,274,75740,1,0,0:0:0:0:
379,25,75890,6,0,B|428:22|428:22|504:59,2,99.0000030212403,12|0|0,0:0|0:0|0:0,0:0:0:0:
278,92,76340,1,0,0:0:0:0:
149,55,76490,1,8,0:0:0:0:
291,48,76640,1,0,0:0:0:0:
136,99,76790,1,0,0:0:0:0:
304,4,76940,1,0,0:0:0:0:
278,194,77090,1,8,0:0:0:0:
162,12,77240,1,0,0:0:0:0:
90,219,77390,6,0,P|66:299|25:341,1,99.0000030212403,6|0,0:0|0:0,0:0:0:0:
24,149,77690,1,8,0:0:0:0:
249,276,77840,2,0,P|309:333|366:349,1,99.0000030212403,4|0,0:0|0:0,0:0:0:0:
271,182,78140,1,0,0:0:0:0:
24,148,78290,6,0,P|34:94|65:47,2,99.0000030212403,12|0|0,0:0|0:0|0:0,0:0:0:0:
155,289,78740,1,0,0:0:0:0:
66,135,78890,1,8,0:0:0:0:
113,302,79040,1,0,0:0:0:0:
202,122,79190,1,0,0:0:0:0:
187,362,79340,1,0,0:0:0:0:
24,237,79490,1,8,0:0:0:0:
264,252,79640,1,0,0:0:0:0:
120,65,79790,6,0,P|103:121|130:195,1,99.0000030212403,6|0,0:0|0:0,0:0:0:0:
210,22,80090,1,8,0:0:0:0:
346,195,80240,2,0,P|363:251|336:325,1,99.0000030212403,4|0,0:0|0:0,0:0:0:0:
256,152,80540,1,0,0:0:0:0:
120,325,80690,6,0,P|158:369|235:385,1,99.0000030212403,12|0,0:0|0:0,0:0:0:0:
346,195,80990,2,0,P|434:247|393:341,1,198.000006042481,0|8,0:0|0:0,0:0:0:0:
227,264,81440,1,0,0:0:0:0:
228,17,81590,6,0,B|228:40|228:40|237:64|237:64|221:91|225:125,1,99.0000030212403
117,73,81890,2,0,B|117:95|117:95|108:119|108:119|124:146|119:180,1,99.0000030212403,8|0,0:0|0:0,0:0:0:0:
357,7,82190,6,0,B|372:56|372:56|361:94|372:142,1,99.0000030212403,14|0,0:0|0:0,0:0:0:0:
391,341,82490,1,8,0:0:0:0:
474,93,82640,1,0,0:0:0:0:
298,323,82790,1,8,0:0:0:0:
492,171,82940,1,0,0:0:0:0:
205,305,83090,1,8,0:0:0:0:
510,249,83240,1,8,0:0:0:0:
510,249,83315,1,8,0:0:0:0:
510,249,83390,6,0,B|483:366,1,99.0000030212403,12|0,0:0|0:0,0:0:0:0:
112,287,83690,1,8,0:0:0:0:
137,237,83765,1,8,0:0:0:0:
186,211,83840,1,8,0:0:0:0:
241,217,83915,1,8,0:0:0:0:
284,253,83990,1,12,0:0:0:0:
250,81,84290,1,8,0:0:0:0:
284,253,84440,6,0,P|366:296|459:202,1,198.000006042481,4|0,0:0|0:0,0:0:0:0:
345,4,84890,2,0,B|323:36|323:36|324:110,1,99.0000030212403,8|0,0:0|0:0,0:0:0:0:
480,128,85190,1,8,0:0:0:0:
231,75,85340,1,0,0:0:0:0:
363,197,85490,1,8,0:0:0:0:
345,4,85640,1,0,0:0:0:0:
246,266,85790,5,8,0:0:0:0:
236,292,85865,1,0,0:0:0:0:
226,318,85940,5,0,0:0:0:0:
178,345,86015,1,0,0:0:0:0:
124,336,86090,1,8,0:0:0:0:
88,294,86165,1,0,0:0:0:0:
87,239,86240,1,0,0:0:0:0:
121,197,86315,1,8,0:0:0:0:
156,154,86390,1,8,0:0:0:0:
155,99,86465,1,8,0:0:0:0:
119,57,86540,1,8,0:0:0:0:
65,48,86615,1,8,0:0:0:0:
18,75,86690,5,8,0:0:0:0:
22,88,86765,1,8,0:0:0:0:
28,101,86840,1,8,0:0:0:0:
32,114,86915,1,8,0:0:0:0:
37,127,86990,5,4,0:0:0:0:
395,113,87290,2,0,L|362:196,1,90,8|0,0:0|0:0,0:0:0:0:
213,182,87590,2,0,L|245:265,1,90
436,94,87890,2,0,L|403:177,1,90,8|0,0:0|0:0,0:0:0:0:
180,98,88190,5,0,0:0:0:0:
362,334,88490,2,0,L|329:250,1,90,8|0,0:0|0:0,0:0:0:0:
180,265,88790,2,0,L|212:181,1,90
403,353,89090,2,0,L|370:269,1,90,8|0,0:0|0:0,0:0:0:0:
244,95,89390,5,0,0:0:0:0:
452,238,89690,2,0,P|428:200|388:180,1,90,12|0,0:0|0:0,0:0:0:0:
180,265,89990,2,0,L|61:266,1,90
297,145,90290,1,12,0:0:0:0:
297,145,90365,1,0,0:0:0:0:
297,145,90440,1,0,0:0:0:0:
297,145,90515,1,0,0:0:0:0:
297,145,90590,6,0,P|320:107|360:87,1,90,4|0,0:0|0:0,0:0:0:0:
452,238,90890,2,0,L|452:345,1,90,8|0,0:0|0:0,0:0:0:0:
445,57,91190,2,0,P|421:19|381:0,1,90
252,57,91415,1,0,0:0:0:0:
252,57,91490,2,0,P|212:77|168:74,1,90,12|0,0:0|0:0,0:0:0:0:
10,15,91790,5,4,0:0:0:0:
94,293,92090,2,0,L|203:256,1,90,8|0,0:0|0:0,0:0:0:0:
211,116,92390,2,0,L|320:153,1,90
55,273,92690,2,0,L|164:236,1,90,8|0,0:0|0:0,0:0:0:0:
381,172,92990,5,0,0:0:0:0:
247,345,93290,2,0,L|138:308,1,90,8|0,0:0|0:0,0:0:0:0:
130,168,93590,2,0,L|21:205,1,90
286,325,93890,2,0,L|177:288,1,90,8|0,0:0|0:0,0:0:0:0:
88,79,94190,5,0,0:0:0:0:
389,286,94490,2,0,P|394:341|376:389,1,90,12|0,0:0|0:0,0:0:0:0:
296,144,94790,2,0,L|304:34,1,90
286,325,95090,2,0,P|230:330|182:312,1,90,12|0,0:0|0:0,0:0:0:0:
384,168,95390,6,0,L|473:174,1,90,4|0,0:0|0:0,0:0:0:0:
246,222,95690,2,0,L|156:228,1,90,8|0,0:0|0:0,0:0:0:0:
375,2,95990,2,0,P|390:55|375:108,1,90
296,144,96215,1,0,0:0:0:0:
296,144,96290,2,0,P|280:197|296:250,1,90,12|0,0:0|0:0,0:0:0:0:
491,368,96590,6,0,P|404:347|315:361,1,180,4|8,0:0|0:0,0:0:0:0:
165,380,97040,1,4,0:0:0:0:
126,218,97190,1,0,0:0:0:0:
200,347,97340,1,0,0:0:0:0:
161,185,97490,1,8,0:0:0:0:
56,284,97640,1,0,0:0:0:0:
305,248,97790,6,0,P|368:215|386:77,1,180,4|8,0:0|0:0,0:0:0:0:
109,90,98240,1,4,0:0:0:0:
251,165,98390,1,0,0:0:0:0:
82,126,98540,1,0,0:0:0:0:
278,129,98690,1,8,0:0:0:0:
163,18,98840,1,0,0:0:0:0:
170,273,98990,6,0,P|226:318|343:346,1,180,4|8,0:0|0:0,0:0:0:0:
472,255,99440,2,0,B|480:301|480:301|473:357,1,90,4|0,0:0|0:0,0:0:0:0:
283,250,99740,1,0,0:0:0:0:
381,88,99890,1,8,0:0:0:0:
310,214,100040,1,0,0:0:0:0:
211,51,100190,5,8,0:0:0:0:
114,214,100340,1,0,0:0:0:0:
100,232,100415,1,0,0:0:0:0:
87,250,100490,2,0,L|70:332,1,45,8|0,0:0|0:0,0:0:0:0:
184,328,100640,2,0,L|167:246,1,45
224,211,100790,1,8,0:0:0:0:
245,203,100865,1,8,0:0:0:0:
267,201,100940,1,8,0:0:0:0:
289,205,101015,1,8,0:0:0:0:
310,214,101090,5,0,0:0:0:0:
352,232,101165,1,8,0:0:0:0:
396,240,101240,1,8,0:0:0:0:
440,236,101315,1,8,0:0:0:0:
482,220,101390,1,8,0:0:0:0:
482,220,101990,6,0,P|426:241|383:237,1,90,4|0,0:0|0:0,0:0:0:0:
351,89,102290,2,0,P|397:126|415:166,1,90,8|0,0:0|0:0,0:0:0:0:
303,267,102590,2,0,P|312:208|337:172,1,90
369,314,102890,1,10,0:0:0:0:
254,346,103040,2,0,B|349:376|340:320|439:350,1,180
303,267,103490,2,0,P|254:250|215:258,2,90,8|0|0,0:0|0:0|0:0,0:0:0:0:
254,346,103940,1,0,0:0:0:0:
203,183,104090,1,8,0:0:0:0:
396,239,104240,1,0,0:0:0:0:
217,256,104390,6,0,B|163:273|113:237|113:237|58:199|10:226|17:303|65:313|86:276,1,283.499991348267,12|0,0:0|0:0,0:0:0:0:
203,183,104990,2,0,P|156:175|223:121,1,180,12|0,0:0|0:0,0:0:0:0:
278,177,105440,2,0,L|301:115,1,45
343,27,105590,6,0,B|306:38|264:24|264:24|235:35|235:35|199:20|157:30,1,180,8|0,0:0|0:0,0:0:0:0:
49,73,106040,1,0,0:0:0:0:
49,73,106115,1,0,0:0:0:0:
49,73,106190,2,0,P|12:111|1:154,1,90,12|0,0:0|0:0,0:0:0:0:
80,285,106490,2,0,P|117:247|128:204,1,90,8|0,0:0|0:0,0:0:0:0:
5,264,106790,6,0,P|7:318|64:360,1,90,4|0,0:0|0:0,0:0:0:0:
197,233,107090,2,0,P|195:179|138:137,1,90,8|0,0:0|0:0,0:0:0:0:
112,363,107390,2,0,B|149:363|149:363|175:353|175:353|208:353,1,90
388,356,107690,1,8,0:0:0:0:
342,260,107840,2,0,P|360:314|478:307,1,180
440,180,108290,2,0,B|419:223|419:223|416:265,1,90,10|0,0:0|0:0,0:0:0:0:
499,126,108590,2,0,P|457:103|401:112,1,90
248,142,108890,1,8,0:0:0:0:
342,260,109040,1,0,0:0:0:0:
342,260,109115,1,0,0:0:0:0:
342,260,109190,6,0,B|310:217|310:217|262:197|262:197|249:142|249:142|186:113|175:47,1,283.499991348267,12|0,0:0|0:0,0:0:0:0:
176,47,109790,5,8,0:0:0:0:
272,43,109940,1,8,0:0:0:0:
191,169,110090,1,8,0:0:0:0:
186,175,110240,1,0,0:0:0:0:
337,109,110390,6,0,B|437:88|436:88,1,80.9999975280763,12|0,0:0|0:0,0:0:0:0:
259,67,110690,1,0,0:0:0:0:
259,215,110840,2,0,B|188:167,1,80.9999975280763,8|0,0:0|0:0,0:0:0:0:
59,187,111140,1,8,0:0:0:0:
38,185,111215,1,8,0:0:0:0:
19,191,111290,1,8,0:0:0:0:
188,337,111440,1,8,0:0:0:0:
226,327,111515,1,8,0:0:0:0:
258,302,111590,6,0,P|268:254|257:211,1,90,4|0,0:0|0:0,0:0:0:0:
112,296,111890,2,0,P|148:328|188:337,1,90,8|0,0:0|0:0,0:0:0:0:
193,168,112190,2,0,P|146:183|113:220,1,90
462,384,112490,1,8,0:0:0:0:
193,168,112640,2,0,P|119:210|119:309,1,180
347,292,113090,2,0,L|254:302,1,90,10|0,0:0|0:0,0:0:0:0:
495,373,113390,2,0,L|404:365,1,90
506,196,113690,2,0,P|507:249|482:297,1,90,8|0,0:0|0:0,0:0:0:0:
281,124,113990,6,0,B|371:87|362:144|457:103,1,180,4|8,0:0|0:0,0:0:0:0:
464,101,114440,1,0,0:0:0:0:
326,195,114590,1,0,0:0:0:0:
397,37,114740,1,0,0:0:0:0:
408,237,114890,1,8,0:0:0:0:
408,245,115040,1,0,0:0:0:0:
331,87,115190,6,0,B|297:65|249:80|249:80|214:72|214:72|140:94,1,198.000006042481,4|8,0:0|0:0,0:0:0:0:
102,230,115640,2,0,P|178:158|44:118,1,297.000009063721
25,203,116165,1,0,0:0:0:0:
23,243,116240,1,0,0:0:0:0:
41,279,116315,1,0,0:0:0:0:
74,302,116390,6,0,B|107:332|109:390,1,90,4|0,0:0|0:0,0:0:0:0:
277,132,116690,2,0,B|279:176|237:224,1,90,8|0,0:0|0:0,0:0:0:0:
492,166,116990,2,0,B|462:199|401:201,1,90
265,122,117290,1,8,0:0:0:0:
493,44,117440,2,0,B|457:57|419:38|419:38|394:54|394:54|364:33|295:48,1,180,4|0,0:0|0:0,0:0:0:0:
172,119,117890,2,0,P|167:72|130:27,1,90,8|0,0:0|0:0,0:0:0:0:
116,192,118190,2,0,P|158:210|215:201,1,90
80,107,118490,2,0,P|42:134|21:188,1,90,8|8,0:0|0:0,0:0:0:0:
187,383,118790,6,0,P|224:355|245:301,1,90,4|0,0:0|0:0,0:0:0:0:
235,126,119090,1,8,0:0:0:0:
314,358,119240,6,0,P|321:311|297:259,1,90,4|0,0:0|0:0,0:0:0:0:
224,117,119540,1,0,0:0:0:0:
386,250,119690,6,0,P|358:212|304:191,1,90,12|0,0:0|0:0,0:0:0:0:
156,308,119990,1,0,0:0:0:0:
314,358,120140,1,8,0:0:0:0:
191,175,120290,1,8,0:0:0:0:
156,295,120440,1,0,0:0:0:0:
315,199,120590,1,8,0:0:0:0:
319,196,120665,1,0,0:0:0:0:
323,194,120740,2,0,L|371:161,1,45
454,100,120890,1,12,0:0:0:0:
471,74,120965,1,0,0:0:0:0:
468,43,121040,1,0,0:0:0:0:
447,21,121115,1,0,0:0:0:0:
416,17,121190,6,0,B|306:70|332:7|228:44,1,188.999994232178,6|0,0:0|0:0,0:0:0:0:
120,176,121790,2,0,B|129:128|106:85|106:85|105:49|143:39|174:66|150:90,1,188.999994232178,8|0,0:0|0:0,0:0:0:0:
22,57,122390,5,0,0:0:0:0:
22,57,122540,2,0,L|67:2,1,62.9999980773926
197,153,122840,1,0,0:0:0:0:
17,178,122990,2,0,B|129:145|108:203|212:171,1,188.999994232178,8|0,0:0|0:0,0:0:0:0:
268,94,123590,6,0,P|241:129|304:250,1,188.999994232178,2|0,0:0|0:0,0:0:0:0:
383,261,124190,2,0,B|326:269|326:269|293:247|293:247|262:273|262:273|185:282,1,188.999994232178,8|0,0:0|0:0,0:0:0:0:
123,284,124790,6,0,L|50:292,1,62.9999980773926
48,294,125240,1,0,0:0:0:0:
197,363,125540,1,0,0:0:0:0:
200,362,125615,1,0,0:0:0:0:
203,361,125690,2,0,L|305:347,1,94.499997116089,14|0,0:0|0:0,0:0:0:0:
359,301,125990,6,0,P|350:345|428:302,1,188.999994232178,4|0,0:0|0:0,0:0:0:0:
375,225,126590,2,0,P|336:230|309:249,1,62.9999980773926
435,316,126890,2,0,P|474:311|501:292,1,62.9999980773926,8|0,0:0|0:0,0:0:0:0:
393,41,127190,6,0,B|346:136|415:124|373:229,1,188.999994232178,2|0,0:0|0:0,0:0:0:0:
248,280,127790,1,0,0:0:0:0:
306,175,127940,1,0,0:0:0:0:
301,341,128090,2,0,L|250:283,1,62.9999980773926,8|0,0:0|0:0,0:0:0:0:
193,161,128390,6,0,P|163:201|88:204,1,125.999996154785,2|0,0:0|0:0,0:0:0:0:
25,131,128840,1,0,0:0:0:0:
118,132,128990,1,0,0:0:0:0:
18,214,129140,1,0,0:0:0:0:
85,62,129290,2,0,L|120:139,1,62.9999980773926,8|0,0:0|0:0,0:0:0:0:
182,303,129590,5,0,0:0:0:0:
324,169,129740,1,0,0:0:0:0:
260,354,129890,1,8,0:0:0:0:
264,107,130040,1,0,0:0:0:0:
300,90,130115,1,0,0:0:0:0:
340,88,130190,1,0,0:0:0:0:
378,101,130265,1,0,0:0:0:0:
414,117,130340,1,0,0:0:0:0:
454,119,130415,1,0,0:0:0:0:
492,106,130490,2,0,P|514:85|524:62,1,40.4999987640381,12|0,0:0|0:0,0:0:0:0:
329,15,130640,1,0,0:0:0:0:
289,13,130715,1,0,0:0:0:0:
251,26,130790,6,0,P|219:42|182:97,1,90,4|0,0:0|0:0,0:0:0:0:
342,254,131090,2,0,P|344:218|315:158,1,90,8|0,0:0|0:0,0:0:0:0:
99,218,131390,2,0,P|128:237|194:242,1,90
342,254,131690,1,8,0:0:0:0:
229,156,131840,1,0,0:0:0:0:
109,338,131990,6,0,B|148:324|163:350|205:334,1,90
441,188,132290,1,8,0:0:0:0:
269,65,132440,2,0,L|233:147,1,90
306,323,132740,1,0,0:0:0:0:
417,72,132890,1,8,0:0:0:0:
326,135,133040,1,0,0:0:0:0:
485,259,133190,6,0,P|435:269|384:246,1,90
182,67,133490,1,8,0:0:0:0:
417,72,133640,2,0,L|338:129,1,90
196,217,133940,1,0,0:0:0:0:
83,54,134090,2,0,P|125:41|167:54,1,90,8|0,0:0|0:0,0:0:0:0:
280,217,134390,6,0,P|237:229|195:216,1,90
31,134,134690,1,8,0:0:0:0:
124,119,134840,1,0,0:0:0:0:
132,118,134990,1,0,0:0:0:0:
39,223,135140,1,0,0:0:0:0:
16,15,135290,1,8,0:0:0:0:
266,119,135440,2,0,L|234:156,1,45
35,334,135590,5,12,0:0:0:0:
350,263,135740,1,0,0:0:0:0:
39,223,135890,5,8,0:0:0:0:
354,291,136040,1,0,0:0:0:0:
89,124,136190,5,8,0:0:0:0:
346,318,136340,1,0,0:0:0:0:
176,55,136490,5,10,0:0:0:0:
327,339,136640,1,0,0:0:0:0:
105,280,136790,5,8,0:0:0:0:
389,155,136940,1,0,0:0:0:0:
79,116,137090,5,8,0:0:0:0:
327,339,137240,1,0,0:0:0:0:
277,34,137390,5,8,0:0:0:0:
115,273,137540,1,8,0:0:0:0:
399,257,137690,5,8,0:0:0:0:
214,119,137840,1,0,0:0:0:0:
210,116,137915,1,0,0:0:0:0:
206,113,137990,1,12,0:0:0:0:
209,346,138140,6,0,P|243:318|258:277,1,90
206,113,138440,1,0,0:0:0:0:
202,110,138515,1,0,0:0:0:0:
198,107,138590,1,4,0:0:0:0:
178,354,138740,6,0,P|212:325|227:284,1,90
198,107,139040,1,0,0:0:0:0:
194,104,139115,1,0,0:0:0:0:
190,101,139190,2,0,L|134:27,2,90,4|0|0,0:0|0:0|0:0,0:0:0:0:
297,249,139640,1,4,0:0:0:0:
382,78,139790,2,0,P|431:38|480:42,1,90
389,222,140090,2,0,P|335:258|286:254,2,90,4|0|4,0:0|0:0|0:0,0:0:0:0:
312,133,140540,6,0,L|316:182,1,45
203,187,140690,1,0,0:0:0:0:
203,187,140765,1,0,0:0:0:0:
203,186,140840,2,0,L|240:217,1,45
358,321,140990,1,8,0:0:0:0:
378,329,141065,1,8,0:0:0:0:
401,328,141140,1,8,0:0:0:0:
420,318,141215,1,8,0:0:0:0:
435,301,141290,1,8,0:0:0:0:
455,292,141365,1,8,0:0:0:0:
478,293,141440,1,8,0:0:0:0:
497,303,141515,1,8,0:0:0:0:
512,320,141590,1,12,0:0:0:0:
511,319,142190,6,0,L|514:268,1,45
386,161,142490,2,0,L|387:136,1,18
88,122,142790,6,0,B|81:194|81:194|88:238|88:238|79:345,1,225,6|8,0:0|0:0,0:0:0:0:
287,192,143240,2,0,P|238:177|171:177,1,112.5
79,345,143540,2,0,P|128:360|195:360,1,112.5,0|8,0:0|0:0,0:0:0:0:
391,280,143840,6,0,L|384:47,1,225,4|0,0:0|0:0,0:0:0:0:
287,192,144290,1,8,0:0:0:0:
467,135,144440,1,0,0:0:0:0:
261,166,144590,1,0,0:0:0:0:
391,280,144740,1,0,0:0:0:0:
384,55,144890,2,0,L|262:49,1,112.5,8|0,0:0|0:0,0:0:0:0:
400,179,145190,6,0,L|522:173,1,112.5,4|0,0:0|0:0,0:0:0:0:
285,270,145490,1,8,0:0:0:0:
480,312,145640,1,0,0:0:0:0:
480,312,145790,1,0,0:0:0:0:
323,384,145940,1,0,0:0:0:0:
191,272,146090,2,0,P|209:213|258:178,1,112.5,8|0,0:0|0:0,0:0:0:0:
99,333,146390,6,0,B|81:277|100:218|100:218|122:157|99:81,1,225,0|8,0:0|0:0,0:0:0:0:
82,0,146840,1,0,0:0:0:0:
10,162,146990,1,0,0:0:0:0:
198,58,147140,1,0,0:0:0:0:
198,58,147215,1,0,0:0:0:0:
198,58,147290,2,0,P|257:49|326:67,1,112.5,8|0,0:0|0:0,0:0:0:0:
459,168,147590,6,0,B|420:222|420:222|431:58,1,225,4|8,0:0|0:0,0:0:0:0:
502,174,148040,1,0,0:0:0:0:
335,247,148190,2,0,L|344:132,1,112.5
328,40,148490,1,8,0:0:0:0:
435,249,148640,6,0,B|409:320|409:320|252:378,1,225,4|0,0:0|0:0,0:0:0:0:
74,332,149090,2,0,P|67:271|67:198,1,112.5,8|0,0:0|0:0,0:0:0:0:
194,113,149390,2,0,P|200:168|201:225,1,112.5
268,371,149690,1,8,0:0:0:0:
268,371,149840,1,0,0:0:0:0:
66,219,149990,6,0,P|128:145|275:105,1,225,6|8,0:0|0:0,0:0:0:0:
257,317,150440,2,0,P|223:226|262:79,1,225,4|0,0:0|0:0,0:0:0:0:
402,21,150890,1,12,0:0:0:0:
274,7,151040,6,0,L|26:-1,1,225
140,167,151490,1,8,0:0:0:0:
190,4,151640,1,0,0:0:0:0:
256,198,151790,5,8,0:0:0:0:
237,238,151865,1,8,0:0:0:0:
228,282,151940,1,8,0:0:0:0:
230,327,152015,1,8,0:0:0:0:
241,371,152090,5,8,0:0:0:0:
251,366,152165,1,8,0:0:0:0:
265,357,152240,1,8,0:0:0:0:
280,349,152315,1,8,0:0:0:0:
295,340,152390,6,0,B|360:310|360:310|518:343,1,225,6|8,0:0|0:0,0:0:0:0:
364,217,152840,2,0,P|353:161|363:106,1,112.5
509,231,153140,2,0,P|519:286|509:341,1,112.5,0|8,0:0|0:0,0:0:0:0:
237,238,153440,6,0,L|2:213,1,225,4|0,0:0|0:0,0:0:0:0:
158,132,153890,1,8,0:0:0:0:
121,321,154040,1,0,0:0:0:0:
137,95,154190,1,0,0:0:0:0:
237,238,154340,1,0,0:0:0:0:
13,214,154490,2,0,L|11:90,1,112.5,8|0,0:0|0:0,0:0:0:0:
155,245,154790,6,0,L|156:357,1,112.5,4|0,0:0|0:0,0:0:0:0:
285,229,155090,1,8,0:0:0:0:
96,172,155240,1,0,0:0:0:0:
96,172,155390,1,0,0:0:0:0:
262,117,155540,1,0,0:0:0:0:
378,250,155690,2,0,P|347:302|287:325,1,112.5,8|0,0:0|0:0,0:0:0:0:
464,133,155990,6,0,L|472:366,1,225,0|8,0:0|0:0,0:0:0:0:
301,323,156440,1,0,0:0:0:0:
468,260,156590,1,0,0:0:0:0:
261,193,156740,1,0,0:0:0:0:
261,193,156815,1,0,0:0:0:0:
261,193,156890,2,0,L|254:313,1,112.5,12|0,0:0|0:0,0:0:0:0:
396,76,157190,6,0,B|347:54|288:81|288:81|222:112|163:79,1,225,4|8,0:0|0:0,0:0:0:0:
72,7,157640,1,0,0:0:0:0:
130,180,157790,2,0,P|124:250|98:296,1,112.5,2|0,0:0|0:0,0:0:0:0:
9,290,158090,1,8,0:0:0:0:
216,372,158240,6,0,P|252:272|257:128,1,225,4|0,0:0|0:0,0:0:0:0:
277,315,158690,2,0,P|330:326|389:322,1,112.5,8|0,0:0|0:0,0:0:0:0:
505,193,158990,2,0,P|452:182|393:186,1,112.5
437,341,159290,1,8,0:0:0:0:
437,341,159440,1,0,0:0:0:0:
259,154,159590,6,0,P|296:67|427:3,1,225,6|8,0:0|0:0,0:0:0:0:
224,274,160040,2,0,P|167:198|177:53,1,225,4|0,0:0|0:0,0:0:0:0:
70,0,160490,6,0,P|69:83|29:156,1,168.75,12|0,0:0|0:0,0:0:0:0:
27,201,160790,5,8,0:0:0:0:
24,251,160865,1,0,0:0:0:0:
40,299,160940,1,0,0:0:0:0:
72,337,161015,1,0,0:0:0:0:
116,362,161090,1,8,0:0:0:0:
166,368,161165,1,0,0:0:0:0:
215,357,161240,1,0,0:0:0:0:
256,328,161315,1,0,0:0:0:0:
284,286,161390,5,8,0:0:0:0:
307,262,161465,1,8,0:0:0:0:
337,245,161540,1,8,0:0:0:0:
369,238,161615,1,8,0:0:0:0:
403,239,161690,1,8,0:0:0:0:
435,250,161765,1,8,0:0:0:0:
462,270,161840,1,8,0:0:0:0:
483,296,161915,1,8,0:0:0:0:
495,328,161990,6,0,P|399:284|360:169,1,225,6|8,0:0|0:0,0:0:0:0:
468,97,162440,2,0,P|477:202|397:293,1,225,4|0,0:0|0:0,0:0:0:0:
281,235,162890,6,0,P|367:173|486:197,1,225,12|0,0:0|0:0,0:0:0:0:
402,319,163340,1,0,0:0:0:0:
269,133,163490,1,8,0:0:0:0:
362,300,163640,1,0,0:0:0:0:
382,87,163790,1,0,0:0:0:0:
382,87,163865,1,0,0:0:0:0:
382,87,163940,1,0,0:0:0:0:
149,120,164090,1,8,0:0:0:0:
352,174,164240,1,0,0:0:0:0:
110,18,164390,6,0,L|93:253,1,225,6|8,0:0|0:0,0:0:0:0:
195,331,164840,2,0,L|211:106,1,225,4|0,0:0|0:0,0:0:0:0:
93,42,165290,6,0,L|76:277,1,225,12|0,0:0|0:0,0:0:0:0:
211,106,165740,1,0,0:0:0:0:
0,80,165890,1,0,0:0:0:0:
0,80,166190,1,0,0:0:0:0:
230,153,166340,1,0,0:0:0:0:
93,42,166490,1,0,0:0:0:0:
76,266,166640,1,0,0:0:0:0:
200,49,166790,6,0,P|297:74|333:186,1,225,6|8,0:0|0:0,0:0:0:0:
363,287,167240,2,0,P|266:262|230:150,1,225,4|0,0:0|0:0,0:0:0:0:
363,287,167690,6,0,P|292:358|177:333,1,225,12|0,0:0|0:0,0:0:0:0:
254,249,168140,1,0,0:0:0:0:
359,176,168290,2,0,L|487:182,2,112.5,8|0|0,0:0|0:0|0:0,0:0:0:0:
170,121,168740,1,0,0:0:0:0:
355,63,168890,2,0,L|359:195,1,112.5,8|0,0:0|0:0,0:0:0:0:
296,356,169190,5,12,0:0:0:0:
117,383,169340,1,0,0:0:0:0:
328,273,169490,5,8,0:0:0:0:
81,258,169640,1,0,0:0:0:0:
296,356,169790,5,8,0:0:0:0:
201,108,169940,1,0,0:0:0:0:
406,311,170090,5,8,0:0:0:0:
401,46,170240,1,0,0:0:0:0:
403,35,170315,1,0,0:0:0:0:
405,24,170390,5,4,0:0:0:0:
499,235,170540,1,0,0:0:0:0:
262,373,170690,1,8,0:0:0:0:
217,372,170765,1,0,0:0:0:0:
172,371,170840,1,0,0:0:0:0:
127,370,170915,1,0,0:0:0:0:
82,369,170990,1,4,0:0:0:0:
262,373,171290,1,8,0:0:0:0:
89,279,171440,6,0,B|52:228|52:228|72:41,1,225,4|0,0:0|0:0,0:0:0:0:
192,0,171890,2,0,L|178:124,1,112.5,8|0,0:0|0:0,0:0:0:0:
239,266,172190,1,0,0:0:0:0:
239,266,172340,1,0,0:0:0:0:
398,186,172490,1,8,0:0:0:0:
177,147,172640,1,0,0:0:0:0:
337,312,172790,6,0,L|336:243,1,56.25,8|0,0:0|0:0,0:0:0:0:
493,188,172940,1,0,0:0:0:0:
493,188,173015,1,0,0:0:0:0:
493,188,173090,2,0,L|489:117,1,56.25,8|0,0:0|0:0,0:0:0:0:
258,3,173240,1,0,0:0:0:0:
256,19,173315,1,0,0:0:0:0:
254,35,173390,2,0,L|250:106,1,56.25,8|8,0:0|0:0,0:0:0:0:
451,300,173540,5,8,0:0:0:0:
402,284,173615,1,8,0:0:0:0:
352,293,173690,1,8,0:0:0:0:
307,326,173765,1,8,0:0:0:0:
259,355,173840,1,8,0:0:0:0:
197,362,173915,1,8,0:0:0:0:
139,339,173990,6,0,B|104:321|84:293|76:265|81:232|91:214|91:214|116:228|152:226|180:221|198:181|209:147|192:117|173:97|173:97|224:95|243:114|260:130|275:140|316:136|342:130|366:109|379:79|379:79|382:117|390:134|409:148,1,643.499970542909,4|0,0:0|0:0,0:0:0:0:
437,193,175790,1,0,0:0:0:0:
355,195,175940,1,0,0:0:0:0:
284,232,176090,1,0,0:0:0:0:
250,304,176240,1,0,0:0:0:0:
243,384,176390,6,0,P|197:374|132:72,1,409.499981254578,4|0,0:0|0:0,0:0:0:0:
238,16,177590,2,0,B|245:83|229:120|184:158|184:158|245:149|268:111|283:72,1,292.499986610413
315,7,178490,1,0,0:0:0:0:
389,42,178640,1,0,0:0:0:0:
405,125,178790,6,0,B|399:167|383:196|365:222|341:242|318:256|318:256|321:214|311:182|279:153|242:135|195:145|169:158|147:194,1,409.499981254578,4|0,0:0|0:0,0:0:0:0:
224,246,179990,2,0,P|245:183|186:99,1,175.499991966248
87,100,180590,6,0,P|111:146|137:158,1,58.4999973220826
163,84,180890,2,0,P|139:38|113:26,1,58.4999973220826
60,32,181190,6,0,B|1:69|0:121|24:168|69:180|111:178|138:149|138:149|98:243|177:288,1,409.499981254578,4|0,0:0|0:0,0:0:0:0:
219,202,182390,6,0,P|267:236|379:213,1,175.499991966248,4|0,0:0|0:0,0:0:0:0:
303,133,182990,2,0,P|351:98|463:122,1,175.499991966248,4|0,0:0|0:0,0:0:0:0:
478,211,183590,6,0,P|475:253|466:275,1,58.4999973220826,4|0,0:0|0:0,0:0:0:0:
372,278,183890,2,0,P|375:236|384:214,1,58.4999973220826
487,146,184190,6,0,P|484:188|475:210,1,58.4999973220826
381,213,184490,2,0,P|381:183|389:155,1,58.4999973220826
490,137,184790,6,0,P|470:90|352:59,1,175.499991966248
300,124,185390,2,0,P|265:160|187:178,1,116.999994644165
143,87,185840,1,0,0:0:0:0:
136,90,185915,1,0,0:0:0:0:
129,93,185990,6,0,B|112:113|96:132|100:169|111:188|122:215|146:230|206:232|233:198|233:198|250:193|270:227|280:259|281:293|251:338|204:351,1,409.499981254578,4|0,0:0|0:0,0:0:0:0:
133,347,187190,2,0,P|24:281|192:154,1,409.499981254578
211,230,188390,6,0,L|283:222,1,58.4999973220826,4|0,0:0|0:0,0:0:0:0:
339,216,188690,2,0,L|265:209,1,58.4999973220826
214,193,188990,2,0,L|286:185,1,58.4999973220826
342,179,189290,2,0,L|268:172,1,58.4999973220826
213,157,189590,6,0,P|310:21|165:-2,1,350.999983932496
193,78,190640,1,0,0:0:0:0:
209,71,190715,1,0,0:0:0:0:
227,65,190790,2,0,P|303:126|179:244,1,292.499986610413,4|0,0:0|0:0,0:0:0:0:
126,175,191690,5,8,0:0:0:0:
205,74,191840,1,0,0:0:0:0:
220,64,191915,1,0,0:0:0:0:
236,53,191990,5,8,0:0:0:0:
266,71,192065,1,8,0:0:0:0:
299,86,192140,1,8,0:0:0:0:
333,94,192215,1,8,0:0:0:0:
369,90,192290,1,8,0:0:0:0:
457,45,192440,5,8,0:0:0:0:
462,62,192515,1,8,0:0:0:0:
469,85,192590,5,8,0:0:0:0:
451,106,192665,1,0,0:0:0:0:
439,130,192740,1,0,0:0:0:0:
438,160,192815,1,0,0:0:0:0:
443,189,192890,1,0,0:0:0:0:
450,216,192965,1,0,0:0:0:0:
465,238,193040,1,0,0:0:0:0:
482,260,193115,1,0,0:0:0:0:
497,283,193190,6,0,L|497:329,3,45,4|0|0|0,0:0|0:0|0:0|0:0,0:0:0:0:
413,335,193490,1,8,0:0:0:0:
389,301,193565,1,0,0:0:0:0:
356,275,193640,1,0,0:0:0:0:
319,256,193715,1,0,0:0:0:0:
280,247,193790,2,0,L|235:275,1,45
173,214,193940,2,0,L|143:265,1,45
51,228,194090,1,8,0:0:0:0:
32,253,194165,1,0,0:0:0:0:
24,283,194240,1,0,0:0:0:0:
25,315,194315,1,0,0:0:0:0:
32,346,194390,6,0,L|75:309,1,45
160,309,194540,2,0,L|163:253,1,45
112,190,194690,1,8,0:0:0:0:
98,172,194765,1,0,0:0:0:0:
89,152,194840,1,0,0:0:0:0:
83,129,194915,1,0,0:0:0:0:
82,104,194990,2,0,L|84:53,1,45
170,40,195140,2,0,L|201:87,1,45
256,134,195290,1,8,0:0:0:0:
276,140,195365,1,0,0:0:0:0:
298,147,195440,2,0,L|348:122,1,45
407,28,195590,5,0,0:0:0:0:
371,18,195665,1,0,0:0:0:0:
334,15,195740,1,0,0:0:0:0:
297,18,195815,1,0,0:0:0:0:
261,31,195890,1,8,0:0:0:0:
228,48,195965,1,0,0:0:0:0:
200,73,196040,1,0,0:0:0:0:
177,103,196115,1,0,0:0:0:0:
162,138,196190,2,0,L|130:206,1,45
76,248,196340,2,0,L|97:299,1,45
221,333,196490,1,8,0:0:0:0:
250,299,196565,1,0,0:0:0:0:
271,263,196640,2,0,L|258:209,1,45
90,255,196790,5,0,0:0:0:0:
126,267,196865,1,0,0:0:0:0:
163,267,196940,1,0,0:0:0:0:
194,252,197015,1,0,0:0:0:0:
221,228,197090,1,8,0:0:0:0:
250,207,197165,1,0,0:0:0:0:
286,209,197240,1,0,0:0:0:0:
316,228,197315,1,0,0:0:0:0:
342,266,197390,5,0,0:0:0:0:
375,234,197465,1,0,0:0:0:0:
398,195,197540,1,0,0:0:0:0:
410,149,197615,1,0,0:0:0:0:
409,102,197690,1,8,0:0:0:0:
397,58,197765,1,0,0:0:0:0:
369,23,197840,1,0,0:0:0:0:
326,5,197915,1,0,0:0:0:0:
279,4,197990,6,0,P|223:119|103:74,1,281.25,12|0,0:0|0:0,0:0:0:0:
187,31,198440,2,0,P|126:-17|28:131,1,281.25,8|0,0:0|0:0,0:0:0:0:
59,185,198890,2,0,B|102:190|102:190|72:223|72:223|128:236|128:236|95:276|95:276|156:270|156:270|119:323|119:323|195:314,1,393.75,8|0,0:0|0:0,0:0:0:0:
244,242,199490,2,0,P|284:312|246:383,1,168.75,8|0,0:0|0:0,0:0:0:0:
203,311,199790,2,0,P|122:311|79:242,1,168.75,8|0,0:0|0:0,0:0:0:0:
162,226,200090,2,0,P|202:155|283:152,1,168.75,8|0,0:0|0:0,0:0:0:0:
346,215,200390,5,4,0:0:0:0:
460,100,200540,1,0,0:0:0:0:
454,281,200690,1,8,0:0:0:0:
290,74,200840,2,0,P|232:55|115:102,1,168.75
82,152,201140,1,0,0:0:0:0:
282,63,201290,1,8,0:0:0:0:
67,34,201440,1,0,0:0:0:0:
225,173,201590,6,0,P|275:218|420:32,1,393.75,4|0,0:0|0:0,0:0:0:0:
324,32,202190,2,0,P|291:34|237:56,1,56.25,8|0,0:0|0:0,0:0:0:0:
224,157,202340,1,0,0:0:0:0:
421,46,202490,1,8,0:0:0:0:
136,110,202640,1,0,0:0:0:0:
340,128,202790,6,0,B|352:154|362:191|357:243|325:294|265:313|180:334|180:334|191:261|143:218|107:206|62:208|25:236,1,506.25,4|0,0:0|0:0,0:0:0:0:
86,311,203540,2,0,P|109:374|131:385,1,56.25
190,343,203690,1,8,0:0:0:0:
48,202,203840,1,0,0:0:0:0:
276,199,203990,6,0,L|322:118,2,75
405,177,204290,2,0,L|392:103,2,75,8|0|0,0:0|0:0|0:0,0:0:0:0:
498,121,204590,1,0,0:0:0:0:
480,73,204690,1,0,0:0:0:0:
446,32,204790,1,0,0:0:0:0:
398,10,204890,1,8,0:0:0:0:
344,12,204990,1,0,0:0:0:0:
294,25,205090,1,0,0:0:0:0:
252,49,205190,6,0,L|216:125,2,75,4|0|0,0:0|0:0|0:0,0:0:0:0:
134,64,205490,2,0,L|134:157,2,75,8|0|0,0:0|0:0|0:0,0:0:0:0:
40,119,205790,1,0,0:0:0:0:
10,181,205890,1,0,0:0:0:0:
12,248,205990,1,0,0:0:0:0:
40,308,206090,1,8,0:0:0:0:
94,340,206190,1,0,0:0:0:0:
155,335,206290,1,0,0:0:0:0:
206,316,206390,6,0,L|179:238,2,75
276,227,206690,2,0,L|223:161,2,75,8|0|0,0:0|0:0|0:0,0:0:0:0:
329,120,206990,2,0,L|246:97,2,75
338,16,207290,2,0,L|226:29,2,75,8|0|0,0:0|0:0|0:0,0:0:0:0:
434,37,207590,6,0,L|411:339,1,281.25,12|0,0:0|0:0,0:0:0:0:
401,321,208040,2,0,L|379:40,1,281.25,8|0,0:0|0:0,0:0:0:0:
308,42,208490,2,0,L|293:325,1,281.25,8|0,0:0|0:0,0:0:0:0:
188,325,208940,2,0,L|166:44,1,281.25,8|0,0:0|0:0,0:0:0:0:
61,48,209390,6,0,P|28:113|250:179,1,393.75,8|0,0:0|0:0,0:0:0:0:
297,81,209990,5,12,0:0:0:0:
279,312,210140,1,0,0:0:0:0:
136,125,210290,1,8,0:0:0:0:
380,211,210440,2,0,P|436:182|434:70,1,168.75
376,128,210740,2,0,L|345:80,1,56.25
274,15,210890,2,0,P|252:69|309:170,1,168.75,8|0,0:0|0:0,0:0:0:0:
347,69,211190,5,0,0:0:0:0:
266,333,211340,1,0,0:0:0:0:
119,117,211490,1,8,0:0:0:0:
418,236,211640,2,0,P|484:202|482:69,1,168.75
412,138,211940,2,0,L|376:82,1,56.25
292,4,212090,2,0,P|266:68|333:188,1,168.75,8|0,0:0|0:0,0:0:0:0:
381,56,212390,5,0,0:0:0:0:
256,353,212540,1,8,0:0:0:0:
97,105,212690,1,8,0:0:0:0:
409,229,212840,6,0,P|445:149|285:81,1,281.25,12|0,0:0|0:0,0:0:0:0:
344,157,213290,2,0,P|274:163|208:98,1,168.75,8|0,0:0|0:0,0:0:0:0:
162,22,213590,5,12,0:0:0:0:
121,37,213665,1,0,0:0:0:0:
86,66,213740,1,0,0:0:0:0:
64,105,213815,1,0,0:0:0:0:
56,149,213890,1,8,0:0:0:0:
64,193,213965,1,0,0:0:0:0:
86,232,214040,1,0,0:0:0:0:
120,261,214115,1,0,0:0:0:0:
161,278,214190,5,8,0:0:0:0:
185,229,214265,1,8,0:0:0:0:
216,183,214340,1,8,0:0:0:0:
255,147,214415,1,8,0:0:0:0:
308,114,214490,5,8,0:0:0:0:
327,173,214565,1,8,0:0:0:0:
348,230,214640,1,8,0:0:0:0:
365,285,214715,1,8,0:0:0:0:
382,342,214790,6,0,P|434:311|451:181,1,180,4|0,0:0|0:0,0:0:0:0:
458,26,215390,1,0,0:0:0:0:
308,114,215690,2,0,L|228:107,1,62.9999980773926
208,16,215990,2,0,P|156:68|172:180,1,188.999994232178
168,175,216590,2,0,P|180:252|144:308,1,125.999996154785,10|0,0:0|0:0,0:0:0:0:
60,108,217190,6,0,B|152:80|152:144|244:108,1,188.999994232178,2|0,0:0|0:0,0:0:0:0:
244,107,217790,2,0,L|379:118,1,125.999996154785,8|0,0:0|0:0,0:0:0:0:
369,117,218390,2,0,P|373:161|401:197,1,62.9999980773926
381,177,218840,1,0,0:0:0:0:
283,303,219140,1,0,0:0:0:0:
283,303,219215,1,0,0:0:0:0:
283,303,219290,2,0,L|159:292,1,94.499997116089,14|0,0:0|0:0,0:0:0:0:
158,293,219590,6,0,P|146:216|182:160,1,125.999996154785,4|0,0:0|0:0,0:0:0:0:
258,146,220040,1,0,0:0:0:0:
238,240,220190,2,0,L|163:233,1,62.9999980773926
92,145,220490,2,0,L|166:138,1,62.9999980773926,8|0,0:0|0:0,0:0:0:0:
352,124,220790,6,0,B|384:192|344:240|344:240|384:244|416:280,1,188.999994232178
455,130,221390,1,0,0:0:0:0:
455,130,221540,1,0,0:0:0:0:
336,336,221690,1,8,0:0:0:0:
336,336,221990,6,0,P|248:308|156:336,1,188.999994232178
57,309,222590,1,0,0:0:0:0:
57,309,222740,1,0,0:0:0:0:
226,214,222890,2,0,P|256:220|300:209,1,62.9999980773926,8|0,0:0|0:0,0:0:0:0:
431,93,223190,5,0,0:0:0:0:
256,32,223340,1,0,0:0:0:0:
81,93,223490,1,8,0:0:0:0:
256,124,223640,1,0,0:0:0:0:
256,169,223715,1,0,0:0:0:0:
256,214,223790,1,0,0:0:0:0:
223,241,223865,1,0,0:0:0:0:
180,254,223940,1,0,0:0:0:0:
136,247,224015,1,0,0:0:0:0:
97,225,224090,6,0,L|102:161,1,45,12|0,0:0|0:0,0:0:0:0:
153,18,224240,2,0,L|168:72,1,45
264,256,224390,6,0,P|321:240|352:204,1,90,4|0,0:0|0:0,0:0:0:0:
460,108,224690,1,8,0:0:0:0:
340,40,224840,1,0,0:0:0:0:
272,168,224990,2,0,L|262:270,1,90
121,311,225290,2,0,L|93:212,1,90,8|0,0:0|0:0,0:0:0:0:
63,70,225590,6,0,B|127:74|127:74|183:62|183:62|271:74,1,180,2|8,0:0|0:0,0:0:0:0:
464,92,226040,1,0,0:0:0:0:
373,205,226190,2,0,P|338:233|295:241,1,90
127,206,226490,2,0,P|156:172|198:157,1,90,8|0,0:0|0:0,0:0:0:0:
400,184,226790,6,0,P|352:256|264:256,1,180,4|8,0:0|0:0,0:0:0:0:
66,206,227240,1,0,0:0:0:0:
190,131,227390,2,0,L|285:122,1,90
423,97,227690,2,0,L|398:189,1,90,8|0,0:0|0:0,0:0:0:0:
256,324,227990,6,0,B|228:232|284:232|256:144,1,180,0|8,0:0|0:0,0:0:0:0:
147,26,228440,1,0,0:0:0:0:
365,26,228590,1,0,0:0:0:0:
168,192,228740,1,0,0:0:0:0:
344,192,228890,1,8,0:0:0:0:
256,56,229040,1,0,0:0:0:0:
256,56,229115,1,0,0:0:0:0:
256,56,229190,6,0,L|256:160,1,90,12|0,0:0|0:0,0:0:0:0:
256,324,229490,5,8,0:0:0:0:
354,109,229640,1,0,0:0:0:0:
256,304,229790,5,8,0:0:0:0:
158,89,229940,1,0,0:0:0:0:
256,284,230090,5,10,0:0:0:0:
443,55,230240,1,0,0:0:0:0:
256,264,230390,5,8,0:0:0:0:
69,35,230540,1,0,0:0:0:0:
256,244,230690,6,0,L|256:144,1,95.4000001455689,8|0,0:0|0:0,0:0:0:0:
352,5,230990,1,8,0:0:0:0:
67,140,231140,1,8,0:0:0:0:
327,320,231290,2,0,L|422:328,1,90,8|0,0:0|0:0,0:0:0:0:
325,149,231515,1,0,0:0:0:0:
325,149,231590,6,0,B|289:133|253:149,1,72
25,326,232040,1,0,0:0:0:0:
25,326,232115,1,0,0:0:0:0:
25,326,232190,2,0,B|61:342|97:326,1,72,8|0,0:0|0:0,0:0:0:0:
288,224,232640,1,0,0:0:0:0:
288,224,232715,1,0,0:0:0:0:
288,224,232790,6,0,P|292:148|272:80,1,144,4|0,0:0|0:0,0:0:0:0:
168,359,233240,1,0,0:0:0:0:
60,252,233390,2,0,P|56:176|76:108,1,144,8|4,0:0|0:0,0:0:0:0:
163,22,233990,5,2,0:0:0:0:
184,172,234140,1,0,0:0:0:0:
273,83,234290,1,8,0:0:0:0:
365,200,234440,1,0,0:0:0:0:
352,233,234515,1,8,0:0:0:0:
333,263,234590,1,8,0:0:0:0:
307,288,234665,1,8,0:0:0:0:
276,306,234740,1,8,0:0:0:0:
241,317,234815,1,8,0:0:0:0:
206,320,234890,6,0,L|196:248,1,45,8|0,0:0|0:0,0:0:0:0:
163,22,235040,2,0,L|220:56,1,45
424,192,235190,1,8,0:0:0:0:
424,192,235790,6,0,L|368:187,1,45
278,118,236090,2,0,L|258:112,1,18
163,22,236390,6,0,P|132:80|140:168,1,144,4|0,0:0|0:0,0:0:0:0:
176,232,236840,2,0,L|155:309,2,72
221,84,237440,6,0,B|264:28|352:40|352:40|340:80|352:120|384:136|408:152|448:164|492:136|496:80|468:40|432:40|420:68,1,432,4|0,0:0|0:0,0:0:0:0:
285,142,238490,1,0,0:0:0:0:
422,220,238640,1,0,0:0:0:0:
422,62,238790,6,0,P|361:36|274:51,1,144,4|0,0:0|0:0,0:0:0:0:
213,93,239240,2,0,L|144:44,2,72
285,142,239690,1,0,0:0:0:0:
138,191,239990,6,0,P|244:234|357:196,1,216,4|0,0:0|0:0,0:0:0:0:
285,142,240590,2,0,P|178:98|65:136,1,216,4|0,0:0|0:0,0:0:0:0:
52,204,241190,6,0,P|71:266|138:323,1,144,4|0,0:0|0:0,0:0:0:0:
275,371,241790,1,0,0:0:0:0:
422,318,242090,1,0,0:0:0:0:
334,298,242240,6,0,P|292:212|312:104,1,180,4|0,0:0|0:0,0:0:0:0:
314,97,242690,2,0,P|280:72|224:68,1,72
131,93,242990,2,0,P|165:118|221:122,1,72,0|8,0:0|0:0,0:0:0:0:
386,139,243290,1,8,0:0:0:0:
204,32,243440,1,0,0:0:0:0:
204,32,243515,1,0,0:0:0:0:
204,32,243590,6,0,L|157:205,1,180,4|0,0:0|0:0,0:0:0:0:
136,244,244040,6,0,L|151:64,1,180
156,20,244490,6,0,B|124:88|36:80|36:80|32:168|120:184|140:188,1,288
157,205,245165,1,0,0:0:0:0:
200,200,245240,1,0,0:0:0:0:
238,222,245315,1,0,0:0:0:0:
281,217,245390,5,8,0:0:0:0:
316,210,245465,1,8,0:0:0:0:
345,190,245540,1,8,0:0:0:0:
365,160,245615,1,8,0:0:0:0:
371,125,245690,1,8,0:0:0:0:
362,90,245765,1,8,0:0:0:0:
341,61,245840,1,8,0:0:0:0:
310,43,245915,1,8,0:0:0:0:
284,128,245990,6,0,P|232:144|196:232,1,144,4|0,0:0|0:0,0:0:0:0:
188,308,246440,2,0,L|110:328,2,72
336,263,247040,6,0,B|384:212|444:236|444:236|376:180|380:100|432:48|432:48|376:75|328:39|328:39|312:80|260:92,1,504,4|8,0:0|0:0,0:0:0:0:
138,129,248240,1,8,0:0:0:0:
254,234,248390,6,0,P|200:276|104:248,1,144,4|0,0:0|0:0,0:0:0:0:
76,196,248840,2,0,L|16:256,2,72
138,129,249290,1,0,0:0:0:0:
288,81,249590,6,0,P|303:194|392:273,1,216,4|0,0:0|0:0,0:0:0:0:
402,183,250190,2,0,P|386:69|297:-9,1,216,2|0,0:0|0:0,0:0:0:0:
233,12,250790,6,0,P|188:60|172:147,1,144,4|0,0:0|0:0,0:0:0:0:
170,289,251390,1,0,0:0:0:0:
318,87,251540,1,8,0:0:0:0:
318,338,251690,1,8,0:0:0:0:
171,134,251840,1,12,0:0:0:0:
171,134,252290,6,0,L|254:141,1,72
311,212,252590,2,0,L|260:225,1,45
224,305,252890,2,0,L|243:306,1,18
357,319,253190,6,0,P|420:252|404:144,1,180,4|0,0:0|0:0,0:0:0:0:
315,41,253640,2,0,P|225:19|140:87,1,180,4|0,0:0|0:0,0:0:0:0:
95,215,254090,2,0,P|122:304|223:344,1,180,4|8,0:0|0:0,0:0:0:0:
239,346,254465,1,0,0:0:0:0:
284,350,254540,1,0,0:0:0:0:
329,354,254615,1,0,0:0:0:0:
374,358,254690,5,8,0:0:0:0:
410,332,254765,1,0,0:0:0:0:
435,295,254840,1,0,0:0:0:0:
443,251,254915,1,0,0:0:0:0:
434,207,254990,5,8,0:0:0:0:
396,153,255065,1,8,0:0:0:0:
335,125,255140,1,8,0:0:0:0:
269,132,255215,1,8,0:0:0:0:
215,172,255290,2,8,L|200:248,1,58.4999973220826
68,348,255440,2,8,L|53:272,1,58.4999973220826
19,47,255590,6,0,B|89:53|89:53|148:94|148:94|205:99,1,198.000006042481,6|8,0:0|0:0,2:0:0:0:
297,286,256040,2,0,P|316:241|309:193,1,99.0000030212403
216,5,256340,2,0,P|196:49|204:98,1,99.0000030212403,0|8,0:0|0:0,0:0:0:0:
384,175,256640,6,0,P|374:89|291:113,1,198.000006042481,4|0,0:0|0:0,0:0:0:0:
214,313,257090,1,8,0:0:0:0:
208,328,257240,1,0,0:0:0:0:
114,70,257390,1,0,0:0:0:0:
308,192,257540,1,0,0:0:0:0:
55,290,257690,2,0,P|79:247|124:228,1,99.0000030212403,8|0,0:0|0:0,0:0:0:0:
308,192,257990,6,0,P|242:251|115:221,1,215.999993408203,4|8,0:0|0:0,0:0:0:0:
216,39,258440,2,0,P|220:88|202:134,1,99.0000030212403
114,70,258740,1,0,0:0:0:0:
316,93,258890,2,0,L|308:192,1,99.0000030212403,8|0,0:0|0:0,0:0:0:0:
214,313,259190,6,0,B|263:276|316:305|316:305|370:332|400:307,1,198.000006042481,0|8,0:0|0:0,0:0:0:0:
372,147,259640,1,0,0:0:0:0:
153,260,259790,2,0,P|132:301|149:366,1,99.0000030212403
143,360,260015,1,0,0:0:0:0:
148,369,260090,1,8,0:0:0:0:
252,141,260240,1,0,0:0:0:0:
469,233,260390,6,0,P|368:211|296:286,1,215.999993408203,4|8,0:0|0:0,0:0:0:0:
378,379,260840,1,0,0:0:0:0:
364,172,260990,2,0,P|356:125|320:88,1,99.0000030212403
156,167,261290,1,8,0:0:0:0:
271,356,261440,6,0,B|265:294|265:294|288:236|288:236|282:162,1,198.000006042481,4|0,0:0|0:0,0:0:0:0:
444,48,261890,2,0,L|452:148,1,99.0000030212403,8|0,0:0|0:0,0:0:0:0:
396,305,262190,2,0,L|387:204,1,99.0000030212403
319,61,262490,1,8,0:0:0:0:
213,288,262640,1,0,0:0:0:0:
512,205,262790,6,0,P|454:237|390:210,1,144,6|8,0:0|0:0,0:0:0:0:
156,167,263240,2,0,P|217:134|281:161,1,144,4|0,0:0|0:0,0:0:0:0:
304,335,263690,2,0,L|314:217,1,99.0000030212403,12|0,0:0|0:0,0:0:0:0:
337,102,263990,1,8,0:0:0:0:
482,345,264140,1,8,0:0:0:0:
213,288,264290,2,0,L|221:189,1,72,8|0,0:0|0:0,0:0:0:0:
343,30,264590,5,8,0:0:0:0:
341,47,264665,1,8,0:0:0:0:
339,65,264740,2,0,L|334:117,1,36,8|8,0:0|0:0,0:0:0:0:
312,236,264890,5,8,0:0:0:0:
305,184,264965,1,8,0:0:0:0:
270,143,265040,1,8,0:0:0:0:
219,128,265115,1,8,0:0:0:0:
168,143,265190,6,0,B|116:166|110:221|110:221|126:268|126:268|114:348,1,215.999993408203,4|8,0:0|0:0,0:0:0:0:
311,235,265640,2,0,P|267:213|219:216,1,99.0000030212403
341,329,265940,2,0,P|382:302|404:258,1,99.0000030212403,0|8,0:0|0:0,0:0:0:0:
335,100,266240,6,0,P|333:42|401:102,1,198.000006042481,4|0,0:0|0:0,0:0:0:0:
311,235,266690,1,8,0:0:0:0:
309,253,266840,1,0,0:0:0:0:
205,18,266990,2,0,P|244:47|255:94,1,99.0000030212403
146,253,267290,5,8,0:0:0:0:
436,172,267440,1,0,0:0:0:0:
246,303,267590,2,0,B|225:278|227:244|227:244|255:93,1,215.999993408203,4|8,0:0|0:0,0:0:0:0:
436,172,268040,2,0,L|426:280,1,99.0000030212403
303,366,268340,1,0,0:0:0:0:
408,91,268490,2,0,P|468:87|512:129,1,99.0000030212403,8|0,0:0|0:0,0:0:0:0:
426,271,268790,6,0,P|330:254|245:302,1,198.000006042481,4|8,0:0|0:0,0:0:0:0:
146,253,269240,1,0,0:0:0:0:
77,356,269390,2,0,P|122:333|184:348,1,99.0000030212403
176,346,269615,1,0,0:0:0:0:
182,352,269690,1,12,0:0:0:0:
251,122,269840,1,0,0:0:0:0:
441,249,269990,6,0,B|354:310|354:310|245:301,1,215.999993408203,4|8,0:0|0:0,0:0:0:0:
46,114,270590,2,0,P|115:151|139:240,1,161.999995056153,0|8,0:0|0:0,0:0:0:0:
57,313,271040,6,0,B|106:276|176:303|141:311|197:339|244:300,1,198.000006042481,4|0,0:0|0:0,0:0:0:0:
305,105,271490,2,0,P|293:159|309:210,1,99.0000030212403,8|0,0:0|0:0,0:0:0:0:
372,333,271790,1,0,0:0:0:0:
446,79,271940,1,0,0:0:0:0:
266,284,272090,2,0,P|223:245|212:193,1,99.0000030212403,8|0,0:0|0:0,0:0:0:0:
190,67,272390,6,0,B|204:36|236:39|261:53|276:85|273:129|205:120|197:177|222:209,1,188.999994232178,6|0,0:0|0:0,0:0:0:0:
212,192,272690,1,8,0:0:0:0:
292,305,272840,2,0,P|224:292|267:368,1,188.999994232178,6|0,0:0|0:0,0:0:0:0:
275,373,273140,1,0,0:0:0:0:
421,196,273290,2,0,P|361:178|303:199,1,125.999996154785,6|0,0:0|0:0,0:0:0:0:
185,283,273590,5,8,0:0:0:0:
125,298,273665,1,0,0:0:0:0:
73,266,273740,1,0,0:0:0:0:
61,206,273815,1,0,0:0:0:0:
96,156,273890,5,8,0:0:0:0:
139,133,273965,1,0,0:0:0:0:
155,87,274040,1,0,0:0:0:0:
132,44,274115,1,0,0:0:0:0:
86,23,274190,5,8,0:0:0:0:
92,47,274265,1,8,0:0:0:0:
99,72,274340,1,8,0:0:0:0:
105,97,274415,1,8,0:0:0:0:
112,121,274490,1,8,0:0:0:0:
119,146,274565,1,8,0:0:0:0:
125,171,274640,1,8,0:0:0:0:
132,196,274715,1,8,0:0:0:0:
139,220,274790,6,0,L|278:232,1,99.0000030212403,6|0,0:0|0:0,0:0:0:0:
367,257,275090,1,8,0:0:0:0:
86,304,275240,6,0,L|225:316,1,99.0000030212403,6|0,0:0|0:0,0:0:0:0:
355,334,275540,1,0,0:0:0:0:
45,220,275690,2,0,P|61:163|192:141,1,198.000006042481,14|0,0:0|0:0,0:0:0:0:
260,301,276140,5,0,0:0:0:0:
268,77,276290,1,8,0:0:0:0:
139,220,276440,1,0,0:0:0:0:
379,178,276590,1,0,0:0:0:0:
170,335,276740,1,0,0:0:0:0:
111,100,276890,2,0,P|157:63|222:71,1,99.0000030212403
379,178,277190,6,0,L|239:190,1,99.0000030212403,6|0,0:0|0:0,0:0:0:0:
139,220,277490,1,8,0:0:0:0:
432,255,277640,6,0,L|292:267,1,99.0000030212403,6|0,0:0|0:0,0:0:0:0:
135,310,277940,1,0,0:0:0:0:
474,175,278090,2,0,P|451:120|323:97,1,198.000006042481,14|0,0:0|0:0,0:0:0:0:
240,283,278540,1,0,0:0:0:0:
379,178,278690,1,8,0:0:0:0:
243,7,278840,1,0,0:0:0:0:
337,287,278990,1,0,0:0:0:0:
425,28,279140,1,0,0:0:0:0:
201,207,279290,2,0,P|165:240|163:309,1,99.0000030212403,8|0,0:0|0:0,0:0:0:0:
422,279,279590,6,0,P|384:217|326:203,1,99.0000030212403,6|0,0:0|0:0,0:0:0:0:
201,207,279890,1,8,0:0:0:0:
432,150,280040,6,0,P|368:115|310:132,1,99.0000030212403,6|0,0:0|0:0,0:0:0:0:
116,146,280340,1,0,0:0:0:0:
240,364,280490,2,0,B|225:308|268:255|263:296|310:223|272:169,1,198.000006042481,14|0,0:0|0:0,0:0:0:0:
244,31,280940,5,0,0:0:0:0:
111,236,281090,1,8,0:0:0:0:
320,334,281240,1,0,0:0:0:0:
209,113,281390,1,0,0:0:0:0:
164,313,281540,1,0,0:0:0:0:
344,117,281690,2,0,P|392:120|432:150,1,99.0000030212403,8|0,0:0|0:0,0:0:0:0:
459,244,281990,5,14,0:0:0:0:
160,174,282140,1,0,0:0:0:0:
431,149,282290,5,8,0:0:0:0:
179,301,282440,1,0,0:0:0:0:
447,259,282590,5,8,0:0:0:0:
194,100,282740,1,0,0:0:0:0:
164,313,282890,5,8,0:0:0:0:
385,68,283040,1,0,0:0:0:0:
385,68,283115,1,0,0:0:0:0:
385,68,283190,2,0,P|422:103|430:151,1,99.0000030212403,8|0,0:0|0:0,0:0:0:0:
476,298,283490,5,8,0:0:0:0:
447,259,283565,1,8,0:0:0:0:
407,230,283640,1,8,0:0:0:0:
360,215,283715,1,8,0:0:0:0:
311,216,283790,2,0,L|290:269,1,49.5000015106202,8|8,0:0|0:0,0:0:0:0:
189,374,283940,2,0,L|168:320,1,49.5000015106202,8|8,0:0|0:0,0:0:0:0:
198,115,284090,2,0,L|218:168,1,49.5000015106202,8|8,0:0|0:0,0:0:0:0:
207,233,284240,6,0,B|254:238|281:196|281:196|294:172|310:150|326:139|358:149|383:162|392:200|372:225|338:248|310:215,1,302.399990771485,12|0,0:0|0:0,0:0:0:0:
200,45,286790,6,0,P|193:101|228:162,1,112.5,6|0,0:0|0:0,0:0:0:0:
418,113,287090,1,8,0:0:0:0:
204,341,287240,2,0,P|255:319|291:258,1,112.5
216,150,287540,1,0,0:0:0:0:
181,327,287690,1,8,0:0:0:0:
461,256,287840,6,0,B|423:245|390:256|390:256|372:250|372:250|337:263|295:250,1,168.75,4|0,0:0|0:0,0:0:0:0:
286,237,288140,1,0,0:0:0:0:
105,150,288290,2,0,P|164:141|219:151,1,112.5,8|0,0:0|0:0,0:0:0:0:
314,362,288590,1,0,0:0:0:0:
314,362,288740,1,0,0:0:0:0:
244,54,288890,2,0,P|281:100|300:153,1,112.5,8|0,0:0|0:0,0:0:0:0:
29,236,289190,5,0,0:0:0:0:
19,195,289265,1,0,0:0:0:0:
15,153,289340,1,0,0:0:0:0:
19,111,289415,1,0,0:0:0:0:
29,70,289490,1,8,0:0:0:0:
161,337,289640,2,0,B|170:278|170:278|160:223,1,112.5
79,369,289940,1,0,0:0:0:0:
310,324,290090,1,8,0:0:0:0:
111,169,290240,1,0,0:0:0:0:
111,169,290315,1,0,0:0:0:0:
111,169,290390,6,0,B|162:150|162:150|198:163|198:163|239:155|283:164,1,168.75
306,192,290690,2,0,B|396:221|395:138|495:179,1,168.75,8|0,0:0|0:0,0:0:0:0:
444,246,290990,1,0,0:0:0:0:
342,119,291140,1,0,0:0:0:0:
338,85,291215,1,0,0:0:0:0:
350,54,291290,2,0,L|295:65,1,56.25,8|0,0:0|0:0,0:0:0:0:
211,49,291440,1,0,0:0:0:0:
511,153,291590,6,0,L|401:175,1,112.5,14|0,0:0|0:0,0:0:0:0:
338,200,291815,2,0,L|450:197,1,112.5,8|0,0:0|0:0,0:0:0:0:
444,246,292040,1,8,0:0:0:0:
300,273,292190,6,0,L|190:295,1,112.5,8|0,0:0|0:0,0:0:0:0:
127,320,292415,2,0,L|239:317,1,112.5,8|0,0:0|0:0,0:0:0:0:
233,366,292640,1,12,0:0:0:0:
59,368,292790,6,0,P|45:314|68:261,1,112.5
190,191,293090,1,8,0:0:0:0:
26,27,293240,1,0,0:0:0:0:
298,93,293390,2,0,P|270:88|243:94,1,56.25
313,76,293540,2,0,P|257:66|203:78,1,112.5,0|8,0:0|0:0,0:0:0:0:
194,89,293765,1,0,0:0:0:0:
181,96,293840,1,0,0:0:0:0:
355,159,293990,6,0,P|391:115|408:62,1,112.5,6|0,0:0|0:0,0:0:0:0:
181,96,294290,1,8,0:0:0:0:
359,249,294440,2,0,P|412:229|453:192,1,112.5,4|0,0:0|0:0,0:0:0:0:
181,96,294740,1,0,0:0:0:0:
317,328,294890,2,0,B|373:338|373:338|427:325,1,112.5,12|0,0:0|0:0,0:0:0:0:
195,328,295190,5,0,0:0:0:0:
359,249,295340,1,0,0:0:0:0:
153,249,295490,2,0,B|53:227|20:140|20:140|77:105|160:128,1,270.000010299683,8|0,0:0|0:0,0:0:0:0:
258,168,295940,1,0,0:0:0:0:
463,42,296090,1,8,0:0:0:0:
464,58,296165,1,8,0:0:0:0:
457,73,296240,1,8,0:0:0:0:
444,84,296315,1,8,0:0:0:0:
427,87,296390,5,6,0:0:0:0:
350,78,296465,1,0,0:0:0:0:
273,69,296540,2,0,L|205:61,1,67.5000025749208
104,186,296690,1,8,0:0:0:0:
181,177,296765,1,0,0:0:0:0:
258,168,296840,2,0,L|325:160,1,67.5000025749208
427,285,296990,1,0,0:0:0:0:
90,189,297140,1,0,0:0:0:0:
335,159,297290,1,8,0:0:0:0:
88,331,297440,6,0,B|99:266|78:202|78:202|91:189|91:189|71:138|79:62,1,270.000010299683,4|0,0:0|0:0,0:0:0:0:
14,277,297890,1,8,0:0:0:0:
156,118,298040,1,0,0:0:0:0:
222,320,298190,5,0,0:0:0:0:
82,57,298340,1,0,0:0:0:0:
364,162,298490,5,8,0:0:0:0:
81,178,298640,1,0,0:0:0:0:
431,313,298790,5,4,0:0:0:0:
443,267,298890,1,0,0:0:0:0:
398,255,298990,1,0,0:0:0:0:
386,301,299090,2,0,B|338:307|291:295|291:295|264:338|202:339,1,180,8|0,0:0|0:0,0:0:0:0:
220,256,299490,1,0,0:0:0:0:
174,271,299590,1,0,0:0:0:0:
144,308,299690,2,0,P|115:257|114:197,1,120,8|0,0:0|0:0,0:0:0:0:
193,178,299990,6,0,P|222:127|223:67,1,120
157,20,300290,1,8,0:0:0:0:
346,167,300440,1,0,0:0:0:0:
172,20,300590,2,0,B|209:20|209:20|219:16|219:16|229:20|229:20|261:20,1,90
296,19,300815,1,0,0:0:0:0:
332,19,300890,1,8,0:0:0:0:
131,139,301040,1,0,0:0:0:0:
131,139,301190,6,0,L|23:144,1,90,12|0,0:0|0:0,0:0:0:0:
201,181,301415,2,0,L|309:186,1,90,8|0,0:0|0:0,0:0:0:0:
132,218,301640,1,8,0:0:0:0:
309,263,301790,6,0,L|417:268,1,90,8|0,0:0|0:0,0:0:0:0:
239,305,302015,2,0,L|131:310,1,90,8|0,0:0|0:0,0:0:0:0:
308,342,302240,1,12,0:0:0:0:
66,286,302390,6,0,P|40:242|38:204,1,90
100,101,302690,1,8,0:0:0:0:
275,75,302840,2,0,P|249:119|217:140,1,90
100,101,303140,1,0,0:0:0:0:
280,53,303290,1,8,0:0:0:0:
475,164,303440,1,0,0:0:0:0:
475,164,303515,1,0,0:0:0:0:
475,164,303590,6,0,P|419:148|362:153,1,112.5,6|0,0:0|0:0,0:0:0:0:
202,302,303890,1,8,0:0:0:0:
365,66,304040,2,0,P|320:77|284:102,1,67.5000025749208,4|0,0:0|0:0,0:0:0:0:
202,302,304340,1,0,0:0:0:0:
220,36,304490,2,0,B|178:76|178:76|153:128,1,112.5,12|0,0:0|0:0,0:0:0:0:
202,302,304790,5,8,0:0:0:0:
230,304,304865,1,0,0:0:0:0:
258,306,304940,1,0,0:0:0:0:
286,308,305015,1,0,0:0:0:0:
314,310,305090,1,8,0:0:0:0:
342,313,305165,1,0,0:0:0:0:
370,315,305240,1,0,0:0:0:0:
398,317,305315,1,0,0:0:0:0:
426,319,305390,6,0,L|482:323,1,56.25,8|0,0:0|0:0,0:0:0:0:
337,204,305540,1,8,0:0:0:0:
281,207,305615,1,0,0:0:0:0:
230,209,305690,2,8,L|122:217,1,56.25
353,74,305840,2,8,L|409:78,1,56.25
104,162,305990,5,6,0:0:0:0:
415,162,306140,1,0,0:0:0:0:
117,376,306290,5,8,0:0:0:0:
353,74,306440,1,0,0:0:0:0:
110,269,306590,5,0,0:0:0:0:
477,250,306740,1,0,0:0:0:0:
98,56,306890,5,8,0:0:0:0:
369,259,307040,1,0,0:0:0:0:
110,269,307190,5,0,0:0:0:0:
95,244,307265,1,0,0:0:0:0:
84,219,307340,1,0,0:0:0:0:
77,191,307415,1,0,0:0:0:0:
73,164,307490,1,8,0:0:0:0:
74,135,307565,1,0,0:0:0:0:
78,108,307640,1,0,0:0:0:0:
86,81,307715,1,0,0:0:0:0:
98,56,307790,6,8,P|105:27|100:0,1,56.25,8|8,0:0|0:0,0:0:0:0:
193,175,307940,2,8,P|186:204|191:231,1,56.25
335,54,308090,2,8,P|342:25|337:-2,1,56.25,8|8,0:0|0:0,0:0:0:0:
369,259,308240,2,8,P|362:288|367:315,1,56.25,8|8,0:0|0:0,0:0:0:0:
475,17,308390,5,6,0:0:0:0:
383,349,308540,1,0,0:0:0:0:
141,103,308690,5,8,0:0:0:0:
479,259,308840,2,0,B|439:259|439:259|426:254|426:254|414:259|414:259|368:259,1,112.5
36,257,309140,5,0,0:0:0:0:
398,176,309290,1,8,0:0:0:0:
9,354,309440,1,0,0:0:0:0:
389,267,309590,5,0,0:0:0:0:
364,282,309665,1,0,0:0:0:0:
339,293,309740,1,0,0:0:0:0:
311,300,309815,1,0,0:0:0:0:
284,304,309890,1,8,0:0:0:0:
255,303,309965,1,0,0:0:0:0:
228,299,310040,1,0,0:0:0:0:
201,291,310115,1,0,0:0:0:0:
176,279,310190,6,8,P|147:272|120:277,1,56.25
405,350,310340,2,8,P|434:357|461:352,1,56.25
270,210,310490,5,8,0:0:0:0:
217,190,310565,1,8,0:0:0:0:
161,182,310640,1,8,0:0:0:0:
105,185,310715,1,8,0:0:0:0:
51,199,310790,1,4,0:0:0:0:
256,192,310865,12,0,311690,0:0:0:0:
51,199,311840,5,0,0:0:0:0:
389,267,311990,1,6,0:0:0:0:
