osu file format v14

[General]
AudioFilename: audio.mp3
AudioLeadIn: 0
PreviewTime: 46678
Countdown: 0
SampleSet: Normal
StackLeniency: 0.7
Mode: 1
LetterboxInBreaks: 0
WidescreenStoryboard: 1

[Editor]
DistanceSpacing: 0.2
BeatDivisor: 4
GridSize: 32
TimelineZoom: 0.5999997

[Metadata]
Title:Analogy (TV Size)
TitleUnicode:Analogy (TV Size)
Artist:Ayane
ArtistUnicode:Ayane
Creator:Nao Tomori
Version:Kantan
Source:ひぐらしのなく頃に卒
Tags:higurashi no naku koro ni sotsu when the cicadas they cry passione 07th expansion j-pop jpop opening anime japanese taiko een persoon butylcyclobutyn
BeatmapID:3219800
BeatmapSetID:1576839

[Difficulty]
HPDrainRate:8
CircleSize:5
OverallDifficulty:3
ApproachRate:5
SliderMultiplier:1.4
SliderTickRate:1

[Events]
//Background and Video events
0,0,"higurashi monochrome bg.jpg",0,0
//Break Periods
//Storyboard Layer 0 (Background)
//Storyboard Layer 1 (Fail)
//Storyboard Layer 2 (Pass)
//Storyboard Layer 3 (Foreground)
//Storyboard Layer 4 (Overlay)
//Storyboard Sound Samples

[TimingPoints]
190,441.176470588235,4,1,0,32,1,0
190,-100,4,1,0,32,0,0
3719,-100,4,1,0,42,0,0
16770,-100,4,1,0,42,0,0
16844,-100,4,1,0,42,0,0
16917,-100,4,1,0,42,0,0
17138,-100,4,1,0,47,0,0
41770,-100,4,1,0,57,0,0
46844,-100,4,1,0,37,0,0
47726,-100,4,1,0,67,0,0
86605,-100,4,1,0,77,0,0
86660,-100,4,1,0,77,0,1
88314,-100,4,1,0,77,0,0

[HitObjects]
220,182,190,5,0,0:0:0:0:
220,182,1954,1,0,0:0:0:0:
219,169,3719,1,0,0:0:0:0:
220,169,4601,1,8,0:0:0:0:
220,169,5484,1,0,0:0:0:0:
220,168,7248,1,0,0:0:0:0:
224,164,8131,1,0,0:0:0:0:
233,127,9013,1,8,0:0:0:0:
221,130,9895,1,8,0:0:0:0:
231,163,10778,1,0,0:0:0:0:
218,160,12542,1,0,0:0:0:0:
249,122,13425,1,8,0:0:0:0:
227,160,14307,1,0,0:0:0:0:
226,159,16072,1,8,0:0:0:0:
224,158,16954,1,8,0:0:0:0:
223,157,17837,1,4,0:0:0:0:
220,157,19601,1,0,0:0:0:0:
219,157,20484,1,8,0:0:0:0:
219,157,21366,1,4,0:0:0:0:
217,157,22469,1,8,0:0:0:0:
217,157,23131,1,8,0:0:0:0:
217,157,23792,1,8,0:0:0:0:
214,154,24895,1,4,0:0:0:0:
158,73,25778,1,8,0:0:0:0:
229,151,26660,1,0,0:0:0:0:
226,139,27542,1,8,0:0:0:0:
206,169,28425,1,4,0:0:0:0:
219,160,30189,1,0,0:0:0:0:
214,160,30851,1,8,0:0:0:0:
212,156,31292,1,8,0:0:0:0:
216,158,31954,1,4,0:0:0:0:
235,171,33719,1,0,0:0:0:0:
234,171,34601,1,8,0:0:0:0:
232,171,35484,1,4,0:0:0:0:
210,167,37248,1,0,0:0:0:0:
209,166,38131,1,0,0:0:0:0:
210,163,39013,1,12,0:0:0:0:
272,165,40778,1,8,0:0:0:0:
245,154,42542,1,4,0:0:0:0:
288,138,43204,1,4,0:0:0:0:
235,122,43866,1,4,0:0:0:0:
231,122,44528,1,4,0:0:0:0:
225,121,46072,1,12,0:0:0:0:
250,133,47837,1,4,0:0:0:0:
247,135,48719,1,8,0:0:0:0:
247,134,49160,1,8,0:0:0:0:
245,134,49601,1,0,0:0:0:0:
243,135,50484,1,8,0:0:0:0:
243,135,51366,1,0,0:0:0:0:
243,135,52248,1,0,0:0:0:0:
243,136,52689,1,8,0:0:0:0:
243,135,53131,1,0,0:0:0:0:
242,134,53572,1,0,0:0:0:0:
239,131,54013,1,8,0:0:0:0:
239,131,54895,1,4,0:0:0:0:
208,147,56660,1,4,0:0:0:0:
206,145,57542,1,8,0:0:0:0:
238,171,58425,1,0,0:0:0:0:
234,170,58866,1,0,0:0:0:0:
232,169,59307,1,8,0:0:0:0:
230,169,59748,1,8,0:0:0:0:
228,168,60189,1,4,0:0:0:0:
213,174,61513,1,8,0:0:0:0:
210,169,61954,1,4,0:0:0:0:
226,150,62837,1,8,0:0:0:0:
221,156,63278,1,8,0:0:0:0:
219,158,63719,1,0,0:0:0:0:
215,161,64601,1,0,0:0:0:0:
213,162,65042,1,8,0:0:0:0:
213,162,65484,1,0,0:0:0:0:
214,162,66366,1,8,0:0:0:0:
211,172,67248,1,8,0:0:0:0:
211,172,68131,1,0,0:0:0:0:
211,172,68572,1,8,0:0:0:0:
210,173,69013,1,4,0:0:0:0:
217,162,70778,1,4,0:0:0:0:
214,164,71660,1,8,0:0:0:0:
213,165,72101,1,0,0:0:0:0:
213,165,72542,1,4,0:0:0:0:
244,167,73425,1,0,0:0:0:0:
246,167,73866,1,8,0:0:0:0:
246,167,74307,1,4,0:0:0:0:
241,166,76072,1,12,0:0:0:0:
239,166,76954,1,0,0:0:0:0:
239,164,77395,1,8,0:0:0:0:
240,164,77837,1,4,0:0:0:0:
241,162,78719,1,0,0:0:0:0:
242,160,79160,1,0,0:0:0:0:
210,144,79601,1,12,0:0:0:0:
193,173,81366,1,4,0:0:0:0:
187,170,82248,1,8,0:0:0:0:
187,167,82689,1,8,0:0:0:0:
153,132,83131,1,0,0:0:0:0:
137,117,83572,1,8,0:0:0:0:
144,128,84013,1,0,0:0:0:0:
156,143,84454,1,0,0:0:0:0:
220,166,84895,1,12,0:0:0:0:
40,164,86660,2,4,P|118:152|489:364,1,525
