osu file format v14

[General]
AudioFilename: audio.mp3
AudioLeadIn: 0
PreviewTime: 42844
Countdown: 0
SampleSet: Normal
StackLeniency: 0.7
Mode: 1
LetterboxInBreaks: 0
WidescreenStoryboard: 1

[Editor]
DistanceSpacing: 1.1
BeatDivisor: 4
GridSize: 8
TimelineZoom: 2

[Metadata]
Title:Ding Dong Holy Night
TitleUnicode:Ding Dong Holy Night♪
Artist:Ayane (CV: Serizawa Yuu), Kurumi (CV: Ueda Kana)
ArtistUnicode:アヤネ (CV: 芹澤優)、クルミ (CV: 植田佳奈)
Creator:Joltzzz
Version:Oni
Source:プリンセスコネクト!Re:Dive
Tags:priconne princess connect re:dive redive re dive プリコネR ending ed theme エンディングテーマ japanese video game 忘却のキャロル boukyaku no carol CHARACTER SONG 07 Cygames short version ver.
BeatmapID:3747798
BeatmapSetID:1826176

[Difficulty]
HPDrainRate:7
CircleSize:2
OverallDifficulty:5.5
ApproachRate:10
SliderMultiplier:1.4
SliderTickRate:1

[Events]
//Background and Video events
0,0,"bg.jpg",0,50
//Break Periods
//Storyboard Layer 0 (Background)
//Storyboard Layer 1 (Fail)
//Storyboard Layer 2 (Pass)
//Storyboard Layer 3 (Foreground)
//Storyboard Layer 4 (Overlay)
//Storyboard Sound Samples

[TimingPoints]
2281,422.535211267606,4,1,0,50,1,0
7140,-100,4,1,0,60,0,0
12421,-100,4,1,0,70,0,0
15802,-100,4,1,0,60,0,0
39464,-100,4,1,0,80,0,0
42844,-100,4,1,0,90,0,1
76647,-100,4,1,0,90,0,0
78126,-100,4,1,0,80,0,0

[HitObjects]
256,192,2281,5,12,0:0:0:0:
256,192,3759,1,12,0:0:0:0:
256,192,3971,1,4,0:0:0:0:
256,192,5450,1,4,0:0:0:0:
256,192,5661,1,12,0:0:0:0:
256,192,7140,1,0,0:0:0:0:
256,192,7245,1,0,0:0:0:0:
256,192,7351,1,12,0:0:0:0:
256,192,7668,1,12,0:0:0:0:
256,192,7985,1,12,0:0:0:0:
256,192,8407,1,8,0:0:0:0:
256,192,8619,1,8,0:0:0:0:
256,192,8724,1,0,0:0:0:0:
256,192,8830,1,8,0:0:0:0:
256,192,9041,1,4,0:0:0:0:
256,192,9464,1,8,0:0:0:0:
256,192,9675,1,0,0:0:0:0:
256,192,9886,1,0,0:0:0:0:
256,192,9992,1,8,0:0:0:0:
256,192,10097,1,0,0:0:0:0:
256,192,10309,1,8,0:0:0:0:
256,192,10731,1,0,0:0:0:0:
256,192,10942,1,0,0:0:0:0:
256,192,11048,1,0,0:0:0:0:
256,192,11154,1,8,0:0:0:0:
256,192,11365,1,0,0:0:0:0:
256,192,11576,1,8,0:0:0:0:
256,192,11682,1,0,0:0:0:0:
256,192,11893,1,0,0:0:0:0:
256,192,11999,1,8,0:0:0:0:
256,192,12210,1,0,0:0:0:0:
256,192,12421,1,12,0:0:0:0:
256,192,12633,1,4,0:0:0:0:
256,192,12844,1,12,0:0:0:0:
256,192,13055,1,12,0:0:0:0:
256,192,13266,1,4,0:0:0:0:
256,192,13478,1,12,0:0:0:0:
256,192,13689,1,4,0:0:0:0:
256,192,13900,1,12,0:0:0:0:
256,192,14111,1,12,0:0:0:0:
256,192,14323,1,4,0:0:0:0:
256,192,14534,1,4,0:0:0:0:
256,192,14745,1,12,0:0:0:0:
256,192,14957,1,0,0:0:0:0:
256,192,15062,1,0,0:0:0:0:
256,192,15168,1,0,0:0:0:0:
256,192,15273,1,0,0:0:0:0:
248,192,15379,1,8,0:0:0:0:
248,192,15802,1,4,0:0:0:0:
248,192,16013,1,8,0:0:0:0:
256,192,16224,1,0,0:0:0:0:
256,192,16330,1,0,0:0:0:0:
256,192,16435,1,8,0:0:0:0:
256,192,16647,1,0,0:0:0:0:
256,192,16858,1,8,0:0:0:0:
256,192,16964,1,0,0:0:0:0:
256,192,17281,1,8,0:0:0:0:
256,192,17492,1,0,0:0:0:0:
256,192,17703,1,8,0:0:0:0:
256,192,17914,1,0,0:0:0:0:
256,192,18126,1,8,0:0:0:0:
256,192,18337,1,0,0:0:0:0:
256,192,18442,1,0,0:0:0:0:
256,192,18548,1,8,0:0:0:0:
256,192,18654,1,0,0:0:0:0:
256,192,18971,1,8,0:0:0:0:
256,192,19182,1,0,0:0:0:0:
256,192,19393,1,8,0:0:0:0:
256,192,19499,1,0,0:0:0:0:
256,192,19604,1,8,0:0:0:0:
256,192,19816,1,8,0:0:0:0:
256,192,20027,1,0,0:0:0:0:
256,192,20238,1,8,0:0:0:0:
256,192,20344,1,0,0:0:0:0:
256,192,20661,1,8,0:0:0:0:
256,192,20872,1,4,0:0:0:0:
256,192,21189,1,12,0:0:0:0:
256,192,21506,1,12,0:0:0:0:
256,192,21717,1,0,0:0:0:0:
256,192,21823,1,8,0:0:0:0:
256,192,21928,1,0,0:0:0:0:
256,192,22140,1,8,0:0:0:0:
256,192,22351,1,8,0:0:0:0:
256,192,22457,1,8,0:0:0:0:
256,192,22562,1,4,0:0:0:0:
256,192,22985,1,0,0:0:0:0:
256,192,23090,1,0,0:0:0:0:
256,192,23196,1,8,0:0:0:0:
256,192,23407,1,0,0:0:0:0:
256,192,23619,1,8,0:0:0:0:
256,192,23830,1,0,0:0:0:0:
256,192,23935,1,0,0:0:0:0:
256,192,24041,1,8,0:0:0:0:
256,192,24252,1,0,0:0:0:0:
256,192,24464,1,8,0:0:0:0:
256,192,24675,1,0,0:0:0:0:
256,192,24781,1,0,0:0:0:0:
256,192,24886,1,8,0:0:0:0:
256,192,25097,1,0,0:0:0:0:
256,192,25309,1,8,0:0:0:0:
256,192,25520,1,8,0:0:0:0:
256,192,25626,1,0,0:0:0:0:
256,192,25731,1,8,0:0:0:0:
256,192,25942,1,0,0:0:0:0:
256,192,26154,1,8,0:0:0:0:
256,192,26365,1,0,0:0:0:0:
256,192,26576,1,8,0:0:0:0:
256,192,26788,1,0,0:0:0:0:
256,192,26999,1,8,0:0:0:0:
256,192,27104,1,8,0:0:0:0:
256,192,27210,1,0,0:0:0:0:
256,192,27421,1,8,0:0:0:0:
256,192,27633,1,0,0:0:0:0:
256,192,27844,1,8,0:0:0:0:
256,192,28055,1,0,0:0:0:0:
256,192,28161,1,0,0:0:0:0:
256,192,28266,1,8,0:0:0:0:
256,192,28478,1,0,0:0:0:0:
256,192,28583,1,0,0:0:0:0:
256,192,28689,1,8,0:0:0:0:
256,192,28795,1,8,0:0:0:0:
256,192,28900,1,0,0:0:0:0:
256,192,29111,1,8,0:0:0:0:
256,192,29323,1,4,0:0:0:0:
256,192,29957,1,0,0:0:0:0:
256,192,30168,1,8,0:0:0:0:
256,192,30485,1,0,0:0:0:0:
256,192,30802,1,8,0:0:0:0:
256,192,31013,1,0,0:0:0:0:
256,192,31330,1,0,0:0:0:0:
256,192,31647,1,0,0:0:0:0:
256,192,31858,1,8,0:0:0:0:
256,192,32281,1,0,0:0:0:0:
256,192,32703,1,0,0:0:0:0:
256,192,33020,1,0,0:0:0:0:
256,192,33337,1,0,0:0:0:0:
256,192,33548,1,8,0:0:0:0:
256,192,33865,1,0,0:0:0:0:
256,192,34182,1,8,0:0:0:0:
256,192,34288,1,8,0:0:0:0:
256,192,34816,1,12,0:0:0:0:
256,192,35238,1,12,0:0:0:0:
256,192,35661,1,12,0:0:0:0:
256,192,36083,1,4,0:0:0:0:
256,192,36400,1,0,0:0:0:0:
248,192,36506,1,8,0:0:0:0:
256,192,36717,1,0,0:0:0:0:
256,192,37034,1,8,0:0:0:0:
256,192,37140,1,0,0:0:0:0:
256,192,37351,1,8,0:0:0:0:
256,192,37773,1,0,0:0:0:0:
248,192,38090,1,0,0:0:0:0:
248,192,38196,1,8,0:0:0:0:
256,192,38407,1,0,0:0:0:0:
256,192,38619,1,8,0:0:0:0:
256,192,38724,1,0,0:0:0:0:
256,192,38935,1,0,0:0:0:0:
256,192,39041,1,8,0:0:0:0:
256,192,39252,1,0,0:0:0:0:
256,192,39464,1,12,0:0:0:0:
256,192,39781,1,12,0:0:0:0:
256,192,40097,1,0,0:0:0:0:
256,192,40309,1,12,0:0:0:0:
256,192,40626,1,12,0:0:0:0:
256,192,40942,1,0,0:0:0:0:
256,192,41154,1,8,0:0:0:0:
256,192,41365,1,0,0:0:0:0:
256,192,41471,1,8,0:0:0:0:
256,192,41682,1,0,0:0:0:0:
256,192,41788,1,8,0:0:0:0:
256,192,41999,1,8,0:0:0:0:
248,192,42421,1,8,0:0:0:0:
248,192,42633,1,8,0:0:0:0:
248,192,42738,1,8,0:0:0:0:
248,192,42844,1,4,0:0:0:0:
248,192,43055,1,8,0:0:0:0:
248,192,43266,1,0,0:0:0:0:
248,192,43372,1,0,0:0:0:0:
248,192,43478,1,8,0:0:0:0:
248,192,43689,1,0,0:0:0:0:
248,192,43900,1,8,0:0:0:0:
248,192,44006,1,0,0:0:0:0:
248,192,44217,1,0,0:0:0:0:
248,192,44323,1,8,0:0:0:0:
248,192,44534,1,0,0:0:0:0:
248,192,44745,1,8,0:0:0:0:
248,192,44851,1,0,0:0:0:0:
248,192,45062,1,0,0:0:0:0:
248,192,45168,1,8,0:0:0:0:
248,192,45379,1,0,0:0:0:0:
248,192,45590,1,8,0:0:0:0:
248,192,45696,1,0,0:0:0:0:
248,192,45802,1,8,0:0:0:0:
248,192,46435,1,8,0:0:0:0:
248,192,46647,1,0,0:0:0:0:
248,192,46858,1,8,0:0:0:0:
248,192,46964,1,8,0:0:0:0:
248,192,47069,1,0,0:0:0:0:
248,192,47281,1,8,0:0:0:0:
248,192,47386,1,0,0:0:0:0:
248,192,47703,1,8,0:0:0:0:
248,192,47914,1,0,0:0:0:0:
248,192,48126,1,8,0:0:0:0:
248,192,48231,1,0,0:0:0:0:
248,192,48442,1,0,0:0:0:0:
248,192,48548,1,8,0:0:0:0:
248,192,48759,1,0,0:0:0:0:
248,192,48971,1,8,0:0:0:0:
248,192,49182,1,0,0:0:0:0:
248,192,49288,1,0,0:0:0:0:
248,192,49393,1,8,0:0:0:0:
248,192,49604,1,4,0:0:0:0:
248,192,49921,1,0,0:0:0:0:
248,192,50133,1,0,0:0:0:0:
248,192,50238,1,8,0:0:0:0:
248,192,50450,1,0,0:0:0:0:
248,192,50661,1,8,0:0:0:0:
248,192,50766,1,0,0:0:0:0:
248,192,50978,1,0,0:0:0:0:
248,192,51083,1,8,0:0:0:0:
248,192,51295,1,0,0:0:0:0:
248,192,51506,1,8,0:0:0:0:
248,192,51611,1,0,0:0:0:0:
248,192,51717,1,0,0:0:0:0:
248,192,51823,1,0,0:0:0:0:
248,192,51928,1,8,0:0:0:0:
248,192,52140,1,0,0:0:0:0:
248,192,52773,1,8,0:0:0:0:
248,192,52985,1,0,0:0:0:0:
248,192,53196,1,8,0:0:0:0:
248,192,53302,1,0,0:0:0:0:
248,192,53513,1,0,0:0:0:0:
248,192,53619,1,8,0:0:0:0:
248,192,53830,1,8,0:0:0:0:
248,192,54041,1,0,0:0:0:0:
248,192,54147,1,8,0:0:0:0:
248,192,54358,1,8,0:0:0:0:
248,192,54464,1,8,0:0:0:0:
248,192,54675,1,12,0:0:0:0:
248,192,54992,1,12,0:0:0:0:
248,192,55309,1,12,0:0:0:0:
248,192,55520,1,0,0:0:0:0:
240,192,55626,1,0,0:0:0:0:
248,192,55731,1,8,0:0:0:0:
248,192,55942,1,8,0:0:0:0:
248,192,56154,1,8,0:0:0:0:
248,192,56259,1,8,0:0:0:0:
248,192,56365,1,4,0:0:0:0:
248,192,56788,1,8,0:0:0:0:
248,192,57210,1,8,0:0:0:0:
248,192,57421,1,0,0:0:0:0:
248,192,57527,1,8,0:0:0:0:
248,192,57633,1,0,0:0:0:0:
248,192,57844,1,8,0:0:0:0:
248,192,58055,1,8,0:0:0:0:
248,192,58266,1,0,0:0:0:0:
240,184,58372,1,8,0:0:0:0:
248,192,58478,1,0,0:0:0:0:
248,192,58689,1,8,0:0:0:0:
248,192,58900,1,8,0:0:0:0:
248,192,59111,1,0,0:0:0:0:
248,192,59217,1,0,0:0:0:0:
248,192,59323,1,8,0:0:0:0:
248,192,59957,1,8,0:0:0:0:
248,192,60168,1,8,0:0:0:0:
248,192,60379,1,0,0:0:0:0:
248,192,60590,1,0,0:0:0:0:
248,192,60696,1,8,0:0:0:0:
248,192,60802,1,0,0:0:0:0:
248,192,61013,1,8,0:0:0:0:
248,192,61224,1,8,0:0:0:0:
248,192,61330,1,8,0:0:0:0:
248,192,61435,1,0,0:0:0:0:
248,192,61647,1,0,0:0:0:0:
248,192,61752,1,8,0:0:0:0:
248,192,62069,1,8,0:0:0:0:
248,192,62281,1,0,0:0:0:0:
240,184,62492,1,0,0:0:0:0:
248,192,62703,1,8,0:0:0:0:
248,192,63126,1,12,0:0:0:0:
248,192,63337,1,0,0:0:0:0:
248,192,63442,1,8,0:0:0:0:
248,192,63548,1,0,0:0:0:0:
248,192,63759,1,8,0:0:0:0:
240,184,63971,1,0,0:0:0:0:
240,184,64182,1,0,0:0:0:0:
240,192,64288,1,8,0:0:0:0:
240,192,64393,1,8,0:0:0:0:
240,192,64604,1,8,0:0:0:0:
240,192,64816,1,0,0:0:0:0:
240,192,65027,1,0,0:0:0:0:
240,192,65238,1,8,0:0:0:0:
240,192,65450,1,0,0:0:0:0:
240,192,65661,1,8,0:0:0:0:
240,192,65872,1,0,0:0:0:0:
240,192,66083,1,8,0:0:0:0:
240,192,66189,1,8,0:0:0:0:
240,192,66295,1,0,0:0:0:0:
240,192,66506,1,12,0:0:0:0:
240,192,66928,1,0,0:0:0:0:
240,192,67140,1,8,0:0:0:0:
240,192,67351,1,0,0:0:0:0:
240,184,67562,1,0,0:0:0:0:
240,192,67773,1,8,0:0:0:0:
240,192,67985,1,0,0:0:0:0:
240,192,68090,1,0,0:0:0:0:
240,192,68196,1,8,0:0:0:0:
240,192,68407,1,0,0:0:0:0:
240,184,68513,1,8,0:0:0:0:
246,190,68619,1,0,0:0:0:0:
240,192,68830,1,8,0:0:0:0:
240,192,69041,1,0,0:0:0:0:
240,192,69252,1,0,0:0:0:0:
240,184,69464,1,8,0:0:0:0:
240,192,69675,1,8,0:0:0:0:
240,192,69781,1,8,0:0:0:0:
240,192,69886,1,0,0:0:0:0:
240,184,70309,1,0,0:0:0:0:
240,184,70520,1,8,0:0:0:0:
240,184,70626,1,0,0:0:0:0:
240,184,70731,1,8,0:0:0:0:
240,184,70942,1,0,0:0:0:0:
240,184,71048,1,8,0:0:0:0:
240,184,71365,1,0,0:0:0:0:
240,184,71576,1,8,0:0:0:0:
240,184,71999,1,0,0:0:0:0:
232,176,72104,1,0,0:0:0:0:
232,176,72210,1,8,0:0:0:0:
232,176,72421,1,0,0:0:0:0:
232,176,72633,1,8,0:0:0:0:
232,176,72844,1,8,0:0:0:0:
232,176,72950,1,8,0:0:0:0:
232,176,73055,1,0,0:0:0:0:
232,184,73266,1,12,0:0:0:0:
232,184,73478,1,0,0:0:0:0:
232,184,73689,1,8,0:0:0:0:
232,184,73900,1,0,0:0:0:0:
232,184,74111,1,8,0:0:0:0:
232,184,74323,1,0,0:0:0:0:
232,184,74428,1,0,0:0:0:0:
232,184,74534,1,8,0:0:0:0:
232,184,74745,1,0,0:0:0:0:
232,184,74957,1,8,0:0:0:0:
232,184,75168,1,0,0:0:0:0:
232,184,75379,1,8,0:0:0:0:
232,184,75590,1,0,0:0:0:0:
232,184,75802,1,8,0:0:0:0:
232,184,76013,1,8,0:0:0:0:
232,184,76224,1,8,0:0:0:0:
232,184,76435,1,8,0:0:0:0:
232,184,76647,1,0,0:0:0:0:
256,192,78126,5,8,0:0:0:0:
256,192,78231,1,8,0:0:0:0:
256,192,78337,1,4,0:0:0:0:
256,192,78759,1,0,0:0:0:0:
256,192,78971,1,0,0:0:0:0:
256,192,79182,1,8,0:0:0:0:
256,192,79393,1,0,0:0:0:0:
256,192,79604,1,8,0:0:0:0:
256,192,79816,1,8,0:0:0:0:
256,192,80027,1,0,0:0:0:0:
256,192,80238,1,8,0:0:0:0:
256,192,80450,1,8,0:0:0:0:
256,192,81717,1,4,0:0:0:0:
256,192,82140,1,8,0:0:0:0:
256,192,82985,1,8,0:0:0:0:
256,192,83090,1,8,0:0:0:0:
256,192,83196,1,0,0:0:0:0:
256,192,83407,1,12,0:0:0:0:
256,192,83724,1,12,0:0:0:0:
256,192,84041,1,12,0:0:0:0:
256,192,84464,1,0,0:0:0:0:
256,192,84569,1,0,0:0:0:0:
256,192,84675,1,12,0:0:0:0:
256,192,85097,8,0,86682,0:0:0:0:
