osu file format v14

[General]
AudioFilename: audio.mp3
AudioLeadIn: 0
PreviewTime: 42844
Countdown: 0
SampleSet: Normal
StackLeniency: 0.7
Mode: 1
LetterboxInBreaks: 0
WidescreenStoryboard: 1

[Editor]
DistanceSpacing: 1
BeatDivisor: 4
GridSize: 8
TimelineZoom: 2.3

[Metadata]
Title:Ding Dong Holy Night
TitleUnicode:Ding Dong Holy Night♪
Artist:Ayane (CV: Serizawa Yuu), Kurumi (CV: Ueda Kana)
ArtistUnicode:アヤネ (CV: 芹澤優)、クルミ (CV: 植田佳奈)
Creator:Joltzzz
Version:Merry Christmas!
Source:プリンセスコネクト!Re:Dive
Tags:priconne princess connect re:dive redive re dive プリコネR ending ed theme エンディングテーマ japanese video game 忘却のキャロル boukyaku no carol CHARACTER SONG 07 Cygames short version ver.
BeatmapID:3855296
BeatmapSetID:1826176

[Difficulty]
HPDrainRate:6.5
CircleSize:2
OverallDifficulty:7
ApproachRate:10
SliderMultiplier:2.8
SliderTickRate:1

[Events]
//Background and Video events
0,0,"bg.jpg",0,50
//Break Periods
//Storyboard Layer 0 (Background)
//Storyboard Layer 1 (Fail)
//Storyboard Layer 2 (Pass)
//Storyboard Layer 3 (Foreground)
//Storyboard Layer 4 (Overlay)
//Storyboard Sound Samples

[TimingPoints]
2281,422.535211267606,4,1,0,50,1,0
2281,-166.666666666667,4,1,0,50,0,0
7140,-105.263157894737,4,1,0,60,0,0
7245,-111.111111111111,4,1,0,60,0,0
7351,-117.647058823529,4,1,0,60,0,0
7562,-125,4,1,0,60,0,0
7668,-133.333333333333,4,1,0,60,0,0
7879,-142.857142857143,4,1,0,60,0,0
7985,-153.846153846154,4,1,0,60,0,0
8302,-136.986301369863,4,1,0,60,0,0
8407,-138.888888888889,4,1,0,60,0,0
8513,-140.845070422535,4,1,0,60,0,0
8619,-142.857142857143,4,1,0,60,0,0
8671,-144.927536231884,4,1,0,60,0,0
8724,-147.058823529412,4,1,0,60,0,0
8830,-149.253731343284,4,1,0,60,0,0
8935,-151.515151515152,4,1,0,60,0,0
9041,-153.846153846154,4,1,0,60,0,0
12421,-105.263157894737,4,1,0,70,0,0
14957,-126.582278481013,4,1,0,70,0,0
15009,-128.205128205128,4,1,0,70,0,0
15062,-129.87012987013,4,1,0,70,0,0
15168,-131.578947368421,4,1,0,70,0,0
15273,-133.333333333333,4,1,0,70,0,0
15379,-135.135135135135,4,1,0,70,0,0
15485,-136.986301369863,4,1,0,70,0,0
15590,-138.888888888889,4,1,0,70,0,0
15696,-140.845070422535,4,1,0,70,0,0
15802,-142.857142857143,4,1,0,60,0,0
20872,-105.263157894737,4,1,0,60,0,0
21189,-111.111111111111,4,1,0,60,0,0
21506,-117.647058823529,4,1,0,60,0,0
21717,-125,4,1,0,60,0,0
21823,-126.582278481013,4,1,0,60,0,0
21928,-128.205128205128,4,1,0,60,0,0
21981,-129.87012987013,4,1,0,60,0,0
22034,-131.578947368421,4,1,0,60,0,0
22140,-133.333333333333,4,1,0,60,0,0
22245,-135.135135135135,4,1,0,60,0,0
22298,-136.986301369863,4,1,0,60,0,0
22351,-138.888888888889,4,1,0,60,0,0
22457,-140.845070422535,4,1,0,60,0,0
22562,-142.857142857143,4,1,0,60,0,0
27844,-149.253731343284,4,1,0,60,0,0
27950,-151.515151515152,4,1,0,60,0,0
28055,-153.846153846154,4,1,0,60,0,0
28161,-156.25,4,1,0,60,0,0
28266,-158.730158730159,4,1,0,60,0,0
28372,-161.290322580645,4,1,0,60,0,0
28478,-163.934426229508,4,1,0,60,0,0
28583,-166.666666666667,4,1,0,60,0,0
28636,-169.491525423729,4,1,0,60,0,0
28689,-172.413793103448,4,1,0,60,0,0
28795,-175.438596491228,4,1,0,60,0,0
28900,-178.571428571429,4,1,0,60,0,0
29006,-181.818181818182,4,1,0,60,0,0
29059,-185.185185185185,4,1,0,60,0,0
29111,-188.679245283019,4,1,0,60,0,0
29217,-192.307692307692,4,1,0,60,0,0
29323,-200,4,1,0,60,0,0
34816,-111.111111111111,4,1,0,60,0,0
35238,-117.647058823529,4,1,0,60,0,0
35661,-125,4,1,0,60,0,0
36083,-142.857142857143,4,1,0,60,0,0
39464,-121.951219512195,4,1,0,80,0,0
41154,-120.481927710843,4,1,0,80,0,0
41259,-119.047619047619,4,1,0,80,0,0
41312,-117.647058823529,4,1,0,80,0,0
41365,-116.279069767442,4,1,0,80,0,0
41471,-114.942528735632,4,1,0,80,0,0
41576,-113.636363636364,4,1,0,80,0,0
41629,-112.359550561798,4,1,0,80,0,0
41682,-111.111111111111,4,1,0,80,0,0
41788,-109.89010989011,4,1,0,80,0,0
41893,-108.695652173913,4,1,0,80,0,0
41946,-107.52688172043,4,1,0,80,0,0
41999,-106.382978723404,4,1,0,80,0,0
42210,-105.263157894737,4,1,0,80,0,0
42421,-104.166666666667,4,1,0,80,0,0
42527,-103.092783505155,4,1,0,80,0,0
42633,-102.040816326531,4,1,0,80,0,0
42738,-101.010101010101,4,1,0,80,0,0
42844,-100,4,1,0,90,0,1
54675,-97.0873786407767,4,1,0,90,0,1
54886,-103.092783505155,4,1,0,90,0,1
54939,-101.010101010101,4,1,0,90,0,1
54992,-99.009900990099,4,1,0,90,0,1
55203,-109.89010989011,4,1,0,90,0,1
55256,-107.52688172043,4,1,0,90,0,1
55309,-105.263157894737,4,1,0,90,0,1
55520,-112.359550561798,4,1,0,90,0,1
55626,-111.111111111111,4,1,0,90,0,1
55678,-109.89010989011,4,1,0,90,0,1
55731,-108.695652173913,4,1,0,90,0,1
55837,-107.52688172043,4,1,0,90,0,1
55942,-106.382978723404,4,1,0,90,0,1
55995,-105.263157894737,4,1,0,90,0,1
56048,-104.166666666667,4,1,0,90,0,1
56101,-103.092783505155,4,1,0,90,0,1
56154,-102.040816326531,4,1,0,90,0,1
56259,-101.010101010101,4,1,0,90,0,1
56365,-100,4,1,0,90,0,1
75907,-99.009900990099,4,1,0,90,0,1
76013,-98.0392156862745,4,1,0,90,0,1
76119,-97.0873786407767,4,1,0,90,0,1
76171,-96.1538461538461,4,1,0,90,0,1
76224,-95.2380952380952,4,1,0,90,0,1
76330,-94.3396226415094,4,1,0,90,0,1
76435,-93.4579439252336,4,1,0,90,0,1
76541,-92.5925925925926,4,1,0,90,0,1
76647,-90.9090909090909,4,1,0,90,0,0
78126,-125,4,1,0,80,0,0
78231,-117.647058823529,4,1,0,80,0,0
78284,-111.111111111111,4,1,0,80,0,0
78337,-105.263157894737,4,1,0,80,0,0
78759,-142.857142857143,4,1,0,80,0,0
78971,-138.888888888889,4,1,0,80,0,0
79182,-135.135135135135,4,1,0,80,0,0
79393,-131.578947368421,4,1,0,80,0,0
79604,-128.205128205128,4,1,0,80,0,0
79816,-125,4,1,0,80,0,0
80027,-121.951219512195,4,1,0,80,0,0
80238,-119.047619047619,4,1,0,80,0,0
80450,-116.279069767442,4,1,0,80,0,0
81717,-133.333333333333,4,1,0,80,0,0
82140,-125,4,1,0,80,0,0
82985,-111.111111111111,4,1,0,80,0,0
83090,-108.695652173913,4,1,0,80,0,0
83143,-106.382978723404,4,1,0,80,0,0
83196,-104.166666666667,4,1,0,80,0,0
83302,-102.040816326531,4,1,0,80,0,0
83407,-100,4,1,0,80,0,0
84464,-133.333333333333,4,1,0,80,0,0

[HitObjects]
256,192,2281,5,12,0:0:0:0:
256,192,3759,1,12,0:0:0:0:
256,192,3971,1,4,0:0:0:0:
256,192,5450,1,4,0:0:0:0:
256,192,5661,1,12,0:0:0:0:
256,192,7140,1,0,0:0:0:0:
256,192,7245,1,0,0:0:0:0:
256,192,7351,1,12,0:0:0:0:
256,192,7562,1,0,0:0:0:0:
256,192,7668,1,12,0:0:0:0:
256,192,7879,1,0,0:0:0:0:
256,192,7985,1,12,0:0:0:0:
256,192,8302,1,0,0:0:0:0:
256,192,8407,1,8,0:0:0:0:
256,192,8513,1,0,0:0:0:0:
256,192,8619,1,8,0:0:0:0:
256,192,8671,1,8,0:0:0:0:
256,192,8724,1,0,0:0:0:0:
256,192,8830,1,8,0:0:0:0:
256,192,8935,1,8,0:0:0:0:
256,192,9041,1,4,0:0:0:0:
256,192,9252,1,8,0:0:0:0:
256,192,9358,1,0,0:0:0:0:
256,192,9464,1,8,0:0:0:0:
256,192,9569,1,8,0:0:0:0:
256,192,9675,1,0,0:0:0:0:
256,192,9781,1,0,0:0:0:0:
256,192,9886,1,0,0:0:0:0:
256,192,9992,1,8,0:0:0:0:
256,192,10097,1,0,0:0:0:0:
256,192,10203,1,0,0:0:0:0:
256,192,10309,1,8,0:0:0:0:
256,192,10520,1,0,0:0:0:0:
256,192,10626,1,0,0:0:0:0:
256,192,10731,1,0,0:0:0:0:
256,192,10942,1,0,0:0:0:0:
256,192,11048,1,0,0:0:0:0:
256,192,11154,1,8,0:0:0:0:
256,192,11259,1,8,0:0:0:0:
256,192,11365,1,0,0:0:0:0:
256,192,11471,1,0,0:0:0:0:
256,192,11576,1,8,0:0:0:0:
256,192,11629,1,8,0:0:0:0:
256,192,11682,1,0,0:0:0:0:
256,192,11788,1,0,0:0:0:0:
256,192,11893,1,8,0:0:0:0:
256,192,11999,1,0,0:0:0:0:
256,192,12104,1,0,0:0:0:0:
256,192,12210,1,8,0:0:0:0:
256,192,12421,1,4,0:0:0:0:
256,192,12633,1,4,0:0:0:0:
256,192,12844,1,12,0:0:0:0:
256,192,13055,1,12,0:0:0:0:
256,192,13266,1,4,0:0:0:0:
256,192,13478,1,12,0:0:0:0:
256,192,13689,1,4,0:0:0:0:
256,192,13900,1,12,0:0:0:0:
256,192,14111,1,12,0:0:0:0:
256,192,14323,1,4,0:0:0:0:
256,192,14534,1,12,0:0:0:0:
256,192,14745,1,4,0:0:0:0:
256,192,14957,1,0,0:0:0:0:
256,192,15009,1,0,0:0:0:0:
256,192,15062,1,8,0:0:0:0:
256,192,15168,1,0,0:0:0:0:
256,192,15273,1,0,0:0:0:0:
248,192,15379,1,8,0:0:0:0:
248,192,15485,1,0,0:0:0:0:
248,192,15590,1,8,0:0:0:0:
248,192,15696,1,8,0:0:0:0:
248,192,15802,1,4,0:0:0:0:
248,192,16013,1,8,0:0:0:0:
256,192,16119,1,0,0:0:0:0:
256,192,16224,1,0,0:0:0:0:
256,192,16330,1,0,0:0:0:0:
256,192,16435,1,8,0:0:0:0:
256,192,16541,1,0,0:0:0:0:
256,192,16647,1,8,0:0:0:0:
256,192,16752,1,0,0:0:0:0:
256,192,16858,1,0,0:0:0:0:
256,192,16964,1,8,0:0:0:0:
256,192,17175,1,0,0:0:0:0:
256,192,17281,1,8,0:0:0:0:
256,192,17386,1,8,0:0:0:0:
256,192,17492,1,0,0:0:0:0:
256,192,17703,1,8,0:0:0:0:
256,192,17809,1,0,0:0:0:0:
256,192,17914,1,8,0:0:0:0:
256,192,18020,1,8,0:0:0:0:
256,192,18126,1,8,0:0:0:0:
256,192,18231,1,0,0:0:0:0:
256,192,18337,1,8,0:0:0:0:
256,192,18442,1,8,0:0:0:0:
256,192,18548,1,0,0:0:0:0:
256,192,18654,1,8,0:0:0:0:
256,192,18865,1,0,0:0:0:0:
256,192,18971,1,8,0:0:0:0:
256,192,19076,1,8,0:0:0:0:
256,192,19182,1,0,0:0:0:0:
256,192,19393,1,8,0:0:0:0:
256,192,19499,1,0,0:0:0:0:
256,192,19604,1,8,0:0:0:0:
256,192,19710,1,0,0:0:0:0:
256,192,19816,1,8,0:0:0:0:
256,192,19921,1,8,0:0:0:0:
256,192,20027,1,0,0:0:0:0:
256,192,20133,1,0,0:0:0:0:
256,192,20238,1,8,0:0:0:0:
256,192,20344,1,0,0:0:0:0:
256,192,20450,1,0,0:0:0:0:
256,192,20555,1,0,0:0:0:0:
256,192,20661,1,8,0:0:0:0:
256,192,20766,1,0,0:0:0:0:
256,192,20872,1,12,0:0:0:0:
256,192,21083,1,0,0:0:0:0:
256,192,21189,1,12,0:0:0:0:
256,192,21400,1,0,0:0:0:0:
256,192,21506,1,12,0:0:0:0:
256,192,21717,1,0,0:0:0:0:
256,192,21823,1,8,0:0:0:0:
256,192,21928,1,0,0:0:0:0:
256,192,21981,1,0,0:0:0:0:
256,192,22034,1,0,0:0:0:0:
256,192,22140,1,8,0:0:0:0:
256,192,22245,1,8,0:0:0:0:
256,192,22298,1,8,0:0:0:0:
256,192,22351,1,0,0:0:0:0:
256,192,22457,1,8,0:0:0:0:
256,192,22562,1,4,0:0:0:0:
256,192,22773,1,8,0:0:0:0:
256,192,22879,1,8,0:0:0:0:
256,192,22985,1,0,0:0:0:0:
256,192,23090,1,0,0:0:0:0:
256,192,23196,1,8,0:0:0:0:
256,192,23302,1,8,0:0:0:0:
256,192,23407,1,0,0:0:0:0:
256,192,23513,1,0,0:0:0:0:
256,192,23619,1,8,0:0:0:0:
256,192,23724,1,0,0:0:0:0:
256,192,23830,1,8,0:0:0:0:
256,192,24041,1,8,0:0:0:0:
256,192,24252,1,0,0:0:0:0:
256,192,24464,1,8,0:0:0:0:
256,192,24569,1,8,0:0:0:0:
256,192,24675,1,0,0:0:0:0:
256,192,24781,1,0,0:0:0:0:
256,192,24886,1,8,0:0:0:0:
256,192,24992,1,0,0:0:0:0:
256,192,25097,1,0,0:0:0:0:
256,192,25203,1,0,0:0:0:0:
256,192,25309,1,8,0:0:0:0:
256,192,25414,1,8,0:0:0:0:
256,192,25520,1,0,0:0:0:0:
256,192,25731,1,8,0:0:0:0:
256,192,25942,1,0,0:0:0:0:
256,192,26048,1,0,0:0:0:0:
256,192,26154,1,8,0:0:0:0:
256,192,26259,1,0,0:0:0:0:
256,192,26365,1,8,0:0:0:0:
256,192,26471,1,0,0:0:0:0:
256,192,26576,1,8,0:0:0:0:
256,192,26788,1,0,0:0:0:0:
256,192,26894,1,0,0:0:0:0:
256,192,26999,1,8,0:0:0:0:
256,192,27104,1,0,0:0:0:0:
256,192,27210,1,8,0:0:0:0:
256,192,27316,1,8,0:0:0:0:
256,192,27421,1,0,0:0:0:0:
256,192,27527,1,8,0:0:0:0:
256,192,27633,1,0,0:0:0:0:
256,192,27844,1,8,0:0:0:0:
256,192,27950,1,8,0:0:0:0:
256,192,28055,1,0,0:0:0:0:
256,192,28161,1,0,0:0:0:0:
256,192,28266,1,8,0:0:0:0:
256,192,28372,1,8,0:0:0:0:
256,192,28478,1,0,0:0:0:0:
256,192,28583,1,0,0:0:0:0:
256,192,28636,1,0,0:0:0:0:
256,192,28689,1,8,0:0:0:0:
256,192,28795,1,8,0:0:0:0:
256,192,28900,1,8,0:0:0:0:
256,192,29006,1,0,0:0:0:0:
256,192,29059,1,0,0:0:0:0:
256,192,29111,1,0,0:0:0:0:
256,192,29217,1,0,0:0:0:0:
256,192,29323,1,12,0:0:0:0:
256,192,29640,1,0,0:0:0:0:
256,192,29957,1,0,0:0:0:0:
256,192,30062,1,0,0:0:0:0:
256,192,30168,1,8,0:0:0:0:
256,192,30485,1,0,0:0:0:0:
256,192,30802,1,8,0:0:0:0:
256,192,30907,1,0,0:0:0:0:
256,192,31013,1,0,0:0:0:0:
256,192,31330,1,0,0:0:0:0:
256,192,31647,1,0,0:0:0:0:
256,192,31858,1,8,0:0:0:0:
256,192,32281,1,0,0:0:0:0:
256,192,32386,1,0,0:0:0:0:
256,192,32492,1,8,0:0:0:0:
256,192,32597,1,8,0:0:0:0:
256,192,32703,1,0,0:0:0:0:
256,192,33020,1,0,0:0:0:0:
256,192,33337,1,0,0:0:0:0:
256,192,33442,1,0,0:0:0:0:
256,192,33548,1,8,0:0:0:0:
256,192,33865,1,0,0:0:0:0:
256,192,34182,1,8,0:0:0:0:
256,192,34235,1,0,0:0:0:0:
256,192,34288,1,8,0:0:0:0:
256,192,34816,1,12,0:0:0:0:
256,192,35238,1,12,0:0:0:0:
256,192,35661,1,12,0:0:0:0:
256,192,36083,1,4,0:0:0:0:
256,192,36400,1,0,0:0:0:0:
248,192,36506,1,8,0:0:0:0:
256,192,36717,1,0,0:0:0:0:
256,192,36823,1,0,0:0:0:0:
256,192,36876,1,0,0:0:0:0:
256,192,36928,1,0,0:0:0:0:
256,192,37034,1,8,0:0:0:0:
256,192,37140,1,0,0:0:0:0:
256,192,37245,1,0,0:0:0:0:
256,192,37351,1,8,0:0:0:0:
256,192,37562,1,0,0:0:0:0:
256,192,37773,1,0,0:0:0:0:
248,192,38090,1,0,0:0:0:0:
248,192,38196,1,8,0:0:0:0:
256,192,38407,1,0,0:0:0:0:
256,192,38513,1,0,0:0:0:0:
256,192,38619,1,8,0:0:0:0:
256,192,38724,1,8,0:0:0:0:
256,192,38935,1,0,0:0:0:0:
256,192,39041,1,8,0:0:0:0:
256,192,39252,1,0,0:0:0:0:
256,192,39358,1,0,0:0:0:0:
256,192,39464,1,12,0:0:0:0:
256,192,39675,1,0,0:0:0:0:
256,192,39781,1,12,0:0:0:0:
256,192,40097,1,8,0:0:0:0:
256,192,40309,1,12,0:0:0:0:
256,192,40520,1,0,0:0:0:0:
256,192,40626,1,12,0:0:0:0:
256,192,40942,1,8,0:0:0:0:
256,192,41154,1,8,0:0:0:0:
256,192,41259,1,0,0:0:0:0:
256,192,41312,1,0,0:0:0:0:
256,192,41365,1,0,0:0:0:0:
256,192,41471,1,8,0:0:0:0:
256,192,41576,1,0,0:0:0:0:
256,192,41629,1,0,0:0:0:0:
256,192,41682,1,0,0:0:0:0:
256,192,41788,1,8,0:0:0:0:
256,192,41893,1,8,0:0:0:0:
256,192,41946,1,8,0:0:0:0:
256,192,41999,1,0,0:0:0:0:
248,192,42210,1,0,0:0:0:0:
248,192,42421,1,8,0:0:0:0:
248,192,42527,1,8,0:0:0:0:
248,192,42633,1,8,0:0:0:0:
248,192,42738,1,8,0:0:0:0:
248,192,42844,1,4,0:0:0:0:
248,192,43055,1,8,0:0:0:0:
248,192,43161,1,0,0:0:0:0:
248,192,43266,1,8,0:0:0:0:
248,192,43372,1,0,0:0:0:0:
248,192,43478,1,8,0:0:0:0:
248,192,43531,1,8,0:0:0:0:
248,192,43583,1,0,0:0:0:0:
248,192,43689,1,8,0:0:0:0:
248,192,43795,1,0,0:0:0:0:
248,192,43900,1,0,0:0:0:0:
248,192,43953,1,0,0:0:0:0:
248,192,44006,1,8,0:0:0:0:
248,192,44111,1,0,0:0:0:0:
248,192,44217,1,0,0:0:0:0:
248,192,44270,1,0,0:0:0:0:
248,192,44323,1,8,0:0:0:0:
248,192,44428,1,8,0:0:0:0:
248,192,44534,1,0,0:0:0:0:
248,192,44587,1,0,0:0:0:0:
248,192,44640,1,0,0:0:0:0:
248,192,44745,1,8,0:0:0:0:
248,192,44851,1,0,0:0:0:0:
248,192,44957,1,0,0:0:0:0:
248,192,45009,1,0,0:0:0:0:
248,192,45062,1,0,0:0:0:0:
248,192,45168,1,8,0:0:0:0:
256,192,45273,1,8,0:0:0:0:
256,192,45326,1,8,0:0:0:0:
248,192,45379,1,0,0:0:0:0:
248,192,45485,1,0,0:0:0:0:
248,192,45590,1,8,0:0:0:0:
248,192,45696,1,0,0:0:0:0:
256,192,45749,1,0,0:0:0:0:
248,192,45802,1,8,0:0:0:0:
248,192,45907,1,0,0:0:0:0:
248,192,46013,1,8,0:0:0:0:
248,192,46119,1,8,0:0:0:0:
240,184,46224,1,0,0:0:0:0:
248,192,46435,1,8,0:0:0:0:
256,192,46541,1,0,0:0:0:0:
248,192,46647,1,8,0:0:0:0:
248,192,46752,1,0,0:0:0:0:
248,192,46858,1,8,0:0:0:0:
248,192,46964,1,0,0:0:0:0:
248,192,47016,1,0,0:0:0:0:
248,192,47069,1,8,0:0:0:0:
248,192,47175,1,0,0:0:0:0:
248,192,47281,1,8,0:0:0:0:
248,192,47386,1,8,0:0:0:0:
248,192,47439,1,8,0:0:0:0:
248,192,47492,1,0,0:0:0:0:
248,192,47597,1,0,0:0:0:0:
248,192,47703,1,8,0:0:0:0:
248,192,47809,1,0,0:0:0:0:
248,192,47914,1,8,0:0:0:0:
248,192,48020,1,0,0:0:0:0:
248,192,48126,1,8,0:0:0:0:
248,192,48231,1,8,0:0:0:0:
248,192,48284,1,0,0:0:0:0:
248,192,48337,1,0,0:0:0:0:
248,192,48442,1,0,0:0:0:0:
248,192,48548,1,8,0:0:0:0:
248,192,48654,1,8,0:0:0:0:
248,192,48759,1,0,0:0:0:0:
248,192,48971,1,8,0:0:0:0:
248,192,49076,1,0,0:0:0:0:
248,192,49182,1,8,0:0:0:0:
248,192,49288,1,0,0:0:0:0:
248,192,49340,1,0,0:0:0:0:
248,192,49393,1,8,0:0:0:0:
248,192,49499,1,8,0:0:0:0:
248,192,49604,1,4,0:0:0:0:
248,192,49816,1,8,0:0:0:0:
248,192,49921,1,0,0:0:0:0:
248,192,50027,1,0,0:0:0:0:
248,192,50133,1,0,0:0:0:0:
248,192,50238,1,8,0:0:0:0:
248,192,50344,1,8,0:0:0:0:
248,192,50450,1,0,0:0:0:0:
248,192,50661,1,8,0:0:0:0:
248,192,50766,1,0,0:0:0:0:
248,192,50872,1,8,0:0:0:0:
248,192,50978,1,0,0:0:0:0:
248,192,51031,1,0,0:0:0:0:
248,192,51083,1,8,0:0:0:0:
248,192,51189,1,8,0:0:0:0:
248,192,51295,1,0,0:0:0:0:
248,192,51400,1,0,0:0:0:0:
248,192,51506,1,8,0:0:0:0:
248,192,51611,1,8,0:0:0:0:
248,192,51717,1,0,0:0:0:0:
248,192,51823,1,0,0:0:0:0:
248,192,51876,1,0,0:0:0:0:
248,192,51928,1,8,0:0:0:0:
248,192,52034,1,0,0:0:0:0:
248,192,52140,1,8,0:0:0:0:
248,192,52245,1,0,0:0:0:0:
248,192,52351,1,0,0:0:0:0:
248,192,52457,1,8,0:0:0:0:
248,192,52562,1,8,0:0:0:0:
248,192,52668,1,0,0:0:0:0:
248,192,52773,1,8,0:0:0:0:
248,192,52985,1,0,0:0:0:0:
248,192,53090,1,0,0:0:0:0:
248,192,53196,1,8,0:0:0:0:
248,192,53302,1,0,0:0:0:0:
248,192,53354,1,0,0:0:0:0:
248,192,53407,1,0,0:0:0:0:
248,192,53513,1,0,0:0:0:0:
248,192,53619,1,8,0:0:0:0:
248,192,53724,1,0,0:0:0:0:
248,192,53830,1,8,0:0:0:0:
248,192,53883,1,8,0:0:0:0:
248,192,53935,1,0,0:0:0:0:
248,192,54041,1,0,0:0:0:0:
248,192,54147,1,8,0:0:0:0:
248,192,54252,1,0,0:0:0:0:
248,192,54358,1,0,0:0:0:0:
248,192,54464,1,8,0:0:0:0:
248,192,54569,1,0,0:0:0:0:
248,192,54622,1,0,0:0:0:0:
248,192,54675,1,12,0:0:0:0:
248,192,54886,1,0,0:0:0:0:
248,192,54939,1,0,0:0:0:0:
248,192,54992,1,12,0:0:0:0:
248,192,55203,1,0,0:0:0:0:
248,192,55256,1,0,0:0:0:0:
248,192,55309,1,12,0:0:0:0:
248,192,55520,1,0,0:0:0:0:
240,192,55626,1,0,0:0:0:0:
248,192,55678,1,0,0:0:0:0:
248,192,55731,1,8,0:0:0:0:
248,192,55837,1,8,0:0:0:0:
248,192,55942,1,8,0:0:0:0:
248,192,55995,1,8,0:0:0:0:
248,192,56048,1,0,0:0:0:0:
248,192,56101,1,0,0:0:0:0:
248,192,56154,1,8,0:0:0:0:
248,192,56259,1,8,0:0:0:0:
248,192,56365,1,4,0:0:0:0:
240,192,56576,1,0,0:0:0:0:
248,192,56682,1,0,0:0:0:0:
248,192,56788,1,8,0:0:0:0:
248,192,56999,1,0,0:0:0:0:
248,192,57104,1,0,0:0:0:0:
248,192,57157,1,0,0:0:0:0:
248,192,57210,1,8,0:0:0:0:
248,192,57316,1,0,0:0:0:0:
248,192,57421,1,0,0:0:0:0:
248,192,57527,1,8,0:0:0:0:
248,192,57633,1,0,0:0:0:0:
248,192,57738,1,0,0:0:0:0:
248,192,57844,1,8,0:0:0:0:
248,192,57950,1,8,0:0:0:0:
248,192,58055,1,0,0:0:0:0:
248,192,58161,1,0,0:0:0:0:
248,192,58266,1,0,0:0:0:0:
240,184,58372,1,8,0:0:0:0:
248,192,58478,1,0,0:0:0:0:
248,192,58583,1,0,0:0:0:0:
248,192,58689,1,8,0:0:0:0:
248,192,58795,1,0,0:0:0:0:
248,192,58847,1,0,0:0:0:0:
248,192,58900,1,8,0:0:0:0:
248,192,59006,1,0,0:0:0:0:
248,192,59111,1,0,0:0:0:0:
248,192,59217,1,0,0:0:0:0:
248,192,59323,1,8,0:0:0:0:
248,192,59428,1,0,0:0:0:0:
248,192,59534,1,8,0:0:0:0:
248,192,59640,1,8,0:0:0:0:
248,192,59745,1,0,0:0:0:0:
248,192,59957,1,8,0:0:0:0:
248,192,60168,1,8,0:0:0:0:
248,192,60273,1,0,0:0:0:0:
248,192,60379,1,8,0:0:0:0:
248,192,60485,1,8,0:0:0:0:
248,192,60590,1,0,0:0:0:0:
248,192,60696,1,8,0:0:0:0:
248,192,60802,1,0,0:0:0:0:
248,192,60854,1,0,0:0:0:0:
248,192,60907,1,8,0:0:0:0:
248,192,61013,1,8,0:0:0:0:
248,192,61119,1,0,0:0:0:0:
248,192,61224,1,8,0:0:0:0:
248,192,61330,1,0,0:0:0:0:
248,192,61435,1,8,0:0:0:0:
248,192,61541,1,0,0:0:0:0:
248,192,61594,1,0,0:0:0:0:
248,192,61647,1,0,0:0:0:0:
248,192,61752,1,8,0:0:0:0:
248,192,61858,1,0,0:0:0:0:
248,192,61964,1,0,0:0:0:0:
248,192,62016,1,0,0:0:0:0:
248,192,62069,1,8,0:0:0:0:
248,192,62175,1,0,0:0:0:0:
248,192,62281,1,8,0:0:0:0:
240,192,62386,1,0,0:0:0:0:
240,184,62439,1,0,0:0:0:0:
248,192,62492,1,8,0:0:0:0:
248,192,62597,1,8,0:0:0:0:
248,192,62703,1,0,0:0:0:0:
248,192,62809,1,8,0:0:0:0:
248,192,62914,1,0,0:0:0:0:
248,192,63020,1,0,0:0:0:0:
248,192,63126,1,12,0:0:0:0:
248,192,63337,1,0,0:0:0:0:
248,192,63442,1,8,0:0:0:0:
248,192,63548,1,0,0:0:0:0:
248,192,63654,1,0,0:0:0:0:
248,192,63759,1,8,0:0:0:0:
240,184,63865,1,0,0:0:0:0:
248,192,63918,1,0,0:0:0:0:
240,184,63971,1,8,0:0:0:0:
248,192,64076,1,8,0:0:0:0:
240,184,64182,1,0,0:0:0:0:
240,192,64288,1,8,0:0:0:0:
240,192,64393,1,8,0:0:0:0:
248,192,64499,1,0,0:0:0:0:
240,192,64604,1,8,0:0:0:0:
248,192,64710,1,0,0:0:0:0:
240,192,64816,1,8,0:0:0:0:
240,192,64921,1,0,0:0:0:0:
240,192,65027,1,0,0:0:0:0:
240,192,65133,1,0,0:0:0:0:
240,192,65238,1,8,0:0:0:0:
240,192,65344,1,8,0:0:0:0:
240,192,65450,1,0,0:0:0:0:
240,192,65555,1,0,0:0:0:0:
240,192,65608,1,0,0:0:0:0:
240,192,65661,1,8,0:0:0:0:
240,192,65766,1,0,0:0:0:0:
240,192,65872,1,0,0:0:0:0:
240,192,65978,1,0,0:0:0:0:
240,192,66083,1,8,0:0:0:0:
240,192,66189,1,0,0:0:0:0:
240,192,66295,1,8,0:0:0:0:
240,192,66400,1,8,0:0:0:0:
240,192,66506,1,4,0:0:0:0:
248,184,66717,1,0,0:0:0:0:
240,192,66823,1,8,0:0:0:0:
240,192,66928,1,0,0:0:0:0:
240,192,67034,1,0,0:0:0:0:
240,192,67140,1,8,0:0:0:0:
240,192,67245,1,0,0:0:0:0:
240,192,67351,1,0,0:0:0:0:
240,192,67457,1,8,0:0:0:0:
240,184,67562,1,0,0:0:0:0:
240,192,67668,1,0,0:0:0:0:
240,192,67721,1,0,0:0:0:0:
240,192,67773,1,8,0:0:0:0:
240,192,67879,1,0,0:0:0:0:
240,192,67985,1,0,0:0:0:0:
240,192,68090,1,0,0:0:0:0:
240,192,68196,1,8,0:0:0:0:
240,192,68302,1,0,0:0:0:0:
240,192,68407,1,0,0:0:0:0:
240,184,68513,1,8,0:0:0:0:
240,192,68619,1,8,0:0:0:0:
240,192,68724,1,0,0:0:0:0:
240,192,68830,1,8,0:0:0:0:
240,192,68935,1,0,0:0:0:0:
240,192,69041,1,0,0:0:0:0:
240,192,69147,1,8,0:0:0:0:
240,192,69252,1,0,0:0:0:0:
240,192,69358,1,0,0:0:0:0:
240,184,69464,1,8,0:0:0:0:
240,192,69569,1,0,0:0:0:0:
240,192,69675,1,8,0:0:0:0:
240,200,69728,1,8,0:0:0:0:
240,192,69781,1,8,0:0:0:0:
240,192,69886,1,0,0:0:0:0:
240,192,69992,1,0,0:0:0:0:
240,192,70097,1,0,0:0:0:0:
240,184,70203,1,8,0:0:0:0:
240,184,70309,1,0,0:0:0:0:
240,184,70414,1,0,0:0:0:0:
240,184,70520,1,8,0:0:0:0:
240,184,70626,1,0,0:0:0:0:
240,184,70678,1,0,0:0:0:0:
240,184,70731,1,8,0:0:0:0:
240,184,70837,1,0,0:0:0:0:
240,184,70942,1,0,0:0:0:0:
240,184,71048,1,8,0:0:0:0:
240,184,71154,1,0,0:0:0:0:
240,184,71259,1,0,0:0:0:0:
240,184,71365,1,8,0:0:0:0:
240,184,71471,1,0,0:0:0:0:
240,184,71576,1,8,0:0:0:0:
240,184,71682,1,8,0:0:0:0:
240,184,71788,1,0,0:0:0:0:
240,184,71893,1,0,0:0:0:0:
240,184,71999,1,8,0:0:0:0:
232,176,72104,1,0,0:0:0:0:
232,176,72210,1,8,0:0:0:0:
232,176,72316,1,8,0:0:0:0:
240,184,72369,1,8,0:0:0:0:
240,184,72421,1,0,0:0:0:0:
232,176,72527,1,0,0:0:0:0:
232,176,72633,1,8,0:0:0:0:
232,176,72738,1,0,0:0:0:0:
232,176,72791,1,0,0:0:0:0:
232,176,72844,1,8,0:0:0:0:
232,176,72950,1,8,0:0:0:0:
232,176,73055,1,0,0:0:0:0:
240,176,73108,1,0,0:0:0:0:
232,184,73161,1,0,0:0:0:0:
240,176,73214,1,0,0:0:0:0:
232,184,73266,1,12,0:0:0:0:
232,184,73478,1,0,0:0:0:0:
232,184,73583,1,0,0:0:0:0:
232,184,73689,1,8,0:0:0:0:
232,184,73795,1,0,0:0:0:0:
232,184,73900,1,0,0:0:0:0:
232,184,74006,1,0,0:0:0:0:
232,184,74111,1,8,0:0:0:0:
232,184,74217,1,0,0:0:0:0:
232,184,74323,1,0,0:0:0:0:
232,184,74428,1,0,0:0:0:0:
232,184,74534,1,8,0:0:0:0:
232,184,74640,1,0,0:0:0:0:
232,184,74745,1,0,0:0:0:0:
232,184,74851,1,0,0:0:0:0:
232,184,74957,1,8,0:0:0:0:
232,184,75062,1,8,0:0:0:0:
232,184,75168,1,0,0:0:0:0:
232,184,75273,1,0,0:0:0:0:
232,184,75379,1,8,0:0:0:0:
232,184,75485,1,0,0:0:0:0:
232,184,75590,1,0,0:0:0:0:
232,184,75696,1,0,0:0:0:0:
232,184,75802,1,8,0:0:0:0:
232,184,75907,1,0,0:0:0:0:
232,184,76013,1,8,0:0:0:0:
232,184,76119,1,0,0:0:0:0:
240,176,76171,1,0,0:0:0:0:
232,184,76224,1,8,0:0:0:0:
232,184,76330,1,0,0:0:0:0:
232,184,76435,1,8,0:0:0:0:
232,184,76541,1,8,0:0:0:0:
232,184,76647,1,0,0:0:0:0:
256,192,78126,5,8,0:0:0:0:
256,192,78231,1,8,0:0:0:0:
256,192,78284,1,8,0:0:0:0:
256,192,78337,1,4,0:0:0:0:
256,192,78759,1,0,0:0:0:0:
256,192,78971,1,0,0:0:0:0:
256,192,79182,1,8,0:0:0:0:
256,192,79393,1,0,0:0:0:0:
256,192,79604,1,8,0:0:0:0:
256,192,79816,1,8,0:0:0:0:
256,192,80027,1,0,0:0:0:0:
256,192,80238,1,8,0:0:0:0:
256,192,80450,1,8,0:0:0:0:
256,192,81717,1,4,0:0:0:0:
256,192,82140,1,8,0:0:0:0:
256,192,82985,1,8,0:0:0:0:
256,192,83090,1,8,0:0:0:0:
256,192,83143,1,8,0:0:0:0:
256,192,83196,1,0,0:0:0:0:
256,192,83302,1,0,0:0:0:0:
256,192,83407,1,12,0:0:0:0:
256,192,83619,1,0,0:0:0:0:
256,192,83724,1,12,0:0:0:0:
256,192,83935,1,0,0:0:0:0:
256,192,84041,1,12,0:0:0:0:
256,192,84464,1,0,0:0:0:0:
256,192,84516,1,0,0:0:0:0:
256,192,84569,1,0,0:0:0:0:
256,192,84675,1,12,0:0:0:0:
256,192,85097,12,0,86682,0:0:0:0:
