osu file format v14

[General]
AudioFilename: audio.mp3
AudioLeadIn: 0
PreviewTime: 42844
Countdown: 0
SampleSet: Normal
StackLeniency: 0.7
Mode: 1
LetterboxInBreaks: 0
WidescreenStoryboard: 1

[Editor]
DistanceSpacing: 1
BeatDivisor: 4
GridSize: 8
TimelineZoom: 1.6

[Metadata]
Title:Ding Dong Holy Night
TitleUnicode:Ding Dong Holy Night♪
Artist:Ayane (CV: Serizawa Yuu), Kurumi (CV: Ueda Kana)
ArtistUnicode:アヤネ (CV: 芹澤優)、クルミ (CV: 植田佳奈)
Creator:Joltzzz
Version:Futsuu
Source:プリンセスコネクト!Re:Dive
Tags:priconne princess connect re:dive redive re dive プリコネR ending ed theme エンディングテーマ japanese video game 忘却のキャロル boukyaku no carol CHARACTER SONG 07 Cygames short version ver.
BeatmapID:3747814
BeatmapSetID:1826176

[Difficulty]
HPDrainRate:9
CircleSize:2
OverallDifficulty:4
ApproachRate:10
SliderMultiplier:1.4
SliderTickRate:1

[Events]
//Background and Video events
0,0,"bg.jpg",0,50
//Break Periods
//Storyboard Layer 0 (Background)
//Storyboard Layer 1 (Fail)
//Storyboard Layer 2 (Pass)
//Storyboard Layer 3 (Foreground)
//Storyboard Layer 4 (Overlay)
//Storyboard Sound Samples

[TimingPoints]
2281,422.535211267606,4,1,0,50,1,0
7140,-100,4,1,0,60,0,0
12421,-100,4,1,0,70,0,0
15802,-100,4,1,0,60,0,0
39464,-100,4,1,0,80,0,0
42844,-100,4,1,0,90,0,1
76647,-100,4,1,0,90,0,0
78126,-100,4,1,0,80,0,0

[HitObjects]
256,192,2281,5,12,0:0:0:0:
256,192,3759,1,12,0:0:0:0:
256,192,3971,1,4,0:0:0:0:
256,192,5450,1,4,0:0:0:0:
256,192,5661,1,12,0:0:0:0:
256,192,7140,1,0,0:0:0:0:
256,192,7351,1,12,0:0:0:0:
256,192,7985,1,12,0:0:0:0:
256,192,8619,1,8,0:0:0:0:
256,192,9041,1,4,0:0:0:0:
256,192,9464,1,8,0:0:0:0:
256,192,10309,1,8,0:0:0:0:
256,192,10731,1,0,0:0:0:0:
256,192,11154,1,8,0:0:0:0:
256,192,11576,1,8,0:0:0:0:
256,192,12421,1,12,0:0:0:0:
256,192,12844,1,12,0:0:0:0:
256,192,13266,1,4,0:0:0:0:
256,192,13689,1,4,0:0:0:0:
256,192,14111,1,12,0:0:0:0:
256,192,14534,1,12,0:0:0:0:
256,192,14957,1,0,0:0:0:0:
256,192,15168,1,0,0:0:0:0:
248,192,15379,1,8,0:0:0:0:
248,192,15802,1,4,0:0:0:0:
256,192,16647,1,0,0:0:0:0:
256,192,16964,1,8,0:0:0:0:
256,192,17492,1,0,0:0:0:0:
256,192,18337,1,0,0:0:0:0:
256,192,18654,1,8,0:0:0:0:
256,192,19182,1,0,0:0:0:0:
256,192,19816,1,8,0:0:0:0:
256,192,20027,1,0,0:0:0:0:
256,192,20344,1,0,0:0:0:0:
256,192,20661,1,8,0:0:0:0:
256,192,20872,1,4,0:0:0:0:
256,192,21506,1,12,0:0:0:0:
256,192,21928,1,0,0:0:0:0:
256,192,22140,1,8,0:0:0:0:
256,192,22562,1,4,0:0:0:0:
256,192,23302,1,8,0:0:0:0:
256,192,23830,1,0,0:0:0:0:
256,192,24041,1,0,0:0:0:0:
256,192,24252,1,8,0:0:0:0:
256,192,24992,1,0,0:0:0:0:
256,192,25520,1,8,0:0:0:0:
256,192,25942,1,0,0:0:0:0:
256,192,26365,1,8,0:0:0:0:
256,192,26576,1,8,0:0:0:0:
256,192,26788,1,0,0:0:0:0:
256,192,27210,1,0,0:0:0:0:
256,192,27421,1,8,0:0:0:0:
256,192,28055,1,8,0:0:0:0:
256,192,28478,1,0,0:0:0:0:
256,192,28689,1,8,0:0:0:0:
256,192,28900,1,8,0:0:0:0:
256,192,29323,1,4,0:0:0:0:
256,192,30168,1,8,0:0:0:0:
256,192,30802,1,8,0:0:0:0:
256,192,31013,1,0,0:0:0:0:
256,192,31858,1,8,0:0:0:0:
256,192,32281,1,8,0:0:0:0:
256,192,32703,1,0,0:0:0:0:
256,192,33337,1,0,0:0:0:0:
256,192,33548,1,8,0:0:0:0:
256,192,34182,1,8,0:0:0:0:
256,192,34393,1,0,0:0:0:0:
256,192,34816,1,12,0:0:0:0:
256,192,35238,1,12,0:0:0:0:
256,192,35661,1,12,0:0:0:0:
256,192,36083,1,4,0:0:0:0:
256,192,36717,1,0,0:0:0:0:
256,192,36928,1,8,0:0:0:0:
256,192,37351,1,8,0:0:0:0:
256,192,37773,1,0,0:0:0:0:
256,192,38619,1,8,0:0:0:0:
256,192,39464,1,12,0:0:0:0:
256,192,39781,1,12,0:0:0:0:
256,192,40309,1,12,0:0:0:0:
256,192,40626,1,12,0:0:0:0:
256,192,41154,1,0,0:0:0:0:
256,192,41788,1,0,0:0:0:0:
256,192,41999,1,8,0:0:0:0:
248,192,42421,1,8,0:0:0:0:
248,192,42844,1,4,0:0:0:0:
248,192,43689,1,8,0:0:0:0:
248,192,44006,1,0,0:0:0:0:
248,192,44323,1,8,0:0:0:0:
248,192,44534,1,0,0:0:0:0:
248,192,45168,1,0,0:0:0:0:
248,192,45379,1,8,0:0:0:0:
248,192,45802,1,8,0:0:0:0:
240,184,46224,1,0,0:0:0:0:
248,192,47069,1,0,0:0:0:0:
248,192,47386,1,8,0:0:0:0:
248,192,47703,1,0,0:0:0:0:
248,192,47914,1,8,0:0:0:0:
248,192,48548,1,0,0:0:0:0:
248,192,48759,1,8,0:0:0:0:
248,192,49604,1,4,0:0:0:0:
248,192,50238,1,8,0:0:0:0:
248,192,50450,1,0,0:0:0:0:
248,192,50766,1,0,0:0:0:0:
248,192,51083,1,8,0:0:0:0:
248,192,51295,1,8,0:0:0:0:
248,192,51928,1,8,0:0:0:0:
248,192,52140,1,0,0:0:0:0:
248,192,52985,1,0,0:0:0:0:
248,192,53302,1,0,0:0:0:0:
248,192,53830,1,8,0:0:0:0:
248,192,54147,1,8,0:0:0:0:
248,192,54675,1,12,0:0:0:0:
248,192,55309,1,12,0:0:0:0:
248,192,55942,1,8,0:0:0:0:
248,192,56154,1,8,0:0:0:0:
248,192,56365,1,4,0:0:0:0:
248,192,57210,1,8,0:0:0:0:
248,192,57527,1,0,0:0:0:0:
248,192,57844,1,0,0:0:0:0:
248,192,58055,1,8,0:0:0:0:
248,192,58689,1,8,0:0:0:0:
248,192,58900,1,0,0:0:0:0:
248,192,59323,1,8,0:0:0:0:
248,192,59745,1,0,0:0:0:0:
248,192,60590,1,8,0:0:0:0:
248,192,60907,1,0,0:0:0:0:
248,192,61224,1,0,0:0:0:0:
248,192,61435,1,8,0:0:0:0:
248,192,62069,1,8,0:0:0:0:
248,192,62281,1,8,0:0:0:0:
248,192,63126,1,4,0:0:0:0:
248,192,63759,1,8,0:0:0:0:
240,184,63971,1,0,0:0:0:0:
240,192,64393,1,8,0:0:0:0:
240,192,64816,1,0,0:0:0:0:
240,192,65238,1,8,0:0:0:0:
240,192,65661,1,8,0:0:0:0:
240,192,66506,1,4,0:0:0:0:
240,192,67140,1,8,0:0:0:0:
240,184,67985,1,0,0:0:0:0:
240,192,68196,1,8,0:0:0:0:
240,192,68830,1,0,0:0:0:0:
240,184,69675,1,8,0:0:0:0:
240,192,69886,1,8,0:0:0:0:
248,192,70203,1,0,0:0:0:0:
240,184,70520,1,8,0:0:0:0:
240,184,70731,1,8,0:0:0:0:
240,184,71365,1,8,0:0:0:0:
240,184,71576,1,0,0:0:0:0:
240,184,71999,1,0,0:0:0:0:
240,184,72210,1,8,0:0:0:0:
232,176,72421,1,8,0:0:0:0:
232,176,72844,1,0,0:0:0:0:
232,184,73266,1,12,0:0:0:0:
232,184,73900,1,8,0:0:0:0:
232,184,74111,1,0,0:0:0:0:
232,184,74534,1,8,0:0:0:0:
232,184,75168,1,8,0:0:0:0:
232,184,75802,1,8,0:0:0:0:
232,184,76013,1,8,0:0:0:0:
232,184,76224,1,8,0:0:0:0:
232,184,76647,1,0,0:0:0:0:
256,192,78337,1,4,0:0:0:0:
256,192,78759,1,0,0:0:0:0:
256,192,79182,1,0,0:0:0:0:
256,192,79604,1,0,0:0:0:0:
256,192,80027,1,0,0:0:0:0:
256,192,80238,1,8,0:0:0:0:
256,192,80450,1,8,0:0:0:0:
256,192,81717,1,4,0:0:0:0:
256,192,82140,1,8,0:0:0:0:
256,192,82985,1,8,0:0:0:0:
256,192,83407,1,4,0:0:0:0:
256,192,84041,1,12,0:0:0:0:
256,192,84675,1,12,0:0:0:0:
256,192,85097,8,0,86682,0:0:0:0:
