osu file format v14

[General]
AudioFilename: audio.mp3
AudioLeadIn: 0
PreviewTime: 42844
Countdown: 0
SampleSet: Soft
StackLeniency: 0.7
Mode: 3
LetterboxInBreaks: 0
SpecialStyle: 0
WidescreenStoryboard: 1

[Editor]
Bookmarks: 2281,15802,29323,42844,56365,69886,73266,81717
DistanceSpacing: 1
BeatDivisor: 4
GridSize: 8
TimelineZoom: 1.999999

[Metadata]
Title:Ding Dong Holy Night
TitleUnicode:Ding Dong Holy Night♪
Artist:Ayane (CV: Serizawa Yuu), Kurumi (CV: Ueda Kana)
ArtistUnicode:アヤネ (CV: 芹澤優)、クルミ (CV: 植田佳奈)
Creator:Hytex
Version:fvrex's Hard
Source:プリンセスコネクト!Re:Dive
Tags:j-pop jpop pop プリコネR princess connect redive ending ed theme エンディングテーマ priconne character song 忘却のキャロル boukyaku no carol japanese video game Merry Christmas fvrex xtrippin
BeatmapID:2698378
BeatmapSetID:1300920

[Difficulty]
HPDrainRate:7.5
CircleSize:4
OverallDifficulty:7.5
ApproachRate:5
SliderMultiplier:1.4
SliderTickRate:1

[Events]
//Background and Video events
0,0,"bg.jpg",0,0
//Break Periods
//Storyboard Layer 0 (Background)
//Storyboard Layer 1 (Fail)
//Storyboard Layer 2 (Pass)
//Storyboard Layer 3 (Foreground)
//Storyboard Layer 4 (Overlay)
//Storyboard Sound Samples

[TimingPoints]
2281,422.535211267606,4,2,1,80,1,0
42844,-100,4,2,1,90,0,1
56365,-100,4,2,1,80,0,0

[HitObjects]
448,192,590,5,0,0:0:0:0:
448,192,1013,1,0,0:0:0:0:
448,192,1435,1,0,0:0:0:0:
448,192,1858,1,0,0:0:0:0:
64,192,2281,128,4,3759:0:0:0:0:
320,192,2281,1,2,0:0:0:0:
448,192,2281,1,0,0:0:0:0:
192,192,2492,1,0,0:0:0:0:
448,192,2703,1,0,0:0:0:0:
320,192,2914,1,0,0:0:0:0:
192,192,3126,1,0,0:0:0:0:
448,192,3337,1,0,0:0:0:0:
192,192,3548,1,0,0:0:0:0:
320,192,3759,1,4,0:0:0:0:
448,192,3759,1,2,0:0:0:0:
192,192,3971,1,4,0:0:0:0:
64,192,3971,1,2,0:0:0:0:
448,192,3971,128,0,5450:0:0:0:0:
320,192,4182,1,0,0:0:0:0:
64,192,4393,1,0,0:0:0:0:
192,192,4604,1,0,0:0:0:0:
320,192,4816,1,0,0:0:0:0:
64,192,5027,1,0,0:0:0:0:
320,192,5238,1,0,0:0:0:0:
64,192,5450,1,4,0:0:0:0:
192,192,5450,1,2,0:0:0:0:
448,192,5661,1,4,0:0:0:0:
320,192,5661,1,2,0:0:0:0:
64,192,5661,128,0,7140:0:0:0:0:
192,192,5872,1,0,0:0:0:0:
320,192,6083,1,0,0:0:0:0:
448,192,6295,1,0,0:0:0:0:
192,192,6506,1,0,0:0:0:0:
448,192,6717,1,0,0:0:0:0:
192,192,6928,1,0,0:0:0:0:
320,192,7140,1,2,0:0:0:0:
448,192,7140,1,0,0:0:0:0:
192,192,7351,1,4,0:0:0:0:
64,192,7351,1,2,0:0:0:0:
448,192,7351,1,0,0:0:0:0:
320,192,7562,1,2,0:0:0:0:
192,192,7668,1,4,0:0:0:0:
448,192,7668,1,2,0:0:0:0:
64,192,7879,1,2,0:0:0:0:
448,192,7985,1,4,0:0:0:0:
320,192,7985,1,2,0:0:0:0:
320,192,8302,1,2,0:0:0:0:
64,192,8407,1,8,0:0:0:0:
192,192,8407,1,0,0:0:0:0:
320,192,8619,1,2,0:0:0:0:
448,192,8724,1,8,0:0:0:0:
64,192,8830,1,8,0:0:0:0:
192,192,8935,1,8,0:0:0:0:
320,192,9041,1,4,0:0:0:0:
448,192,9041,1,2,0:0:0:0:
64,192,9041,1,0,0:0:0:0:
192,192,9358,1,2,0:0:0:0:
448,192,9464,1,8,0:0:0:0:
64,192,9464,1,0,0:0:0:0:
320,192,9675,1,2,0:0:0:0:
64,192,9886,1,2,0:0:0:0:
320,192,9992,1,8,0:0:0:0:
448,192,9992,1,0,0:0:0:0:
192,192,10203,1,2,0:0:0:0:
448,192,10309,1,8,0:0:0:0:
64,192,10309,1,0,0:0:0:0:
320,192,10520,1,2,0:0:0:0:
192,192,10731,1,4,0:0:0:0:
64,192,10731,1,2,0:0:0:0:
448,192,10731,1,0,0:0:0:0:
320,192,11048,1,2,0:0:0:0:
64,192,11154,1,8,0:0:0:0:
448,192,11154,1,0,0:0:0:0:
192,192,11365,1,2,0:0:0:0:
320,192,11576,1,6,0:0:0:0:
64,192,11682,1,8,0:0:0:0:
192,192,11682,1,0,0:0:0:0:
320,192,11893,1,2,0:0:0:0:
192,192,11999,1,8,0:0:0:0:
448,192,11999,1,0,0:0:0:0:
320,192,12210,1,2,0:0:0:0:
192,192,12316,1,8,0:0:0:0:
64,192,12421,1,12,0:0:0:0:
448,192,12421,1,0,0:0:0:0:
192,192,12633,1,8,0:0:0:0:
64,192,12633,1,0,0:0:0:0:
192,192,12844,1,8,0:0:0:0:
320,192,12844,1,0,0:0:0:0:
448,192,13055,1,8,0:0:0:0:
320,192,13055,1,0,0:0:0:0:
448,192,13266,1,0,0:0:0:0:
64,192,13266,1,8,0:0:0:0:
64,192,13478,1,8,0:0:0:0:
320,192,13478,1,0,0:0:0:0:
448,192,13689,1,8,0:0:0:0:
192,192,13689,1,0,0:0:0:0:
192,192,13900,1,8,0:0:0:0:
320,192,13900,1,0,0:0:0:0:
448,192,14111,1,0,0:0:0:0:
64,192,14111,1,8,0:0:0:0:
64,192,14323,1,8,0:0:0:0:
192,192,14323,1,0,0:0:0:0:
192,192,14534,1,8,0:0:0:0:
320,192,14534,1,0,0:0:0:0:
320,192,14745,1,8,0:0:0:0:
448,192,14745,1,0,0:0:0:0:
192,192,14957,1,2,0:0:0:0:
320,192,15062,1,8,0:0:0:0:
448,192,15062,1,0,0:0:0:0:
64,192,15273,1,8,0:0:0:0:
192,192,15379,1,8,0:0:0:0:
448,192,15485,1,8,0:0:0:0:
320,192,15590,1,8,0:0:0:0:
192,192,15696,1,8,0:0:0:0:
64,192,15802,1,4,0:0:0:0:
448,192,15802,1,2,0:0:0:0:
320,192,15802,1,0,0:0:0:0:
448,192,16013,1,0,0:0:0:0:
192,192,16013,1,8,0:0:0:0:
320,192,16224,1,2,0:0:0:0:
64,192,16435,1,8,0:0:0:0:
448,192,16435,1,0,0:0:0:0:
320,192,16647,1,2,0:0:0:0:
192,192,16858,1,8,0:0:0:0:
64,192,16858,1,0,0:0:0:0:
320,192,16964,1,2,0:0:0:0:
320,192,17175,1,2,0:0:0:0:
192,192,17281,1,8,0:0:0:0:
448,192,17281,1,0,0:0:0:0:
64,192,17492,1,2,0:0:0:0:
320,192,17703,1,8,0:0:0:0:
448,192,17703,1,0,0:0:0:0:
192,192,17914,1,2,0:0:0:0:
64,192,18126,1,8,0:0:0:0:
320,192,18126,1,0,0:0:0:0:
448,192,18337,1,2,0:0:0:0:
64,192,18548,1,8,0:0:0:0:
320,192,18548,1,0,0:0:0:0:
192,192,18654,1,2,0:0:0:0:
320,192,18865,1,2,0:0:0:0:
192,192,18971,1,8,0:0:0:0:
64,192,18971,1,0,0:0:0:0:
448,192,19182,1,2,0:0:0:0:
320,192,19393,1,8,0:0:0:0:
64,192,19393,1,0,0:0:0:0:
192,192,19604,1,2,0:0:0:0:
320,192,19816,1,8,0:0:0:0:
448,192,19816,1,0,0:0:0:0:
192,192,20027,1,2,0:0:0:0:
64,192,20238,1,8,0:0:0:0:
448,192,20238,1,0,0:0:0:0:
320,192,20344,1,2,0:0:0:0:
192,192,20555,1,2,0:0:0:0:
320,192,20661,1,8,0:0:0:0:
448,192,20661,1,0,0:0:0:0:
64,192,20872,1,4,0:0:0:0:
192,192,20872,1,2,0:0:0:0:
64,192,21189,1,4,0:0:0:0:
448,192,21189,1,2,0:0:0:0:
320,192,21506,1,4,0:0:0:0:
448,192,21506,1,2,0:0:0:0:
64,192,21717,1,2,0:0:0:0:
192,192,21823,1,8,0:0:0:0:
320,192,21928,1,0,0:0:0:0:
448,192,22034,1,2,0:0:0:0:
64,192,22140,1,8,0:0:0:0:
192,192,22245,1,8,0:0:0:0:
448,192,22351,1,8,0:0:0:0:
320,192,22457,1,8,0:0:0:0:
192,192,22562,1,4,0:0:0:0:
64,192,22562,1,2,0:0:0:0:
448,192,22562,1,0,0:0:0:0:
192,192,22773,1,8,0:0:0:0:
320,192,22773,1,0,0:0:0:0:
64,192,22985,1,2,0:0:0:0:
192,192,23090,1,2,0:0:0:0:
320,192,23196,1,8,0:0:0:0:
448,192,23196,1,0,0:0:0:0:
192,192,23407,1,2,0:0:0:0:
448,192,23619,1,8,0:0:0:0:
64,192,23619,1,0,0:0:0:0:
320,192,23724,1,2,0:0:0:0:
192,192,23935,1,2,0:0:0:0:
320,192,24041,1,8,0:0:0:0:
64,192,24041,1,0,0:0:0:0:
448,192,24252,1,2,0:0:0:0:
192,192,24464,1,8,0:0:0:0:
64,192,24464,1,0,0:0:0:0:
448,192,24675,1,2,0:0:0:0:
320,192,24781,1,2,0:0:0:0:
192,192,24886,1,8,0:0:0:0:
64,192,24886,1,0,0:0:0:0:
448,192,25097,1,2,0:0:0:0:
320,192,25309,1,8,0:0:0:0:
64,192,25309,1,0,0:0:0:0:
192,192,25414,1,2,0:0:0:0:
448,192,25626,1,2,0:0:0:0:
192,192,25731,1,8,0:0:0:0:
64,192,25731,1,0,0:0:0:0:
320,192,25942,1,2,0:0:0:0:
192,192,26154,1,8,0:0:0:0:
448,192,26154,1,0,0:0:0:0:
64,192,26365,1,2,0:0:0:0:
192,192,26471,1,2,0:0:0:0:
320,192,26576,1,8,0:0:0:0:
448,192,26576,1,0,0:0:0:0:
192,192,26788,1,2,0:0:0:0:
64,192,26999,1,8,0:0:0:0:
320,192,26999,1,0,0:0:0:0:
448,192,27104,1,2,0:0:0:0:
64,192,27316,1,2,0:0:0:0:
192,192,27421,1,8,0:0:0:0:
448,192,27421,1,0,0:0:0:0:
320,192,27633,1,2,0:0:0:0:
192,192,27844,1,8,0:0:0:0:
64,192,27844,1,0,0:0:0:0:
320,192,28055,1,2,0:0:0:0:
192,192,28161,1,2,0:0:0:0:
320,192,28266,1,8,0:0:0:0:
448,192,28266,1,0,0:0:0:0:
64,192,28478,1,2,0:0:0:0:
192,192,28583,1,2,0:0:0:0:
448,192,28689,1,8,0:0:0:0:
320,192,28795,1,8,0:0:0:0:
64,192,28900,1,8,0:0:0:0:
192,192,29006,1,2,0:0:0:0:
320,192,29111,1,2,0:0:0:0:
448,192,29217,1,2,0:0:0:0:
64,192,29323,1,4,0:0:0:0:
192,192,29323,1,2,0:0:0:0:
320,192,29323,1,0,0:0:0:0:
192,192,29640,1,2,0:0:0:0:
64,192,29640,1,0,0:0:0:0:
64,192,29957,1,2,0:0:0:0:
448,192,30168,1,8,0:0:0:0:
320,192,30168,1,0,0:0:0:0:
320,192,30802,1,8,0:0:0:0:
192,192,30907,1,8,0:0:0:0:
64,192,31013,1,2,0:0:0:0:
448,192,31013,1,0,0:0:0:0:
448,192,31330,1,2,0:0:0:0:
64,192,31330,1,0,0:0:0:0:
448,192,31647,1,2,0:0:0:0:
64,192,31647,1,0,0:0:0:0:
320,192,31858,1,8,0:0:0:0:
192,192,31858,1,0,0:0:0:0:
64,192,32492,1,8,0:0:0:0:
192,192,32597,1,8,0:0:0:0:
320,192,32703,1,2,0:0:0:0:
448,192,32703,1,0,0:0:0:0:
448,192,33020,1,2,0:0:0:0:
320,192,33020,1,0,0:0:0:0:
448,192,33337,1,2,0:0:0:0:
320,192,33337,1,0,0:0:0:0:
192,192,33548,1,8,0:0:0:0:
64,192,33548,1,0,0:0:0:0:
64,192,34182,1,8,0:0:0:0:
448,192,34182,1,0,0:0:0:0:
192,192,34288,1,8,0:0:0:0:
320,192,34393,1,0,0:0:0:0:
448,192,34816,1,4,0:0:0:0:
320,192,34816,128,2,35238:0:0:0:0:
64,192,34816,1,0,0:0:0:0:
448,192,35238,1,4,0:0:0:0:
192,192,35238,128,2,35661:0:0:0:0:
320,192,35661,1,2,0:0:0:0:
64,192,35661,128,4,36083:0:0:0:0:
320,192,36083,1,4,0:0:0:0:
448,192,36083,1,2,0:0:0:0:
192,192,36083,1,0,0:0:0:0:
320,192,36400,1,2,0:0:0:0:
448,192,36506,1,8,0:0:0:0:
192,192,36506,1,0,0:0:0:0:
64,192,36717,1,2,0:0:0:0:
448,192,36928,1,2,0:0:0:0:
320,192,37034,1,8,0:0:0:0:
192,192,37034,1,0,0:0:0:0:
64,192,37245,1,2,0:0:0:0:
448,192,37351,1,8,0:0:0:0:
192,192,37351,1,0,0:0:0:0:
320,192,37562,1,2,0:0:0:0:
192,192,37773,1,2,0:0:0:0:
64,192,37773,1,0,0:0:0:0:
448,192,38090,1,2,0:0:0:0:
320,192,38196,1,8,0:0:0:0:
64,192,38196,1,0,0:0:0:0:
192,192,38407,1,2,0:0:0:0:
320,192,38619,1,2,0:0:0:0:
448,192,38724,1,8,0:0:0:0:
64,192,38724,1,0,0:0:0:0:
192,192,38935,1,2,0:0:0:0:
320,192,39041,1,8,0:0:0:0:
448,192,39041,1,0,0:0:0:0:
192,192,39252,1,2,0:0:0:0:
64,192,39464,1,4,0:0:0:0:
448,192,39464,1,2,0:0:0:0:
320,192,39464,1,0,0:0:0:0:
320,192,39675,1,2,0:0:0:0:
192,192,39781,1,4,0:0:0:0:
64,192,39781,1,2,0:0:0:0:
320,192,40097,1,8,0:0:0:0:
448,192,40097,1,0,0:0:0:0:
448,192,40309,1,4,0:0:0:0:
64,192,40309,1,2,0:0:0:0:
192,192,40309,1,0,0:0:0:0:
192,192,40520,1,2,0:0:0:0:
320,192,40626,1,4,0:0:0:0:
448,192,40626,1,2,0:0:0:0:
192,192,40942,1,8,0:0:0:0:
64,192,40942,1,0,0:0:0:0:
448,192,41154,1,10,0:0:0:0:
64,192,41154,1,4,0:0:0:0:
320,192,41259,1,0,0:0:0:0:
192,192,41365,1,0,0:0:0:0:
64,192,41471,1,2,0:0:0:0:
448,192,41471,1,8,0:0:0:0:
192,192,41576,1,0,0:0:0:0:
320,192,41682,1,0,0:0:0:0:
448,192,41788,1,2,0:0:0:0:
64,192,41788,1,8,0:0:0:0:
320,192,41893,1,0,0:0:0:0:
192,192,41999,128,6,42421:0:0:0:0:
64,192,41999,1,8,0:0:0:0:
448,192,42421,5,8,0:0:0:0:
320,192,42527,1,8,0:0:0:0:
192,192,42633,1,8,0:0:0:0:
64,192,42738,1,8,0:0:0:0:
320,192,42844,1,4,0:0:0:0:
448,192,42844,1,2,0:0:0:0:
192,192,42844,1,0,0:0:0:0:
64,192,43055,1,8,0:0:0:0:
448,192,43055,1,0,0:0:0:0:
192,192,43266,1,2,0:0:0:0:
320,192,43372,1,2,0:0:0:0:
448,192,43478,1,8,0:0:0:0:
64,192,43478,1,0,0:0:0:0:
320,192,43689,1,2,0:0:0:0:
192,192,43689,1,0,0:0:0:0:
448,192,43900,1,8,0:0:0:0:
64,192,43900,1,0,0:0:0:0:
320,192,44006,1,2,0:0:0:0:
192,192,44217,1,2,0:0:0:0:
448,192,44323,1,8,0:0:0:0:
320,192,44323,1,0,0:0:0:0:
192,192,44534,1,2,0:0:0:0:
64,192,44534,1,0,0:0:0:0:
448,192,44745,1,8,0:0:0:0:
320,192,44745,1,0,0:0:0:0:
192,192,44851,1,0,0:0:0:0:
64,192,44957,1,2,0:0:0:0:
320,192,45062,1,2,0:0:0:0:
192,192,45168,1,8,0:0:0:0:
448,192,45168,1,0,0:0:0:0:
320,192,45379,1,2,0:0:0:0:
64,192,45379,1,0,0:0:0:0:
192,192,45590,1,8,0:0:0:0:
448,192,45590,1,0,0:0:0:0:
320,192,45696,1,2,0:0:0:0:
64,192,45802,1,0,0:0:0:0:
192,192,45907,1,2,0:0:0:0:
448,192,46013,1,8,0:0:0:0:
320,192,46013,1,0,0:0:0:0:
64,192,46224,1,2,0:0:0:0:
192,192,46224,1,0,0:0:0:0:
448,192,46435,1,8,0:0:0:0:
320,192,46435,1,0,0:0:0:0:
192,192,46647,1,2,0:0:0:0:
320,192,46752,1,2,0:0:0:0:
448,192,46858,1,8,0:0:0:0:
64,192,46858,1,0,0:0:0:0:
192,192,47069,1,2,0:0:0:0:
320,192,47069,1,0,0:0:0:0:
64,192,47281,1,8,0:0:0:0:
448,192,47281,1,0,0:0:0:0:
320,192,47386,1,2,0:0:0:0:
192,192,47597,1,2,0:0:0:0:
448,192,47703,1,8,0:0:0:0:
320,192,47703,1,0,0:0:0:0:
192,192,47914,1,2,0:0:0:0:
64,192,47914,1,0,0:0:0:0:
320,192,48126,1,8,0:0:0:0:
448,192,48126,1,0,0:0:0:0:
192,192,48231,1,0,0:0:0:0:
64,192,48337,1,2,0:0:0:0:
448,192,48442,1,2,0:0:0:0:
320,192,48548,1,8,0:0:0:0:
192,192,48548,1,0,0:0:0:0:
448,192,48759,1,2,0:0:0:0:
64,192,48759,1,0,0:0:0:0:
320,192,48971,1,8,0:0:0:0:
192,192,48971,1,0,0:0:0:0:
448,192,49076,1,2,0:0:0:0:
64,192,49288,1,2,0:0:0:0:
192,192,49393,1,8,0:0:0:0:
320,192,49393,1,0,0:0:0:0:
448,192,49604,1,4,0:0:0:0:
64,192,49604,1,2,0:0:0:0:
192,192,49604,1,0,0:0:0:0:
320,192,49816,1,8,0:0:0:0:
448,192,49816,1,0,0:0:0:0:
64,192,49921,1,0,0:0:0:0:
192,192,50027,1,2,0:0:0:0:
320,192,50133,1,2,0:0:0:0:
448,192,50238,1,8,0:0:0:0:
64,192,50238,1,0,0:0:0:0:
64,192,50450,1,2,0:0:0:0:
192,192,50450,1,0,0:0:0:0:
448,192,50661,1,8,0:0:0:0:
320,192,50661,1,0,0:0:0:0:
192,192,50766,1,2,0:0:0:0:
64,192,50978,1,2,0:0:0:0:
320,192,51083,1,8,0:0:0:0:
448,192,51083,1,0,0:0:0:0:
192,192,51295,1,2,0:0:0:0:
64,192,51295,1,0,0:0:0:0:
320,192,51506,1,8,0:0:0:0:
448,192,51506,1,0,0:0:0:0:
64,192,51611,1,0,0:0:0:0:
192,192,51717,1,2,0:0:0:0:
448,192,51823,1,2,0:0:0:0:
320,192,51928,1,8,0:0:0:0:
64,192,51928,1,0,0:0:0:0:
192,192,52140,1,2,0:0:0:0:
64,192,52140,1,0,0:0:0:0:
448,192,52351,1,8,0:0:0:0:
320,192,52351,1,0,0:0:0:0:
192,192,52457,1,2,0:0:0:0:
64,192,52668,1,2,0:0:0:0:
320,192,52773,1,8,0:0:0:0:
448,192,52773,1,0,0:0:0:0:
192,192,52985,1,2,0:0:0:0:
64,192,52985,1,0,0:0:0:0:
320,192,53196,1,8,0:0:0:0:
448,192,53196,1,0,0:0:0:0:
192,192,53302,1,0,0:0:0:0:
448,192,53407,1,2,0:0:0:0:
320,192,53513,1,2,0:0:0:0:
192,192,53619,1,8,0:0:0:0:
64,192,53619,1,0,0:0:0:0:
448,192,53830,1,2,0:0:0:0:
64,192,53830,1,0,0:0:0:0:
320,192,54041,1,8,0:0:0:0:
192,192,54041,1,0,0:0:0:0:
64,192,54147,1,2,0:0:0:0:
192,192,54358,1,2,0:0:0:0:
448,192,54464,1,8,0:0:0:0:
320,192,54464,1,0,0:0:0:0:
448,192,54675,1,2,0:0:0:0:
192,192,54675,1,4,0:0:0:0:
64,192,54675,1,0,0:0:0:0:
320,192,54886,1,2,0:0:0:0:
64,192,54992,1,4,0:0:0:0:
448,192,54992,1,2,0:0:0:0:
192,192,55203,1,2,0:0:0:0:
320,192,55309,1,4,0:0:0:0:
448,192,55309,128,2,55520:0:0:0:0:
64,192,55520,128,2,55731:0:0:0:0:
448,192,55731,1,8,0:0:0:0:
320,192,55837,1,8,0:0:0:0:
192,192,55942,1,8,0:0:0:0:
64,192,56048,1,8,0:0:0:0:
448,192,56154,1,8,0:0:0:0:
320,192,56259,1,8,0:0:0:0:
192,192,56365,1,4,0:0:0:0:
64,192,56365,1,2,0:0:0:0:
448,192,56365,1,0,0:0:0:0:
320,192,56576,1,0,0:0:0:0:
64,192,56788,1,8,0:0:0:0:
448,192,56788,1,0,0:0:0:0:
192,192,56999,1,0,0:0:0:0:
320,192,57210,1,2,0:0:0:0:
448,192,57210,1,0,0:0:0:0:
192,192,57527,1,0,0:0:0:0:
320,192,57633,1,8,0:0:0:0:
448,192,57633,1,0,0:0:0:0:
64,192,57844,1,0,0:0:0:0:
192,192,58055,1,2,0:0:0:0:
448,192,58055,1,0,0:0:0:0:
320,192,58372,1,0,0:0:0:0:
192,192,58478,1,8,0:0:0:0:
64,192,58478,1,0,0:0:0:0:
448,192,58689,1,0,0:0:0:0:
320,192,58900,1,2,0:0:0:0:
64,192,58900,1,0,0:0:0:0:
192,192,59111,1,0,0:0:0:0:
320,192,59323,1,8,0:0:0:0:
448,192,59323,1,0,0:0:0:0:
64,192,59534,1,0,0:0:0:0:
192,192,59745,1,2,0:0:0:0:
448,192,59745,1,0,0:0:0:0:
320,192,59957,1,0,0:0:0:0:
192,192,60168,1,8,0:0:0:0:
64,192,60168,1,0,0:0:0:0:
448,192,60379,1,0,0:0:0:0:
320,192,60590,1,2,0:0:0:0:
64,192,60590,1,0,0:0:0:0:
192,192,60802,1,0,0:0:0:0:
320,192,61013,1,8,0:0:0:0:
448,192,61013,1,0,0:0:0:0:
64,192,61224,1,0,0:0:0:0:
448,192,61435,1,2,0:0:0:0:
192,192,61435,1,0,0:0:0:0:
320,192,61647,1,0,0:0:0:0:
192,192,61858,1,8,0:0:0:0:
64,192,61858,1,0,0:0:0:0:
320,192,62069,1,0,0:0:0:0:
64,192,62281,1,2,0:0:0:0:
448,192,62281,1,0,0:0:0:0:
192,192,62492,1,2,0:0:0:0:
320,192,62492,1,0,0:0:0:0:
64,192,62703,1,4,0:0:0:0:
448,192,62703,1,8,0:0:0:0:
320,192,62703,1,0,0:0:0:0:
64,192,63126,1,4,0:0:0:0:
192,192,63126,1,2,0:0:0:0:
448,192,63126,1,0,0:0:0:0:
320,192,63442,1,0,0:0:0:0:
192,192,63548,1,8,0:0:0:0:
448,192,63548,1,0,0:0:0:0:
64,192,63759,1,0,0:0:0:0:
320,192,63971,1,2,0:0:0:0:
448,192,63971,1,0,0:0:0:0:
192,192,64288,1,0,0:0:0:0:
64,192,64393,1,8,0:0:0:0:
448,192,64393,1,0,0:0:0:0:
320,192,64604,1,0,0:0:0:0:
192,192,64816,1,2,0:0:0:0:
64,192,64816,1,0,0:0:0:0:
448,192,65027,1,0,0:0:0:0:
320,192,65238,1,8,0:0:0:0:
192,192,65238,1,0,0:0:0:0:
64,192,65450,1,0,0:0:0:0:
320,192,65661,1,2,0:0:0:0:
448,192,65661,1,0,0:0:0:0:
192,192,65872,1,0,0:0:0:0:
448,192,66083,1,8,0:0:0:0:
64,192,66083,1,0,0:0:0:0:
320,192,66189,1,2,0:0:0:0:
192,192,66295,1,2,0:0:0:0:
320,192,66506,1,2,0:0:0:0:
64,192,66506,1,4,0:0:0:0:
448,192,66506,1,0,0:0:0:0:
320,192,66823,1,0,0:0:0:0:
192,192,66928,1,8,0:0:0:0:
64,192,66928,1,0,0:0:0:0:
448,192,67140,1,0,0:0:0:0:
64,192,67351,1,2,0:0:0:0:
192,192,67351,1,0,0:0:0:0:
320,192,67562,1,0,0:0:0:0:
448,192,67773,1,8,0:0:0:0:
64,192,67773,1,0,0:0:0:0:
320,192,67985,1,0,0:0:0:0:
192,192,68090,1,0,0:0:0:0:
64,192,68196,1,2,0:0:0:0:
448,192,68196,1,0,0:0:0:0:
320,192,68513,1,0,0:0:0:0:
192,192,68619,1,8,0:0:0:0:
64,192,68619,1,0,0:0:0:0:
448,192,68830,1,0,0:0:0:0:
320,192,69041,1,2,0:0:0:0:
64,192,69041,1,0,0:0:0:0:
192,192,69252,1,0,0:0:0:0:
64,192,69464,1,8,0:0:0:0:
448,192,69464,1,0,0:0:0:0:
192,192,69675,1,0,0:0:0:0:
320,192,69781,1,0,0:0:0:0:
64,192,69886,1,2,0:0:0:0:
448,192,69886,1,0,0:0:0:0:
192,192,70203,1,0,0:0:0:0:
320,192,70309,1,8,0:0:0:0:
448,192,70309,1,0,0:0:0:0:
64,192,70520,1,0,0:0:0:0:
192,192,70731,1,2,0:0:0:0:
448,192,70731,1,0,0:0:0:0:
320,192,71048,1,0,0:0:0:0:
192,192,71154,1,8,0:0:0:0:
64,192,71154,1,0,0:0:0:0:
448,192,71365,1,0,0:0:0:0:
192,192,71576,128,2,71999:0:0:0:0:
320,192,71576,1,0,0:0:0:0:
64,192,71999,1,2,0:0:0:0:
192,192,72104,1,2,0:0:0:0:
448,192,72210,1,8,0:0:0:0:
320,192,72210,1,0,0:0:0:0:
64,192,72421,1,2,0:0:0:0:
192,192,72421,1,0,0:0:0:0:
320,192,72633,1,8,0:0:0:0:
448,192,72633,1,0,0:0:0:0:
64,192,72738,1,2,0:0:0:0:
448,192,72950,1,2,0:0:0:0:
320,192,73055,1,8,0:0:0:0:
192,192,73161,1,8,0:0:0:0:
64,192,73266,1,4,0:0:0:0:
448,192,73266,1,2,0:0:0:0:
320,192,73266,1,0,0:0:0:0:
192,192,73478,1,2,0:0:0:0:
320,192,73689,1,8,0:0:0:0:
448,192,73689,1,0,0:0:0:0:
64,192,73900,1,2,0:0:0:0:
448,192,73900,1,0,0:0:0:0:
192,192,74111,1,8,0:0:0:0:
64,192,74111,1,0,0:0:0:0:
320,192,74323,1,2,0:0:0:0:
64,192,74534,1,8,0:0:0:0:
448,192,74534,1,0,0:0:0:0:
320,192,74745,1,2,0:0:0:0:
192,192,74957,1,8,0:0:0:0:
64,192,74957,1,0,0:0:0:0:
64,192,75168,1,2,0:0:0:0:
448,192,75168,1,0,0:0:0:0:
320,192,75379,1,8,0:0:0:0:
448,192,75379,1,0,0:0:0:0:
192,192,75590,1,2,0:0:0:0:
64,192,75802,1,8,0:0:0:0:
448,192,75802,1,0,0:0:0:0:
192,192,76013,1,8,0:0:0:0:
64,192,76013,1,0,0:0:0:0:
320,192,76224,1,8,0:0:0:0:
448,192,76224,1,0,0:0:0:0:
64,192,76435,1,8,0:0:0:0:
448,192,76435,1,0,0:0:0:0:
320,192,76541,1,0,0:0:0:0:
192,192,76647,1,0,0:0:0:0:
64,192,77492,1,0,0:0:0:0:
192,192,78126,1,2,0:0:0:0:
320,192,78231,1,8,0:0:0:0:
448,192,78337,1,4,0:0:0:0:
64,192,78337,128,0,78759:0:0:0:0:
192,192,78337,1,0,0:0:0:0:
320,192,78759,1,8,0:0:0:0:
448,192,78759,1,0,0:0:0:0:
320,192,78971,1,8,0:0:0:0:
64,192,78971,1,0,0:0:0:0:
64,192,79182,1,8,0:0:0:0:
192,192,79182,1,0,0:0:0:0:
448,192,79393,1,8,0:0:0:0:
192,192,79393,1,0,0:0:0:0:
448,192,79604,1,8,0:0:0:0:
320,192,79604,1,0,0:0:0:0:
320,192,79816,1,8,0:0:0:0:
64,192,79816,1,0,0:0:0:0:
64,192,80027,1,8,0:0:0:0:
192,192,80027,1,0,0:0:0:0:
320,192,80238,1,8,0:0:0:0:
192,192,80238,1,0,0:0:0:0:
448,192,80450,1,8,0:0:0:0:
320,192,80450,1,0,0:0:0:0:
448,192,81717,128,4,82985:0:0:0:0:
64,192,81717,1,2,0:0:0:0:
320,192,81717,1,0,0:0:0:0:
192,192,82140,1,0,0:0:0:0:
64,192,82985,1,8,0:0:0:0:
192,192,83090,1,8,0:0:0:0:
320,192,83196,1,2,0:0:0:0:
64,192,83407,1,4,0:0:0:0:
192,192,83407,128,2,83619:0:0:0:0:
320,192,83724,128,2,83935:0:0:0:0:
448,192,83724,1,4,0:0:0:0:
64,192,84041,128,4,84252:0:0:0:0:
192,192,84041,1,2,0:0:0:0:
192,192,84464,1,2,0:0:0:0:
320,192,84569,1,2,0:0:0:0:
64,192,84675,1,4,0:0:0:0:
448,192,84675,128,2,86541:0:0:0:0:
192,192,84675,1,0,0:0:0:0:
320,192,86541,1,2,0:0:0:0:
192,192,86611,1,2,0:0:0:0:
64,192,86682,1,2,0:0:0:0:
