osu file format v14

[General]
AudioFilename: audio.mp3
AudioLeadIn: 0
PreviewTime: 1338
Countdown: 0
SampleSet: Soft
StackLeniency: 0.6
Mode: 0
LetterboxInBreaks: 0
WidescreenStoryboard: 1

[Editor]
DistanceSpacing: 1
BeatDivisor: 4
GridSize: 8
TimelineZoom: 1

[Metadata]
Title:FLY ME TO THE MOON
TitleUnicode:FLY ME TO THE MOON
Artist:Ayanami Rei (CV: Hayashibara Megumi)
ArtistUnicode:綾波レイ (CV:林原めぐみ)
Creator:fieryrage
Version:replacement
Source:新世紀エヴァンゲリオン
Tags:neon genesis evangelion shin seiki anime ending ed claire littley frank sinatra kaye ballard bart howard english jazz bossa nova soft relaxing
BeatmapID:2823273
BeatmapSetID:1364732

[Difficulty]
HPDrainRate:5
CircleSize:4
OverallDifficulty:6.2
ApproachRate:7.2
SliderMultiplier:1.9
SliderTickRate:0.5

[Events]
//Background and Video events
Video,420,"fuck.mp4"
0,0,"nido simps for a fuckin clone ROFL.jpg",0,0
//Break Periods
//Storyboard Layer 0 (Background)
//Storyboard Layer 1 (Fail)
//Storyboard Layer 2 (Pass)
//Storyboard Layer 3 (Foreground)
//Storyboard Layer 4 (Overlay)
//Storyboard Sound Samples

[TimingPoints]
1465,504.201680672269,4,2,1,40,1,0
3481,495.867768595041,4,2,1,40,1,0
3976,517.241379310345,4,2,1,40,1,0
4493,504.201680672269,4,2,1,40,1,0
5501,507.61421319797,4,2,1,40,1,0
7531,508.474576271186,4,2,1,45,1,0
8547,517.241379310345,4,2,1,45,1,0
9193,-100,4,2,2,5,0,0
9322,-100,4,2,1,45,0,0
9581,495.867768595041,4,2,1,45,1,0
10572,517.241379310345,4,2,1,45,1,0
11218,-100,4,2,2,5,0,0
11347,-100,4,2,1,45,0,0
11606,508.474576271186,4,2,1,45,1,0
13639,510.63829787234,4,2,1,45,1,0
15681,504.201680672269,4,2,1,45,1,0
17697,508.474576271186,4,2,1,40,1,0
18205,535.714285714286,4,2,1,40,1,0
18740,480,4,2,1,40,1,0
18980,-105.042016806723,4,2,1,40,0,0
19220,530.973451327434,4,2,1,45,1,0
19750,506.329113924051,4,2,1,45,1,0
20129,-100,4,2,2,5,0,0
20256,-100,4,2,1,45,0,0
21775,507.936507936508,4,2,1,45,1,0
23806,508.474576271186,4,2,1,45,1,0
25839,530.973451327434,4,2,1,45,1,0
26369,491.803278688525,4,2,1,45,1,0
26860,508.474576271186,4,2,1,45,1,0
27876,508.474576271186,4,2,1,40,1,0
28257,-100,4,2,2,5,0,0
28384,-100,4,2,1,40,0,0
29782,-100,4,2,2,5,0,0
29909,-100,4,2,1,40,0,0
31562,-100,4,2,2,5,0,0
31689,480,4,2,1,40,1,0
31929,491.803278688525,4,2,1,40,1,0
31929,-125,4,2,1,40,0,0
32420,545.454545454546,4,2,1,40,1,0
32420,-125,4,2,1,40,0,0
32965,483.870967741935,4,2,1,40,1,0
32965,-166.666666666667,4,2,1,40,0,0
33448,517.241379310345,4,2,1,40,1,0
33965,510.63829787234,4,2,1,45,1,0
35624,-100,4,2,2,5,0,0
35752,-100,4,2,1,45,0,0
36007,512.820512820513,4,2,1,50,1,0
38058,504.201680672269,4,2,1,50,1,0
39066,508.474576271186,4,2,1,50,1,0
39701,-100,4,2,2,5,0,0
39828,-100,4,2,1,50,0,0
40082,508.474576271186,4,2,1,45,1,0
42115,509.770603228547,4,2,1,50,1,0
42497,-100,4,2,2,5,0,0
42624,-100,4,2,1,50,0,0
43134,504.201680672269,4,2,1,50,1,0
44142,517.241379310345,4,2,1,50,1,0
45176,500,4,2,1,50,1,0
46176,508.474576271186,4,2,1,50,1,0
46557,-100,4,2,2,5,0,0
46684,-100,4,2,1,50,0,0
49226,512.820512820513,4,2,1,45,1,0
50251,512.820512820513,4,2,1,50,1,0
51276,500,4,2,1,45,1,0
51901,-100,4,2,2,5,0,0
52026,-100,4,2,1,45,0,0
52276,510.63829787234,4,2,1,45,1,0
53041,-97.9431929480901,4,2,1,45,0,0
53297,491.803278688525,4,2,1,45,1,0
53788,530.973451327434,4,2,1,45,1,0
54318,508.474576271186,4,2,1,45,1,0
55970,-100,4,2,2,5,0,0
56097,-100,4,2,1,45,0,0
56351,504.201680672269,4,2,1,45,1,0
57863,521.739130434783,4,2,1,45,1,0
58384,517.241379310345,4,2,1,50,1,0
59159,-97.9431929480901,4,2,1,50,0,0
59418,495.867768595041,4,2,1,45,1,0
60409,508.474576271186,4,2,1,45,1,0
60790,-100,4,2,2,5,0,0
60917,-100,4,2,1,45,0,0
61425,521.739130434783,4,2,1,45,1,0
61425,-55.5555555555556,4,2,1,45,0,0
61946,500,4,2,1,35,1,0
61946,-111.111111111111,4,2,1,35,0,0
62446,441.176470588235,4,2,1,45,1,0
62887,652.173913043478,4,2,1,45,1,0
62887,-156.25,4,2,1,45,0,0
63213,-156.25,4,2,1,40,0,0
63539,-156.25,4,2,1,35,0,0
63865,-156.25,4,2,1,30,0,0
64191,-156.25,4,2,1,25,0,0
64517,-156.25,4,2,1,20,0,0
64843,-156.25,4,2,1,15,0,0
65169,-156.25,4,2,1,10,0,0
65495,-156.25,4,2,1,5,0,0
66147,-156.25,4,2,2,5,0,0

[Colours]
Combo1 : 187,191,196
Combo2 : 115,153,191
Combo3 : 219,162,43
Combo4 : 97,141,90
Combo5 : 183,72,72
Combo6 : 116,116,116

[HitObjects]
139,307,1465,6,0,P|150:237|57:251,1,190,6|8,1:2|0:0,0:0:0:0:
174,126,2221,1,2,0:0:0:0:
233,198,2473,2,0,P|284:209|386:203,2,142.5,2|2|10,0:0|0:0|0:0,0:0:0:0:
63,71,3481,5,0,1:0:0:0:
82,154,3728,2,0,P|74:200|53:259,1,95,0|8,0:0|0:0,0:0:0:0:
142,92,4234,1,2,0:0:0:0:
233,198,4493,2,0,P|294:208|325:104,1,190,2|2,0:0|0:0,0:0:0:0:
271,46,5249,1,0,0:0:0:0:
436,112,5501,6,0,P|422:171|431:306,1,190,2|8,1:2|0:0,0:0:0:0:
350,371,6262,1,2,0:0:0:0:
326,274,6516,1,2,0:0:0:0:
206,334,6770,2,0,P|162:333|99:314,1,95,10|0,0:0|0:0,0:0:0:0:
32,176,7277,1,10,0:0:0:0:
108,121,7531,6,0,P|164:109|307:102,1,190,0|8,1:0|0:0,0:0:0:0:
433,141,8293,1,0,0:0:0:0:
433,141,8420,1,0,0:0:0:0:
433,141,8547,1,0,0:0:0:0:
307,201,8805,2,0,P|294:268|363:306,1,142.5,8|0,0:0|0:0,0:0:0:0:
393,305,9322,1,0,0:0:0:0:
433,141,9581,1,0,1:0:0:0:
162,256,10076,6,0,P|171:304|166:363,2,95,10|2|2,0:0|0:0|0:0,0:0:0:0:
62,200,10830,2,0,P|122:145|214:155,1,142.5,8|0,0:0|0:0,0:0:0:0:
222,164,11347,1,8,0:0:0:0:
390,119,11606,6,0,B|433:105|433:105|481:203,2,142.5,2|2|2,1:2|0:0|0:0,0:0:0:0:
323,65,12622,1,0,0:0:0:0:
222,164,12877,2,0,P|180:164|125:135,1,95,8|0,0:0|0:0,0:0:0:0:
79,30,13385,1,2,0:0:0:0:
3,172,13639,6,0,P|-2:238|106:245,1,190,2|10,1:2|0:0,0:0:0:0:
222,164,14404,2,0,P|242:234|247:282,1,95,2|0,0:0|0:0,0:0:0:0:
348,365,14915,2,0,P|356:318|371:273,1,95,10|0,0:0|0:0,0:0:0:0:
442,142,15426,1,10,0:0:0:0:
377,78,15681,5,0,1:0:0:0:
190,89,15933,1,0,0:0:0:0:
231,16,16185,1,8,0:0:0:0:
107,79,16437,2,0,P|100:127|101:185,1,95
133,247,16941,2,0,P|140:295|139:353,1,95,8|0,0:0|0:0,0:0:0:0:
222,155,17445,1,6,0:3:0:0:
52,237,17697,5,2,1:2:0:0:
100,173,17951,1,2,0:0:0:0:
228,289,18205,2,0,P|303:279|414:198,1,190,10|0,0:0|1:0,0:0:0:0:
389,117,18980,2,0,P|381:189|480:243,1,190,8|8,0:0|0:0,0:0:0:0:
480,65,19750,6,0,P|425:31|335:30,1,142.5,0|0,1:0|0:0,0:0:0:0:
305,45,20256,1,8,0:0:0:0:
389,117,20509,1,0,0:0:0:0:
238,241,20762,2,0,P|232:193|236:132,1,95,2|8,0:0|0:0,0:0:0:0:
127,30,21268,2,0,P|133:78|129:139,1,95,2|0,0:0|1:0,0:0:0:0:
100,198,21775,5,0,1:0:0:0:
205,331,22028,1,2,0:0:0:0:
246,265,22282,2,0,P|313:239|452:258,1,190,8|0,0:0|0:0,0:0:0:0:
491,91,23044,2,0,P|478:130|482:200,1,95,8|0,0:0|0:0,0:0:0:0:
511,258,23552,1,8,0:0:0:0:
329,148,23806,5,0,1:0:0:0:
246,265,24060,1,0,0:0:0:0:
195,132,24314,1,8,0:0:0:0:
135,178,24568,2,0,P|93:187|23:187,1,95
246,265,25077,2,0,P|288:274|358:274,1,95,8|0,0:0|0:0,0:0:0:0:
443,229,25585,1,2,0:0:0:0:
267,96,25839,5,2,1:2:0:0:
329,148,26104,1,2,0:0:0:0:
142,225,26369,2,0,P|130:294|240:315,1,190,10|0,0:0|1:0,0:0:0:0:
331,232,27114,1,8,0:0:0:0:
181,143,27368,2,0,P|136:138|78:160,1,95,0|8,0:0|0:0,0:0:0:0:
296,52,27876,6,0,P|318:88|337:191,1,142.5,0|0,1:0|0:0,0:0:0:0:
331,232,28384,2,0,P|369:203|450:189,1,95,8|0,0:0|0:0,0:0:0:0:
257,355,28892,2,0,P|250:307|240:261,1,95,2|8,0:0|0:0,0:0:0:0:
156,316,29401,2,0,P|101:329|25:266,1,142.5,2|0,0:0|0:0,0:0:0:0:
18,239,29909,1,0,1:0:0:0:
189,35,30418,6,0,P|203:91|205:137,1,95,10|0,0:0|0:0,0:0:0:0:
156,316,30926,1,2,0:0:0:0:
212,258,31181,2,0,P|257:235|365:229,1,142.5,8|0,0:0|0:0,0:0:0:0:
393,237,31689,1,8,0:0:0:0:
482,96,31929,6,0,P|470:47|451:22,1,76,0|0,1:0|0:0,0:0:0:0:
379,57,32420,2,0,P|391:106|410:131,1,76
485,244,32965,6,0,P|471:271|464:309,1,56.9999982604981
283,169,33448,6,0,L|327:165,5,31.6666666666667
260,153,33965,6,0,P|189:141|176:251,1,190,6|8,1:2|0:0,0:0:0:0:
234,298,34730,1,2,0:0:0:0:
95,343,34986,1,2,0:0:0:0:
310,232,35241,2,0,P|334:290|397:357,1,142.5,10|0,0:0|0:0,0:0:0:0:
429,369,35752,1,10,0:0:0:0:
372,153,36007,6,0,P|289:138|208:216,1,190,0|8,1:0|0:0,0:0:0:0:
195,361,36776,1,2,0:0:0:0:
100,175,37032,1,2,0:0:0:0:
310,232,37289,2,0,P|321:296|322:341,2,95,10|0|0,0:0|0:0|0:0,0:0:0:0:
253,101,38058,6,0,B|361:65|335:133|442:100,1,190,2|8,1:2|0:0,0:0:0:0:
307,175,38814,1,2,0:0:0:0:
392,25,39066,1,2,0:0:0:0:
253,101,39320,2,0,P|179:103|112:76,1,142.5,10|0,0:0|0:0,0:0:0:0:
79,48,39828,1,10,0:0:0:0:
11,186,40082,6,0,P|4:238|116:231,1,190,0|8,1:0|0:0,0:0:0:0:
135,170,40844,1,0,0:0:0:0:
246,351,41098,5,0,0:0:0:0:
450,280,41480,5,0,0:0:0:0:
168,380,41861,5,0,0:0:0:0:
317,243,42115,6,0,P|335:183|337:87,1,142.5,0|0,1:0|0:0,0:0:0:0:
333,60,42624,1,10,0:0:0:0:
432,142,42879,1,2,0:0:0:0:
251,105,43134,1,2,0:0:0:0:
418,225,43386,2,0,P|427:271|427:353,1,95,8|0,0:0|0:0,0:0:0:0:
236,376,43890,6,0,P|181:364|141:339,1,95,10|0,0:0|1:0,0:0:0:0:
33,303,44400,2,0,P|70:261|112:239,1,95,2|8,0:0|0:0,0:0:0:0:
215,192,44917,1,0,0:0:0:0:
132,144,45176,1,0,0:0:0:0:
215,286,45426,1,10,0:0:0:0:
280,108,45676,2,0,P|272:57|255:12,1,95,2|0,0:0|0:0,0:0:0:0:
368,194,46176,6,0,P|355:260|360:368,1,142.5,2|0,1:2|0:0,0:0:0:0:
362,381,46684,1,8,0:0:0:0:
446,273,46938,1,2,0:0:0:0:
267,343,47192,1,2,0:0:0:0:
220,156,47447,2,0,P|161:142|103:239,1,190,10|10,0:0|0:0,0:0:0:0:
140,308,48209,5,0,1:0:0:0:
0,224,48464,1,0,0:0:0:0:
35,152,48718,1,8,0:0:0:0:
9,76,48972,1,0,0:0:0:0:
196,147,49482,2,0,P|254:148|313:129,1,95,0|8,0:0|0:0,0:0:0:0:
382,77,49995,1,2,0:0:0:0:
326,227,50251,5,2,1:2:0:0:
469,173,50507,1,2,0:0:0:0:
323,326,50763,2,0,P|247:292|244:180,1,190,8|0,0:0|0:0,0:0:0:0:
122,375,51526,2,0,P|129:311|121:196,1,142.5,8|0,0:0|0:0,0:0:0:0:
120,185,52026,1,8,0:0:0:0:
10,57,52276,6,0,P|63:59|123:50,1,95,0|0,1:0|0:0,0:0:0:0:
208,18,52786,1,8,0:0:0:0:
120,185,53041,2,0,P|114:249|229:247,1,190,2|8,0:0|0:0,0:0:0:0:
372,162,53788,2,0,P|312:176|261:216,1,95,2|0,0:0|0:0,0:0:0:0:
459,382,54318,6,0,P|467:293|457:184,1,190,2|8,1:2|0:0,0:0:0:0:
442,102,55080,1,0,0:0:0:0:
372,162,55334,1,0,0:0:0:0:
246,41,55589,2,0,P|177:40|120:91,1,142.5,8|0,0:0|0:0,0:0:0:0:
112,131,56097,1,8,0:0:0:0:
302,223,56351,5,2,1:2:0:0:
246,280,56603,2,0,P|236:330|235:381,1,95,0|8,0:0|0:0,0:0:0:0:
123,224,57107,2,0,P|121:176|111:130,1,95
71,44,57611,1,8,0:0:0:0:
202,94,57863,1,8,0:0:0:0:
15,163,58123,1,2,0:0:0:0:
218,238,58384,5,2,1:2:0:0:
14,337,58642,2,0,P|3:290|2:243,1,95,2|8,0:0|0:0,0:0:0:0:
166,153,59159,2,0,B|269:118|247:184|354:153,1,190,2|10,0:0|0:0,0:0:0:0:
421,114,59913,1,0,0:0:0:0:
367,256,60161,1,8,0:0:0:0:
301,64,60409,6,0,P|249:49|151:51,1,142.5,0|0,1:0|0:0,0:0:0:0:
115,63,60917,1,8,0:0:0:0:
166,153,61171,1,0,0:0:0:0:
49,295,61425,6,0,P|63:328|138:269,1,170.999994781494,2|0,0:0|0:0,0:0:0:0:
239,353,61946,6,0,P|244:296|241:252,1,85.4999973907472,2|0,0:0|0:0,0:0:0:0:
230,180,62446,5,4,1:0:0:0:
410,357,62887,6,0,B|413:329|442:306|471:283|501:259|501:259|531:236|534:211|537:184|515:154|487:151|461:148|432:171|432:171|409:141|383:139|356:135|326:158|323:185|321:211|343:241|343:241|366:271|389:299|386:326,1,608,2|0,0:0|0:0,0:0:0:0:
