osu file format v14

[General]
AudioFilename: audio.mp3
AudioLeadIn: 0
PreviewTime: 1338
Countdown: 0
SampleSet: Soft
StackLeniency: 0.9
Mode: 0
LetterboxInBreaks: 0
WidescreenStoryboard: 1

[Editor]
DistanceSpacing: 1
BeatDivisor: 4
GridSize: 8
TimelineZoom: 1

[Metadata]
Title:FLY ME TO THE MOON
TitleUnicode:FLY ME TO THE MOON
Artist:Ayanami Rei (CV: Hayashibara Megumi)
ArtistUnicode:綾波レイ (CV:林原めぐみ)
Creator:fieryrage
Version:easy
Source:新世紀エヴァンゲリオン
Tags:neon genesis evangelion shin seiki anime ending ed claire littley frank sinatra kaye ballard bart howard english jazz bossa nova soft relaxing
BeatmapID:2823270
BeatmapSetID:1364732

[Difficulty]
HPDrainRate:3
CircleSize:2.6
OverallDifficulty:3.2
ApproachRate:4
SliderMultiplier:1.1
SliderTickRate:0.5

[Events]
//Background and Video events
Video,420,"fuck.mp4"
0,0,"nido simps for a fuckin clone ROFL.jpg",0,0
//Break Periods
//Storyboard Layer 0 (Background)
//Storyboard Layer 1 (Fail)
//Storyboard Layer 2 (Pass)
//Storyboard Layer 3 (Foreground)
//Storyboard Layer 4 (Overlay)
//Storyboard Sound Samples

[TimingPoints]
1465,504.201680672269,4,2,1,40,1,0
3481,495.867768595041,4,2,1,40,1,0
3976,517.241379310345,4,2,1,40,1,0
4493,504.201680672269,4,2,1,40,1,0
5501,507.61421319797,4,2,1,40,1,0
7531,508.474576271186,4,2,1,45,1,0
8547,517.241379310345,4,2,1,45,1,0
9581,495.867768595041,4,2,1,45,1,0
10572,517.241379310345,4,2,1,45,1,0
11606,508.474576271186,4,2,1,45,1,0
13639,510.63829787234,4,2,1,45,1,0
15426,-99.009900990099,4,2,1,45,0,0
15681,504.201680672269,4,2,1,45,1,0
17697,508.474576271186,4,2,1,40,1,0
18205,535.714285714286,4,2,1,40,1,0
18205,-96.5250965250965,4,2,1,40,0,0
18740,480,4,2,1,40,1,0
19220,530.973451327434,4,2,1,45,1,0
19750,506.329113924051,4,2,1,45,1,0
21775,507.936507936508,4,2,1,45,1,0
23806,508.474576271186,4,2,1,45,1,0
25839,530.973451327434,4,2,1,45,1,0
26369,491.803278688525,4,2,1,45,1,0
26369,-101.010101010101,4,2,1,45,0,0
26860,508.474576271186,4,2,1,45,1,0
27876,508.474576271186,4,2,1,40,1,0
31689,480,4,2,1,40,1,0
31929,491.803278688525,4,2,1,40,1,0
32420,545.454545454546,4,2,1,40,1,0
32965,483.870967741935,4,2,1,40,1,0
33448,517.241379310345,4,2,1,40,1,0
33965,510.63829787234,4,2,1,45,1,0
36007,512.820512820513,4,2,1,50,1,0
38058,504.201680672269,4,2,1,50,1,0
39066,508.474576271186,4,2,1,50,1,0
40082,508.474576271186,4,2,1,45,1,0
42115,509.770603228547,4,2,1,50,1,0
43134,504.201680672269,4,2,1,50,1,0
43890,-101.010101010101,4,2,1,50,0,0
44142,517.241379310345,4,2,1,50,1,0
45176,500,4,2,1,50,1,0
46176,508.474576271186,4,2,1,50,1,0
49226,512.820512820513,4,2,1,45,1,0
50251,512.820512820513,4,2,1,50,1,0
50763,-99.2063492063492,4,2,1,50,0,0
51276,500,4,2,1,45,1,0
52276,510.63829787234,4,2,1,45,1,0
53041,-97.5609756097561,4,2,1,45,0,0
53297,491.803278688525,4,2,1,45,1,0
53788,530.973451327434,4,2,1,45,1,0
54318,508.474576271186,4,2,1,45,1,0
56351,504.201680672269,4,2,1,45,1,0
57863,521.739130434783,4,2,1,45,1,0
58384,517.241379310345,4,2,1,50,1,0
59159,-97.9431929480901,4,2,1,50,0,0
59418,495.867768595041,4,2,1,45,1,0
60409,508.474576271186,4,2,1,45,1,0
61425,521.739130434783,4,2,1,45,1,0
61946,500,4,2,1,35,1,0
62446,441.176470588235,4,2,1,45,1,0
62887,652.173913043478,4,2,1,45,1,0
63213,-100,4,2,1,40,0,0
63539,-100,4,2,1,35,0,0
63865,-100,4,2,1,30,0,0
64191,-100,4,2,1,25,0,0
64517,-100,4,2,1,20,0,0
64843,-100,4,2,1,15,0,0
65169,-100,4,2,1,10,0,0
65495,-100,4,2,1,5,0,0
66147,-100,4,2,2,5,0,0

[Colours]
Combo1 : 187,191,196
Combo2 : 115,153,191
Combo3 : 219,162,43
Combo4 : 97,141,90
Combo5 : 183,72,72
Combo6 : 116,116,116

[HitObjects]
96,344,1465,6,0,P|102:286|71:198,1,110,6|8,1:2|0:0,0:0:0:0:
39,135,2473,1,2,0:0:0:0:
90,115,2725,2,0,P|150:102|207:100,1,110,10|10,0:0|0:0,0:0:0:0:
251,107,3481,1,0,1:0:0:0:
347,54,3976,1,8,0:0:0:0:
422,133,4493,2,0,P|438:205|441:269,1,110,2|2,0:0|0:0,0:0:0:0:
364,320,5501,6,0,P|297:295|199:308,1,165,2|2,1:2|0:0,0:0:0:0:
154,328,6516,1,2,0:0:0:0:
108,296,6770,2,0,P|80:234|74:161,1,110,10|10,0:0|0:0,0:0:0:0:
69,139,7531,1,0,1:0:0:0:
271,68,8547,1,0,0:0:0:0:
179,268,9581,5,0,1:0:0:0:
279,313,10076,2,0,P|341:318|401:295,1,110,10|2,0:0|0:0,0:0:0:0:
433,277,10830,1,8,0:0:0:0:
361,128,11606,2,0,P|306:122|254:137,1,110,2|8,1:2|0:0,0:0:0:0:
133,247,12877,1,8,0:0:0:0:
53,171,13385,1,2,0:0:0:0:
9,207,13639,6,0,P|5:266|60:369,1,165,2|2,1:2|0:0,0:0:0:0:
156,333,14915,1,10,0:0:0:0:
257,297,15426,2,0,P|261:238|206:135,1,165,10|8,0:0|0:0,0:0:0:0:
169,115,16437,1,0,0:0:0:0:
255,48,16941,2,0,P|313:36|376:33,1,110,8|6,0:0|0:3,0:0:0:0:
417,41,17697,5,2,1:2:0:0:
388,147,18205,2,0,P|384:218|425:333,1,165,10|8,0:0|0:0,0:0:0:0:
318,368,19485,1,8,0:0:0:0:
268,345,19750,2,0,P|184:331|118:336,1,110,0|8,1:0|0:0,0:0:0:0:
58,286,20762,2,0,P|22:236|38:175,1,110,2|2,0:0|0:0,0:0:0:0:
100,103,21775,5,0,1:0:0:0:
200,139,22282,2,0,P|286:146|372:101,1,165,8|8,0:0|0:0,0:0:0:0:
440,41,23552,1,8,0:0:0:0:
471,81,23806,2,0,P|479:125|476:209,1,110,0|8,1:0|0:0,0:0:0:0:
415,340,25077,2,0,P|359:326|302:326,1,110,8|2,0:0|0:0,0:0:0:0:
256,334,25839,5,2,1:2:0:0:
223,228,26369,2,0,P|212:150|225:54,1,165,10|8,0:0|0:0,0:0:0:0:
120,35,27622,1,8,0:0:0:0:
90,81,27876,2,0,P|81:141|63:196,1,110,0|8,1:0|0:0,0:0:0:0:
100,297,28892,2,0,P|154:309|206:262,1,110,2|2,0:0|0:0,0:0:0:0:
247,185,29909,5,0,1:0:0:0:
330,256,30418,1,10,0:0:0:0:
436,227,30926,2,0,P|455:153|453:60,1,165,2|8,0:0|0:0,0:0:0:0:
435,12,31929,1,0,1:0:0:0:
240,115,32965,1,0,0:0:0:0:
34,47,33965,6,0,P|43:96|41:197,1,110,6|8,1:2|0:0,0:0:0:0:
26,267,34986,1,2,0:0:0:0:
76,288,35241,2,0,P|141:290|194:254,1,110,10|10,0:0|0:0,0:0:0:0:
222,235,36007,1,0,1:0:0:0:
155,147,36519,1,8,0:0:0:0:
224,62,37032,2,0,P|283:33|340:26,1,110,2|0,0:0|0:0,0:0:0:0:
432,54,38058,6,0,P|447:118|376:184,1,165,2|2,1:2|0:0,0:0:0:0:
327,196,39066,1,2,0:0:0:0:
278,221,39320,2,0,P|268:296|272:349,1,110,10|10,0:0|0:0,0:0:0:0:
281,383,40082,1,0,1:0:0:0:
69,324,41098,1,0,0:0:0:0:
233,169,42115,5,0,1:0:0:0:
181,81,42624,2,0,P|122:60|51:52,1,110,10|2,0:0|0:0,0:0:0:0:
20,57,43386,1,8,0:0:0:0:
55,156,43890,2,0,P|69:207|68:274,1,110,10|2,0:0|0:0,0:0:0:0:
54,316,44659,1,8,0:0:0:0:
209,379,45426,1,10,0:0:0:0:
317,254,46176,6,0,P|326:182|231:161,1,165,2|2,1:2|0:0,0:0:0:0:
198,166,47192,1,2,0:0:0:0:
144,153,47447,2,0,P|106:100|91:34,1,110,10|10,0:0|0:0,0:0:0:0:
83,2,48209,1,0,1:0:0:0:
298,44,49226,1,0,0:0:0:0:
152,205,50251,5,2,1:2:0:0:
233,278,50763,2,0,P|293:292|399:283,1,165,8|8,0:0|0:0,0:0:0:0:
470,203,52026,1,8,0:0:0:0:
473,148,52276,2,0,P|461:86|422:28,1,110,0|8,1:0|0:0,0:0:0:0:
383,38,53041,2,0,P|303:61|207:31,1,165,2|2,0:0|0:0,0:0:0:0:
124,81,54318,6,0,P|107:152|105:222,1,110,2|8,1:2|0:0,0:0:0:0:
140,349,55589,1,8,0:0:0:0:
234,292,56097,1,8,0:0:0:0:
284,311,56351,2,0,P|341:312|392:274,1,110,2|8,1:2|0:0,0:0:0:0:
440,189,57359,2,0,P|424:127|398:75,1,110,0|8,0:0|0:0,0:0:0:0:
307,28,58384,5,2,1:2:0:0:
212,84,58901,1,8,0:0:0:0:
230,135,59159,2,0,P|232:190|215:250,1,110,2|10,0:0|0:0,0:0:0:0:
133,312,60161,1,8,0:0:0:0:
86,283,60409,2,0,P|72:229|74:175,1,110,0|8,1:0|0:0,0:0:0:0:
100,73,61425,1,2,0:0:0:0:
256,192,62446,12,0,66147,0:0:0:0:
