osu file format v14

[General]
AudioFilename: audio.mp3
AudioLeadIn: 0
PreviewTime: 1338
Countdown: 0
SampleSet: Soft
StackLeniency: 0.7
Mode: 0
LetterboxInBreaks: 0
WidescreenStoryboard: 1

[Editor]
DistanceSpacing: 0.7
BeatDivisor: 4
GridSize: 8
TimelineZoom: 1

[Metadata]
Title:FLY ME TO THE MOON
TitleUnicode:FLY ME TO THE MOON
Artist:Ayanami Rei (CV: Hayashibara Megumi)
ArtistUnicode:綾波レイ (CV:林原めぐみ)
Creator:fieryrage
Version:normal
Source:新世紀エヴァンゲリオン
Tags:neon genesis evangelion shin seiki anime ending ed claire littley frank sinatra kaye ballard bart howard english jazz bossa nova soft relaxing
BeatmapID:2823272
BeatmapSetID:1364732

[Difficulty]
HPDrainRate:4
CircleSize:3.4
OverallDifficulty:4.8
ApproachRate:5.4
SliderMultiplier:1.4
SliderTickRate:0.5

[Events]
//Background and Video events
Video,420,"fuck.mp4"
0,0,"nido simps for a fuckin clone ROFL.jpg",0,0
//Break Periods
//Storyboard Layer 0 (Background)
//Storyboard Layer 1 (Fail)
//Storyboard Layer 2 (Pass)
//Storyboard Layer 3 (Foreground)
//Storyboard Layer 4 (Overlay)
//Storyboard Sound Samples

[TimingPoints]
1465,504.201680672269,4,2,1,40,1,0
3481,495.867768595041,4,2,1,40,1,0
3976,517.241379310345,4,2,1,40,1,0
4493,504.201680672269,4,2,1,40,1,0
5501,507.61421319797,4,2,1,40,1,0
7531,508.474576271186,4,2,1,45,1,0
8547,517.241379310345,4,2,1,45,1,0
9581,495.867768595041,4,2,1,45,1,0
10572,517.241379310345,4,2,1,45,1,0
11606,508.474576271186,4,2,1,45,1,0
13639,510.63829787234,4,2,1,45,1,0
15681,504.201680672269,4,2,1,45,1,0
17697,508.474576271186,4,2,1,40,1,0
18205,535.714285714286,4,2,1,40,1,0
18740,480,4,2,1,40,1,0
19220,530.973451327434,4,2,1,45,1,0
19750,506.329113924051,4,2,1,45,1,0
21775,507.936507936508,4,2,1,45,1,0
23806,508.474576271186,4,2,1,45,1,0
25839,530.973451327434,4,2,1,45,1,0
26369,491.803278688525,4,2,1,45,1,0
26369,-101.010101010101,4,2,1,45,0,0
26860,508.474576271186,4,2,1,45,1,0
27876,508.474576271186,4,2,1,40,1,0
31689,480,4,2,1,40,1,0
31929,491.803278688525,4,2,1,40,1,0
32420,545.454545454546,4,2,1,40,1,0
32965,483.870967741935,4,2,1,40,1,0
33448,517.241379310345,4,2,1,40,1,0
33965,510.63829787234,4,2,1,45,1,0
36007,512.820512820513,4,2,1,50,1,0
38058,504.201680672269,4,2,1,50,1,0
39066,508.474576271186,4,2,1,50,1,0
40082,508.474576271186,4,2,1,45,1,0
42115,509.770603228547,4,2,1,50,1,0
43134,504.201680672269,4,2,1,50,1,0
44142,517.241379310345,4,2,1,50,1,0
45176,500,4,2,1,50,1,0
46176,508.474576271186,4,2,1,50,1,0
49226,512.820512820513,4,2,1,45,1,0
50251,512.820512820513,4,2,1,50,1,0
51276,500,4,2,1,45,1,0
52276,510.63829787234,4,2,1,45,1,0
53041,-98.0392156862745,4,2,1,45,0,0
53297,491.803278688525,4,2,1,45,1,0
53788,530.973451327434,4,2,1,45,1,0
54318,508.474576271186,4,2,1,45,1,0
56351,504.201680672269,4,2,1,45,1,0
57863,521.739130434783,4,2,1,45,1,0
58384,517.241379310345,4,2,1,50,1,0
59418,495.867768595041,4,2,1,45,1,0
60409,508.474576271186,4,2,1,45,1,0
61425,521.739130434783,4,2,1,45,1,0
61946,500,4,2,1,35,1,0
62446,441.176470588235,4,2,1,45,1,0
62887,652.173913043478,4,2,1,45,1,0
63213,-100,4,2,1,40,0,0
63539,-100,4,2,1,35,0,0
63865,-100,4,2,1,30,0,0
64191,-100,4,2,1,25,0,0
64517,-100,4,2,1,20,0,0
64843,-100,4,2,1,15,0,0
65169,-100,4,2,1,10,0,0
65495,-100,4,2,1,5,0,0
66147,-100,4,2,2,5,0,0

[Colours]
Combo1 : 187,191,196
Combo2 : 115,153,191
Combo3 : 219,162,43
Combo4 : 97,141,90
Combo5 : 183,72,72
Combo6 : 116,116,116

[HitObjects]
66,79,1465,6,0,P|79:147|76:247,1,140,6|8,1:2|0:0,0:0:0:0:
60,284,2221,1,2,0:0:0:0:
95,346,2473,1,2,0:0:0:0:
160,322,2725,2,0,P|231:303|313:312,1,140,10|10,0:0|0:0,0:0:0:0:
361,330,3481,5,0,1:0:0:0:
382,191,3976,1,8,0:0:0:0:
356,125,4234,2,0,P|352:91|358:43,1,70,2|2,0:0|0:0,0:0:0:0:
286,66,4745,2,0,P|217:78|134:70,1,140,8|0,0:0|0:0,0:0:0:0:
84,43,5501,5,2,1:2:0:0:
135,173,6008,2,0,P|150:253|151:346,1,140,8|2,0:0|0:0,0:0:0:0:
144,380,6770,1,10,0:0:0:0:
275,331,7277,1,10,0:0:0:0:
261,264,7531,6,0,P|247:195|243:125,1,140,0|8,1:0|0:0,0:0:0:0:
255,56,8293,1,0,0:0:0:0:
320,73,8547,2,0,P|360:71|408:58,1,70,0|8,0:0|0:0,0:0:0:0:
450,31,9064,1,0,0:0:0:0:
507,158,9581,5,0,1:0:0:0:
425,272,10076,2,0,P|376:295|291:263,1,140,10|2,0:0|0:0,0:0:0:0:
230,250,10830,2,0,P|197:273|174:308,1,70,8|0,0:0|0:0,0:0:0:0:
149,360,11347,1,8,0:0:0:0:
87,327,11606,6,0,P|58:258|64:172,1,140,2|8,1:2|0:0,0:0:0:0:
101,62,12622,1,0,0:0:0:0:
166,86,12877,2,0,P|195:155|189:241,1,140,8|2,0:0|0:0,0:0:0:0:
240,274,13639,6,0,P|314:256|397:256,1,140,2|10,1:2|0:0,0:0:0:0:
446,265,14404,1,2,0:0:0:0:
381,140,14915,1,10,0:0:0:0:
469,36,15426,1,10,0:0:0:0:
399,11,15681,6,0,P|332:33|249:40,1,140,0|8,1:0|0:0,0:0:0:0:
194,26,16437,2,0,P|182:62|186:112,1,70
214,155,16941,2,0,P|226:191|222:241,1,70,8|0,0:0|0:0,0:0:0:0:
200,287,17445,1,6,0:3:0:0:
137,254,17697,6,0,P|95:243|43:243,1,70,2|2,1:2|0:0,0:0:0:0:
23,188,18205,2,0,P|34:109|92:114,1,140,10|0,0:0|1:0,0:0:0:0:
143,137,18980,1,8,0:0:0:0:
270,79,19485,1,8,0:0:0:0:
331,110,19750,6,0,P|407:120|476:118,1,140,0|8,1:0|0:0,0:0:0:0:
509,176,20509,1,0,0:0:0:0:
470,235,20762,2,0,P|463:280|464:324,1,70,2|8,0:0|0:0,0:0:0:0:
401,338,21268,2,0,P|364:330|299:328,1,70,2|0,0:0|1:0,0:0:0:0:
259,331,21775,5,0,1:0:0:0:
127,365,22282,2,0,P|128:281|109:199,1,140,8|0,0:0|0:0,0:0:0:0:
93,160,23044,1,8,0:0:0:0:
231,190,23552,1,8,0:0:0:0:
295,177,23806,5,0,1:0:0:0:
353,215,24060,2,0,P|388:219|441:219,1,70,0|8,0:0|0:0,0:0:0:0:
491,206,24568,1,0,0:0:0:0:
447,74,25077,2,0,P|394:62|291:67,1,140,8|2,0:0|0:0,0:0:0:0:
247,85,25839,5,2,1:2:0:0:
186,49,26104,1,2,0:0:0:0:
126,86,26369,2,0,P|99:169|204:246,1,210,10|8,0:0|0:0,0:0:0:0:
243,233,27368,2,0,P|281:222|326:218,1,70,0|8,0:0|0:0,0:0:0:0:
379,235,27876,6,0,P|390:301|396:382,2,140,0|8|2,1:0|0:0|0:0,0:0:0:0:
368,166,29147,1,8,0:0:0:0:
312,123,29401,2,0,P|277:113|231:121,1,70,2|0,0:0|0:0,0:0:0:0:
179,138,29909,5,0,1:0:0:0:
55,203,30418,2,0,P|61:239|56:288,1,70,10|0,0:0|0:0,0:0:0:0:
36,338,30926,2,0,P|163:370|254:322,1,210,2|8,0:0|0:0,0:0:0:0:
293,306,31929,6,0,L|389:303,1,70,0|0,1:0|0:0,0:0:0:0:
432,302,32420,1,0,0:0:0:0:
484,172,32965,2,0,L|388:175,1,70
351,142,33448,2,0,L|281:139,1,70
229,185,33965,6,0,P|127:214|44:216,1,140,6|8,1:2|0:0,0:0:0:0:
33,181,34730,1,2,0:0:0:0:
37,110,34986,1,2,0:0:0:0:
98,77,35241,2,0,P|200:48|283:46,1,140,10|10,0:0|0:0,0:0:0:0:
292,80,36007,6,0,P|359:95|389:26,1,140,0|8,1:0|0:0,0:0:0:0:
455,11,36776,1,2,0:0:0:0:
504,60,37032,1,2,0:0:0:0:
485,127,37289,2,0,P|481:201|496:281,1,140,10|0,0:0|0:0,0:0:0:0:
453,324,38058,6,0,P|408:344|306:329,1,140,2|8,1:2|0:0,0:0:0:0:
253,312,38814,2,0,P|215:311|168:325,1,70,2|2,0:0|0:0,0:0:0:0:
126,358,39320,1,10,0:0:0:0:
51,239,39828,1,10,0:0:0:0:
115,213,40082,6,0,P|156:138|170:55,1,140,0|8,1:0|0:0,0:0:0:0:
175,15,40844,1,0,0:0:0:0:
240,40,41098,2,0,P|297:42|345:14,2,105
175,15,42115,5,0,1:0:0:0:
108,125,42624,2,0,P|103:169|103:209,1,70,10|2,0:0|0:0,0:0:0:0:
115,271,43134,1,2,0:0:0:0:
181,247,43386,2,0,P|248:242|319:282,1,140,8|10,0:0|0:0,0:0:0:0:
354,330,44142,6,0,P|388:331|440:324,1,70,0|2,1:0|0:0,0:0:0:0:
486,296,44659,1,8,0:0:0:0:
413,171,45176,1,0,0:0:0:0:
347,196,45426,1,10,0:0:0:0:
286,160,45676,2,0,P|255:135|233:94,1,70,2|0,0:0|0:0,0:0:0:0:
181,69,46176,6,0,P|116:122|81:180,1,140,2|8,1:2|0:0,0:0:0:0:
74,237,46938,1,2,0:0:0:0:
109,297,47192,1,2,0:0:0:0:
172,326,47447,2,0,P|216:308|323:320,1,140,10|10,0:0|0:0,0:0:0:0:
378,317,48209,6,0,P|384:269|375:230,1,70,0|0,1:0|0:0,0:0:0:0:
360,180,48718,1,8,0:0:0:0:
223,148,49226,2,0,P|217:196|226:235,1,70
206,285,49738,2,0,P|186:311|135:335,1,70,8|2,0:0|0:0,0:0:0:0:
85,335,50251,5,2,1:2:0:0:
28,293,50507,1,2,0:0:0:0:
52,227,50763,2,0,P|56:152|25:71,1,140,8|0,0:0|0:0,0:0:0:0:
88,43,51526,2,0,P|145:9|204:51,1,140,8|8,0:0|0:0,0:0:0:0:
224,110,52276,5,0,1:0:0:0:
353,163,52786,1,8,0:0:0:0:
418,139,53041,2,0,P|432:229|436:303,1,140,2|8,0:0|0:0,0:0:0:0:
384,324,53788,2,0,P|346:337|297:312,1,70,2|0,0:0|0:0,0:0:0:0:
252,309,54318,6,0,P|238:219|234:145,1,140,2|8,1:2|0:0,0:0:0:0:
115,95,55334,1,0,0:0:0:0:
66,145,55589,2,0,P|42:184|32:293,1,140,8|8,0:0|0:0,0:0:0:0:
63,335,56351,6,0,L|146:343,1,70,2|0,1:2|0:0,0:0:0:0:
202,349,56855,1,8,0:0:0:0:
287,238,57359,2,0,P|282:200|288:163,2,70,0|8|8,0:0|0:0|0:0,0:0:0:0:
332,290,58123,1,2,0:0:0:0:
399,265,58384,5,2,1:2:0:0:
464,290,58642,2,0,P|498:227|498:135,1,140,2|2,0:0|0:0,0:0:0:0:
449,29,59665,1,10,0:0:0:0:
328,100,60161,1,8,0:0:0:0:
269,62,60409,6,0,P|232:58|183:60,1,70,0|0,1:0|0:0,0:0:0:0:
132,79,60917,1,8,0:0:0:0:
23,156,61425,2,0,P|17:187|44:232,1,70,2|0,0:0|0:0,0:0:0:0:
95,249,61946,2,0,P|114:275|122:318,1,70,2|0,0:0|0:0,0:0:0:0:
115,377,62446,5,4,1:0:0:0:
256,192,62887,12,0,66147,0:0:0:0:
