osu file format v14

[General]
AudioFilename: audio.mp3
AudioLeadIn: 0
PreviewTime: 57715
Countdown: 0
SampleSet: Normal
StackLeniency: 0.7
Mode: 1
LetterboxInBreaks: 0
WidescreenStoryboard: 0

[Editor]
DistanceSpacing: 1.8
BeatDivisor: 4
GridSize: 32
TimelineZoom: 2.2

[Metadata]
Title:Hey! Calorie Queen
TitleUnicode:Hey!カロリーQueen
Artist:Ayana Taketatsu
ArtistUnicode:竹達彩奈
Creator:Etsu
Version:Rew's Inner Oni
Source:だがしかし
Tags:j-pop ending tv size dagashi kashi rew0825 skylish
BeatmapID:1051533
BeatmapSetID:459442

[Difficulty]
HPDrainRate:6
CircleSize:4
OverallDifficulty:6
ApproachRate:9
SliderMultiplier:1.4
SliderTickRate:1

[Events]
//Background and Video events
0,0,"BG.jpg",0,0
//Break Periods
//Storyboard Layer 0 (Background)
//Storyboard Layer 1 (Fail)
//Storyboard Layer 2 (Pass)
//Storyboard Layer 3 (Foreground)
//Storyboard Sound Samples

[TimingPoints]
985,384.615384615385,4,1,0,75,1,0
7138,-100,4,1,0,80,0,1
19446,-100,4,1,0,75,0,0
57908,-100,4,1,0,80,0,1
82523,-100,4,1,0,75,0,0

[HitObjects]
256,192,985,5,4,0:0:0:0:
256,192,2523,1,4,0:0:0:0:
256,192,3292,1,12,0:0:0:0:
256,192,4062,1,4,0:0:0:0:
256,192,4638,1,12,0:0:0:0:
256,192,5023,1,0,0:0:0:0:
256,192,5216,1,12,0:0:0:0:
256,192,5600,1,0,0:0:0:0:
256,192,5985,1,0,0:0:0:0:
256,192,6369,1,8,0:0:0:0:
256,192,6466,1,8,0:0:0:0:
256,192,6562,1,0,0:0:0:0:
256,192,6658,1,0,0:0:0:0:
256,192,6754,1,8,0:0:0:0:
256,192,6850,1,0,0:0:0:0:
256,192,6946,1,8,0:0:0:0:
256,192,7139,1,4,0:0:0:0:
256,192,7331,1,8,0:0:0:0:
256,192,7427,1,0,0:0:0:0:
256,192,7523,1,8,0:0:0:0:
256,192,7715,1,0,0:0:0:0:
256,192,7908,1,8,0:0:0:0:
256,192,8100,1,0,0:0:0:0:
256,192,8196,1,0,0:0:0:0:
256,192,8292,1,8,0:0:0:0:
256,192,8485,1,0,0:0:0:0:
256,192,8677,1,8,0:0:0:0:
256,192,8869,1,0,0:0:0:0:
256,192,8966,1,8,0:0:0:0:
256,192,9062,1,0,0:0:0:0:
256,192,9254,1,0,0:0:0:0:
256,192,9446,1,8,0:0:0:0:
256,192,9542,1,0,0:0:0:0:
256,192,9638,1,8,0:0:0:0:
256,192,9831,1,8,0:0:0:0:
256,192,10023,1,0,0:0:0:0:
256,192,10408,1,8,0:0:0:0:
256,192,10504,1,0,0:0:0:0:
256,192,10600,1,8,0:0:0:0:
256,192,10792,1,0,0:0:0:0:
256,192,10985,1,8,0:0:0:0:
256,192,11177,1,0,0:0:0:0:
256,192,11273,1,0,0:0:0:0:
256,192,11369,1,8,0:0:0:0:
256,192,11561,1,0,0:0:0:0:
256,192,11754,1,8,0:0:0:0:
256,192,11946,1,0,0:0:0:0:
256,192,12042,1,8,0:0:0:0:
256,192,12139,1,0,0:0:0:0:
256,192,12331,1,0,0:0:0:0:
256,192,12523,1,8,0:0:0:0:
256,192,12619,1,0,0:0:0:0:
256,192,12716,1,8,0:0:0:0:
256,192,12812,1,8,0:0:0:0:
256,192,12908,1,0,0:0:0:0:
256,192,13100,1,8,0:0:0:0:
256,192,13292,1,4,0:0:0:0:
256,192,13485,1,8,0:0:0:0:
256,192,13581,1,0,0:0:0:0:
256,192,13677,1,8,0:0:0:0:
256,192,13869,1,0,0:0:0:0:
256,192,14062,1,8,0:0:0:0:
256,192,14158,1,8,0:0:0:0:
256,192,14254,1,0,0:0:0:0:
256,192,14350,1,0,0:0:0:0:
256,192,14446,1,8,0:0:0:0:
256,192,14639,1,0,0:0:0:0:
256,192,14831,1,8,0:0:0:0:
256,192,14927,1,8,0:0:0:0:
256,192,15023,1,0,0:0:0:0:
256,192,15119,1,8,0:0:0:0:
256,192,15216,1,0,0:0:0:0:
256,192,15408,1,0,0:0:0:0:
256,192,15600,1,8,0:0:0:0:
256,192,15696,1,0,0:0:0:0:
256,192,15792,1,8,0:0:0:0:
256,192,15889,1,8,0:0:0:0:
256,192,15985,1,0,0:0:0:0:
256,192,16177,1,0,0:0:0:0:
256,192,16273,1,0,0:0:0:0:
256,192,16369,1,8,0:0:0:0:
256,192,16658,1,0,0:0:0:0:
256,192,16754,1,8,0:0:0:0:
256,192,16946,1,0,0:0:0:0:
256,192,17139,1,8,0:0:0:0:
256,192,17235,1,8,0:0:0:0:
256,192,17331,1,0,0:0:0:0:
256,192,17523,1,8,0:0:0:0:
256,192,17716,1,8,0:0:0:0:
256,192,17908,1,4,0:0:0:0:
256,192,18292,1,12,0:0:0:0:
256,192,18677,1,4,0:0:0:0:
256,192,18966,1,0,0:0:0:0:
256,192,19062,1,8,0:0:0:0:
256,192,19254,1,8,0:0:0:0:
256,192,19446,1,4,0:0:0:0:
256,192,19831,1,8,0:0:0:0:
256,192,20023,1,0,0:0:0:0:
256,192,20216,1,8,0:0:0:0:
256,192,20408,1,0,0:0:0:0:
256,192,20600,1,8,0:0:0:0:
256,192,20792,1,0,0:0:0:0:
256,192,20889,1,0,0:0:0:0:
256,192,20985,1,8,0:0:0:0:
256,192,21369,1,8,0:0:0:0:
256,192,21562,1,0,0:0:0:0:
256,192,21754,1,0,0:0:0:0:
256,192,21946,1,0,0:0:0:0:
256,192,22139,1,8,0:0:0:0:
256,192,22331,1,0,0:0:0:0:
256,192,22523,1,8,0:0:0:0:
256,192,22908,1,8,0:0:0:0:
256,192,23100,1,0,0:0:0:0:
256,192,23292,1,8,0:0:0:0:
256,192,23485,1,0,0:0:0:0:
256,192,23677,1,8,0:0:0:0:
256,192,23869,1,0,0:0:0:0:
256,192,23966,1,8,0:0:0:0:
256,192,24062,1,0,0:0:0:0:
256,192,24446,1,8,0:0:0:0:
256,192,24639,1,0,0:0:0:0:
256,192,24831,1,0,0:0:0:0:
256,192,25023,1,8,0:0:0:0:
256,192,25216,1,8,0:0:0:0:
256,192,25408,1,0,0:0:0:0:
256,192,25600,1,12,0:0:0:0:
256,192,25985,1,8,0:0:0:0:
256,192,26177,1,0,0:0:0:0:
256,192,26369,1,8,0:0:0:0:
256,192,26562,1,0,0:0:0:0:
256,192,26754,1,8,0:0:0:0:
256,192,26946,1,0,0:0:0:0:
256,192,27042,1,0,0:0:0:0:
256,192,27138,1,8,0:0:0:0:
256,192,27523,1,8,0:0:0:0:
256,192,27716,1,0,0:0:0:0:
256,192,27812,1,0,0:0:0:0:
256,192,27908,1,8,0:0:0:0:
256,192,28196,1,0,0:0:0:0:
256,192,28292,1,8,0:0:0:0:
256,192,28485,1,0,0:0:0:0:
256,192,28677,1,0,0:0:0:0:
256,192,29062,1,8,0:0:0:0:
256,192,29254,1,0,0:0:0:0:
256,192,29446,1,8,0:0:0:0:
256,192,29639,1,0,0:0:0:0:
256,192,29831,1,8,0:0:0:0:
256,192,29927,1,0,0:0:0:0:
256,192,30023,1,8,0:0:0:0:
256,192,30119,1,8,0:0:0:0:
256,192,30215,1,0,0:0:0:0:
256,192,30600,1,12,0:0:0:0:
256,192,30985,1,4,0:0:0:0:
256,192,31177,1,8,0:0:0:0:
256,192,31273,1,8,0:0:0:0:
256,192,31369,1,8,0:0:0:0:
256,192,31561,1,0,0:0:0:0:
256,192,31754,1,12,0:0:0:0:
256,192,32139,1,8,0:0:0:0:
256,192,32331,1,0,0:0:0:0:
256,192,32523,1,8,0:0:0:0:
256,192,32716,1,0,0:0:0:0:
256,192,32908,1,8,0:0:0:0:
256,192,33100,1,8,0:0:0:0:
256,192,33196,1,8,0:0:0:0:
256,192,33292,1,0,0:0:0:0:
256,192,33677,1,8,0:0:0:0:
256,192,33869,1,0,0:0:0:0:
256,192,33965,1,0,0:0:0:0:
256,192,34062,1,0,0:0:0:0:
256,192,34254,1,8,0:0:0:0:
256,192,34446,1,0,0:0:0:0:
256,192,34542,1,0,0:0:0:0:
256,192,34639,1,8,0:0:0:0:
256,192,34831,1,0,0:0:0:0:
256,192,35216,1,8,0:0:0:0:
256,192,35408,1,0,0:0:0:0:
256,192,35600,1,8,0:0:0:0:
256,192,35792,1,0,0:0:0:0:
256,192,35985,1,8,0:0:0:0:
256,192,36081,1,8,0:0:0:0:
256,192,36177,1,0,0:0:0:0:
256,192,36273,1,0,0:0:0:0:
256,192,36369,1,8,0:0:0:0:
256,192,36658,1,0,0:0:0:0:
256,192,36754,1,8,0:0:0:0:
256,192,36946,1,0,0:0:0:0:
256,192,37139,1,8,0:0:0:0:
256,192,37235,1,8,0:0:0:0:
256,192,37331,1,0,0:0:0:0:
256,192,37523,1,8,0:0:0:0:
256,192,37715,1,0,0:0:0:0:
256,192,37908,1,12,0:0:0:0:
256,192,38292,1,8,0:0:0:0:
256,192,38485,1,0,0:0:0:0:
256,192,38581,1,0,0:0:0:0:
256,192,38677,1,8,0:0:0:0:
256,192,38869,1,0,0:0:0:0:
256,192,39062,1,8,0:0:0:0:
256,192,39158,1,8,0:0:0:0:
256,192,39254,1,0,0:0:0:0:
256,192,39446,1,8,0:0:0:0:
256,192,39831,1,8,0:0:0:0:
256,192,40023,1,0,0:0:0:0:
256,192,40119,1,0,0:0:0:0:
256,192,40216,1,0,0:0:0:0:
256,192,40408,1,8,0:0:0:0:
256,192,40600,1,0,0:0:0:0:
256,192,40696,1,0,0:0:0:0:
256,192,40792,1,8,0:0:0:0:
256,192,40985,1,0,0:0:0:0:
256,192,41273,1,0,0:0:0:0:
256,192,41369,1,8,0:0:0:0:
256,192,41562,1,0,0:0:0:0:
256,192,41754,1,8,0:0:0:0:
256,192,41850,1,8,0:0:0:0:
256,192,41946,1,0,0:0:0:0:
256,192,42139,1,8,0:0:0:0:
256,192,42235,1,0,0:0:0:0:
256,192,42331,1,8,0:0:0:0:
256,192,42523,1,4,0:0:0:0:
256,192,42716,1,8,0:0:0:0:
256,192,42812,1,8,0:0:0:0:
256,192,42908,1,8,0:0:0:0:
256,192,43100,1,4,0:0:0:0:
256,192,43485,1,0,0:0:0:0:
256,192,43677,1,8,0:0:0:0:
256,192,43773,1,8,0:0:0:0:
256,192,43869,1,8,0:0:0:0:
256,192,44062,1,4,0:0:0:0:
256,192,44254,1,8,0:0:0:0:
256,192,44350,1,0,0:0:0:0:
256,192,44446,1,8,0:0:0:0:
256,192,44638,1,8,0:0:0:0:
256,192,44831,1,0,0:0:0:0:
256,192,44927,1,8,0:0:0:0:
256,192,45023,1,0,0:0:0:0:
256,192,45119,1,0,0:0:0:0:
256,192,45215,1,8,0:0:0:0:
256,192,45311,1,0,0:0:0:0:
256,192,45408,1,8,0:0:0:0:
256,192,45600,1,4,0:0:0:0:
256,192,45792,1,8,0:0:0:0:
256,192,45889,1,8,0:0:0:0:
256,192,45985,1,8,0:0:0:0:
256,192,46177,1,4,0:0:0:0:
256,192,46562,1,0,0:0:0:0:
256,192,46754,1,8,0:0:0:0:
256,192,46850,1,8,0:0:0:0:
256,192,46946,1,8,0:0:0:0:
256,192,47042,1,8,0:0:0:0:
256,192,47139,1,0,0:0:0:0:
256,192,47331,1,8,0:0:0:0:
256,192,47427,1,8,0:0:0:0:
256,192,47523,1,0,0:0:0:0:
256,192,47716,1,0,0:0:0:0:
256,192,47908,1,8,0:0:0:0:
256,192,48004,1,0,0:0:0:0:
256,192,48100,1,8,0:0:0:0:
256,192,48196,1,8,0:0:0:0:
256,192,48292,1,0,0:0:0:0:
256,192,48388,1,0,0:0:0:0:
256,192,48485,1,8,0:0:0:0:
256,192,48677,1,0,0:0:0:0:
256,192,48869,1,8,0:0:0:0:
256,192,49062,1,0,0:0:0:0:
256,192,49254,1,8,0:0:0:0:
256,192,49350,1,8,0:0:0:0:
256,192,49446,1,0,0:0:0:0:
256,192,49639,1,0,0:0:0:0:
256,192,49831,1,8,0:0:0:0:
256,192,50023,1,8,0:0:0:0:
256,192,50119,1,8,0:0:0:0:
256,192,50216,1,0,0:0:0:0:
256,192,50408,1,0,0:0:0:0:
256,192,50600,1,12,0:0:0:0:
256,192,50985,1,0,0:0:0:0:
256,192,51177,1,0,0:0:0:0:
256,192,51369,1,12,0:0:0:0:
256,192,51754,1,4,0:0:0:0:
256,192,52042,1,12,0:0:0:0:
256,192,52331,1,0,0:0:0:0:
256,192,52427,1,0,0:0:0:0:
256,192,52523,1,8,0:0:0:0:
256,192,52619,1,8,0:0:0:0:
256,192,52715,1,0,0:0:0:0:
256,192,52812,1,0,0:0:0:0:
256,192,52908,1,8,0:0:0:0:
256,192,53100,1,8,0:0:0:0:
256,192,53292,1,0,0:0:0:0:
256,192,53485,1,8,0:0:0:0:
256,192,53581,1,0,0:0:0:0:
256,192,53677,1,8,0:0:0:0:
256,192,53869,1,0,0:0:0:0:
256,192,54062,1,8,0:0:0:0:
256,192,54158,1,8,0:0:0:0:
256,192,54254,1,0,0:0:0:0:
256,192,54350,1,0,0:0:0:0:
256,192,54446,1,8,0:0:0:0:
256,192,54639,1,8,0:0:0:0:
256,192,54831,1,4,0:0:0:0:
256,192,55119,1,12,0:0:0:0:
256,192,55408,1,4,0:0:0:0:
256,192,55600,1,4,0:0:0:0:
256,192,55889,1,12,0:0:0:0:
256,192,56177,1,4,0:0:0:0:
256,192,56369,1,12,0:0:0:0:
256,192,56658,1,12,0:0:0:0:
256,192,56946,1,12,0:0:0:0:
256,192,57139,1,4,0:0:0:0:
256,192,57331,1,8,0:0:0:0:
256,192,57427,1,8,0:0:0:0:
256,192,57523,1,8,0:0:0:0:
256,192,57619,1,0,0:0:0:0:
256,192,57715,1,0,0:0:0:0:
256,192,57908,1,4,0:0:0:0:
256,192,58196,1,0,0:0:0:0:
256,192,58292,1,8,0:0:0:0:
256,192,58485,1,0,0:0:0:0:
256,192,58677,1,8,0:0:0:0:
256,192,58773,1,8,0:0:0:0:
256,192,58869,1,0,0:0:0:0:
256,192,58965,1,0,0:0:0:0:
256,192,59061,1,8,0:0:0:0:
256,192,59254,1,0,0:0:0:0:
256,192,59446,1,8,0:0:0:0:
256,192,59639,1,0,0:0:0:0:
256,192,59735,1,0,0:0:0:0:
256,192,59831,1,8,0:0:0:0:
256,192,60023,1,0,0:0:0:0:
256,192,60216,1,8,0:0:0:0:
256,192,60312,1,0,0:0:0:0:
256,192,60408,1,0,0:0:0:0:
256,192,60504,1,0,0:0:0:0:
256,192,60600,1,8,0:0:0:0:
256,192,60792,1,0,0:0:0:0:
256,192,60985,1,8,0:0:0:0:
256,192,61273,1,0,0:0:0:0:
256,192,61369,1,8,0:0:0:0:
256,192,61562,1,0,0:0:0:0:
256,192,61754,1,8,0:0:0:0:
256,192,62042,1,8,0:0:0:0:
256,192,62139,1,8,0:0:0:0:
256,192,62331,1,0,0:0:0:0:
256,192,62523,1,8,0:0:0:0:
256,192,62715,1,0,0:0:0:0:
256,192,62811,1,0,0:0:0:0:
256,192,62908,1,8,0:0:0:0:
256,192,63100,1,8,0:0:0:0:
256,192,63196,1,8,0:0:0:0:
256,192,63292,1,0,0:0:0:0:
256,192,63388,1,8,0:0:0:0:
256,192,63485,1,0,0:0:0:0:
256,192,63581,1,0,0:0:0:0:
256,192,63677,1,8,0:0:0:0:
256,192,63869,1,8,0:0:0:0:
256,192,64062,1,4,0:0:0:0:
256,192,64350,1,0,0:0:0:0:
256,192,64446,1,8,0:0:0:0:
256,192,64639,1,0,0:0:0:0:
256,192,64831,1,8,0:0:0:0:
256,192,64927,1,8,0:0:0:0:
256,192,65023,1,0,0:0:0:0:
256,192,65119,1,0,0:0:0:0:
256,192,65216,1,8,0:0:0:0:
256,192,65408,1,0,0:0:0:0:
256,192,65600,1,8,0:0:0:0:
256,192,65792,1,0,0:0:0:0:
256,192,65888,1,0,0:0:0:0:
256,192,65985,1,8,0:0:0:0:
256,192,66177,1,0,0:0:0:0:
256,192,66369,1,8,0:0:0:0:
256,192,66466,1,0,0:0:0:0:
256,192,66561,1,0,0:0:0:0:
256,192,66658,1,0,0:0:0:0:
256,192,66754,1,8,0:0:0:0:
256,192,66946,1,8,0:0:0:0:
256,192,67139,1,4,0:0:0:0:
256,192,67427,1,0,0:0:0:0:
256,192,67523,1,8,0:0:0:0:
256,192,67716,1,0,0:0:0:0:
256,192,67908,1,8,0:0:0:0:
256,192,68004,1,8,0:0:0:0:
256,192,68100,1,0,0:0:0:0:
256,192,68196,1,0,0:0:0:0:
256,192,68292,1,8,0:0:0:0:
256,192,68485,1,8,0:0:0:0:
256,192,68677,1,0,0:0:0:0:
256,192,68869,1,0,0:0:0:0:
256,192,68966,1,0,0:0:0:0:
256,192,69062,1,8,0:0:0:0:
256,192,69254,1,0,0:0:0:0:
256,192,69350,1,8,0:0:0:0:
256,192,69542,1,8,0:0:0:0:
256,192,69638,1,0,0:0:0:0:
256,192,69735,1,0,0:0:0:0:
256,192,69831,1,8,0:0:0:0:
256,192,70023,1,8,0:0:0:0:
256,192,70216,1,4,0:0:0:0:
256,192,70504,1,0,0:0:0:0:
256,192,70600,1,8,0:0:0:0:
256,192,70792,1,0,0:0:0:0:
256,192,70985,1,8,0:0:0:0:
256,192,71081,1,8,0:0:0:0:
256,192,71177,1,0,0:0:0:0:
256,192,71273,1,0,0:0:0:0:
256,192,71369,1,8,0:0:0:0:
256,192,71561,1,0,0:0:0:0:
256,192,71754,1,8,0:0:0:0:
256,192,71946,1,0,0:0:0:0:
256,192,72042,1,0,0:0:0:0:
256,192,72138,1,8,0:0:0:0:
256,192,72331,1,0,0:0:0:0:
256,192,72523,1,8,0:0:0:0:
256,192,72619,1,0,0:0:0:0:
256,192,72716,1,0,0:0:0:0:
256,192,72811,1,0,0:0:0:0:
256,192,72908,1,8,0:0:0:0:
256,192,73100,1,0,0:0:0:0:
256,192,73292,1,8,0:0:0:0:
256,192,73581,1,0,0:0:0:0:
256,192,73677,1,8,0:0:0:0:
256,192,73869,1,0,0:0:0:0:
256,192,74062,1,8,0:0:0:0:
256,192,74350,1,8,0:0:0:0:
256,192,74446,1,8,0:0:0:0:
256,192,74639,1,0,0:0:0:0:
256,192,74831,1,8,0:0:0:0:
256,192,75023,1,0,0:0:0:0:
256,192,75119,1,0,0:0:0:0:
256,192,75216,1,8,0:0:0:0:
256,192,75408,1,8,0:0:0:0:
256,192,75600,1,0,0:0:0:0:
256,192,75696,1,8,0:0:0:0:
256,192,75792,1,0,0:0:0:0:
256,192,75888,1,0,0:0:0:0:
256,192,75985,1,8,0:0:0:0:
256,192,76177,1,8,0:0:0:0:
256,192,76369,1,4,0:0:0:0:
256,192,76562,1,8,0:0:0:0:
256,192,76658,1,0,0:0:0:0:
256,192,76754,1,8,0:0:0:0:
256,192,76946,1,0,0:0:0:0:
256,192,77139,1,8,0:0:0:0:
256,192,77235,1,8,0:0:0:0:
256,192,77331,1,0,0:0:0:0:
256,192,77427,1,0,0:0:0:0:
256,192,77523,1,8,0:0:0:0:
256,192,77716,1,8,0:0:0:0:
256,192,77908,1,0,0:0:0:0:
256,192,78100,1,8,0:0:0:0:
256,192,78196,1,8,0:0:0:0:
256,192,78292,1,0,0:0:0:0:
256,192,78485,1,8,0:0:0:0:
256,192,78677,1,0,0:0:0:0:
256,192,78773,1,8,0:0:0:0:
256,192,78869,1,8,0:0:0:0:
256,192,78965,1,0,0:0:0:0:
256,192,79062,1,8,0:0:0:0:
256,192,79254,1,8,0:0:0:0:
256,192,79446,1,4,0:0:0:0:
256,192,79638,1,8,0:0:0:0:
256,192,79735,1,0,0:0:0:0:
256,192,79831,1,8,0:0:0:0:
256,192,80023,1,0,0:0:0:0:
256,192,80216,1,8,0:0:0:0:
256,192,80312,1,8,0:0:0:0:
256,192,80408,1,0,0:0:0:0:
256,192,80504,1,0,0:0:0:0:
256,192,80600,1,8,0:0:0:0:
256,192,80792,1,8,0:0:0:0:
256,192,80985,1,4,0:0:0:0:
256,192,81177,1,8,0:0:0:0:
256,192,81273,1,8,0:0:0:0:
256,192,81369,1,0,0:0:0:0:
256,192,81561,1,8,0:0:0:0:
256,192,81658,1,0,0:0:0:0:
256,192,81754,1,8,0:0:0:0:
256,192,81946,1,0,0:0:0:0:
256,192,82042,1,0,0:0:0:0:
256,192,82139,1,8,0:0:0:0:
256,192,82235,1,0,0:0:0:0:
256,192,82331,1,8,0:0:0:0:
256,192,82427,1,8,0:0:0:0:
256,192,82523,1,0,0:0:0:0:
256,192,82716,1,8,0:0:0:0:
256,192,82811,1,0,0:0:0:0:
256,192,82908,1,8,0:0:0:0:
256,192,83100,1,0,0:0:0:0:
256,192,83292,1,8,0:0:0:0:
256,192,83388,1,8,0:0:0:0:
256,192,83485,1,0,0:0:0:0:
256,192,83581,1,0,0:0:0:0:
256,192,83677,1,8,0:0:0:0:
256,192,83869,1,8,0:0:0:0:
256,192,84062,1,0,0:0:0:0:
256,192,84254,1,8,0:0:0:0:
256,192,84350,1,8,0:0:0:0:
256,192,84446,1,0,0:0:0:0:
256,192,84639,1,8,0:0:0:0:
256,192,84735,1,8,0:0:0:0:
256,192,84831,1,0,0:0:0:0:
256,192,85023,1,8,0:0:0:0:
256,192,85119,1,8,0:0:0:0:
256,192,85215,1,0,0:0:0:0:
256,192,85312,1,8,0:0:0:0:
256,192,85408,1,0,0:0:0:0:
256,192,85600,1,4,0:0:0:0:
256,192,85985,1,8,0:0:0:0:
256,192,86177,1,4,0:0:0:0:
256,192,86561,1,0,0:0:0:0:
256,192,86754,1,12,0:0:0:0:
256,192,86946,1,12,0:0:0:0:
256,192,87138,12,0,88677,0:0:0:0:
