osu file format v14

[General]
AudioFilename: audio.mp3
AudioLeadIn: 0
PreviewTime: 57715
Countdown: 0
SampleSet: Normal
StackLeniency: 0.7
Mode: 1
LetterboxInBreaks: 0
WidescreenStoryboard: 0

[Editor]
Bookmarks: 7138,17908,19456,30215,31764,44072,50226,64061,70225,76369,82523
DistanceSpacing: 1.4
BeatDivisor: 4
GridSize: 32
TimelineZoom: 1.6

[Metadata]
Title:Hey! Calorie Queen
TitleUnicode:Hey!カロリーQueen
Artist:Ayana Taketatsu
ArtistUnicode:竹達彩奈
Creator:Etsu
Version:Muzukashii
Source:だがしかし
Tags:j-pop ending tv size dagashi kashi rew0825 skylish
BeatmapID:984288
BeatmapSetID:459442

[Difficulty]
HPDrainRate:6
CircleSize:2
OverallDifficulty:5
ApproachRate:5
SliderMultiplier:1.4
SliderTickRate:1

[Events]
//Background and Video events
0,0,"BG.jpg",0,0
//Break Periods
//Storyboard Layer 0 (Background)
//Storyboard Layer 1 (Fail)
//Storyboard Layer 2 (Pass)
//Storyboard Layer 3 (Foreground)
//Storyboard Sound Samples

[TimingPoints]
985,384.615384615385,4,1,0,75,1,0
7138,-100,4,1,0,80,0,1
19446,-100,4,1,0,75,0,0
57908,-100,4,1,0,80,0,1
82523,-100,4,1,0,75,0,0

[HitObjects]
256,192,985,5,4,0:0:0:0:
256,192,2523,1,4,0:0:0:0:
256,192,3292,1,12,0:0:0:0:
256,192,4061,1,4,0:0:0:0:
256,192,4638,1,12,0:0:0:0:
256,192,5023,1,0,0:0:0:0:
256,192,5215,1,12,0:0:0:0:
256,192,5600,8,0,6754,0:0:0:0:
256,192,7138,5,4,0:0:0:0:
256,192,7523,1,8,0:0:0:0:
256,192,7715,1,0,0:0:0:0:
256,192,7908,1,8,0:0:0:0:
256,192,8100,1,8,0:0:0:0:
256,192,8292,1,0,0:0:0:0:
256,192,8485,1,0,0:0:0:0:
256,192,8677,1,0,0:0:0:0:
256,192,8773,1,0,0:0:0:0:
256,192,8869,1,0,0:0:0:0:
256,192,9061,1,0,0:0:0:0:
256,192,9446,1,0,0:0:0:0:
256,192,9638,1,8,0:0:0:0:
256,192,9831,1,8,0:0:0:0:
256,192,10023,1,0,0:0:0:0:
256,192,10408,1,8,0:0:0:0:
256,192,10600,1,8,0:0:0:0:
256,192,10792,1,0,0:0:0:0:
256,192,10985,1,8,0:0:0:0:
256,192,11177,1,8,0:0:0:0:
256,192,11369,1,0,0:0:0:0:
256,192,11561,1,0,0:0:0:0:
256,192,11754,1,0,0:0:0:0:
256,192,11850,1,0,0:0:0:0:
256,192,11946,1,0,0:0:0:0:
256,192,12138,1,0,0:0:0:0:
256,192,12523,1,8,0:0:0:0:
256,192,12715,1,0,0:0:0:0:
256,192,12908,1,0,0:0:0:0:
256,192,13100,1,8,0:0:0:0:
256,192,13485,1,8,0:0:0:0:
256,192,13677,1,8,0:0:0:0:
128,224,13869,1,0,0:0:0:0:
256,192,14061,1,8,0:0:0:0:
256,192,14254,1,8,0:0:0:0:
256,192,14446,1,0,0:0:0:0:
256,192,14638,1,8,0:0:0:0:
256,192,14831,1,8,0:0:0:0:
256,192,14927,1,8,0:0:0:0:
256,192,15023,1,8,0:0:0:0:
256,192,15215,1,0,0:0:0:0:
256,192,15600,1,8,0:0:0:0:
256,192,15792,1,8,0:0:0:0:
256,192,15985,1,0,0:0:0:0:
256,192,16177,1,0,0:0:0:0:
48,48,16369,2,0,L|400:304,1,420
256,192,17908,1,4,0:0:0:0:
256,192,18292,1,12,0:0:0:0:
256,192,18677,1,4,0:0:0:0:
256,192,18965,1,8,0:0:0:0:
128,192,19061,1,8,0:0:0:0:
256,192,19446,1,4,0:0:0:0:
256,192,19831,1,8,0:0:0:0:
256,192,20023,1,8,0:0:0:0:
256,192,20215,1,0,0:0:0:0:
256,192,20408,1,0,0:0:0:0:
256,192,20600,1,8,0:0:0:0:
256,192,20985,1,0,0:0:0:0:
256,192,21369,1,8,0:0:0:0:
256,192,22523,1,0,0:0:0:0:
256,192,22908,1,8,0:0:0:0:
256,192,23101,1,0,0:0:0:0:
256,192,23292,1,8,0:0:0:0:
256,192,23485,1,8,0:0:0:0:
256,192,23677,1,0,0:0:0:0:
256,192,24061,1,8,0:0:0:0:
256,192,24446,1,0,0:0:0:0:
256,192,25023,1,8,0:0:0:0:
256,192,25215,1,0,0:0:0:0:
256,192,25408,1,8,0:0:0:0:
256,192,25600,1,4,0:0:0:0:
256,192,26561,1,8,0:0:0:0:
256,192,26754,1,0,0:0:0:0:
160,192,26946,1,0,0:0:0:0:
160,192,27042,1,0,0:0:0:0:
160,192,27138,1,0,0:0:0:0:
128,192,27523,1,0,0:0:0:0:
256,192,27715,1,8,0:0:0:0:
160,208,27908,1,0,0:0:0:0:
160,208,28292,1,0,0:0:0:0:
128,192,28485,1,8,0:0:0:0:
256,192,28677,1,8,0:0:0:0:
256,192,29061,1,0,0:0:0:0:
256,192,29446,1,8,0:0:0:0:
256,192,29831,1,0,0:0:0:0:
256,176,29927,1,0,0:0:0:0:
256,176,30023,1,0,0:0:0:0:
256,192,30215,1,0,0:0:0:0:
256,192,30600,1,12,0:0:0:0:
256,192,30985,1,4,0:0:0:0:
256,192,31273,1,8,0:0:0:0:
256,192,31369,1,8,0:0:0:0:
256,192,31754,1,4,0:0:0:0:
256,192,32138,1,8,0:0:0:0:
256,192,32331,1,8,0:0:0:0:
256,192,32523,1,0,0:0:0:0:
256,192,32715,1,0,0:0:0:0:
256,192,32908,1,8,0:0:0:0:
256,192,33100,1,8,0:0:0:0:
256,192,33196,1,8,0:0:0:0:
256,192,33292,1,8,0:0:0:0:
256,192,33677,1,0,0:0:0:0:
139,228,34446,1,8,0:0:0:0:
256,192,34831,1,0,0:0:0:0:
256,192,35215,1,8,0:0:0:0:
256,192,35408,1,0,0:0:0:0:
256,192,35600,1,8,0:0:0:0:
256,192,35792,1,8,0:0:0:0:
256,192,35985,1,0,0:0:0:0:
256,192,36177,1,0,0:0:0:0:
256,192,36273,1,0,0:0:0:0:
256,192,36369,1,0,0:0:0:0:
256,192,36754,1,8,0:0:0:0:
256,192,37331,1,0,0:0:0:0:
256,192,37523,1,8,0:0:0:0:
256,192,37715,1,0,0:0:0:0:
288,192,37908,1,12,0:0:0:0:
256,192,38869,1,8,0:0:0:0:
256,192,39061,1,0,0:0:0:0:
256,192,39254,1,8,0:0:0:0:
256,192,39446,1,0,0:0:0:0:
288,192,40408,1,8,0:0:0:0:
256,192,40600,1,8,0:0:0:0:
288,192,40792,1,0,0:0:0:0:
256,192,40985,1,8,0:0:0:0:
256,192,41369,1,0,0:0:0:0:
192,160,41561,1,0,0:0:0:0:
192,160,41754,1,8,0:0:0:0:
256,192,42138,1,0,0:0:0:0:
256,192,42523,1,12,0:0:0:0:
256,192,43100,1,12,0:0:0:0:
256,192,43485,1,8,0:0:0:0:
256,192,43677,1,8,0:0:0:0:
256,192,43869,1,0,0:0:0:0:
256,192,44061,1,4,0:0:0:0:
256,192,44446,1,8,0:0:0:0:
256,192,44638,1,0,0:0:0:0:
256,192,44831,1,8,0:0:0:0:
256,192,45023,1,8,0:0:0:0:
256,192,45215,1,0,0:0:0:0:
256,192,45600,1,12,0:0:0:0:
256,192,45985,1,0,0:0:0:0:
256,192,46177,1,12,0:0:0:0:
256,192,46561,1,8,0:0:0:0:
256,192,46753,1,8,0:0:0:0:
256,192,46946,1,0,0:0:0:0:
256,192,47138,1,4,0:0:0:0:
256,192,47523,1,0,0:0:0:0:
256,192,47715,1,8,0:0:0:0:
256,192,47908,1,0,0:0:0:0:
256,192,48100,1,0,0:0:0:0:
256,192,48292,1,8,0:0:0:0:
224,224,48485,1,0,0:0:0:0:
256,192,48677,1,8,0:0:0:0:
256,192,49061,1,0,0:0:0:0:
256,192,49254,1,8,0:0:0:0:
256,192,49350,1,8,0:0:0:0:
256,192,49446,1,8,0:0:0:0:
256,192,49831,1,0,0:0:0:0:
256,192,50215,1,0,0:0:0:0:
256,192,50408,1,0,0:0:0:0:
256,192,50600,1,12,0:0:0:0:
256,192,50985,1,0,0:0:0:0:
256,192,51177,1,0,0:0:0:0:
256,192,51369,1,12,0:0:0:0:
256,192,51754,1,4,0:0:0:0:
256,192,52042,1,12,0:0:0:0:
256,192,52331,1,0,0:0:0:0:
256,192,52427,1,0,0:0:0:0:
256,192,52523,1,0,0:0:0:0:
256,192,52715,1,0,0:0:0:0:
256,192,52908,1,8,0:0:0:0:
256,192,53292,1,4,0:0:0:0:
256,192,53677,1,8,0:0:0:0:
256,192,54061,1,8,0:0:0:0:
256,192,54254,1,8,0:0:0:0:
256,192,54446,1,0,0:0:0:0:
256,192,54638,1,8,0:0:0:0:
256,192,54831,1,0,0:0:0:0:
256,192,55119,1,12,0:0:0:0:
256,192,55600,1,0,0:0:0:0:
256,192,55888,1,12,0:0:0:0:
256,192,56369,1,12,0:0:0:0:
256,192,56658,1,12,0:0:0:0:
256,192,56946,1,12,0:0:0:0:
256,192,57138,1,4,0:0:0:0:
256,192,57908,1,4,0:0:0:0:
160,224,58292,1,8,0:0:0:0:
256,192,58485,1,0,0:0:0:0:
160,224,58677,1,8,0:0:0:0:
256,192,58869,1,0,0:0:0:0:
192,192,58965,1,0,0:0:0:0:
256,192,59061,1,0,0:0:0:0:
256,192,59254,1,0,0:0:0:0:
256,192,59446,1,8,0:0:0:0:
256,192,59831,1,12,0:0:0:0:
256,192,60215,1,0,0:0:0:0:
256,192,60408,1,8,0:0:0:0:
256,192,60600,1,8,0:0:0:0:
256,192,60792,1,0,0:0:0:0:
256,192,60985,1,8,0:0:0:0:
256,192,61369,1,0,0:0:0:0:
256,192,61754,1,8,0:0:0:0:
256,192,62138,1,0,0:0:0:0:
256,224,62331,1,0,0:0:0:0:
256,192,62523,1,8,0:0:0:0:
256,192,62908,1,0,0:0:0:0:
160,192,63100,1,8,0:0:0:0:
256,192,63292,1,8,0:0:0:0:
256,192,63388,1,8,0:0:0:0:
256,192,63485,1,8,0:0:0:0:
256,192,63677,1,0,0:0:0:0:
256,192,64061,1,4,0:0:0:0:
256,192,64446,1,0,0:0:0:0:
256,192,64638,1,8,0:0:0:0:
256,192,64831,1,0,0:0:0:0:
256,192,65023,1,0,0:0:0:0:
256,192,65215,1,0,0:0:0:0:
224,192,65311,1,0,0:0:0:0:
256,192,65408,1,0,0:0:0:0:
256,192,65600,1,8,0:0:0:0:
256,192,65985,1,8,0:0:0:0:
256,192,66177,1,0,0:0:0:0:
256,192,66561,1,8,0:0:0:0:
256,192,67138,1,4,0:0:0:0:
256,192,67523,1,0,0:0:0:0:
256,192,67715,1,8,0:0:0:0:
256,192,68100,1,0,0:0:0:0:
256,192,68293,1,0,0:0:0:0:
256,192,68485,12,0,69831,0:0:0:0:
256,192,70215,5,4,0:0:0:0:
256,192,70600,1,8,0:0:0:0:
256,192,70792,1,0,0:0:0:0:
256,192,70985,1,8,0:0:0:0:
256,192,71177,1,0,0:0:0:0:
128,192,71273,1,0,0:0:0:0:
256,192,71369,1,0,0:0:0:0:
256,192,71561,1,0,0:0:0:0:
256,192,71754,1,8,0:0:0:0:
256,192,72138,1,12,0:0:0:0:
256,192,72523,1,0,0:0:0:0:
256,192,72715,1,8,0:0:0:0:
256,192,72907,1,8,0:0:0:0:
256,192,73099,1,0,0:0:0:0:
256,192,73292,1,8,0:0:0:0:
256,192,73676,1,8,0:0:0:0:
256,192,74061,1,0,0:0:0:0:
256,192,74446,1,8,0:0:0:0:
256,192,74638,1,0,0:0:0:0:
256,192,74831,1,8,0:0:0:0:
256,192,75215,1,0,0:0:0:0:
256,192,75408,1,8,0:0:0:0:
256,192,75600,1,0,0:0:0:0:
256,192,75985,1,0,0:0:0:0:
256,192,76369,1,12,0:0:0:0:
256,192,77138,1,0,0:0:0:0:
256,192,77331,1,8,0:0:0:0:
256,192,77523,1,0,0:0:0:0:
256,192,77716,1,0,0:0:0:0:
256,192,77908,1,8,0:0:0:0:
256,192,78292,1,8,0:0:0:0:
256,192,78677,1,0,0:0:0:0:
128,192,78869,1,0,0:0:0:0:
256,192,79061,1,8,0:0:0:0:
256,192,79446,1,4,0:0:0:0:
144,224,79831,1,8,0:0:0:0:
256,192,80023,1,0,0:0:0:0:
224,192,80216,1,0,0:0:0:0:
256,192,80408,1,8,0:0:0:0:
256,192,80600,1,0,0:0:0:0:
256,192,80792,1,12,0:0:0:0:
256,192,81177,1,0,0:0:0:0:
256,192,81369,1,8,0:0:0:0:
256,192,81561,1,12,0:0:0:0:
256,192,82138,1,8,0:0:0:0:
256,192,82523,1,4,0:0:0:0:
288,192,82908,1,0,0:0:0:0:
288,192,83100,1,8,0:0:0:0:
256,192,83485,1,8,0:0:0:0:
256,192,83677,1,0,0:0:0:0:
256,192,83869,1,0,0:0:0:0:
256,192,84061,1,8,0:0:0:0:
256,192,84446,1,8,0:0:0:0:
256,192,84831,1,0,0:0:0:0:
256,192,85023,1,8,0:0:0:0:
256,192,85215,1,0,0:0:0:0:
256,192,85600,1,4,0:0:0:0:
256,192,86177,1,12,0:0:0:0:
256,192,86369,1,12,0:0:0:0:
256,192,86754,1,4,0:0:0:0:
256,192,86946,1,4,0:0:0:0:
256,192,87138,12,0,88677,0:0:0:0:
