osu file format v14

[General]
AudioFilename: audio.mp3
AudioLeadIn: 0
PreviewTime: 57715
Countdown: 0
SampleSet: Normal
StackLeniency: 0.7
Mode: 1
LetterboxInBreaks: 0
WidescreenStoryboard: 0

[Editor]
DistanceSpacing: 1.8
BeatDivisor: 4
GridSize: 32
TimelineZoom: 1.6

[Metadata]
Title:Hey! Calorie Queen
TitleUnicode:Hey!カロリーQueen
Artist:Ayana Taketatsu
ArtistUnicode:竹達彩奈
Creator:Etsu
Version:Skylish's Oni
Source:だがしかし
Tags:j-pop ending tv size dagashi kashi rew0825 skylish
BeatmapID:1331655
BeatmapSetID:459442

[Difficulty]
HPDrainRate:6
CircleSize:4
OverallDifficulty:5
ApproachRate:9
SliderMultiplier:1.4
SliderTickRate:1

[Events]
//Background and Video events
0,0,"BG.jpg",0,0
//Break Periods
//Storyboard Layer 0 (Background)
//Storyboard Layer 1 (Fail)
//Storyboard Layer 2 (Pass)
//Storyboard Layer 3 (Foreground)
//Storyboard Sound Samples

[TimingPoints]
985,384.615384615385,4,1,0,75,1,0
7138,-100,4,1,0,80,0,1
19446,-100,4,1,0,75,0,0
57908,-100,4,1,0,80,0,1
82523,-100,4,1,0,75,0,0

[HitObjects]
192,192,985,5,4,0:0:0:0:
224,160,2523,1,4,0:0:0:0:
224,160,3292,1,12,0:0:0:0:
224,160,4061,1,4,0:0:0:0:
224,160,4638,1,12,0:0:0:0:
224,160,5023,1,0,0:0:0:0:
224,160,5215,1,12,0:0:0:0:
192,128,5600,1,8,0:0:0:0:
192,128,5985,1,8,0:0:0:0:
192,128,6177,1,0,0:0:0:0:
192,128,6369,1,8,0:0:0:0:
192,128,6465,1,8,0:0:0:0:
192,128,6561,1,0,0:0:0:0:
192,128,6658,1,0,0:0:0:0:
192,128,6754,1,8,0:0:0:0:
192,128,6850,1,8,0:0:0:0:
192,128,6946,1,0,0:0:0:0:
192,128,7138,5,12,0:0:0:0:
192,160,7331,1,0,0:0:0:0:
192,160,7523,1,8,0:0:0:0:
192,160,7715,1,0,0:0:0:0:
192,160,7908,1,8,0:0:0:0:
192,160,8004,1,8,0:0:0:0:
192,160,8100,1,0,0:0:0:0:
192,160,8292,1,8,0:0:0:0:
192,128,8485,1,0,0:0:0:0:
192,128,8677,1,8,0:0:0:0:
192,128,8869,1,0,0:0:0:0:
192,128,9061,1,0,0:0:0:0:
192,128,9158,1,0,0:0:0:0:
192,128,9254,1,8,0:0:0:0:
192,160,9446,1,0,0:0:0:0:
192,160,9638,1,8,0:0:0:0:
192,160,9831,1,8,0:0:0:0:
192,160,10023,1,0,0:0:0:0:
192,160,10408,5,8,0:0:0:0:
192,160,10600,1,8,0:0:0:0:
192,160,10792,1,0,0:0:0:0:
192,160,10985,1,8,0:0:0:0:
192,160,11081,1,8,0:0:0:0:
192,160,11177,1,0,0:0:0:0:
192,160,11369,1,8,0:0:0:0:
192,160,11561,1,0,0:0:0:0:
192,160,11754,1,8,0:0:0:0:
192,160,11946,1,0,0:0:0:0:
192,160,12138,1,0,0:0:0:0:
192,160,12235,1,0,0:0:0:0:
192,160,12331,1,8,0:0:0:0:
192,160,12523,1,8,0:0:0:0:
192,160,12715,1,0,0:0:0:0:
192,160,12908,1,8,0:0:0:0:
192,160,13100,1,8,0:0:0:0:
192,160,13485,5,8,0:0:0:0:
192,160,13677,1,8,0:0:0:0:
192,160,13869,1,0,0:0:0:0:
192,160,14061,1,8,0:0:0:0:
192,160,14158,1,8,0:0:0:0:
192,160,14254,1,0,0:0:0:0:
192,160,14446,1,8,0:0:0:0:
192,160,14638,1,0,0:0:0:0:
224,160,14831,1,8,0:0:0:0:
224,160,15023,1,0,0:0:0:0:
224,160,15215,1,8,0:0:0:0:
224,160,15311,1,0,0:0:0:0:
224,160,15408,1,8,0:0:0:0:
224,160,15600,1,8,0:0:0:0:
224,160,15792,1,0,0:0:0:0:
192,160,15888,1,0,0:0:0:0:
224,160,15985,1,8,0:0:0:0:
224,160,16177,1,8,0:0:0:0:
224,160,16369,1,0,0:0:0:0:
192,160,16754,1,8,0:0:0:0:
192,160,17138,1,0,0:0:0:0:
224,160,17331,1,0,0:0:0:0:
192,160,17523,1,8,0:0:0:0:
224,160,17908,1,4,0:0:0:0:
224,160,18292,1,12,0:0:0:0:
224,160,18677,1,4,0:0:0:0:
224,160,18965,1,0,0:0:0:0:
224,160,19061,1,8,0:0:0:0:
224,160,19254,1,8,0:0:0:0:
224,160,19446,5,4,0:0:0:0:
224,160,19831,1,8,0:0:0:0:
192,160,20215,1,0,0:0:0:0:
192,160,20408,1,0,0:0:0:0:
192,160,20600,1,8,0:0:0:0:
192,160,20792,1,0,0:0:0:0:
192,160,20888,1,0,0:0:0:0:
192,160,20985,1,8,0:0:0:0:
192,128,21369,1,0,0:0:0:0:
160,128,21754,1,8,0:0:0:0:
192,128,21946,1,0,0:0:0:0:
192,128,22138,1,8,0:0:0:0:
192,128,22331,1,8,0:0:0:0:
192,128,22523,5,0,0:0:0:0:
192,128,22908,1,8,0:0:0:0:
192,160,23292,1,8,0:0:0:0:
192,160,23485,1,0,0:0:0:0:
192,160,23677,1,8,0:0:0:0:
192,160,23869,1,8,0:0:0:0:
192,160,23965,1,8,0:0:0:0:
192,160,24061,1,0,0:0:0:0:
192,160,24446,1,8,0:0:0:0:
224,160,24831,1,0,0:0:0:0:
224,160,25023,1,0,0:0:0:0:
224,160,25215,1,8,0:0:0:0:
192,160,25408,1,8,0:0:0:0:
192,160,25600,5,4,0:0:0:0:
192,128,25985,1,8,0:0:0:0:
192,128,26177,1,0,0:0:0:0:
192,128,26369,1,8,0:0:0:0:
192,96,26754,1,0,0:0:0:0:
192,128,26946,1,0,0:0:0:0:
192,128,27042,1,0,0:0:0:0:
192,96,27138,1,8,0:0:0:0:
192,128,27523,1,0,0:0:0:0:
192,128,27715,1,8,0:0:0:0:
192,128,27811,1,8,0:0:0:0:
192,128,27908,1,0,0:0:0:0:
192,128,28100,1,8,0:0:0:0:
192,64,28292,1,0,0:0:0:0:
192,64,28485,1,8,0:0:0:0:
192,128,28677,5,8,0:0:0:0:
192,160,29061,1,0,0:0:0:0:
192,160,29446,1,0,0:0:0:0:
192,160,29831,1,8,0:0:0:0:
192,160,29927,1,0,0:0:0:0:
192,160,30023,1,8,0:0:0:0:
192,160,30215,5,4,0:0:0:0:
192,160,30600,1,12,0:0:0:0:
192,160,30985,1,4,0:0:0:0:
192,160,31177,1,0,0:0:0:0:
192,160,31273,1,0,0:0:0:0:
192,160,31369,1,8,0:0:0:0:
192,160,31561,1,8,0:0:0:0:
224,160,31754,5,4,0:0:0:0:
224,160,32139,1,8,0:0:0:0:
192,160,32523,1,0,0:0:0:0:
192,160,32716,1,0,0:0:0:0:
192,160,32908,1,8,0:0:0:0:
192,160,33100,1,0,0:0:0:0:
192,160,33196,1,0,0:0:0:0:
192,160,33293,1,8,0:0:0:0:
192,128,33677,1,0,0:0:0:0:
160,128,34062,1,8,0:0:0:0:
192,128,34254,1,0,0:0:0:0:
192,128,34446,1,8,0:0:0:0:
192,128,34639,1,8,0:0:0:0:
192,128,34831,5,0,0:0:0:0:
192,128,35216,1,8,0:0:0:0:
192,160,35600,1,8,0:0:0:0:
192,160,35793,1,0,0:0:0:0:
192,160,35985,1,8,0:0:0:0:
192,160,36177,1,8,0:0:0:0:
192,160,36273,1,8,0:0:0:0:
192,160,36369,1,0,0:0:0:0:
192,160,36754,1,8,0:0:0:0:
224,160,37139,1,0,0:0:0:0:
224,160,37331,1,0,0:0:0:0:
224,160,37523,1,8,0:0:0:0:
192,160,37716,1,8,0:0:0:0:
192,160,37908,5,4,0:0:0:0:
192,128,38293,1,8,0:0:0:0:
192,128,38485,1,0,0:0:0:0:
192,128,38677,1,8,0:0:0:0:
192,96,39061,1,8,0:0:0:0:
192,128,39254,1,0,0:0:0:0:
192,128,39350,1,0,0:0:0:0:
192,96,39446,1,8,0:0:0:0:
192,128,39831,1,8,0:0:0:0:
192,128,40023,1,8,0:0:0:0:
192,128,40119,1,8,0:0:0:0:
192,128,40216,1,0,0:0:0:0:
192,128,40408,1,0,0:0:0:0:
192,64,40600,1,8,0:0:0:0:
192,64,40793,1,0,0:0:0:0:
192,128,40985,5,8,0:0:0:0:
192,128,41369,1,0,0:0:0:0:
192,128,41754,1,8,0:0:0:0:
224,160,41946,1,0,0:0:0:0:
192,128,42138,1,8,0:0:0:0:
192,128,42523,5,4,0:0:0:0:
192,128,42908,1,0,0:0:0:0:
192,128,43100,1,12,0:0:0:0:
224,128,43485,1,0,0:0:0:0:
224,128,43677,1,8,0:0:0:0:
224,128,43773,1,8,0:0:0:0:
224,128,43869,1,8,0:0:0:0:
224,128,44061,5,4,0:0:0:0:
224,96,44446,1,8,0:0:0:0:
224,96,44638,1,0,0:0:0:0:
224,96,44831,1,8,0:0:0:0:
224,96,45023,1,0,0:0:0:0:
224,96,45215,1,8,0:0:0:0:
224,96,45408,1,8,0:0:0:0:
224,128,45600,1,4,0:0:0:0:
224,128,45792,1,0,0:0:0:0:
224,128,45888,1,0,0:0:0:0:
224,128,45985,1,8,0:0:0:0:
224,128,46177,1,12,0:0:0:0:
224,96,46561,1,0,0:0:0:0:
160,128,46754,1,8,0:0:0:0:
160,128,46946,1,8,0:0:0:0:
160,128,47138,5,4,0:0:0:0:
192,160,47523,1,8,0:0:0:0:
192,160,47715,1,0,0:0:0:0:
192,160,48100,1,8,0:0:0:0:
192,160,48292,1,8,0:0:0:0:
192,160,48485,1,0,0:0:0:0:
192,160,48677,1,12,0:0:0:0:
192,160,48869,1,0,0:0:0:0:
192,160,48965,1,0,0:0:0:0:
192,160,49061,1,8,0:0:0:0:
192,160,49254,1,8,0:0:0:0:
192,160,49350,1,0,0:0:0:0:
192,160,49446,1,8,0:0:0:0:
160,128,49638,1,0,0:0:0:0:
192,160,49831,1,8,0:0:0:0:
192,160,50215,5,0,0:0:0:0:
192,160,50408,1,0,0:0:0:0:
192,160,50600,1,12,0:0:0:0:
192,160,50985,1,0,0:0:0:0:
192,160,51177,1,0,0:0:0:0:
192,160,51369,1,12,0:0:0:0:
192,160,51754,1,4,0:0:0:0:
192,160,52042,1,12,0:0:0:0:
192,192,52331,1,8,0:0:0:0:
192,192,52427,1,0,0:0:0:0:
192,192,52523,1,8,0:0:0:0:
192,160,52715,1,0,0:0:0:0:
192,160,52811,1,0,0:0:0:0:
192,160,52908,1,8,0:0:0:0:
192,160,53100,1,8,0:0:0:0:
192,160,53292,5,4,0:0:0:0:
192,128,53677,1,8,0:0:0:0:
192,160,54061,1,0,0:0:0:0:
192,160,54254,1,0,0:0:0:0:
192,128,54350,1,0,0:0:0:0:
192,160,54446,1,8,0:0:0:0:
192,160,54638,1,8,0:0:0:0:
192,160,54831,5,4,0:0:0:0:
192,160,55119,1,12,0:0:0:0:
192,160,55600,5,4,0:0:0:0:
192,160,55888,1,12,0:0:0:0:
192,128,56177,1,0,0:0:0:0:
192,128,56369,5,12,0:0:0:0:
192,128,56658,1,12,0:0:0:0:
192,160,56946,1,12,0:0:0:0:
192,160,57138,1,4,0:0:0:0:
192,160,57331,1,8,0:0:0:0:
192,160,57523,1,8,0:0:0:0:
192,160,57619,1,8,0:0:0:0:
192,160,57715,1,0,0:0:0:0:
192,128,57908,5,12,0:0:0:0:
192,160,58196,1,0,0:0:0:0:
192,160,58292,1,8,0:0:0:0:
192,160,58485,1,0,0:0:0:0:
192,160,58677,1,8,0:0:0:0:
192,160,58869,1,8,0:0:0:0:
192,160,58965,1,8,0:0:0:0:
192,160,59061,1,0,0:0:0:0:
192,160,59254,1,0,0:0:0:0:
192,160,59446,1,8,0:0:0:0:
224,160,59735,1,0,0:0:0:0:
224,160,59831,1,8,0:0:0:0:
192,160,60023,1,0,0:0:0:0:
192,160,60215,1,8,0:0:0:0:
192,128,60311,1,0,0:0:0:0:
192,160,60408,1,8,0:0:0:0:
192,160,60600,1,8,0:0:0:0:
192,160,60792,1,0,0:0:0:0:
192,160,60985,5,8,0:0:0:0:
192,160,61369,1,0,0:0:0:0:
192,160,61754,1,8,0:0:0:0:
192,160,61946,1,0,0:0:0:0:
192,192,62042,1,0,0:0:0:0:
192,160,62138,1,8,0:0:0:0:
192,192,62331,1,0,0:0:0:0:
192,192,62523,1,8,0:0:0:0:
224,192,62811,1,8,0:0:0:0:
224,192,62908,1,0,0:0:0:0:
192,160,63100,1,8,0:0:0:0:
192,160,63292,1,8,0:0:0:0:
192,160,63388,1,0,0:0:0:0:
192,160,63485,1,8,0:0:0:0:
192,160,63677,1,8,0:0:0:0:
192,160,63773,1,8,0:0:0:0:
192,160,63869,1,0,0:0:0:0:
192,160,64061,5,12,0:0:0:0:
192,160,64254,1,0,0:0:0:0:
192,160,64350,1,0,0:0:0:0:
192,160,64446,1,8,0:0:0:0:
192,160,64638,1,0,0:0:0:0:
192,160,64831,1,8,0:0:0:0:
192,160,65023,1,0,0:0:0:0:
192,160,65215,1,8,0:0:0:0:
192,160,65311,1,8,0:0:0:0:
192,160,65408,1,0,0:0:0:0:
192,192,65600,1,8,0:0:0:0:
224,192,65888,1,0,0:0:0:0:
192,160,65985,1,8,0:0:0:0:
224,160,66177,1,0,0:0:0:0:
192,160,66369,1,8,0:0:0:0:
192,160,66465,1,0,0:0:0:0:
192,192,66561,1,0,0:0:0:0:
192,160,66754,1,8,0:0:0:0:
192,160,67138,5,4,0:0:0:0:
224,192,67427,1,0,0:0:0:0:
224,192,67523,1,8,0:0:0:0:
224,192,67715,1,8,0:0:0:0:
224,160,67908,1,0,0:0:0:0:
224,160,68004,1,0,0:0:0:0:
224,160,68100,1,8,0:0:0:0:
224,160,68292,1,0,0:0:0:0:
224,160,68485,1,8,0:0:0:0:
192,128,68869,1,0,0:0:0:0:
192,160,69061,1,8,0:0:0:0:
192,128,69158,1,0,0:0:0:0:
192,128,69350,1,12,0:0:0:0:
192,128,69638,1,0,0:0:0:0:
192,128,69831,1,12,0:0:0:0:
192,128,70023,1,0,0:0:0:0:
192,128,70215,5,12,0:0:0:0:
192,160,70503,1,0,0:0:0:0:
192,160,70599,1,8,0:0:0:0:
192,160,70792,1,0,0:0:0:0:
192,160,70984,1,8,0:0:0:0:
192,160,71176,1,8,0:0:0:0:
192,160,71272,1,0,0:0:0:0:
192,160,71368,1,8,0:0:0:0:
192,160,71561,1,0,0:0:0:0:
192,160,71753,1,8,0:0:0:0:
224,160,72042,1,0,0:0:0:0:
224,160,72138,1,8,0:0:0:0:
192,160,72330,1,0,0:0:0:0:
192,160,72522,1,8,0:0:0:0:
192,128,72618,1,8,0:0:0:0:
192,160,72715,1,0,0:0:0:0:
192,160,72907,1,8,0:0:0:0:
192,160,73099,1,0,0:0:0:0:
192,160,73292,5,8,0:0:0:0:
192,160,73676,1,0,0:0:0:0:
192,160,74061,1,8,0:0:0:0:
192,160,74253,1,0,0:0:0:0:
192,192,74349,1,0,0:0:0:0:
192,160,74445,1,8,0:0:0:0:
192,192,74638,1,0,0:0:0:0:
192,192,74830,1,8,0:0:0:0:
224,192,75118,1,8,0:0:0:0:
224,192,75215,1,0,0:0:0:0:
192,160,75407,1,8,0:0:0:0:
192,160,75599,1,8,0:0:0:0:
192,160,75695,1,8,0:0:0:0:
192,160,75792,1,0,0:0:0:0:
192,160,75984,1,8,0:0:0:0:
192,160,76080,1,0,0:0:0:0:
192,160,76176,1,8,0:0:0:0:
192,160,76368,5,12,0:0:0:0:
192,160,76561,1,0,0:0:0:0:
192,160,76657,1,0,0:0:0:0:
192,160,76753,1,8,0:0:0:0:
192,160,76945,1,0,0:0:0:0:
192,160,77138,1,8,0:0:0:0:
192,160,77330,1,0,0:0:0:0:
192,160,77522,1,8,0:0:0:0:
192,160,77618,1,8,0:0:0:0:
192,160,77715,1,0,0:0:0:0:
192,192,77907,1,8,0:0:0:0:
224,192,78195,1,8,0:0:0:0:
192,160,78292,1,0,0:0:0:0:
224,160,78484,1,8,0:0:0:0:
192,160,78676,1,8,0:0:0:0:
192,160,78772,1,0,0:0:0:0:
192,192,78868,1,0,0:0:0:0:
192,160,79061,1,8,0:0:0:0:
192,160,79445,5,4,0:0:0:0:
224,192,79734,1,0,0:0:0:0:
224,192,79830,1,8,0:0:0:0:
224,192,80022,1,8,0:0:0:0:
224,160,80215,1,0,0:0:0:0:
224,160,80311,1,0,0:0:0:0:
224,160,80407,1,8,0:0:0:0:
224,160,80599,1,0,0:0:0:0:
224,160,80792,1,12,0:0:0:0:
192,128,81177,1,0,0:0:0:0:
192,128,81369,1,8,0:0:0:0:
192,128,81561,1,12,0:0:0:0:
192,128,81945,1,0,0:0:0:0:
192,128,82138,1,8,0:0:0:0:
192,128,82235,1,8,0:0:0:0:
192,128,82330,1,0,0:0:0:0:
192,128,82522,5,12,0:0:0:0:
192,128,82811,1,0,0:0:0:0:
192,128,82908,1,8,0:0:0:0:
192,128,83100,1,0,0:0:0:0:
192,128,83292,1,8,0:0:0:0:
192,128,83485,1,0,0:0:0:0:
192,128,83581,1,0,0:0:0:0:
192,128,83677,1,8,0:0:0:0:
192,160,83869,1,0,0:0:0:0:
192,160,84061,1,8,0:0:0:0:
352,256,84350,1,8,0:0:0:0:
192,160,84446,1,0,0:0:0:0:
288,224,84638,1,0,0:0:0:0:
192,160,84831,1,8,0:0:0:0:
256,192,84927,1,8,0:0:0:0:
192,160,85023,1,0,0:0:0:0:
192,160,85215,1,8,0:0:0:0:
192,160,85600,5,4,0:0:0:0:
192,160,86177,1,4,0:0:0:0:
192,160,86369,1,12,0:0:0:0:
192,128,86754,1,4,0:0:0:0:
192,128,86946,1,4,0:0:0:0:
256,192,87138,12,0,88677,0:0:0:0:
