osu file format v14

[General]
AudioFilename: Hey! Calorie Queen.mp3
AudioLeadIn: 0
PreviewTime: 57918
Countdown: 0
SampleSet: Soft
StackLeniency: 0.9
Mode: 0
LetterboxInBreaks: 1
WidescreenStoryboard: 1

[Editor]
DistanceSpacing: 1
BeatDivisor: 4
GridSize: 4
TimelineZoom: 1

[Metadata]
Title:Hey! Calorie Queen
TitleUnicode:Hey! カロリーQueen
Artist:Ayana Taketatsu
ArtistUnicode:竹達 彩奈
Creator:Cris_1
Version:Hard
Source:だがしかし
Tags:Dagashi Kashi Ending TV Size Kushigimitame Shiguma
BeatmapID:879048
BeatmapSetID:402955

[Difficulty]
HPDrainRate:5.5
CircleSize:4
OverallDifficulty:6
ApproachRate:7.5
SliderMultiplier:1.4
SliderTickRate:1

[Events]
//Background and Video events
0,0,"Background.jpg",0,0
Video,0,"dagashi.avi"
//Break Periods
//Storyboard Layer 0 (Background)
//Storyboard Layer 1 (Fail)
//Storyboard Layer 2 (Pass)
//Storyboard Layer 3 (Foreground)
//Storyboard Sound Samples

[TimingPoints]
599,384.615384615385,4,2,1,50,1,0
983,384.615384615385,4,2,1,50,1,0
7148,-100,4,2,1,50,0,1
19456,-100,4,2,1,30,0,0
19648,-125,4,2,1,30,0,0
30610,-90.9090909090909,4,2,1,65,0,0
31956,-125,4,2,1,40,0,0
43495,-111.111111111111,4,2,1,50,0,0
45610,-90.9090909090909,4,2,1,50,0,0
46571,-111.111111111111,4,2,1,50,0,0
50033,-125,4,2,1,55,0,0
50802,-111.111111111111,4,2,1,60,0,0
51571,-100,4,2,1,65,0,0
53110,-100,4,2,1,65,0,0
54841,-111.111111111111,4,2,1,65,0,0
55610,-100,4,2,1,65,0,0
56379,-90.9090909090909,4,2,1,65,0,0
57917,-100,4,2,1,75,0,1
88686,-100,4,2,1,5,0,0

[HitObjects]
400,140,970,5,0,0:0:0:0:
400,140,1944,5,0,0:0:0:0:
436,184,2136,2,0,P|452:228|424:256,1,70
400,276,2521,1,0,0:0:0:0:
304,232,2905,2,0,P|240:256|168:232,2,140
280,148,4059,5,0,0:0:0:0:
256,192,4444,12,0,6751,0:0:0:0:
300,144,7136,6,0,P|304:108|344:80,1,70
376,80,7521,2,0,L|444:128,1,70
408,164,7905,2,0,P|392:216|360:240,1,70
348,236,8290,6,0,L|276:224,1,70
236,200,8674,1,0,0:0:0:0:
208,156,8867,1,0,0:0:0:0:
212,108,9059,2,0,L|268:52,1,70
304,64,9444,2,0,L|388:36,3,70
472,192,10405,5,0,0:0:0:0:
420,256,10598,1,0,0:0:0:0:
348,224,10789,1,0,0:0:0:0:
348,224,10981,2,0,P|348:136|316:100,1,140
248,44,11559,1,0,0:0:0:0:
192,124,11751,6,0,L|128:172,1,70
220,216,12136,1,0,0:0:0:0:
220,216,12328,1,0,0:0:0:0:
280,280,12521,1,0,0:0:0:0:
280,280,12713,1,0,0:0:0:0:
332,216,12905,2,0,B|372:184|372:184|420:228|480:184,1,140
424,124,13482,5,0,0:0:0:0:
368,64,13674,1,0,0:0:0:0:
312,124,13867,2,0,L|240:124,2,70
280,208,14444,1,0,0:0:0:0:
280,208,14636,1,0,0:0:0:0:
348,264,14828,1,0,0:0:0:0:
348,264,15021,1,0,0:0:0:0:
416,208,15213,2,0,B|448:176|448:176|428:152|428:152|448:128|448:128|448:92,2,140
280,208,16367,6,0,B|280:141|280:141|142:141|141:277|224:277,1,280
280,296,17521,1,0,0:0:0:0:
364,256,17905,1,0,0:0:0:0:
364,256,18290,1,0,0:0:0:0:
444,204,18674,1,0,0:0:0:0:
432,120,19443,6,0,P|348:68|260:120,1,210
260,176,20213,1,0,0:0:0:0:
264,232,20404,2,0,L|208:260,2,56
296,276,20981,2,0,P|368:260|412:264,1,112
364,160,21751,5,0,0:0:0:0:
256,192,22136,1,0,0:0:0:0:
144,180,22521,1,0,0:0:0:0:
116,228,22713,6,0,L|160:284,1,56
204,288,23097,2,0,L|248:232,2,56
248,324,23674,2,0,L|316:300,2,56
264,212,24444,5,0,0:0:0:0:
400,112,25021,2,0,L|324:92,1,56
316,52,25404,2,0,L|248:88,1,56
256,192,25982,6,0,P|200:200|148:160,1,112
108,192,26559,2,0,L|36:168,2,56
144,236,27136,1,0,0:0:0:0:
256,192,27521,1,0,0:0:0:0:
292,228,27713,2,0,P|340:276|256:312,1,168
224,324,28482,5,0,0:0:0:0:
176,348,28674,1,0,0:0:0:0:
104,288,29059,1,0,0:0:0:0:
152,216,29443,2,0,B|152:144|152:144|196:104,1,112
296,120,30213,5,0,0:0:0:0:
384,56,30598,2,0,P|464:56|464:136,1,154.000004699707
456,196,31367,2,0,B|436:272|436:272|368:316,1,154.000004699707
320,300,31944,5,0,0:0:0:0:
296,220,32136,1,0,0:0:0:0:
216,196,32328,1,0,0:0:0:0:
188,272,32521,2,0,B|120:308,1,56
92,272,32905,1,0,0:0:0:0:
116,192,33098,1,0,0:0:0:0:
44,156,33290,1,0,0:0:0:0:
112,100,33674,5,0,0:0:0:0:
256,112,34059,2,0,B|256:152|208:184|240:244,2,112
312,52,35020,1,0,0:0:0:0:
388,76,35212,2,0,P|420:64|464:52,2,56
440,144,35789,1,0,0:0:0:0:
392,212,35982,2,0,L|456:236,2,56
256,192,36751,1,0,0:0:0:0:
96,304,37328,5,0,0:0:0:0:
56,264,37521,2,0,P|56:228|76:204,1,56
44,160,37905,1,0,0:0:0:0:
216,44,38867,5,0,0:0:0:0:
248,92,39059,2,0,P|248:132|264:156,1,56
300,176,39444,1,0,0:0:0:0:
452,236,40405,6,0,L|400:276,2,56
432,180,40982,1,0,0:0:0:0:
380,96,41367,1,0,0:0:0:0:
296,140,41751,1,0,0:0:0:0:
232,220,42136,1,0,0:0:0:0:
360,220,42521,2,0,P|424:220|424:276,1,112
472,296,43098,1,0,0:0:0:0:
416,112,43482,6,0,L|488:144,2,62.9999980773926
380,68,44059,1,0,0:0:0:0:
208,152,44636,5,0,0:0:0:0:
188,196,44828,2,0,P|120:196|120:296,1,188.999994232178
144,336,45597,2,0,P|216:324|304:340,1,154.000004699707
336,320,46173,1,0,0:0:0:0:
432,168,46559,6,0,L|472:224,2,62.9999980773926
368,88,47136,1,0,0:0:0:0:
280,176,47520,2,0,L|232:116,1,62.9999980773926
216,92,47905,2,0,P|152:136|152:188,1,125.999996154785
168,232,48482,1,0,0:0:0:0:
200,272,48674,2,0,B|256:276|256:276|280:244|280:244|336:224,1,125.999996154785
344,204,49250,2,0,P|388:204|344:288,1,188.999994232178
308,296,50020,6,0,L|264:348,2,56
432,320,50790,1,0,0:0:0:0:
472,248,50982,1,0,0:0:0:0:
432,176,51174,1,0,0:0:0:0:
336,88,51559,6,0,L|248:88,1,70
232,176,52040,1,0,0:0:0:0:
168,240,52327,2,0,L|72:240,1,70
180,120,53098,5,0,0:0:0:0:
180,120,53290,2,0,P|156:56|88:56,1,140
96,212,54059,2,0,L|12:260,2,70
192,44,54828,5,0,0:0:0:0:
248,104,55117,1,0,0:0:0:0:
192,44,55598,1,0,0:0:0:0:
248,104,55886,1,0,0:0:0:0:
316,268,56367,5,0,0:0:0:0:
352,184,56655,2,0,P|412:124|448:124,1,115.50000352478
472,156,57136,1,0,0:0:0:0:
224,44,57904,6,0,B|176:52|176:52|140:44|140:44|120:72|120:72|92:84|92:84|92:128|92:128|116:160,1,210
228,160,58866,2,0,L|208:232,2,70
208,128,59443,2,0,P|108:128|108:236,1,210
184,280,60405,6,0,L|120:328,2,70
216,248,60982,1,0,0:0:0:0:
240,84,61367,2,0,P|312:56|312:120,1,140
424,172,62136,1,0,0:0:0:0:
340,272,62520,6,0,P|292:320|220:320,1,140
256,220,63097,2,0,B|208:220|196:164|196:164|140:228|64:164|64:164|64:212,1,280
160,328,64251,6,0,L|232:344,2,70
116,316,64828,1,0,0:0:0:0:
92,276,65021,2,0,L|64:208,2,70
116,316,65598,1,0,0:0:0:0:
256,252,65982,2,0,B|304:304|304:304|400:220|312:116,1,280
72,72,67135,6,0,B|140:36|140:36|172:52|172:52|204:36|204:36|236:56|236:56|268:36|268:36|328:36|328:36,1,280
352,76,68097,2,0,L|436:72,2,70
336,124,68673,2,0,P|296:132|244:132,1,70
208,200,69058,1,0,0:0:0:0:
208,200,69154,1,0,0:0:0:0:
208,200,69250,2,0,B|260:232|308:232|308:232|332:264,1,140
372,264,69827,1,0,0:0:0:0:
100,96,70213,6,0,P|152:44|312:132,1,280
336,160,71173,2,0,L|416:152,2,70
320,200,71751,2,0,B|372:248|324:308|324:308|252:280|252:280|172:316,1,280
96,264,72713,6,0,L|32:224,2,70
128,236,73290,1,0,0:0:0:0:
168,128,73674,1,0,0:0:0:0:
224,276,74059,1,0,0:0:0:0:
264,168,74444,1,0,0:0:0:0:
320,248,74828,2,0,B|408:248|408:248|504:156|368:68,1,280
216,48,75982,5,0,0:0:0:0:
244,88,76174,1,0,0:0:0:0:
264,128,76367,2,0,B|200:176|200:176|160:136|160:136|84:184,1,210
64,320,77328,5,0,0:0:0:0:
64,320,77521,1,0,0:0:0:0:
64,320,77713,1,0,0:0:0:0:
64,320,77905,2,0,L|144:344,1,70
140,224,78290,5,0,0:0:0:0:
208,108,78674,1,0,0:0:0:0:
320,128,79059,1,0,0:0:0:0:
416,52,79444,6,0,P|472:104|440:160,1,140
424,192,80021,1,0,0:0:0:0:
392,228,80213,2,0,P|324:256|292:184,1,140
256,184,80790,2,0,P|192:136|144:176,1,140
128,204,81367,2,0,B|108:264|156:296|156:296|240:256|268:320,1,210
300,308,82136,5,0,0:0:0:0:
328,268,82328,1,0,0:0:0:0:
308,224,82521,2,0,B|380:164|380:164|428:224|516:136|424:76,1,280
388,64,83482,6,0,L|312:56,2,70
416,92,84059,1,0,0:0:0:0:
420,220,84444,1,0,0:0:0:0:
316,160,84828,1,0,0:0:0:0:
316,44,85213,1,0,0:0:0:0:
316,160,85598,1,0,0:0:0:0:
256,192,85981,12,0,88673,0:0:0:0:
