osu file format v14

[General]
AudioFilename: audio.mp3
AudioLeadIn: 0
PreviewTime: 30556
Countdown: 0
SampleSet: Soft
StackLeniency: 0.7
Mode: 0
LetterboxInBreaks: 0
WidescreenStoryboard: 0

[Editor]
DistanceSpacing: 0.7
BeatDivisor: 4
GridSize: 4
TimelineZoom: 1

[Metadata]
Title:Kaze no Tadoritsuku Basho - TV animation Ver. - (TV Size)
TitleUnicode:風の辿り着く場所 - TV animation Ver. - (TV Size)
Artist:Ayana
ArtistUnicode:彩菜
Creator:rosario wknd
Version:Insane
Source:Kanon
Tags:2006 remake anime japanese pop jpop j-pop visual novel key visualarts カノン 京都アニメーション Kyoto animation kyoani
BeatmapID:3281310
BeatmapSetID:1606952

[Difficulty]
HPDrainRate:5
CircleSize:4.3
OverallDifficulty:7
ApproachRate:8.7
SliderMultiplier:1.9
SliderTickRate:1

[Events]
//Background and Video events
0,0,"kanonbg2.jpg",0,0
Video,-250,"video.mp4"
//Break Periods
//Storyboard Layer 0 (Background)
//Storyboard Layer 1 (Fail)
//Storyboard Layer 2 (Pass)
//Storyboard Layer 3 (Foreground)
//Storyboard Layer 4 (Overlay)
//Storyboard Sound Samples

[TimingPoints]
1281,461.538461538462,4,2,1,50,1,0
14434,-83.3333333333333,4,2,1,60,0,0
14665,-71.4285714285714,4,2,1,60,0,0
15127,-66.6666666666667,4,2,1,60,0,0
15588,-71.4285714285714,4,2,1,60,0,0
16050,-83.3333333333333,4,2,1,65,0,0
30588,-71.4285714285714,4,2,1,80,0,0
58281,-83.3333333333333,4,2,1,70,0,0
60357,-66.6666666666667,4,2,1,85,0,1
73281,-62.5,4,2,1,85,0,1
75127,-66.6666666666667,4,2,1,85,0,1
88050,-71.4285714285714,4,2,1,60,0,0
88511,-83.3333333333333,4,2,1,40,0,0
88973,-71.4285714285714,4,2,1,30,0,0
89434,-71.4285714285714,4,2,1,20,0,0

[Colours]
Combo1 : 192,66,12
Combo2 : 255,146,36
Combo3 : 0,85,170
Combo4 : 255,255,0

[HitObjects]
350,0,1281,6,0,P|405:8|406:94,1,142.5,4|0,3:0|0:0,0:0:0:0:
397,111,1742,1,10,0:0:0:0:
342,159,1973,1,2,0:0:0:0:
413,328,2204,2,0,P|455:290|447:254,1,95,2|2,3:0|0:0,0:0:0:0:
268,268,2665,2,0,P|318:294|349:274,1,95,10|2,0:0|0:0,0:0:0:0:
169,356,3127,6,0,B|112:342|65:332|83:272,1,142.5,2|0,3:0|0:0,0:0:0:0:
107,253,3588,1,8,0:0:0:0:
58,196,3819,1,2,0:0:0:0:
58,196,3934,1,0,0:0:0:0:
58,196,4050,1,2,3:0:0:0:
182,219,4281,2,0,L|246:238,1,47.5,2|0,0:0|0:0,0:0:0:0:
280,281,4511,1,10,0:0:0:0:
169,102,4742,2,0,L|105:121,1,47.5,2|0,0:0|0:0,0:0:0:0:
33,53,4973,6,0,B|5:15|5:15|114:52,1,142.5,2|0,3:0|0:0,0:0:0:0:
129,25,5434,1,8,0:0:0:0:
253,147,5665,1,2,0:0:0:0:
253,147,5781,1,0,0:0:0:0:
253,147,5896,1,2,3:0:0:0:
181,170,6127,1,2,0:0:0:0:
256,38,6357,2,0,P|321:47|326:90,1,95,10|2,0:0|0:0,0:0:0:0:
444,175,6819,6,0,P|379:151|332:145,1,95,0|2,3:0|0:0,0:0:0:0:
325,163,7165,1,0,0:0:0:0:
325,163,7281,1,10,0:0:0:0:
403,59,7511,2,0,P|394:37|382:8,2,47.5,0|0|0,0:0|0:0|3:0,0:0:0:0:
217,166,7973,2,0,P|194:116|202:99,1,47.5,2|0,0:0|0:0,0:0:0:0:
216,59,8204,1,10,0:0:0:0:
325,163,8434,1,2,3:0:0:0:
213,318,8665,6,0,P|160:331|92:353,1,95,4|2,3:0|0:0,0:0:0:0:
99,317,9011,1,0,0:0:0:0:
99,317,9127,1,10,0:0:0:0:
145,259,9357,1,2,0:0:0:0:
300,344,9588,2,0,B|328:341|357:364|357:364|385:316|432:314,1,142.5,0|0,3:0|0:0,0:0:0:0:
443,293,10050,1,8,0:0:0:0:
398,231,10281,1,0,0:0:0:0:
468,124,10511,6,0,P|510:163|496:206,1,95,0|2,3:0|0:0,0:0:0:0:
438,48,10973,2,0,B|422:53|392:57|392:57|365:92|365:92|329:98|313:105,1,142.5,10|0,0:0|0:0,0:0:0:0:
283,98,11434,2,0,P|256:52|288:14,1,95,2|2,3:0|0:0,0:0:0:0:
314,185,11896,2,0,P|261:194|236:151,1,95,10|2,0:0|3:0,0:0:0:0:
144,32,12357,6,0,B|94:61|94:61|150:159,1,142.5,2|0,3:0|0:0,0:0:0:0:
142,167,12819,1,8,0:0:0:0:
64,265,13050,1,2,0:0:0:0:
64,265,13165,1,0,0:0:0:0:
64,265,13281,2,0,P|109:250|146:244,1,47.5,2|0,3:0|0:0,0:0:0:0:
163,297,13511,2,0,P|208:282|245:276,1,47.5,2|0,0:0|0:0,0:0:0:0:
262,206,13742,1,10,0:0:0:0:
308,201,13857,1,0,0:0:0:0:
342,232,13972,1,2,0:0:0:0:
345,278,14088,1,0,0:0:0:0:
313,311,14203,1,2,3:0:0:0:
170,204,14434,6,0,P|140:180|80:183,1,56.9999982604981,2|0,0:0|0:0,0:0:0:0:
77,114,14665,2,0,P|43:132|25:190,1,66.4999979705811,2|0,3:0|0:0,0:0:0:0:
20,223,14896,1,2,0:0:0:0:
226,122,15127,6,0,P|179:61|164:61,1,71.2500027179719,6|0,3:0|0:0,0:0:0:0:
123,50,15357,1,2,0:0:0:0:
250,221,15588,2,0,P|313:171|313:161,1,66.4999979705811,2|0,3:0|0:0,0:0:0:0:
381,193,15819,2,0,P|356:116|346:113,1,66.4999979705811,2|0,3:0|0:0,0:0:0:0:
268,0,16050,6,0,B|263:80|222:77|170:75|185:179,1,170.999994781494,6|0,3:0|0:0,0:0:0:0:
209,175,16511,1,10,0:0:0:0:
82,287,16742,1,2,0:0:0:0:
36,227,16973,2,0,P|56:165|102:166,1,113.999996520996,2|2,3:0|0:0,0:0:0:0:
118,185,17319,1,0,0:0:0:0:
118,185,17434,1,10,0:0:0:0:
220,288,17665,1,2,0:0:0:0:
327,218,17896,6,0,B|436:253|436:253|402:252|362:294,1,170.999994781494,2|0,3:0|0:0,0:0:0:0:
361,294,18357,1,8,0:0:0:0:
476,192,18588,1,2,0:0:0:0:
476,192,18704,1,0,0:0:0:0:
476,192,18819,1,2,3:0:0:0:
333,56,19050,2,0,P|399:37|420:27,1,56.9999982604981,2|0,0:0|0:0,0:0:0:0:
455,66,19281,1,10,0:0:0:0:
239,138,19511,2,0,P|305:157|326:167,1,56.9999982604981,2|0,0:0|0:0,0:0:0:0:
139,22,19742,6,0,B|82:104|82:104|118:122|151:160,1,170.999994781494,2|0,3:0|0:0,0:0:0:0:
165,168,20204,1,8,0:0:0:0:
7,109,20434,2,0,P|33:168|41:191,2,56.9999982604981,0|0|0,0:0|0:0|3:0,0:0:0:0:
223,4,20896,2,0,P|250:58|242:70,1,56.9999982604981,2|0,0:0|0:0,0:0:0:0:
217,108,21127,1,10,0:0:0:0:
371,193,21357,1,2,0:0:0:0:
371,193,21473,1,0,0:0:0:0:
371,193,21588,6,0,B|329:194|299:210|299:210|282:244|282:244|248:249|197:268,1,170.999994781494,2|0,3:0|0:0,0:0:0:0:
196,283,22050,2,0,P|130:278|129:235,1,113.999996520996,8|0,0:0|0:0,0:0:0:0:
147,222,22396,1,0,0:0:0:0:
147,222,22511,1,0,3:0:0:0:
263,110,22742,2,0,L|184:129,1,56.9999982604981,2|0,0:0|0:0,0:0:0:0:
151,81,22973,1,10,0:0:0:0:
254,12,23204,1,2,3:0:0:0:
410,165,23434,6,0,P|469:135|439:69,1,113.999996520996,4|2,3:0|0:0,0:0:0:0:
446,67,23781,1,0,0:0:0:0:
446,67,23896,1,10,0:0:0:0:
343,228,24127,2,0,B|303:215|264:246|264:246|214:211|239:165,1,170.999994781494,2|0,0:0|0:0,0:0:0:0:
258,144,24588,1,0,0:0:0:0:
314,94,24819,1,8,0:0:0:0:
228,5,25050,1,2,0:0:0:0:
228,5,25165,1,0,0:0:0:0:
228,5,25281,5,2,3:0:0:0:
93,143,25511,1,2,0:0:0:0:
36,91,25742,2,0,B|44:55|20:25|20:25|129:55,1,170.999994781494,10|0,0:0|0:0,0:0:0:0:
144,70,26204,1,2,3:0:0:0:
18,182,26434,2,0,P|6:238|50:267,1,113.999996520996,2|8,0:0|0:0,0:0:0:0:
196,154,26896,1,2,0:0:0:0:
196,154,27011,1,0,0:0:0:0:
196,154,27127,6,0,B|257:171|326:184|309:259,1,170.999994781494,2|0,3:0|0:0,0:0:0:0:
287,272,27588,1,8,0:0:0:0:
369,368,27819,2,0,P|379:337|390:307,2,56.9999982604981,0|0|0,0:0|0:0|3:0,0:0:0:0:
170,343,28281,2,0,P|151:316|169:276,1,56.9999982604981,2|0,0:0|0:0,0:0:0:0:
210,250,28511,1,10,0:0:0:0:
334,179,28742,2,0,P|352:152|334:112,1,56.9999982604981,2|0,3:0|0:0,0:0:0:0:
243,47,28973,5,0,3:0:0:0:
359,0,29204,1,0,0:0:0:0:
243,47,29434,2,0,L|207:176,1,113.999996520996,8|2,0:0|0:0,0:0:0:0:
244,190,29781,1,0,0:0:0:0:
244,190,29896,1,6,3:0:0:0:
316,157,30127,1,8,0:0:0:0:
152,59,30357,1,0,3:0:0:0:
5,200,30588,6,0,B|45:217|77:223|77:223|102:272|102:272|146:280|176:298,1,199.499993911743,6|0,3:0|0:0,0:0:0:0:
209,272,31050,1,2,0:0:0:0:
323,356,31281,2,0,P|344:296|262:271,1,132.999995941162,10|0,0:0|0:0,0:0:0:0:
143,191,31627,1,0,0:0:0:0:
143,191,31742,6,0,P|165:155|222:162,1,66.4999979705811,2|0,3:0|0:0,0:0:0:0:
214,84,31973,2,0,P|254:92|267:149,1,66.4999979705811,0|0,0:0|0:0,0:0:0:0:
388,171,32204,1,8,0:0:0:0:
438,109,32434,1,0,0:0:0:0:
376,59,32665,1,0,3:0:0:0:
492,255,32896,6,0,P|405:223|391:220,1,66.4999979705811,2|0,0:0|0:0,0:0:0:0:
388,171,33127,1,10,0:0:0:0:
169,323,33357,2,0,P|252:304|268:302,1,66.4999979705811,2|0,0:0|0:0,0:0:0:0:
253,239,33588,2,0,P|284:229|317:222,1,66.4999979705811,2|0,3:0|0:0,0:0:0:0:
404,359,33819,1,2,0:0:0:0:
434,333,33934,1,0,0:0:0:0:
427,293,34050,1,10,0:0:0:0:
148,248,34281,6,0,B|142:205|100:178|100:178|145:112|145:112|144:152|168:161,1,199.499993911743,2|0,3:0|0:0,0:0:0:0:
186,159,34742,1,2,0:0:0:0:
97,45,34973,2,0,P|24:51|16:104,1,132.999995941162,10|2,0:0|0:0,0:0:0:0:
216,41,35434,5,2,3:0:0:0:
248,49,35550,1,0,0:0:0:0:
279,59,35665,1,0,0:0:0:0:
311,67,35781,1,0,0:0:0:0:
342,77,35896,2,0,P|412:55|426:54,1,66.4999979705811,8|0,0:0|0:0,0:0:0:0:
262,136,36127,2,0,P|192:114|178:113,1,66.4999979705811,0|0,0:0|0:0,0:0:0:0:
456,268,36357,6,0,P|391:252|319:239,1,132.999995941162,0|2,3:0|0:0,0:0:0:0:
314,270,36704,1,0,0:0:0:0:
314,270,36819,1,10,0:0:0:0:
252,230,37050,1,2,0:0:0:0:
70,331,37281,6,0,P|34:312|41:260,1,66.4999979705811,2|0,3:0|0:0,0:0:0:0:
81,238,37511,1,2,0:0:0:0:
247,160,37742,2,0,P|283:141|276:89,1,66.4999979705811,8|0,0:0|0:0,0:0:0:0:
40,23,37973,6,0,B|17:47|-2:62|-2:62|51:60|86:49|86:49|117:84|162:106,1,199.499993911743,6|0,3:0|0:0,0:0:0:0:
159,60,38434,1,2,0:0:0:0:
305,8,38665,2,0,P|371:58|347:104,1,132.999995941162,10|2,0:0|0:0,0:0:0:0:
331,112,39011,1,0,0:0:0:0:
331,112,39127,1,2,3:0:0:0:
158,218,39357,6,0,P|235:227|252:232,1,66.4999979705811,2|0,0:0|0:0,0:0:0:0:
259,164,39588,2,0,P|292:165|325:170,1,66.4999979705811,10|0,0:0|0:0,0:0:0:0:
406,284,39819,2,0,B|414:205|380:201|320:190|331:102,1,199.499993911743,2|0,0:0|0:0,0:0:0:0:
259,164,40281,2,0,P|181:166|163:169,1,66.4999979705811,2|0,0:0|0:0,0:0:0:0:
162,101,40512,2,0,P|128:99|95:102,1,66.4999979705811,10|0,0:0|0:0,0:0:0:0:
14,195,40743,2,0,B|12:115|46:114|107:109|104:20,1,199.499993911743,2|0,0:0|0:0,0:0:0:0:
274,19,41204,2,0,P|338:54|337:69,1,66.4999979705811,2|0,0:0|0:0,0:0:0:0:
341,105,41434,1,10,0:0:0:0:
179,257,41665,6,0,B|221:269|244:307|244:307|290:291|316:250|316:250|275:209,1,199.499993911743,2|0,3:0|0:0,0:0:0:0:
277,193,42127,1,2,0:0:0:0:
170,336,42357,2,0,P|93:315|92:258,1,132.999995941162,10|0,0:0|0:0,0:0:0:0:
127,123,42704,1,0,0:0:0:0:
127,123,42819,2,0,P|82:125|57:172,1,66.4999979705811,2|0,3:0|0:0,0:0:0:0:
9,181,43050,1,2,0:0:0:0:
106,47,43281,1,10,0:0:0:0:
238,149,43511,6,0,P|321:130|334:127,1,66.4999979705811,2|0,0:0|0:0,0:0:0:0:
397,38,43742,1,2,3:0:0:0:
419,71,43857,1,0,0:0:0:0:
395,102,43973,1,2,0:0:0:0:
295,66,44204,1,8,0:0:0:0:
476,6,44434,1,2,0:0:0:0:
295,66,44665,2,0,P|252:51|161:34,1,132.999995941162,0|2,3:0|0:0,0:0:0:0:
139,13,45011,1,0,0:0:0:0:
139,13,45127,1,10,0:0:0:0:
252,192,45357,6,0,B|298:200|355:243|355:243|415:213|350:126,1,199.499993911743,6|0,3:0|0:0,0:0:0:0:
348,136,45819,1,2,0:0:0:0:
437,50,46050,2,0,P|500:96|464:150,1,132.999995941162,10|0,0:0|0:0,0:0:0:0:
362,240,46396,1,0,0:0:0:0:
362,240,46511,6,0,P|438:267|458:279,1,66.4999979705811,2|0,3:0|0:0,0:0:0:0:
442,330,46742,2,0,P|518:357|538:369,1,66.4999979705811,0|0,0:0|0:0,0:0:0:0:
269,240,46973,1,8,0:0:0:0:
197,272,47204,1,0,0:0:0:0:
269,240,47434,1,0,3:0:0:0:
128,111,47665,6,0,P|80:155|82:168,1,66.4999979705811,2|0,0:0|0:0,0:0:0:0:
116,213,47896,1,10,0:0:0:0:
283,18,48127,2,0,P|321:70|317:82,1,66.4999979705811,2|0,0:0|0:0,0:0:0:0:
319,196,48357,1,2,3:0:0:0:
359,201,48473,1,0,0:0:0:0:
385,169,48588,1,2,0:0:0:0:
253,85,48819,1,8,0:0:0:0:
124,153,49050,6,0,B|76:115|16:122|16:122|55:69|49:20,1,199.499993911743,2|0,3:0|0:0,0:0:0:0:
81,24,49511,1,2,0:0:0:0:
201,177,49742,2,0,P|269:158|265:105,1,132.999995941162,10|2,0:0|0:0,0:0:0:0:
29,194,50204,6,0,P|41:225|53:264,1,66.4999979705811,0|0,3:0|0:0,0:0:0:0:
194,358,50434,1,2,0:0:0:0:
211,322,50550,1,0,0:0:0:0:
198,284,50665,2,0,P|130:262|124:259,1,66.4999979705811,10|0,0:0|0:0,0:0:0:0:
93,325,50896,1,0,0:0:0:0:
198,185,51127,6,0,B|191:159|181:138|181:138|191:93|191:93|179:72|176:42,1,132.999995941162,0|2,3:0|0:0,0:0:0:0:
206,20,51473,1,0,0:0:0:0:
206,20,51588,1,10,0:0:0:0:
272,66,51819,1,2,0:0:0:0:
448,20,52050,2,0,P|422:94|417:109,1,66.4999979705811,2|0,3:0|0:0,0:0:0:0:
472,137,52281,1,2,0:0:0:0:
259,141,52511,2,0,P|269:172|281:203,1,66.4999979705811,8|0,0:0|0:0,0:0:0:0:
345,379,52742,6,0,B|344:290|392:303|447:296|439:208,1,199.499993911743,6|0,3:0|0:0,0:0:0:0:
407,186,53204,1,2,0:0:0:0:
266,332,53434,2,0,P|182:300|193:259,1,132.999995941162,10|2,0:0|0:0,0:0:0:0:
207,235,53781,1,0,0:0:0:0:
207,235,53896,1,2,3:0:0:0:
414,297,54127,6,0,P|458:244|453:227,1,66.4999979705811,2|0,0:0|0:0,0:0:0:0:
498,194,54357,2,0,P|445:150|428:155,1,66.4999979705811,10|0,0:0|0:0,0:0:0:0:
318,158,54588,2,0,P|406:144|521:113,1,199.499993911743,2|0,0:0|0:0,0:0:0:0:
234,55,55050,2,0,P|278:108|273:125,1,66.4999979705811,2|0,0:0|0:0,0:0:0:0:
318,158,55280,2,0,P|265:202|248:197,1,66.4999979705811,10|0,0:0|0:0,0:0:0:0:
138,194,55511,2,0,P|226:208|341:239,1,199.499993911743,2|0,0:0|0:0,0:0:0:0:
104,373,55973,2,0,P|82:355|93:300,1,66.4999979705811,2|0,0:0|0:0,0:0:0:0:
135,270,56204,1,10,0:0:0:0:
195,68,56434,6,0,B|140:45|97:91|97:91|96:164|11:170,1,199.499993911743,2|0,3:0|0:0,0:0:0:0:
12,135,56896,1,2,0:0:0:0:
135,270,57127,2,0,P|204:254|207:189,1,132.999995941162,10|0,0:0|0:0,0:0:0:0:
30,217,57473,1,0,0:0:0:0:
30,217,57588,2,0,P|60:286|62:295,1,66.4999979705811,2|0,3:0|0:0,0:0:0:0:
18,339,57819,1,2,0:0:0:0:
140,194,58050,1,10,0:0:0:0:
248,305,58281,6,0,P|306:285|306:222,1,113.999996520996,2|0,3:0|3:0,0:0:0:0:
399,199,58742,2,0,P|389:138|327:127,1,113.999996520996,2|0,0:0|3:0,0:0:0:0:
178,76,59204,2,0,B|286:55|286:55|253:80|233:147,1,170.999994781494,2|0,0:0|0:0,0:0:0:0:
233,139,59665,1,2,0:0:0:0:
351,27,59896,5,2,3:0:0:0:
406,30,60011,1,0,0:0:0:0:
443,71,60126,1,2,0:0:0:0:
439,127,60242,1,0,0:0:0:0:
398,164,60357,6,0,P|383:240|447:255,1,142.500005435944,4|2,3:0|0:0,0:0:0:0:
452,287,60704,1,0,0:0:0:0:
452,287,60819,1,10,0:0:0:0:
236,255,61050,1,0,0:0:0:0:
308,230,61281,1,0,3:0:0:0:
144,351,61511,2,0,B|66:324|66:324|50:352|9:377,2,142.500005435944,2|10|2,0:0|0:0|0:0,0:0:0:0:
177,285,62088,1,0,0:0:0:0:
177,285,62204,6,0,B|223:221|223:221|185:187|170:138|170:138|159:172|139:194,1,213.750008153916,2|0,3:0|0:0,0:0:0:0:
125,206,62665,1,8,0:0:0:0:
252,67,62896,1,2,0:0:0:0:
294,70,63011,1,0,0:0:0:0:
309,109,63127,1,2,3:0:0:0:
68,83,63357,2,0,P|143:55|161:48,1,71.2500027179719,2|0,0:0|0:0,0:0:0:0:
183,4,63588,1,10,0:0:0:0:
256,187,63819,2,0,P|336:214|353:220,1,71.2500027179719,2|0,3:0|0:0,0:0:0:0:
509,148,64050,6,0,B|508:105|527:70|527:70|371:112,1,213.750008153916,0|0,3:0|0:0,0:0:0:0:
380,75,64511,1,8,0:0:0:0:
320,25,64742,1,0,0:0:0:0:
156,162,64973,2,0,P|92:105|125:71,1,142.500005435944,2|2,3:0|0:0,0:0:0:0:
143,52,65319,1,0,0:0:0:0:
143,52,65434,1,10,0:0:0:0:
237,171,65665,1,2,0:0:0:0:
63,357,65896,6,0,P|148:338|222:327,1,142.500005435944,0|2,3:0|0:0,0:0:0:0:
189,255,66242,1,0,0:0:0:0:
189,255,66357,2,0,P|120:272|47:286,1,142.500005435944,10|2,0:0|0:0,0:0:0:0:
26,258,66704,1,0,0:0:0:0:
26,258,66819,1,2,3:0:0:0:
180,364,67050,1,0,0:0:0:0:
26,258,67281,2,0,B|20:226|12:205|12:205|27:166|27:166|17:148|10:110,1,142.500005435944,8|0,0:0|3:0,0:0:0:0:
0,53,67627,1,0,0:0:0:0:
0,53,67742,6,0,P|77:75|81:90,1,71.2500027179719,6|0,3:0|0:0,0:0:0:0:
108,116,67973,1,0,0:0:0:0:
307,148,68204,2,0,P|238:189|238:204,1,71.2500027179719,8|0,0:0|0:0,0:0:0:0:
144,266,68434,1,2,0:0:0:0:
111,238,68549,1,0,0:0:0:0:
122,198,68665,1,2,3:0:0:0:
278,365,68896,2,0,P|310:288|317:277,1,71.2500027179719,2|0,0:0|0:0,0:0:0:0:
267,233,69127,1,10,0:0:0:0:
384,119,69357,2,0,P|408:200|417:220,1,71.2500027179719,2|0,0:0|0:0,0:0:0:0:
267,144,69588,6,0,B|222:129|222:129|193:85|193:85|129:61,1,142.500005435944,0|2,3:0|0:0,0:0:0:0:
123,27,69934,1,0,0:0:0:0:
123,27,70050,1,10,0:0:0:0:
196,0,70281,1,2,0:0:0:0:
67,193,70511,2,0,P|0:154|40:91,1,142.500005435944,0|2,3:0|0:0,0:0:0:0:
57,74,70857,1,0,0:0:0:0:
57,74,70973,1,10,0:0:0:0:
183,214,71204,2,0,P|267:192|280:192,1,71.2500027179719,2|0,3:0|0:0,0:0:0:0:
334,88,71434,6,0,B|392:99|438:112|424:178,2,142.500005435944,2|0|10,3:0|0:0|0:0,0:0:0:0:
300,21,72011,1,0,0:0:0:0:
300,21,72127,2,0,P|259:22|234:68,1,71.2500027179719,2|0,0:0|0:0,0:0:0:0:
250,193,72357,1,0,3:0:0:0:
334,88,72588,1,0,0:0:0:0:
250,193,72819,2,0,B|217:216|217:216|259:323,1,142.500005435944,8|0,0:0|0:0,0:0:0:0:
416,362,73165,1,0,0:0:0:0:
416,362,73281,6,0,P|407:283|374:278,1,76,2|0,3:0|0:0,0:0:0:0:
475,237,73511,2,0,P|397:218|379:246,1,76,0|0,0:0|0:0,0:0:0:0:
326,266,73742,1,2,3:0:0:0:
285,251,73857,1,0,0:0:0:0:
263,213,73973,1,0,0:0:0:0:
272,171,74088,1,0,0:0:0:0:
298,137,74204,2,0,P|281:70|276:38,1,76,6|0,3:0|0:0,0:0:0:0:
179,198,74434,2,0,P|162:264|157:291,1,76,0|0,0:0|0:0,0:0:0:0:
55,57,74665,5,2,3:0:0:0:
65,114,74781,1,0,0:0:0:0:
116,141,74896,1,2,0:0:0:0:
169,121,75011,1,0,0:0:0:0:
194,75,75127,6,0,B|218:91|243:100|243:100|266:137|266:137|293:145|341:170,1,142.500005435944,4|2,3:0|0:0,0:0:0:0:
367,105,75474,1,0,0:0:0:0:
367,105,75588,2,0,L|453:79,1,71.2500027179719,10|0,0:0|0:0,0:0:0:0:
284,271,75819,1,0,0:0:0:0:
242,209,76050,1,0,3:0:0:0:
437,252,76281,2,0,P|466:315|400:350,2,142.500005435944,2|10|2,0:0|0:0|0:0,0:0:0:0:
369,223,76858,1,0,0:0:0:0:
369,223,76973,6,0,B|373:237|357:256|334:262|334:262|223:297|223:297|192:309|194:332|196:373,1,213.750008153916,2|0,3:0|0:0,0:0:0:0:
210,366,77435,1,8,0:0:0:0:
276,202,77665,2,0,P|282:166|294:116,2,71.2500027179719,2|0|0,0:0|0:0|3:0,0:0:0:0:
56,342,78127,2,0,P|10:284|24:260,1,71.2500027179719,2|0,0:0|0:0,0:0:0:0:
46,235,78358,1,10,0:0:0:0:
178,136,78588,2,0,P|203:66|183:48,1,71.2500027179719,2|0,3:0|0:0,0:0:0:0:
0,34,78819,6,0,B|79:28|127:-8|127:-8|83:30|91:100,1,213.750008153916,0|0,3:0|0:0,0:0:0:0:
75,94,79281,1,8,0:0:0:0:
213,231,79511,1,2,0:0:0:0:
252,215,79626,1,0,0:0:0:0:
254,173,79742,1,2,3:0:0:0:
88,321,79973,2,0,P|59:244|50:225,1,71.2500027179719,0|0,0:0|0:0,0:0:0:0:
104,192,80204,1,10,0:0:0:0:
219,55,80434,2,0,P|190:132|181:151,1,71.2500027179719,2|0,0:0|0:0,0:0:0:0:
362,271,80665,6,0,P|373:187|314:177,2,142.500005435944,0|2|10,3:0|0:0|0:0,0:0:0:0:
197,335,81357,1,2,0:0:0:0:
180,297,81472,1,0,0:0:0:0:
207,265,81588,1,2,3:0:0:0:
307,368,81819,2,0,P|397:350|409:350,1,71.2500027179719,0|0,0:0|0:0,0:0:0:0:
477,282,82050,2,0,B|519:205|519:205|489:188|463:150,1,142.500005435944,8|2,0:0|3:0,0:0:0:0:
461,121,82396,1,0,0:0:0:0:
461,121,82511,5,6,3:0:0:0:
255,46,82743,1,0,0:0:0:0:
329,19,82973,1,8,0:0:0:0:
228,146,83204,2,0,P|189:135|154:128,2,71.2500027179719,0|0|0,0:0|0:0|3:0,0:0:0:0:
336,318,83665,2,0,P|374:256|360:235,1,71.2500027179719,2|0,0:0|0:0,0:0:0:0:
336,209,83896,1,10,0:0:0:0:
194,358,84127,2,0,P|151:294|154:283,1,71.2500027179719,2|0,0:0|0:0,0:0:0:0:
53,153,84357,6,0,B|28:116|28:116|138:174|138:174|103:197|97:234,1,213.750008153916,0|0,3:0|0:0,0:0:0:0:
99,240,84819,1,8,0:0:0:0:
260,287,85050,2,0,P|348:264|365:263,1,71.2500027179719,2|0,0:0|0:0,0:0:0:0:
380,215,85281,1,0,3:0:0:0:
194,358,85511,1,2,0:0:0:0:
159,330,85627,1,0,0:0:0:0:
168,287,85743,1,10,0:0:0:0:
271,194,85973,1,2,3:0:0:0:
118,24,86204,6,0,B|122:50|134:74|134:74|120:132|120:132|130:156|147:217,1,142.500005435944,0|2,3:0|0:0,0:0:0:0:
104,189,86550,1,0,0:0:0:0:
104,189,86665,1,10,0:0:0:0:
223,103,86896,1,0,0:0:0:0:
104,189,87127,2,0,P|24:182|21:120,1,142.500005435944,2|0,3:0|0:0,0:0:0:0:
118,20,87473,1,0,0:0:0:0:
118,20,87588,2,0,P|144:47|200:35,1,71.2500027179719,10|0,0:0|0:0,0:0:0:0:
223,103,87819,2,0,P|257:87|265:31,1,71.2500027179719,2|0,3:0|0:0,0:0:0:0:
395,15,88050,5,4,3:0:0:0:
449,69,88281,1,2,0:0:0:0:
395,15,88511,1,10,0:0:0:0:
406,138,88742,2,0,P|414:169|420:202,2,56.9999982604981,0|0|4,0:0|0:0|3:0,0:0:0:0:
350,89,89204,1,0,0:0:0:0:
350,89,89434,1,8,0:0:0:0:
